<?xml version="1.0" standalone="no"?>
<!DOCTYPE svg PUBLIC "-//W3C//DTD SVG 1.1//EN" "http://www.w3.org/Graphics/SVG/1.1/DTD/svg11.dtd" >
<svg xmlns="http://www.w3.org/2000/svg" xmlns:xlink="http://www.w3.org/1999/xlink" version="1.1">
<metadata>
Created by FontForge 20170924 at Sat Jul 30 09:51:12 2016
 By www-data
Copyright (c) 2003 by Bitstream, Inc. All Rights Reserved.
Copyright (c) 2006 by Tavmjong Bah. All Rights Reserved.
DejaVu changes are in public domain

</metadata>
<defs>
<font id="DejaVuSans-Bold" horiz-adv-x="1716" >
  <font-face 
    font-family="DejaVu Sans"
    font-weight="700"
    font-stretch="normal"
    units-per-em="2048"
    panose-1="2 11 8 3 3 6 4 2 2 4"
    ascent="1556"
    descent="-492"
    x-height="1120"
    cap-height="1493"
    bbox="-2190 -850 4045 2405.03"
    underline-thickness="90"
    underline-position="-175"
    unicode-range="U+0020-1F643"
  />
<missing-glyph horiz-adv-x="1229" 
d="M102 -362v1806h1024v-1806h-1024zM217 -248h795v1577h-795v-1577z" />
    <glyph glyph-name="uni0622" unicode="&#x627;&#x653;" horiz-adv-x="702" 
d="M-40 1817l166 123q106 -89 153 -99q78 -17 138 -18q71 0 130 21q117 41 195 112v-170q-61 -52 -180 -88q-84 -26 -151 -27q-99 0 -152 22q-58 24 -128 77l-171 -123v170zM172 1556h358v-1556h-358v1556z" />
    <glyph glyph-name="uni0623" unicode="&#x627;&#x654;" horiz-adv-x="702" 
d="M162 1708l78 18q-54 12 -70 45q-16 34 -16 74q3 106 56 149q48 40 179 40q66 0 128 -22v-125q-70 20 -128 20q-42 0 -61 -9q-29 -14 -29 -62q0 -52 63 -68q24 -6 54 -1l109 20v-129l-363 -77v127zM172 1556h358v-1556h-358v1556z" />
    <glyph glyph-name="uni0624" unicode="&#x648;&#x654;" horiz-adv-x="1273" 
d="M436 908l78 18q-54 12 -70 45q-16 34 -16 74q3 106 56 149q48 40 179 40q66 0 128 -22v-125q-70 20 -128 20q-42 0 -61 -9q-29 -14 -29 -62q0 -52 63 -68q24 -6 54 -1l109 20v-129l-363 -77v127zM1120 156q0 -204 -89 -348q-93 -151 -313 -225q-246 -83 -803 -83v256
q239 -8 411 19q178 29 261 82q101 64 127 143q-32 0 -131 2q-223 5 -316 86q-98 84 -98 216q0 52 8 96q28 161 173 217q109 42 262 43q220 0 325 -57t156 -209q27 -82 27 -238zM749 325q-6 41 -53 80q-29 24 -68 23q-42 -1 -71 -30q-30 -30 -30 -58q0 -45 35 -64
q36 -19 70 -19h122q0 39 -5 68z" />
    <glyph glyph-name="uni0625" unicode="&#x627;&#x655;" horiz-adv-x="702" 
d="M164 -373l78 18q-54 12 -70 45q-16 34 -16 74q3 106 56 149q48 40 179 40q66 0 128 -22v-125q-70 20 -128 20q-42 0 -61 -9q-29 -14 -29 -62q0 -52 63 -68q24 -6 54 -1l109 20v-129l-363 -77v127zM172 1556h358v-1556h-358v1556z" />
    <glyph glyph-name="uni0626" unicode="&#x64a;&#x654;" horiz-adv-x="1877" 
d="M361 908l78 18q-54 12 -70 45q-16 34 -16 74q3 106 56 149q48 40 179 40q66 0 128 -22v-125q-70 20 -128 20q-42 0 -61 -9q-29 -14 -29 -62q0 -52 63 -68q24 -6 54 -1l109 20v-129l-363 -77v127zM1640 65q-89 -157 -492 -243q-197 -41 -336 -41q-305 -1 -389 29
q-292 106 -293 365q-1 138 63 230h358q-70 -101 -65 -230q3 -78 130 -121q51 -17 176 -17q147 0 280 35q247 66 249 160q1 96 -123 138q-179 61 -180 61q-73 32 -125 78q-64 57 -65 172q-2 168 190 224q140 41 282 41q173 0 278 -46q163 -71 190 -253h-318q-22 69 -137 68
q-91 -1 -114 -30q-26 -33 -25 -43q3 -36 125 -66q216 -53 305 -165q76 -96 77 -195q1 -75 -41 -151z" />
    <glyph glyph-name="uniFB00" unicode="ff" horiz-adv-x="1659" 
d="M909 1556v-235h-198q-76 0 -106 -27q-30 -28 -30 -96v-78h410v78q0 183 102 270q102 88 316 88h274v-235h-198q-76 0 -106 -27q-30 -28 -30 -96v-78h306v-256h-306v-864h-358v864h-410v-864h-358v864h-178v256h178v78q0 183 102 270q102 88 316 88h274z" />
    <glyph glyph-name="fi" unicode="fi" horiz-adv-x="1518" 
d="M985 1556h361v-292h-361v292zM911 1556v-235h-198q-75 0 -104 -27.5t-29 -95.5v-78h766v-1120h-361v864h-405v-864h-361v864h-176v256h176v78q0 183 102 270.5t316 87.5h274z" />
    <glyph glyph-name="fl" unicode="fl" horiz-adv-x="1518" 
d="M635 1556h711v-1556h-361v1321h-274q-76 0 -106 -27.5t-30 -95.5v-78h281v-256h-281v-864h-358v864h-178v256h178v78q0 183 102 270.5t316 87.5z" />
    <glyph glyph-name="uniFB03" unicode="ffi" horiz-adv-x="2284" 
d="M909 1556v-235h-198q-76 0 -106 -27q-30 -28 -30 -96v-78h410v78q0 183 102 270q102 88 316 88h274v-235h-198q-75 0 -104 -27q-29 -28 -29 -96v-78h766v-1120h-361v864h-405v-864h-3h-358v864h-410v-864h-358v864h-178v256h178v78q0 183 102 270q102 88 316 88h274z
M1751 1556h361v-292h-361v292z" />
    <glyph glyph-name="uniFB04" unicode="ffl" horiz-adv-x="2286" 
d="M909 1556v-235h-198q-76 0 -106 -27q-30 -28 -30 -96v-78h410v78q0 183 102 270q102 88 316 88h711v-1556h-361v1321h-274q-76 0 -106 -27q-30 -28 -30 -96v-78h281v-256h-281v-864h-358v864h-410v-864h-358v864h-178v256h178v78q0 183 102 270q102 88 316 88h274z" />
    <glyph glyph-name="uniFE70" unicode="&#x20;&#x64b;" horiz-adv-x="700" arabic-form="isolated" 
d="M58 1420v140l584 130v-140zM58 1210v140l584 130v-140z" />
    <glyph glyph-name="uniFE71" unicode="&#x640;&#x64b;" horiz-adv-x="700" arabic-form="medial" 
d="M58 1420v140l584 130v-140zM58 1210v140l584 130v-140zM-20 0v256h740v-256h-740z" />
    <glyph glyph-name="uniFE72" unicode="&#x20;&#x64c;" horiz-adv-x="700" arabic-form="isolated" 
d="M345 1409l30 43q-16 4 -52 28q-84 58 -84 149q0 100 66 142q55 35 110 34q75 -2 129 -52q59 -56 59 -136q0 -45 -18 -75l30 -2l27 -2v-130q-51 0 -67 2l-49 5q-18 -47 -94 -120q-86 -85 -189 -85q-117 0 -173 154q-12 33 -12 154h140q0 -97 12 -123q21 -45 37 -45
q55 0 98 59zM438 1562q8 10 13 20q10 23 10 36q0 11 -10 29q-8 14 -32 14q-11 0 -22 -9q-18 -13 -18 -32q0 -25 33 -46q14 -8 26 -12z" />
    <glyph glyph-name="uniFE74" unicode="&#x20;&#x64d;" horiz-adv-x="700" arabic-form="isolated" 
d="M58 -490v140l584 130v-140zM58 -280v140l584 130v-140z" />
    <glyph glyph-name="uniFE76" unicode="&#x20;&#x64e;" horiz-adv-x="700" arabic-form="isolated" 
d="M58 1210v140l584 130v-140z" />
    <glyph glyph-name="uniFE77" unicode="&#x640;&#x64e;" horiz-adv-x="700" arabic-form="medial" 
d="M58 1210v140l584 130v-140zM-20 0v256h740v-256h-740z" />
    <glyph glyph-name="uniFE78" unicode="&#x20;&#x64f;" horiz-adv-x="700" arabic-form="isolated" 
d="M356 1467q-21 4 -33 13q-84 56 -84 149q0 100 66 142q55 35 110 34q75 -2 129 -52q59 -56 59 -136q0 -45 -18 -75l30 -2l27 -2v-130q-35 0 -67 2q-42 2 -65 5q-45 -52 -102 -92q-176 -123 -350 -114v140q140 0 251 79q12 8 47 39zM441 1566q6 7 10 16q10 23 10 36
q0 11 -10 29q-8 14 -32 14q-11 0 -22 -9q-18 -13 -18 -32q0 -24 33 -46q10 -7 29 -8z" />
    <glyph glyph-name="uniFE79" unicode="&#x640;&#x64f;" horiz-adv-x="700" arabic-form="medial" 
d="M356 1467q-21 4 -33 13q-84 56 -84 149q0 100 66 142q55 35 110 34q75 -2 129 -52q59 -56 59 -136q0 -45 -18 -75l30 -2l27 -2v-130q-35 0 -67 2q-42 2 -65 5q-45 -52 -102 -92q-176 -123 -350 -114v140q140 0 251 79q12 8 47 39zM441 1566q6 7 10 16q10 23 10 36
q0 11 -10 29q-8 14 -32 14q-11 0 -22 -9q-18 -13 -18 -32q0 -24 33 -46q10 -7 29 -8zM-20 0v256h740v-256h-740z" />
    <glyph glyph-name="uniFE7A" unicode="&#x20;&#x650;" horiz-adv-x="700" arabic-form="isolated" 
d="M58 -280v140l584 130v-140z" />
    <glyph glyph-name="uniFE7B" unicode="&#x640;&#x650;" horiz-adv-x="700" arabic-form="medial" 
d="M58 -280v140l584 130v-140zM-20 0v256h740v-256h-740z" />
    <glyph glyph-name="uniFE7C" unicode="&#x20;&#x651;" horiz-adv-x="700" arabic-form="isolated" 
d="M366 1412q-17 -81 -45 -116q-57 -68 -129 -69q-96 -2 -140 63q-34 50 -34 161q0 109 16 207h132q-13 -125 -11 -181q1 -49 25 -97q13 -27 49 -5q46 26 50 173q2 82 2 171h136q-1 -36 3 -90q11 -175 69 -174q60 1 60 153q0 115 -13 172h133q15 -73 12 -189
q-4 -133 -27 -187q-36 -85 -147 -99q-71 -9 -102 24q-27 30 -39 83z" />
    <glyph glyph-name="uniFE7D" unicode="&#x640;&#x651;" horiz-adv-x="700" arabic-form="medial" 
d="M366 1412q-17 -81 -45 -116q-57 -68 -129 -69q-96 -2 -140 63q-34 50 -34 161q0 109 16 207h132q-13 -125 -11 -181q1 -49 25 -97q13 -27 49 -5q46 26 50 173q2 82 2 171h136q-1 -36 3 -90q11 -175 69 -174q60 1 60 153q0 115 -13 172h133q15 -73 12 -189
q-4 -133 -27 -187q-36 -85 -147 -99q-71 -9 -102 24q-27 30 -39 83zM-20 0v256h740v-256h-740z" />
    <glyph glyph-name="uniFE7E" unicode="&#x20;&#x652;" horiz-adv-x="700" arabic-form="isolated" 
d="M457 1524q0 45 -31.5 77t-77.5 32q-47 0 -78 -31.5t-31 -77.5q0 -47 31 -78.5t78 -31.5q46 0 77.5 32t31.5 78zM622 1524q0 -115 -79.5 -195t-194.5 -80t-194.5 80t-79.5 195t79.5 194.5t194.5 79.5t194.5 -79.5t79.5 -194.5z" />
    <glyph glyph-name="uniFE7F" unicode="&#x640;&#x652;" horiz-adv-x="700" arabic-form="medial" 
d="M457 1524q0 45 -31.5 77t-77.5 32q-47 0 -78 -31.5t-31 -77.5q0 -47 31 -78.5t78 -31.5q46 0 77.5 32t31.5 78zM622 1524q0 -115 -79.5 -195t-194.5 -80t-194.5 80t-79.5 195t79.5 194.5t194.5 79.5t194.5 -79.5t79.5 -194.5zM-20 0v256h740v-256h-740z" />
    <glyph glyph-name="uniFEF5" unicode="&#xfedf;&#xfe82;" horiz-adv-x="1525" arabic-form="isolated" 
d="M-126 1667l166 123q106 -89 153 -99q78 -17 138 -18q71 0 130 21q117 41 195 112v-170q-61 -52 -180 -88q-84 -26 -151 -27q-99 0 -152 22q-58 24 -128 77l-171 -123v170zM1316 834q0 -303 -139 -518q-59 -91 -132 -156q-220 -190 -646 -190q-149 0 -255 42v244
q104 -37 256 -36q106 1 185 45l-501 1145h362l426 -959q29 43 49 98q37 137 37 321v686h358v-722z" />
    <glyph glyph-name="uniFEF6" unicode="&#xfee0;&#xfe82;" horiz-adv-x="1555" arabic-form="final" 
d="M-126 1667l166 123q106 -89 153 -99q78 -17 138 -18q71 0 130 21q117 41 195 112v-170q-61 -52 -180 -88q-84 -26 -151 -27q-99 0 -152 22q-58 24 -128 77l-171 -123v170zM1005 131q-207 -161 -606 -161q-149 0 -255 42v244q104 -37 256 -36q106 1 185 45l-501 1145h362
l426 -959q29 43 49 98q37 137 37 321v686h358v-1101q0 -106 49 -155q44 -44 112 -44h98v-256h-357q-114 0 -168 63q-37 42 -45 68z" />
    <glyph glyph-name="uniFEF7" unicode="&#xfedf;&#xfe84;" horiz-adv-x="1525" arabic-form="isolated" 
d="M76 1608l78 18q-54 12 -70 45q-16 34 -16 74q3 106 56 149q48 40 179 40q66 0 128 -22v-125q-70 20 -128 20q-42 0 -61 -9q-29 -14 -29 -62q0 -52 63 -68q24 -6 54 -1l109 20v-129l-363 -77v127zM1316 834q0 -303 -139 -518q-59 -91 -132 -156q-220 -190 -646 -190
q-149 0 -255 42v244q104 -37 256 -36q106 1 185 45l-501 1145h362l426 -959q29 43 49 98q37 137 37 321v686h358v-722z" />
    <glyph glyph-name="uniFEF8" unicode="&#xfee0;&#xfe84;" horiz-adv-x="1555" arabic-form="final" 
d="M76 1608l78 18q-54 12 -70 45q-16 34 -16 74q3 106 56 149q48 40 179 40q66 0 128 -22v-125q-70 20 -128 20q-42 0 -61 -9q-29 -14 -29 -62q0 -52 63 -68q24 -6 54 -1l109 20v-129l-363 -77v127zM1005 131q-207 -161 -606 -161q-149 0 -255 42v244q104 -37 256 -36
q106 1 185 45l-501 1145h362l426 -959q29 43 49 98q37 137 37 321v686h358v-1101q0 -106 49 -155q44 -44 112 -44h98v-256h-357q-114 0 -168 63q-37 42 -45 68z" />
    <glyph glyph-name="uniFEF9" unicode="&#xfedf;&#xfe88;" horiz-adv-x="1525" arabic-form="isolated" 
d="M1316 834q0 -303 -139 -518q-59 -91 -132 -156q-220 -190 -646 -190q-149 0 -255 42v244q104 -37 256 -36q106 1 185 45l-501 1145h362l426 -959q29 43 49 98q37 137 37 321v686h358v-722zM163 -373l78 18q-54 12 -70 45q-16 34 -16 74q3 106 56 149q48 40 179 40
q66 0 128 -22v-125q-70 20 -128 20q-42 0 -61 -9q-29 -14 -29 -62q0 -52 63 -68q24 -6 54 -1l109 20v-129l-363 -77v127z" />
    <glyph glyph-name="uniFEFA" unicode="&#xfee0;&#xfe88;" horiz-adv-x="1555" arabic-form="final" 
d="M163 -373l78 18q-54 12 -70 45q-16 34 -16 74q3 106 56 149q48 40 179 40q66 0 128 -22v-125q-70 20 -128 20q-42 0 -61 -9q-29 -14 -29 -62q0 -52 63 -68q24 -6 54 -1l109 20v-129l-363 -77v127zM1005 131q-207 -161 -606 -161q-149 0 -255 42v244q104 -37 256 -36
q106 1 185 45l-501 1145h362l426 -959q29 43 49 98q37 137 37 321v686h358v-1101q0 -106 49 -155q44 -44 112 -44h98v-256h-357q-114 0 -168 63q-37 42 -45 68z" />
    <glyph glyph-name="uniFEFB" unicode="&#xfedf;&#xfe8e;" horiz-adv-x="1525" arabic-form="isolated" 
d="M1316 834q0 -303 -139 -518q-59 -91 -132 -156q-220 -190 -646 -190q-149 0 -255 42v244q104 -37 256 -36q106 1 185 45l-501 1145h362l426 -959q29 43 49 98q37 137 37 321v686h358v-722z" />
    <glyph glyph-name="uniFEFC" unicode="&#xfee0;&#xfe8e;" horiz-adv-x="1555" arabic-form="final" 
d="M1005 131q-207 -161 -606 -161q-149 0 -255 42v244q104 -37 256 -36q106 1 185 45l-501 1145h362l426 -959q29 43 49 98q37 137 37 321v686h358v-1101q0 -106 49 -155q44 -44 112 -44h98v-256h-357q-114 0 -168 63q-37 42 -45 68z" />
    <glyph glyph-name="uni0651064B" unicode="&#x64b;&#x651;" horiz-adv-x="0" 
d="M528 1412q-17 -81 -45 -116q-57 -68 -129 -69q-96 -2 -140 63q-34 50 -34 161q0 109 16 207h132q-13 -125 -11 -181q1 -49 25 -97q13 -27 49 -5q46 26 50 173q2 82 2 171h136q-1 -36 3 -90q11 -175 69 -174q60 1 60 153q0 115 -13 172h133q15 -73 12 -189
q-4 -133 -27 -187q-36 -85 -147 -99q-71 -9 -102 24q-27 30 -39 83zM220 2020v140l584 130v-140zM220 1810v140l584 130v-140z" />
    <glyph glyph-name="uni0651064C" unicode="&#x64c;&#x651;" horiz-adv-x="0" 
d="M528 1412q-17 -81 -45 -116q-57 -68 -129 -69q-96 -2 -140 63q-34 50 -34 161q0 109 16 207h132q-13 -125 -11 -181q1 -49 25 -97q13 -27 49 -5q46 26 50 173q2 82 2 171h136q-1 -36 3 -90q11 -175 69 -174q60 1 60 153q0 115 -13 172h133q15 -73 12 -189
q-4 -133 -27 -187q-36 -85 -147 -99q-71 -9 -102 24q-27 30 -39 83zM507 2009l30 43q-16 4 -52 28q-84 58 -84 149q0 100 66 142q55 35 110 34q75 -2 129 -52q59 -56 59 -136q0 -45 -18 -75l30 -2l27 -2v-130q-51 0 -67 2l-49 5q-18 -47 -94 -120q-86 -85 -189 -85
q-117 0 -173 154q-12 33 -12 154h140q0 -97 12 -123q21 -45 37 -45q55 0 98 59zM600 2162q8 10 13 20q10 23 10 36q0 11 -10 29q-8 14 -32 14q-11 0 -22 -9q-18 -13 -18 -32q0 -25 33 -46q14 -8 26 -12z" />
    <glyph glyph-name="uni064B0651" unicode="&#x64d;&#x651;" horiz-adv-x="0" 
d="M220 1420v140l584 130v-140zM220 1210v140l584 130v-140zM528 1912q-17 -81 -45 -116q-57 -68 -129 -69q-96 -2 -140 63q-34 50 -34 161q0 109 16 207h132q-13 -125 -11 -181q1 -49 25 -97q13 -27 49 -5q46 26 50 173q2 82 2 171h136q-1 -36 3 -90q11 -175 69 -174
q60 1 60 153q0 115 -13 172h133q15 -73 12 -189q-4 -133 -27 -187q-36 -85 -147 -99q-71 -9 -102 24q-27 30 -39 83z" />
    <glyph glyph-name="uni0651064E" unicode="&#x64e;&#x651;" horiz-adv-x="0" 
d="M528 1412q-17 -81 -45 -116q-57 -68 -129 -69q-96 -2 -140 63q-34 50 -34 161q0 109 16 207h132q-13 -125 -11 -181q1 -49 25 -97q13 -27 49 -5q46 26 50 173q2 82 2 171h136q-1 -36 3 -90q11 -175 69 -174q60 1 60 153q0 115 -13 172h133q15 -73 12 -189
q-4 -133 -27 -187q-36 -85 -147 -99q-71 -9 -102 24q-27 30 -39 83zM220 1810v140l584 130v-140z" />
    <glyph glyph-name="uni0651064F" unicode="&#x64f;&#x651;" horiz-adv-x="0" 
d="M528 1412q-17 -81 -45 -116q-57 -68 -129 -69q-96 -2 -140 63q-34 50 -34 161q0 109 16 207h132q-13 -125 -11 -181q1 -49 25 -97q13 -27 49 -5q46 26 50 173q2 82 2 171h136q-1 -36 3 -90q11 -175 69 -174q60 1 60 153q0 115 -13 172h133q15 -73 12 -189
q-4 -133 -27 -187q-36 -85 -147 -99q-71 -9 -102 24q-27 30 -39 83zM518 2067q-21 4 -33 13q-84 56 -84 149q0 100 66 142q55 35 110 34q75 -2 129 -52q59 -56 59 -136q0 -45 -18 -75l30 -2l27 -2v-130q-35 0 -67 2q-42 2 -65 5q-45 -52 -102 -92q-176 -123 -350 -114v140
q140 0 251 79q12 8 47 39zM603 2166q6 7 10 16q10 23 10 36q0 11 -10 29q-8 14 -32 14q-11 0 -22 -9q-18 -13 -18 -32q0 -24 33 -46q10 -7 29 -8z" />
    <glyph glyph-name="uni064E0651" unicode="&#x650;&#x651;" horiz-adv-x="0" 
d="M220 1210v140l584 130v-140zM528 1712q-17 -81 -45 -116q-57 -68 -129 -69q-96 -2 -140 63q-34 50 -34 161q0 109 16 207h132q-13 -125 -11 -181q1 -49 25 -97q13 -27 49 -5q46 26 50 173q2 82 2 171h136q-1 -36 3 -90q11 -175 69 -174q60 1 60 153q0 115 -13 172h133
q15 -73 12 -189q-4 -133 -27 -187q-36 -85 -147 -99q-71 -9 -102 24q-27 30 -39 83z" />
    <glyph glyph-name="uni0654064E" unicode="&#x64e;&#x654;" horiz-adv-x="0" 
d="M323 1358l78 18q-54 12 -70 45q-16 34 -16 74q3 106 56 149q48 40 179 40q66 0 128 -22v-125q-70 20 -128 20q-42 0 -61 -9q-29 -14 -29 -62q0 -52 63 -68q24 -6 54 -1l109 20v-129l-363 -77v127zM220 1710v140l584 130v-140z" />
    <glyph glyph-name="uni0654064F" unicode="&#x64f;&#x654;" horiz-adv-x="0" 
d="M323 1358l78 18q-54 12 -70 45q-16 34 -16 74q3 106 56 149q48 40 179 40q66 0 128 -22v-125q-70 20 -128 20q-42 0 -61 -9q-29 -14 -29 -62q0 -52 63 -68q24 -6 54 -1l109 20v-129l-363 -77v127zM518 1967q-21 4 -33 13q-84 56 -84 149q0 100 66 142q55 35 110 34
q75 -2 129 -52q59 -56 59 -136q0 -45 -18 -75l30 -2l27 -2v-130q-35 0 -67 2q-42 2 -65 5q-45 -52 -102 -92q-176 -123 -350 -114v140q140 0 251 79q12 8 47 39zM603 2066q6 7 10 16q10 23 10 36q0 11 -10 29q-8 14 -32 14q-11 0 -22 -9q-18 -13 -18 -32q0 -24 33 -46
q10 -7 29 -8z" />
    <glyph glyph-name="uni066E.init" unicode="&#x66e;" horiz-adv-x="769" 
d="M597 371q0 -182 -68 -279q-64 -92 -192 -92h-357v256h98q68 0 112 44q49 49 49 155v145h358v-229z" />
    <glyph glyph-name="uni066E.medi" unicode="&#x66e;" horiz-adv-x="836" 
d="M856 0h-251q-110 0 -187 109q-77 -109 -187 -109h-251v256h98q68 0 112 44q49 49 49 155v145h358v-145q0 -106 49 -155q44 -44 112 -44h98v-256z" />
    <glyph glyph-name="uni066E.fina" unicode="&#x66e;" horiz-adv-x="2168" 
d="M1686 162q-43 -52 -200 -93q-291 -77 -666 -79q-234 -1 -360 28q-329 77 -330 365q-1 138 63 230h358q-51 -94 -51 -184q0 -91 189 -157q72 -25 156 -25q205 0 361 47q243 73 292 159q64 113 30 216h358q16 -75 16 -120q0 -147 54 -224q50 -69 157 -69h75v-256h-130
q-270 0 -372 162z" />
    <glyph glyph-name="uni066F.init" unicode="&#x66f;" horiz-adv-x="1341" 
d="M765 591q36 28 36 66q0 59 -50 88q-28 16 -71 15q-47 0 -75 -29q-26 -26 -26 -75q0 -40 35 -69q22 -18 70 -18q52 0 81 22zM636 0h-656v256h576q59 0 96 9q82 20 105 89q-1 -6 -122 -5q-235 0 -316 71q-98 84 -98 216q0 52 8 96q28 161 173 217q109 42 262 43
q233 1 339 -57q81 -45 142 -209q33 -89 33 -262q0 -151 -113 -311q-47 -66 -189 -117q-101 -36 -240 -36z" />
    <glyph glyph-name="uni066F.medi" unicode="&#x66f;" horiz-adv-x="1474" 
d="M737 992q198 0 339 -66q87 -41 139 -158q36 -81 36 -236q0 -126 -167 -256q167 -20 363 -20h47v-256h-107q-193 0 -352 15q-196 19 -298 69q-102 -50 -298 -69q-159 -15 -352 -15h-107v256h47q196 0 363 20q-167 130 -167 256q0 155 36 236q52 117 139 158q141 66 339 66
zM737 416q137 52 137 156q0 78 -46 133q-25 30 -91 30t-91 -30q-46 -55 -46 -133q0 -104 137 -156z" />
    <glyph glyph-name="uni066F.fina" unicode="&#x66f;" horiz-adv-x="1846" 
d="M1312 325q-6 41 -53 80q-29 24 -68 23q-42 -1 -71 -30q-30 -30 -30 -58q0 -45 35 -64q36 -19 70 -19h122q0 39 -5 68zM1664 0q-19 -110 -90 -212q-95 -131 -270 -193q-279 -99 -609 -95q-382 3 -511 192q-84 123 -77 243q8 120 47 165h358q-53 -45 -53 -109q0 -58 11 -86
q60 -149 230 -149q265 0 433 98q108 64 134 146q-22 0 -121 2q-223 5 -316 86q-98 84 -98 216q0 52 8 96q28 161 173 217q109 42 262 43q244 1 339 -57q89 -55 142 -209q20 -57 27 -138h183v-256h-202z" />
    <glyph glyph-name="uni067C.init" unicode="&#x67c;" horiz-adv-x="769" 
d="M506 -80q0 36 -26 62q-25 25 -62 25t-62 -25t-25 -62q0 -38 25 -63t62 -25t62 26q26 25 26 62zM637 -80q0 -92 -63 -156q-64 -64 -156 -64t-155 64q-64 64 -64 156t64 156q63 63 155 63t156 -63q63 -64 63 -156zM468 1000h150v-150h-150v150zM218 1000h150v-150h-150v150
zM597 371q0 -182 -68 -279q-64 -92 -192 -92h-357v256h98q68 0 112 44q49 49 49 155v145h358v-229z" />
    <glyph glyph-name="uni067C.medi" unicode="&#x67c;" horiz-adv-x="836" 
d="M506 -30q0 36 -26 62q-25 25 -62 25t-62 -25t-25 -62q0 -38 25 -63t62 -25t62 26q26 25 26 62zM637 -30q0 -92 -63 -156q-64 -64 -156 -64t-155 64q-64 64 -64 156t64 156q63 63 155 63t156 -63q63 -64 63 -156zM468 1000h150v-150h-150v150zM218 1000h150v-150h-150v150
zM856 0h-251q-110 0 -187 109q-77 -109 -187 -109h-251v256h98q68 0 112 44q49 49 49 155v145h358v-145q0 -106 49 -155q44 -44 112 -44h98v-256z" />
    <glyph glyph-name="uni067C.fina" unicode="&#x67c;" horiz-adv-x="2168" 
d="M1025 850h150v-150h-150v150zM775 850h150v-150h-150v150zM1686 162q-43 -52 -200 -93q-291 -77 -666 -79q-234 -1 -360 28q-329 77 -330 365q-1 138 63 230h358q-51 -94 -51 -184q0 -91 189 -157q72 -25 156 -25q205 0 361 47q243 73 292 159q64 113 30 216h358
q16 -75 16 -120q0 -147 54 -224q50 -69 157 -69h75v-256h-130q-270 0 -372 162zM1063 -130q0 36 -26 62q-25 25 -62 25t-62 -25t-25 -62q0 -38 25 -63t62 -25t62 26q26 25 26 62zM1194 -130q0 -92 -63 -156q-64 -64 -156 -64t-155 64q-64 64 -64 156t64 156q63 63 155 63
t156 -63q63 -64 63 -156z" />
    <glyph glyph-name="uni067D.init" unicode="&#x67d;" horiz-adv-x="769" 
d="M343 1060h150v-150h-150v150zM468 1310h150v-150h-150v150zM218 1310h150v-150h-150v150zM597 371q0 -182 -68 -279q-64 -92 -192 -92h-357v256h98q68 0 112 44q49 49 49 155v145h358v-229z" />
    <glyph glyph-name="uni067D.medi" unicode="&#x67d;" horiz-adv-x="836" 
d="M343 1060h150v-150h-150v150zM468 1310h150v-150h-150v150zM218 1310h150v-150h-150v150zM856 0h-251q-110 0 -187 109q-77 -109 -187 -109h-251v256h98q68 0 112 44q49 49 49 155v145h358v-145q0 -106 49 -155q44 -44 112 -44h98v-256z" />
    <glyph glyph-name="uni067D.fina" unicode="&#x67d;" horiz-adv-x="2168" 
d="M900 910h150v-150h-150v150zM1025 1160h150v-150h-150v150zM775 1160h150v-150h-150v150zM1686 162q-43 -52 -200 -93q-291 -77 -666 -79q-234 -1 -360 28q-329 77 -330 365q-1 138 63 230h358q-51 -94 -51 -184q0 -91 189 -157q72 -25 156 -25q205 0 361 47
q243 73 292 159q64 113 30 216h358q16 -75 16 -120q0 -147 54 -224q50 -69 157 -69h75v-256h-130q-270 0 -372 162z" />
    <glyph glyph-name="uni0681.init" unicode="&#x681;" horiz-adv-x="1476" 
d="M561 1058l78 18q-54 12 -70 45q-16 34 -16 74q3 106 56 149q48 40 179 40q66 0 128 -22v-125q-70 20 -128 20q-42 0 -61 -9q-29 -14 -29 -62q0 -52 63 -68q24 -6 54 -1l109 20v-129l-363 -77v127zM867 504q-75 25 -188 40q-94 12 -248 25q-71 6 -243 -4v256q72 7 147 8
q242 0 433 -35q279 -50 519 -122v-256q-91 -32 -204 -98q-129 -76 -264 -168q-115 -79 -327 -116q-193 -34 -384 -34h-128v256h100q206 0 345 34q142 36 251 105q96 61 191 109z" />
    <glyph glyph-name="uni0681.medi" unicode="&#x681;" horiz-adv-x="1476" 
d="M561 1058l78 18q-54 12 -70 45q-16 34 -16 74q3 106 56 149q48 40 179 40q66 0 128 -22v-125q-70 20 -128 20q-42 0 -61 -9q-29 -14 -29 -62q0 -52 63 -68q24 -6 54 -1l109 20v-129l-363 -77v127zM1000 269q-82 -59 -181 -119q-136 -83 -327 -116q-194 -34 -384 -34h-128
v256h100q206 0 345 34q142 36 251 105q96 61 191 109q-75 25 -188 40q-94 12 -248 25q-71 6 -243 -4v256q72 7 147 8q242 0 433 -35q279 -50 519 -122v-256l-47 -18q22 -49 44 -74q59 -68 146 -68h66v-256h-86q-204 0 -311 117q-52 57 -99 152z" />
    <glyph glyph-name="uni0681.fina" unicode="&#x681;" horiz-adv-x="1476" 
d="M511 1158l78 18q-54 12 -70 45q-16 34 -16 74q3 106 56 149q48 40 179 40q66 0 128 -22v-125q-70 20 -128 20q-42 0 -61 -9q-29 -14 -29 -62q0 -52 63 -68q24 -6 54 -1l109 20v-129l-363 -77v127zM1212 578q0 -60 73 -203q61 -119 145 -119h66v-256h-86q-158 0 -279 149
q-71 88 -131 212q-50 107 -68 179q-109 -35 -192 -102q-203 -163 -203 -363q0 -121 103 -227q90 -92 327 -92q301 0 507 153v-275q-164 -134 -502 -134q-437 1 -637 199q-156 154 -156 376q0 179 140 350q102 125 300 203q-84 3 -232 -17q-135 -19 -230 -60v256
q271 63 471 63q352 0 642 -38v-256q-14 1 -27 1q-16 1 -31 1z" />
    <glyph glyph-name="uni0682.init" unicode="&#x682;" horiz-adv-x="1476" 
d="M670 1160h150v-150h-150v150zM670 1410h150v-150h-150v150zM867 504q-75 25 -188 40q-94 12 -248 25q-71 6 -243 -4v256q72 7 147 8q242 0 433 -35q279 -50 519 -122v-256q-91 -32 -204 -98q-129 -76 -264 -168q-115 -79 -327 -116q-193 -34 -384 -34h-128v256h100
q206 0 345 34q142 36 251 105q96 61 191 109z" />
    <glyph glyph-name="uni0682.medi" unicode="&#x682;" horiz-adv-x="1476" 
d="M670 1160h150v-150h-150v150zM670 1410h150v-150h-150v150zM1000 269q-82 -59 -181 -119q-136 -83 -327 -116q-194 -34 -384 -34h-128v256h100q206 0 345 34q142 36 251 105q96 61 191 109q-75 25 -188 40q-94 12 -248 25q-71 6 -243 -4v256q72 7 147 8q242 0 433 -35
q279 -50 519 -122v-256l-47 -18q22 -49 44 -74q59 -68 146 -68h66v-256h-86q-204 0 -311 117q-52 57 -99 152z" />
    <glyph glyph-name="uni0682.fina" unicode="&#x682;" horiz-adv-x="1476" 
d="M620 1260h150v-150h-150v150zM620 1510h150v-150h-150v150zM1212 578q0 -60 73 -203q61 -119 145 -119h66v-256h-86q-158 0 -279 149q-71 88 -131 212q-50 107 -68 179q-109 -35 -192 -102q-203 -163 -203 -363q0 -121 103 -227q90 -92 327 -92q301 0 507 153v-275
q-164 -134 -502 -134q-437 1 -637 199q-156 154 -156 376q0 179 140 350q102 125 300 203q-84 3 -232 -17q-135 -19 -230 -60v256q271 63 471 63q352 0 642 -38v-256q-14 1 -27 1q-16 1 -31 1z" />
    <glyph glyph-name="uni0685.init" unicode="&#x685;" horiz-adv-x="1476" 
d="M675 1410h150v-150h-150v150zM800 1160h150v-150h-150v150zM550 1160h150v-150h-150v150zM867 504q-75 25 -188 40q-94 12 -248 25q-71 6 -243 -4v256q72 7 147 8q242 0 433 -35q279 -50 519 -122v-256q-91 -32 -204 -98q-129 -76 -264 -168q-115 -79 -327 -116
q-193 -34 -384 -34h-128v256h100q206 0 345 34q142 36 251 105q96 61 191 109z" />
    <glyph glyph-name="uni0685.medi" unicode="&#x685;" horiz-adv-x="1476" 
d="M675 1410h150v-150h-150v150zM800 1160h150v-150h-150v150zM550 1160h150v-150h-150v150zM1000 269q-82 -59 -181 -119q-136 -83 -327 -116q-194 -34 -384 -34h-128v256h100q206 0 345 34q142 36 251 105q96 61 191 109q-75 25 -188 40q-94 12 -248 25q-71 6 -243 -4v256
q72 7 147 8q242 0 433 -35q279 -50 519 -122v-256l-47 -18q22 -49 44 -74q59 -68 146 -68h66v-256h-86q-204 0 -311 117q-52 57 -99 152z" />
    <glyph glyph-name="uni0685.fina" unicode="&#x685;" horiz-adv-x="1476" 
d="M625 1510h150v-150h-150v150zM750 1260h150v-150h-150v150zM500 1260h150v-150h-150v150zM1212 578q0 -60 73 -203q61 -119 145 -119h66v-256h-86q-158 0 -279 149q-71 88 -131 212q-50 107 -68 179q-109 -35 -192 -102q-203 -163 -203 -363q0 -121 103 -227
q90 -92 327 -92q301 0 507 153v-275q-164 -134 -502 -134q-437 1 -637 199q-156 154 -156 376q0 179 140 350q102 125 300 203q-84 3 -232 -17q-135 -19 -230 -60v256q271 63 471 63q352 0 642 -38v-256q-14 1 -27 1q-16 1 -31 1z" />
    <glyph glyph-name="uni0689.fina" unicode="&#x689;" horiz-adv-x="1183" 
d="M921 474q27 -111 90 -174q44 -44 117 -44h75v-256h-130q-182 0 -236 105q-125 -105 -372 -136q-193 -24 -340 31v255q157 -61 266 -33q174 45 200 127q27 87 -46 226q-62 121 -217 275h369q130 -164 158 -215q46 -82 66 -161zM648 -148q0 36 -26 62q-25 25 -62 25
t-62 -25t-25 -62q0 -38 25 -63t62 -25t62 26q26 25 26 62zM779 -148q0 -92 -63 -156q-64 -64 -156 -64t-155 64q-64 64 -64 156t64 156q63 63 155 63t156 -63q63 -64 63 -156z" />
    <glyph glyph-name="uni068A.fina" unicode="&#x68a;" horiz-adv-x="1183" 
d="M921 474q27 -111 90 -174q44 -44 117 -44h75v-256h-130q-182 0 -236 105q-125 -105 -372 -136q-193 -24 -340 31v255q157 -61 266 -33q174 45 200 127q27 87 -46 226q-62 121 -217 275h369q130 -164 158 -215q46 -82 66 -161zM485 -200h150v-150h-150v150z" />
    <glyph glyph-name="uni068B.fina" unicode="&#x68b;" horiz-adv-x="1183" 
d="M921 474q27 -111 90 -174q44 -44 117 -44h75v-256h-130q-182 0 -236 105q-125 -105 -372 -136q-193 -24 -340 31v255q157 -61 266 -33q174 45 200 127q27 87 -46 226q-62 121 -217 275h369q130 -164 158 -215q46 -82 66 -161zM485 -200h150v-150h-150v150zM481 1139h33
q50 0 90 13q38 14 38 35q0 37 -30 35q-21 -3 -47 -14q-49 -22 -84 -69zM537 1004h-175h-117v135h60v388h136v-280q75 84 157 84t108 -19q68 -50 68 -125q0 -92 -67 -144q-51 -39 -170 -39z" />
    <glyph glyph-name="uni068F.fina" unicode="&#x68f;" horiz-adv-x="1183" 
d="M921 474q27 -111 90 -174q44 -44 117 -44h75v-256h-130q-182 0 -236 105q-125 -105 -372 -136q-193 -24 -340 31v255q157 -61 266 -33q174 45 200 127q27 87 -46 226q-62 121 -217 275h369q130 -164 158 -215q46 -82 66 -161zM435 1150h150v-150h-150v150zM560 1400h150
v-150h-150v150zM310 1400h150v-150h-150v150z" />
    <glyph glyph-name="uni0690.fina" unicode="&#x690;" horiz-adv-x="1183" 
d="M921 474q27 -111 90 -174q44 -44 117 -44h75v-256h-130q-182 0 -236 105q-125 -105 -372 -136q-193 -24 -340 31v255q157 -61 266 -33q174 45 200 127q27 87 -46 226q-62 121 -217 275h369q130 -164 158 -215q46 -82 66 -161zM560 1200h150v-150h-150v150zM560 1450h150
v-150h-150v150zM310 1200h150v-150h-150v150zM310 1450h150v-150h-150v150z" />
    <glyph glyph-name="uni0692.fina" unicode="&#x692;" horiz-adv-x="1274" 
d="M686 812l-195 326h179l130 -195l130 195h179l-195 -326h-228zM1012 26q-22 -81 -60 -138q-127 -189 -350 -287q-230 -101 -687 -101v256q309 0 465 68q154 67 233 176q73 101 71 284q0 145 -52 266h358q11 -34 20 -66q34 -125 92 -184q44 -44 117 -44h75v-256h-130
q-86 0 -152 26z" />
    <glyph glyph-name="uni0693.fina" unicode="&#x693;" horiz-adv-x="1274" 
d="M1072 -280q0 36 -26 62q-25 25 -62 25t-62 -25t-25 -62q0 -38 25 -63t62 -25t62 26q26 25 26 62zM1203 -280q0 -92 -63 -156q-64 -64 -156 -64t-155 64q-64 64 -64 156t64 156q63 63 155 63t156 -63q63 -64 63 -156zM1012 26q-22 -81 -60 -138q-127 -189 -350 -287
q-230 -101 -687 -101v256q309 0 465 68q154 67 233 176q73 101 71 284q0 145 -52 266h358q11 -34 20 -66q34 -125 92 -184q44 -44 117 -44h75v-256h-130q-86 0 -152 26z" />
    <glyph glyph-name="uni0694.fina" unicode="&#x694;" horiz-adv-x="1274" 
d="M920 -290h150v-150h-150v150zM1012 26q-22 -81 -60 -138q-127 -189 -350 -287q-230 -101 -687 -101v256q309 0 465 68q154 67 233 176q73 101 71 284q0 145 -52 266h358q11 -34 20 -66q34 -125 92 -184q44 -44 117 -44h75v-256h-130q-86 0 -152 26z" />
    <glyph glyph-name="uni0695.fina" unicode="&#x695;" horiz-adv-x="1395" 
d="M1120 -500l-195 326h179l130 -195l130 195h179l-195 -326h-228zM1012 26q-22 -81 -60 -138q-127 -189 -350 -287q-230 -101 -687 -101v256q309 0 465 68q154 67 233 176q73 101 71 284q0 145 -52 266h358q11 -34 20 -66q34 -125 92 -184q44 -44 117 -44h196v-256h-251
q-86 0 -152 26z" />
    <glyph glyph-name="uni0696.fina" unicode="&#x696;" horiz-adv-x="1274" 
d="M920 -290h150v-150h-150v150zM280 190h150v-150h-150v150zM1012 26q-22 -81 -60 -138q-127 -189 -350 -287q-230 -101 -687 -101v256q309 0 465 68q154 67 233 176q73 101 71 284q0 145 -52 266h358q11 -34 20 -66q34 -125 92 -184q44 -44 117 -44h75v-256h-130
q-86 0 -152 26z" />
    <glyph glyph-name="uni0697.fina" unicode="&#x697;" horiz-adv-x="1274" 
d="M850 950h150v-150h-150v150zM600 950h150v-150h-150v150zM1012 26q-22 -81 -60 -138q-127 -189 -350 -287q-230 -101 -687 -101v256q309 0 465 68q154 67 233 176q73 101 71 284q0 145 -52 266h358q11 -34 20 -66q34 -125 92 -184q44 -44 117 -44h75v-256h-130
q-86 0 -152 26z" />
    <glyph glyph-name="uni0699.fina" unicode="&#x699;" horiz-adv-x="1274" 
d="M850 950h150v-150h-150v150zM850 1200h150v-150h-150v150zM600 950h150v-150h-150v150zM600 1200h150v-150h-150v150zM1012 26q-22 -81 -60 -138q-127 -189 -350 -287q-230 -101 -687 -101v256q309 0 465 68q154 67 233 176q73 101 71 284q0 145 -52 266h358
q11 -34 20 -66q34 -125 92 -184q44 -44 117 -44h75v-256h-130q-86 0 -152 26z" />
    <glyph glyph-name="uni069A.init" unicode="&#x69a;" horiz-adv-x="2014" 
d="M409 78q-74 -78 -161 -78h-268v256h98q68 0 112 44q50 50 49 155l-1 145h358v-156q0 -36 45 -134q27 -59 110 -60q71 -1 95 53q37 84 37 297h358q0 -205 19 -255q36 -95 102 -95q125 0 125 206v294h358v-342q0 -199 -92 -312q-72 -89 -213 -113q-67 -12 -180 -12
q-81 0 -139 29q-149 72 -159 169q-35 -133 -173 -169q-72 -18 -142 -18q-255 0 -338 96zM900 1000h150v-150h-150v150zM1050 -200h150v-150h-150v150z" />
    <glyph glyph-name="uni069A.medi" unicode="&#x69a;" horiz-adv-x="2084" 
d="M1540 -17q-67 -12 -180 -12q-81 0 -139 29q-149 72 -159 169q-35 -133 -173 -169q-72 -18 -142 -18q-255 0 -338 96q-74 -78 -161 -78h-268v256h98q68 0 112 44q50 50 49 155l-1 145h358v-156q0 -36 45 -134q27 -59 110 -60q71 -1 95 53q37 84 37 297h358q0 -205 19 -255
q36 -95 102 -95q125 0 125 206v294h358v-295q0 -106 49 -155q44 -44 112 -44h98v-256h-268q-80 0 -129 52q-88 -55 -167 -69zM900 1000h150v-150h-150v150zM1050 -200h150v-150h-150v150z" />
    <glyph glyph-name="uni069A.fina" unicode="&#x69a;" horiz-adv-x="2895" 
d="M1562 250q74 -3 95 53q37 98 37 297h358q0 -205 19 -255q36 -95 102 -95q125 0 125 206v294h358v-295q0 -106 49 -155q44 -44 112 -44h98v-256h-268q-80 0 -129 52q-88 -55 -167 -69q-61 -12 -180 -12q-81 0 -139 29q-149 72 -159 169q-35 -133 -173 -169
q-72 -18 -142 -18q-86 0 -154 90q0 -183 -78 -301q-120 -181 -355 -245q-96 -26 -244 -26q-199 0 -304 36q-293 101 -293 442q0 196 105 376h358q-108 -206 -107 -376q1 -159 144 -200q38 -11 91 -11q110 0 188 58q89 67 128 135q58 104 58 220q0 122 -17 186l-64 234h358
l36 -156q16 -74 44 -134q26 -57 110 -60zM1500 950h150v-150h-150v150zM1650 -200h150v-150h-150v150z" />
    <glyph glyph-name="uni069B.init" unicode="&#x69b;" horiz-adv-x="2014" 
d="M409 78q-74 -78 -161 -78h-268v256h98q68 0 112 44q50 50 49 155l-1 145h358v-156q0 -36 45 -134q27 -59 110 -60q71 -1 95 53q37 84 37 297h358q0 -205 19 -255q36 -95 102 -95q125 0 125 206v294h358v-342q0 -199 -92 -312q-72 -89 -213 -113q-67 -12 -180 -12
q-81 0 -139 29q-149 72 -159 169q-35 -133 -173 -169q-72 -18 -142 -18q-255 0 -338 96zM1050 -350h150v-150h-150v150zM1175 -100h150v-150h-150v150zM925 -100h150v-150h-150v150z" />
    <glyph glyph-name="uni069B.medi" unicode="&#x69b;" horiz-adv-x="2084" 
d="M1540 -17q-67 -12 -180 -12q-81 0 -139 29q-149 72 -159 169q-35 -133 -173 -169q-72 -18 -142 -18q-255 0 -338 96q-74 -78 -161 -78h-268v256h98q68 0 112 44q50 50 49 155l-1 145h358v-156q0 -36 45 -134q27 -59 110 -60q71 -1 95 53q37 84 37 297h358q0 -205 19 -255
q36 -95 102 -95q125 0 125 206v294h358v-295q0 -106 49 -155q44 -44 112 -44h98v-256h-268q-80 0 -129 52q-88 -55 -167 -69zM1050 -350h150v-150h-150v150zM1175 -100h150v-150h-150v150zM925 -100h150v-150h-150v150z" />
    <glyph glyph-name="uni069B.fina" unicode="&#x69b;" horiz-adv-x="2895" 
d="M1562 250q74 -3 95 53q37 98 37 297h358q0 -205 19 -255q36 -95 102 -95q125 0 125 206v294h358v-295q0 -106 49 -155q44 -44 112 -44h98v-256h-268q-80 0 -129 52q-88 -55 -167 -69q-61 -12 -180 -12q-81 0 -139 29q-149 72 -159 169q-35 -133 -173 -169
q-72 -18 -142 -18q-86 0 -154 90q0 -183 -78 -301q-120 -181 -355 -245q-96 -26 -244 -26q-199 0 -304 36q-293 101 -293 442q0 196 105 376h358q-108 -206 -107 -376q1 -159 144 -200q38 -11 91 -11q110 0 188 58q89 67 128 135q58 104 58 220q0 122 -17 186l-64 234h358
l36 -156q16 -74 44 -134q26 -57 110 -60zM1650 -350h150v-150h-150v150zM1775 -100h150v-150h-150v150zM1525 -100h150v-150h-150v150z" />
    <glyph glyph-name="uni069C.init" unicode="&#x69c;" horiz-adv-x="2014" 
d="M409 78q-74 -78 -161 -78h-268v256h98q68 0 112 44q50 50 49 155l-1 145h358v-156q0 -36 45 -134q27 -59 110 -60q71 -1 95 53q37 84 37 297h358q0 -205 19 -255q36 -95 102 -95q125 0 125 206v294h358v-342q0 -199 -92 -312q-72 -89 -213 -113q-67 -12 -180 -12
q-81 0 -139 29q-149 72 -159 169q-35 -133 -173 -169q-72 -18 -142 -18q-255 0 -338 96zM900 1200h150v-150h-150v150zM1025 950h150v-150h-150v150zM775 950h150v-150h-150v150zM1050 -350h150v-150h-150v150zM1175 -100h150v-150h-150v150zM925 -100h150v-150h-150v150z
" />
    <glyph glyph-name="uni069C.medi" unicode="&#x69c;" horiz-adv-x="2084" 
d="M1540 -17q-67 -12 -180 -12q-81 0 -139 29q-149 72 -159 169q-35 -133 -173 -169q-72 -18 -142 -18q-255 0 -338 96q-74 -78 -161 -78h-268v256h98q68 0 112 44q50 50 49 155l-1 145h358v-156q0 -36 45 -134q27 -59 110 -60q71 -1 95 53q37 84 37 297h358q0 -205 19 -255
q36 -95 102 -95q125 0 125 206v294h358v-295q0 -106 49 -155q44 -44 112 -44h98v-256h-268q-80 0 -129 52q-88 -55 -167 -69zM900 1200h150v-150h-150v150zM1025 950h150v-150h-150v150zM775 950h150v-150h-150v150zM1050 -350h150v-150h-150v150zM1175 -100h150v-150h-150
v150zM925 -100h150v-150h-150v150z" />
    <glyph glyph-name="uni069C.fina" unicode="&#x69c;" horiz-adv-x="2895" 
d="M1562 250q74 -3 95 53q37 98 37 297h358q0 -205 19 -255q36 -95 102 -95q125 0 125 206v294h358v-295q0 -106 49 -155q44 -44 112 -44h98v-256h-268q-80 0 -129 52q-88 -55 -167 -69q-61 -12 -180 -12q-81 0 -139 29q-149 72 -159 169q-35 -133 -173 -169
q-72 -18 -142 -18q-86 0 -154 90q0 -183 -78 -301q-120 -181 -355 -245q-96 -26 -244 -26q-199 0 -304 36q-293 101 -293 442q0 196 105 376h358q-108 -206 -107 -376q1 -159 144 -200q38 -11 91 -11q110 0 188 58q89 67 128 135q58 104 58 220q0 122 -17 186l-64 234h358
l36 -156q16 -74 44 -134q26 -57 110 -60zM1500 1200h150v-150h-150v150zM1625 950h150v-150h-150v150zM1375 950h150v-150h-150v150zM1650 -350h150v-150h-150v150zM1775 -100h150v-150h-150v150zM1525 -100h150v-150h-150v150z" />
    <glyph glyph-name="uni069D.init" unicode="&#x69d;" horiz-adv-x="1979" 
d="M456 114q-108 -114 -208 -114h-268v256h98q68 0 112 44q50 50 49 155l-1 145h358v-156q0 -101 67 -154q104 223 296 346q164 105 320 105q185 0 304 -51q231 -99 231 -292q0 -211 -184 -307q-174 -91 -576 -91h-276q-103 0 -198 30q-76 24 -124 84zM987 256h68
q157 0 283 50q118 47 118 102q0 28 -59 55q-53 22 -102 22q-75 -2 -185 -81q-67 -50 -123 -148zM975 -200h150v-150h-150v150zM725 -200h150v-150h-150v150z" />
    <glyph glyph-name="uni069D.medi" unicode="&#x69d;" horiz-adv-x="2018" 
d="M1630 91q-167 -91 -576 -91h-276q-103 0 -198 30q-76 24 -124 84q-108 -114 -208 -114h-268v256h98q68 0 112 44q50 50 49 155l-1 145h358v-156q0 -101 67 -154q104 223 296 346q164 105 320 105q185 0 304 -51q231 -99 231 -292q0 -50 71 -107q45 -35 87 -35h66v-256
h-86q-189 0 -277 120q-25 -19 -45 -29zM987 256h68q157 0 283 50q118 47 118 102q0 28 -59 55q-53 22 -102 22q-75 -2 -185 -81q-67 -50 -123 -148zM975 -200h150v-150h-150v150zM725 -200h150v-150h-150v150z" />
    <glyph glyph-name="uni069D.fina" unicode="&#x69d;" horiz-adv-x="2794" 
d="M1581 0q-61 0 -129 30q-27 12 -48 42q0 -183 -78 -301q-120 -181 -355 -245q-96 -26 -244 -26q-199 0 -304 36q-293 101 -293 442q0 196 105 376h358q-108 -206 -107 -376q1 -159 144 -200q38 -11 91 -11q110 0 188 58q89 67 128 135q58 104 58 220q0 90 -51 270h330
q2 -30 15 -70q14 -45 50 -90q104 223 296 346q164 105 320 105q185 0 304 -51q231 -99 231 -292q0 -50 71 -107q45 -35 87 -35h66v-256h-86q-189 0 -277 120q-21 -16 -45 -29q-163 -91 -576 -91h-249zM1763 256h68q157 0 283 50q118 47 118 102q0 28 -59 55q-53 22 -102 22
q-75 -2 -185 -81q-67 -50 -123 -148zM1775 -200h150v-150h-150v150zM1525 -200h150v-150h-150v150z" />
    <glyph glyph-name="uni069E.init" unicode="&#x69e;" horiz-adv-x="1979" 
d="M456 114q-108 -114 -208 -114h-268v256h98q68 0 112 44q50 50 49 155l-1 145h358v-156q0 -101 67 -154q104 223 296 346q164 105 320 105q185 0 304 -51q231 -99 231 -292q0 -211 -184 -307q-174 -91 -576 -91h-276q-103 0 -198 30q-76 24 -124 84zM987 256h68
q157 0 283 50q118 47 118 102q0 28 -59 55q-53 22 -102 22q-75 -2 -185 -81q-67 -50 -123 -148zM650 1200h150v-150h-150v150zM775 950h150v-150h-150v150zM525 950h150v-150h-150v150z" />
    <glyph glyph-name="uni069E.medi" unicode="&#x69e;" horiz-adv-x="2018" 
d="M1630 91q-167 -91 -576 -91h-276q-103 0 -198 30q-76 24 -124 84q-108 -114 -208 -114h-268v256h98q68 0 112 44q50 50 49 155l-1 145h358v-156q0 -101 67 -154q104 223 296 346q164 105 320 105q185 0 304 -51q231 -99 231 -292q0 -50 71 -107q45 -35 87 -35h66v-256
h-86q-189 0 -277 120q-25 -19 -45 -29zM987 256h68q157 0 283 50q118 47 118 102q0 28 -59 55q-53 22 -102 22q-75 -2 -185 -81q-67 -50 -123 -148zM650 1200h150v-150h-150v150zM775 950h150v-150h-150v150zM525 950h150v-150h-150v150z" />
    <glyph glyph-name="uni069E.fina" unicode="&#x69e;" horiz-adv-x="2794" 
d="M1581 0q-61 0 -129 30q-27 12 -48 42q0 -183 -78 -301q-120 -181 -355 -245q-96 -26 -244 -26q-199 0 -304 36q-293 101 -293 442q0 196 105 376h358q-108 -206 -107 -376q1 -159 144 -200q38 -11 91 -11q110 0 188 58q89 67 128 135q58 104 58 220q0 90 -51 270h330
q2 -30 15 -70q14 -45 50 -90q104 223 296 346q164 105 320 105q185 0 304 -51q231 -99 231 -292q0 -50 71 -107q45 -35 87 -35h66v-256h-86q-189 0 -277 120q-21 -16 -45 -29q-163 -91 -576 -91h-249zM1763 256h68q157 0 283 50q118 47 118 102q0 28 -59 55q-53 22 -102 22
q-75 -2 -185 -81q-67 -50 -123 -148zM1400 1200h150v-150h-150v150zM1525 950h150v-150h-150v150zM1275 950h150v-150h-150v150z" />
    <glyph glyph-name="uni069F.init" unicode="&#x69f;" horiz-adv-x="1929" 
d="M964 256h68q157 0 283 50q118 47 118 102q0 28 -59 55q-53 22 -102 22q-75 -2 -185 -81q-67 -50 -123 -148zM1031 0h-652h-399v256h302v1300h358v-1194q138 173 296 274q164 105 320 105q185 0 304 -51q231 -99 231 -292q0 -211 -184 -307q-174 -91 -576 -91zM886 1250
h150v-150h-150v150zM1011 1000h150v-150h-150v150zM761 1000h150v-150h-150v150z" />
    <glyph glyph-name="uni069F.medi" unicode="&#x69f;" horiz-adv-x="1995" 
d="M379 0h-399v256h302v1300h358v-1194q138 173 296 274q164 105 320 105q185 0 304 -51q231 -99 231 -292q0 -50 71 -107q45 -35 87 -35h66v-256h-86q-189 0 -277 120q-15 -11 -45 -29q-167 -91 -576 -91h-652zM964 256h68q157 0 283 50q118 47 118 102q0 28 -59 55
q-53 22 -102 22q-75 -2 -185 -81q-67 -50 -123 -148zM886 1250h150v-150h-150v150zM1011 1000h150v-150h-150v150zM761 1000h150v-150h-150v150z" />
    <glyph glyph-name="uni069F.fina" unicode="&#x69f;" horiz-adv-x="2193" 
d="M1805 91q-167 -91 -576 -91h-652h-433v256h336v1300h358v-1194q138 173 296 274q164 105 320 105q185 0 304 -51q231 -99 231 -292q0 -50 71 -107q45 -35 87 -35h66v-256h-86q-189 0 -277 120q-15 -11 -45 -29zM1162 256h68q157 0 283 50q118 47 118 102q0 28 -59 55
q-53 22 -102 22q-75 -2 -185 -81q-67 -50 -123 -148zM1150 1250h150v-150h-150v150zM1275 1000h150v-150h-150v150zM1025 1000h150v-150h-150v150z" />
    <glyph glyph-name="uni06A0.init" unicode="&#x6a0;" horiz-adv-x="1399" 
d="M675 755q-120 -64 -120 -150q0 -110 60 -150q91 -61 166 -41q180 48 412 146v-256q-189 -94 -493 -189q-368 -115 -585 -115h-135v256h110q175 0 304 41q-100 84 -139 148q-58 97 -47 235q11 142 212 285q127 90 545 101v-256q-178 5 -290 -55zM550 1600h150v-150h-150
v150zM675 1350h150v-150h-150v150zM425 1350h150v-150h-150v150z" />
    <glyph glyph-name="uni06A0.medi" unicode="&#x6a0;" horiz-adv-x="1156" 
d="M578 163q-250 -163 -480 -163h-118v256h96q105 0 164 46q17 13 60 56q-84 65 -117 112q-30 42 -30 84q0 36 13 77q16 55 120 107q89 45 292 45t292 -45q104 -52 120 -107q13 -41 13 -77q0 -42 -30 -84q-33 -47 -117 -112q43 -43 60 -56q59 -46 164 -46h96v-256h-118
q-230 0 -480 163zM500 1350h150v-150h-150v150zM625 1100h150v-150h-150v150zM375 1100h150v-150h-150v150z" />
    <glyph glyph-name="uni06A0.fina" unicode="&#x6a0;" horiz-adv-x="1399" 
d="M475 0q0 -78 103 -167q90 -78 327 -77q303 1 507 153v-275q-164 -134 -502 -134q-473 1 -636 162q-157 154 -157 338q0 138 87 254q82 112 135 143q-43 31 -72 73q-30 42 -30 84q0 34 13 77q16 55 120 107q89 45 292 45t292 -45q104 -52 120 -107q13 -41 13 -77
q0 -42 -30 -84q-33 -47 -117 -112q41 -35 101 -56q134 -46 282 -46h96v-256h-118q-461 0 -680 213q-146 -89 -146 -213zM550 1350h150v-150h-150v150zM675 1100h150v-150h-150v150zM425 1100h150v-150h-150v150z" />
    <glyph glyph-name="uni06A1.init" unicode="&#x6a1;" horiz-adv-x="1341" 
d="M765 591q36 28 36 66q0 59 -50 88q-28 16 -71 15q-47 0 -75 -29q-26 -26 -26 -75q0 -40 35 -69q22 -18 70 -18q52 0 81 22zM636 0h-656v256h576q59 0 96 9q82 20 105 89q-1 -6 -122 -5q-235 0 -316 71q-98 84 -98 216q0 52 8 96q28 161 173 217q109 42 262 43
q233 1 339 -57q81 -45 142 -209q33 -89 33 -262q0 -151 -113 -311q-47 -66 -189 -117q-101 -36 -240 -36z" />
    <glyph glyph-name="uni06A1.medi" unicode="&#x6a1;" horiz-adv-x="1474" 
d="M737 992q198 0 339 -66q87 -41 139 -158q36 -81 36 -236q0 -126 -167 -256q167 -20 363 -20h47v-256h-107q-193 0 -352 15q-196 19 -298 69q-102 -50 -298 -69q-159 -15 -352 -15h-107v256h47q196 0 363 20q-167 130 -167 256q0 155 36 236q52 117 139 158q141 66 339 66
zM737 416q137 52 137 156q0 78 -46 133q-25 30 -91 30t-91 -30q-46 -55 -46 -133q0 -104 137 -156z" />
    <glyph glyph-name="uni06A1.fina" unicode="&#x6a1;" horiz-adv-x="2439" 
d="M2128 271q125 -15 284 -15h47v-256h-107q-193 0 -352 15q-64 5 -122 14l-71 -29q-100 -56 -813 -58q-405 -1 -534 28q-329 75 -330 344q-1 138 63 230h358q-51 -94 -51 -184q0 -70 189 -136q72 -25 330 -25q345 0 409 10q-13 12 -24 25q-140 160 -140 334q0 103 24 168
q49 134 164 198q104 58 250 58q198 0 339 -66q87 -41 139 -158q36 -81 36 -236q0 -131 -88 -261zM1764 363q75 95 75 209q0 74 -50 134q-25 30 -71 30q-48 0 -75 -42q-26 -41 -26 -119q0 -101 67 -164q26 -25 80 -48z" />
    <glyph glyph-name="uni06A2.init" unicode="&#x6a2;" horiz-adv-x="1341" 
d="M765 591q36 28 36 66q0 59 -50 88q-28 16 -71 15q-47 0 -75 -29q-26 -26 -26 -75q0 -40 35 -69q22 -18 70 -18q52 0 81 22zM636 0h-656v256h576q59 0 96 9q82 20 105 89q-1 -6 -122 -5q-235 0 -316 71q-98 84 -98 216q0 52 8 96q28 161 173 217q109 42 262 43
q233 1 339 -57q81 -45 142 -209q33 -89 33 -262q0 -151 -113 -311q-47 -66 -189 -117q-101 -36 -240 -36zM624 -150h150v-150h-150v150z" />
    <glyph glyph-name="uni06A2.medi" unicode="&#x6a2;" horiz-adv-x="1474" 
d="M624 -150h150v-150h-150v150zM737 992q198 0 339 -66q87 -41 139 -158q36 -81 36 -236q0 -126 -167 -256q167 -20 363 -20h47v-256h-107q-193 0 -352 15q-196 19 -298 69q-102 -50 -298 -69q-159 -15 -352 -15h-107v256h47q196 0 363 20q-167 130 -167 256q0 155 36 236
q52 117 139 158q141 66 339 66zM737 416q137 52 137 156q0 78 -46 133q-25 30 -91 30t-91 -30q-46 -55 -46 -133q0 -104 137 -156z" />
    <glyph glyph-name="uni06A2.fina" unicode="&#x6a2;" horiz-adv-x="2439" 
d="M2128 271q125 -15 284 -15h47v-256h-107q-193 0 -352 15q-64 5 -122 14l-71 -29q-100 -56 -813 -58q-405 -1 -534 28q-329 75 -330 344q-1 138 63 230h358q-51 -94 -51 -184q0 -70 189 -136q72 -25 330 -25q345 0 409 10q-13 12 -24 25q-140 160 -140 334q0 103 24 168
q49 134 164 198q104 58 250 58q198 0 339 -66q87 -41 139 -158q36 -81 36 -236q0 -131 -88 -261zM1764 363q75 95 75 209q0 74 -50 134q-25 30 -71 30q-48 0 -75 -42q-26 -41 -26 -119q0 -101 67 -164q26 -25 80 -48zM1000 -200h150v-150h-150v150z" />
    <glyph glyph-name="uni06A3.init" unicode="&#x6a3;" horiz-adv-x="1341" 
d="M765 591q36 28 36 66q0 59 -50 88q-28 16 -71 15q-47 0 -75 -29q-26 -26 -26 -75q0 -40 35 -69q22 -18 70 -18q52 0 81 22zM636 0h-656v256h576q59 0 96 9q82 20 105 89q-1 -6 -122 -5q-235 0 -316 71q-98 84 -98 216q0 52 8 96q28 161 173 217q109 42 262 43
q233 1 339 -57q81 -45 142 -209q33 -89 33 -262q0 -151 -113 -311q-47 -66 -189 -117q-101 -36 -240 -36zM625 1300h150v-150h-150v150zM624 -150h150v-150h-150v150z" />
    <glyph glyph-name="uni06A3.medi" unicode="&#x6a3;" horiz-adv-x="1474" 
d="M737 992q198 0 339 -66q87 -41 139 -158q36 -81 36 -236q0 -126 -167 -256q167 -20 363 -20h47v-256h-107q-193 0 -352 15q-196 19 -298 69q-102 -50 -298 -69q-159 -15 -352 -15h-107v256h47q196 0 363 20q-167 130 -167 256q0 155 36 236q52 117 139 158q141 66 339 66
zM737 416q137 52 137 156q0 78 -46 133q-25 30 -91 30t-91 -30q-46 -55 -46 -133q0 -104 137 -156zM625 1300h150v-150h-150v150zM624 -150h150v-150h-150v150z" />
    <glyph glyph-name="uni06A3.fina" unicode="&#x6a3;" horiz-adv-x="2439" 
d="M2128 271q125 -15 284 -15h47v-256h-107q-193 0 -352 15q-64 5 -122 14l-71 -29q-100 -56 -813 -58q-405 -1 -534 28q-329 75 -330 344q-1 138 63 230h358q-51 -94 -51 -184q0 -70 189 -136q72 -25 330 -25q345 0 409 10q-13 12 -24 25q-140 160 -140 334q0 103 24 168
q49 134 164 198q104 58 250 58q198 0 339 -66q87 -41 139 -158q36 -81 36 -236q0 -131 -88 -261zM1764 363q75 95 75 209q0 74 -50 134q-25 30 -71 30q-48 0 -75 -42q-26 -41 -26 -119q0 -101 67 -164q26 -25 80 -48zM1650 1300h150v-150h-150v150zM1000 -200h150v-150h-150
v150z" />
    <glyph glyph-name="uni06A5.init" unicode="&#x6a5;" horiz-adv-x="1341" 
d="M765 591q36 28 36 66q0 59 -50 88q-28 16 -71 15q-47 0 -75 -29q-26 -26 -26 -75q0 -40 35 -69q22 -18 70 -18q52 0 81 22zM636 0h-656v256h576q59 0 96 9q82 20 105 89q-1 -6 -122 -5q-235 0 -316 71q-98 84 -98 216q0 52 8 96q28 161 173 217q109 42 262 43
q233 1 339 -57q81 -45 142 -209q33 -89 33 -262q0 -151 -113 -311q-47 -66 -189 -117q-101 -36 -240 -36zM625 -400h150v-150h-150v150zM750 -150h150v-150h-150v150zM500 -150h150v-150h-150v150z" />
    <glyph glyph-name="uni06A5.medi" unicode="&#x6a5;" horiz-adv-x="1474" 
d="M625 -400h150v-150h-150v150zM750 -150h150v-150h-150v150zM500 -150h150v-150h-150v150zM737 992q198 0 339 -66q87 -41 139 -158q36 -81 36 -236q0 -126 -167 -256q167 -20 363 -20h47v-256h-107q-193 0 -352 15q-196 19 -298 69q-102 -50 -298 -69q-159 -15 -352 -15
h-107v256h47q196 0 363 20q-167 130 -167 256q0 155 36 236q52 117 139 158q141 66 339 66zM737 416q137 52 137 156q0 78 -46 133q-25 30 -91 30t-91 -30q-46 -55 -46 -133q0 -104 137 -156z" />
    <glyph glyph-name="uni06A5.fina" unicode="&#x6a5;" horiz-adv-x="2439" 
d="M2128 271q125 -15 284 -15h47v-256h-107q-193 0 -352 15q-64 5 -122 14l-71 -29q-100 -56 -813 -58q-405 -1 -534 28q-329 75 -330 344q-1 138 63 230h358q-51 -94 -51 -184q0 -70 189 -136q72 -25 330 -25q345 0 409 10q-13 12 -24 25q-140 160 -140 334q0 103 24 168
q49 134 164 198q104 58 250 58q198 0 339 -66q87 -41 139 -158q36 -81 36 -236q0 -131 -88 -261zM1764 363q75 95 75 209q0 74 -50 134q-25 30 -71 30q-48 0 -75 -42q-26 -41 -26 -119q0 -101 67 -164q26 -25 80 -48zM1000 -450h150v-150h-150v150zM1125 -200h150v-150h-150
v150zM875 -200h150v-150h-150v150z" />
    <glyph glyph-name="uni06A7.init" unicode="&#x6a7;" horiz-adv-x="1341" 
d="M600 1285h150v-150h-150v150zM765 591q36 28 36 66q0 59 -50 88q-28 16 -71 15q-47 0 -75 -29q-26 -26 -26 -75q0 -40 35 -69q22 -18 70 -18q52 0 81 22zM636 0h-656v256h576q59 0 96 9q82 20 105 89q-1 -6 -122 -5q-235 0 -316 71q-98 84 -98 216q0 52 8 96
q28 161 173 217q109 42 262 43q233 1 339 -57q81 -45 142 -209q33 -89 33 -262q0 -151 -113 -311q-47 -66 -189 -117q-101 -36 -240 -36z" />
    <glyph glyph-name="uni06A7.medi" unicode="&#x6a7;" horiz-adv-x="1474" 
d="M662 1285h150v-150h-150v150zM737 992q198 0 339 -66q87 -41 139 -158q36 -81 36 -236q0 -126 -167 -256q167 -20 363 -20h47v-256h-107q-193 0 -352 15q-196 19 -298 69q-102 -50 -298 -69q-159 -15 -352 -15h-107v256h47q196 0 363 20q-167 130 -167 256q0 155 36 236
q52 117 139 158q141 66 339 66zM737 416q137 52 137 156q0 78 -46 133q-25 30 -91 30t-91 -30q-46 -55 -46 -133q0 -104 137 -156z" />
    <glyph glyph-name="uni06A7.fina" unicode="&#x6a7;" horiz-adv-x="1846" 
d="M1312 325q-6 41 -53 80q-29 24 -68 23q-42 -1 -71 -30q-30 -30 -30 -58q0 -45 35 -64q36 -19 70 -19h122q0 39 -5 68zM1664 0q-19 -110 -90 -212q-95 -131 -270 -193q-279 -99 -609 -95q-382 3 -511 192q-84 123 -77 243q8 120 47 165h358q-53 -45 -53 -109q0 -58 11 -86
q60 -149 230 -149q265 0 433 98q108 64 134 146q-22 0 -121 2q-223 5 -316 86q-98 84 -98 216q0 52 8 96q28 161 173 217q109 42 262 43q244 1 339 -57q89 -55 142 -209q20 -57 27 -138h183v-256h-202zM1150 1025h150v-150h-150v150z" />
    <glyph glyph-name="uni06A8.init" unicode="&#x6a8;" horiz-adv-x="1341" 
d="M600 1610h150v-150h-150v150zM725 1360h150v-150h-150v150zM475 1360h150v-150h-150v150zM765 591q36 28 36 66q0 59 -50 88q-28 16 -71 15q-47 0 -75 -29q-26 -26 -26 -75q0 -40 35 -69q22 -18 70 -18q52 0 81 22zM636 0h-656v256h576q59 0 96 9q82 20 105 89
q-1 -6 -122 -5q-235 0 -316 71q-98 84 -98 216q0 52 8 96q28 161 173 217q109 42 262 43q233 1 339 -57q81 -45 142 -209q33 -89 33 -262q0 -151 -113 -311q-47 -66 -189 -117q-101 -36 -240 -36z" />
    <glyph glyph-name="uni06A8.medi" unicode="&#x6a8;" horiz-adv-x="1474" 
d="M662 1610h150v-150h-150v150zM787 1360h150v-150h-150v150zM537 1360h150v-150h-150v150zM737 992q198 0 339 -66q87 -41 139 -158q36 -81 36 -236q0 -126 -167 -256q167 -20 363 -20h47v-256h-107q-193 0 -352 15q-196 19 -298 69q-102 -50 -298 -69q-159 -15 -352 -15
h-107v256h47q196 0 363 20q-167 130 -167 256q0 155 36 236q52 117 139 158q141 66 339 66zM737 416q137 52 137 156q0 78 -46 133q-25 30 -91 30t-91 -30q-46 -55 -46 -133q0 -104 137 -156z" />
    <glyph glyph-name="uni06A8.fina" unicode="&#x6a8;" horiz-adv-x="1846" 
d="M1312 325q-6 41 -53 80q-29 24 -68 23q-42 -1 -71 -30q-30 -30 -30 -58q0 -45 35 -64q36 -19 70 -19h122q0 39 -5 68zM1664 0q-19 -110 -90 -212q-95 -131 -270 -193q-279 -99 -609 -95q-382 3 -511 192q-84 123 -77 243q8 120 47 165h358q-53 -45 -53 -109q0 -58 11 -86
q60 -149 230 -149q265 0 433 98q108 64 134 146q-22 0 -121 2q-223 5 -316 86q-98 84 -98 216q0 52 8 96q28 161 173 217q109 42 262 43q244 1 339 -57q89 -55 142 -209q20 -57 27 -138h183v-256h-202zM1150 1275h150v-150h-150v150zM1275 1025h150v-150h-150v150z
M1025 1025h150v-150h-150v150z" />
    <glyph glyph-name="uni06AA.init" unicode="&#x6aa;" horiz-adv-x="2199" 
d="M-20 0v256h1497q114 0 131 39q18 25 18 43.5t-2 28.5q-24 118 -78 128l-1141 201q-306 54 -306 321q0 35 10 68q39 119 135 161l711 310h624l-908 -412q-113 -51 -142 -113q-8 -17 4.5 -59t117.5 -60l1102 -186q288 -49 288 -411q0 -168 -103.5 -241.5t-338.5 -73.5
h-1619z" />
    <glyph glyph-name="uni06AA.medi" unicode="&#x6aa;" horiz-adv-x="2198" 
d="M-20 0v256h1497q119 0 131 39q16 52 16 72q0 113 -78 128l-1141 201q-306 54 -306 321q0 35 10 68q39 119 135 161l711 310h624l-908 -412q-113 -51 -142 -113q-8 -17 4.5 -59t117.5 -60l1102 -186q245 -42 282 -310q18 -74 48.5 -117t110.5 -43h24v-256h-283
q-51 0 -99 27q-95 -27 -237 -27h-1619z" />
    <glyph glyph-name="uni06AA.fina" unicode="&#x6aa;" horiz-adv-x="2603" 
d="M130 314q0 139 63 230h358q-51 -94 -51 -184q0 -99 189 -157q81 -25 247 -25h600q298 0 348 35q117 82 129 82q2 0 11 46t9 63q0 77 -82 91l-1141 201q-306 54 -306 321q0 35 10 68q39 119 135 161l711 310h624l-908 -412q-113 -51 -142 -113q-8 -17 4.5 -59t117.5 -60
l1102 -186q245 -42 282 -310q18 -74 48.5 -117t110.5 -43h24v-256h-283q-52 0 -100 28q-136 -54 -293 -80.5t-436 -26.5h-600q-304 0 -451 28q-330 63 -330 365z" />
    <glyph glyph-name="uni06AB.init" unicode="&#x6ab;" horiz-adv-x="1191" 
d="M498 0h-518v256h396q114 0 131 39q16 36 16 72q0 28 -78 128l-297 380q-50 63 -50 142q0 35 10 68q34 128 135 161l948 310v-256l-571 -199q-68 -24 -92 -70q-6 -11 -6 -36q0 -27 31 -69l231 -311q156 -210 156 -300q0 -168 -101 -240q-106 -75 -341 -75zM1007 1095
q0 36 -26 62q-25 25 -62 25t-62 -25t-25 -62q0 -38 25 -63t62 -25t62 26q26 25 26 62zM1138 1095q0 -92 -63 -156q-64 -64 -156 -64t-155 64q-64 64 -64 156t64 156q63 63 155 63t156 -63q63 -64 63 -156z" />
    <glyph glyph-name="uni06AB.medi" unicode="&#x6ab;" horiz-adv-x="1131" 
d="M839 75q-106 -75 -341 -75h-518v256h396q114 0 131 39q16 36 16 72q0 28 -78 128l-297 380q-50 63 -50 142q0 35 10 68q34 128 135 161l948 310v-256l-571 -199q-68 -24 -92 -70q-6 -11 -6 -36q0 -28 31 -69l419 -560q36 -48 84 -84q35 -26 90 -26h65v-256h-143
q-154 0 -229 75zM1007 1095q0 36 -26 62q-25 25 -62 25t-62 -25t-25 -62q0 -38 25 -63t62 -25t62 26q26 25 26 62zM1138 1095q0 -92 -63 -156q-64 -64 -156 -64t-155 64q-64 64 -64 156t64 156q63 63 155 63t156 -63q63 -64 63 -156z" />
    <glyph glyph-name="uni06AB.fina" unicode="&#x6ab;" horiz-adv-x="2097" 
d="M1745 75q-189 -93 -341 -118q-220 -36 -493 -36q-305 0 -451 28q-329 63 -330 365q-1 138 63 230h358q-51 -94 -51 -184q0 -99 189 -157q81 -25 247 -25q180 0 348 35q103 21 129 82q16 36 16 72q0 28 -78 128l-297 380q-50 63 -50 142q0 35 10 68q37 129 135 161
l948 310v-256l-571 -199q-68 -24 -92 -70q-6 -11 -6 -36q0 -28 31 -69l419 -560q36 -48 84 -84q35 -26 90 -26h65v-256h-143q-154 0 -229 75zM1907 1095q0 36 -26 62q-25 25 -62 25t-62 -25t-25 -62q0 -38 25 -63t62 -25t62 26q26 25 26 62zM2038 1095q0 -92 -63 -156
q-64 -64 -156 -64t-155 64q-64 64 -64 156t64 156q63 63 155 63t156 -63q63 -64 63 -156z" />
    <glyph glyph-name="uni06AC.init" unicode="&#x6ac;" horiz-adv-x="1191" 
d="M498 0h-518v256h396q114 0 131 39q16 36 16 72q0 28 -78 128l-297 380q-50 63 -50 142q0 35 10 68q34 128 135 161l948 310v-256l-571 -199q-68 -24 -92 -70q-6 -11 -6 -36q0 -27 31 -69l231 -311q156 -210 156 -300q0 -168 -101 -240q-106 -75 -341 -75zM325 1650h150
v-150h-150v150z" />
    <glyph glyph-name="uni06AC.medi" unicode="&#x6ac;" horiz-adv-x="1191" 
d="M839 75q-106 -75 -341 -75h-518v256h396q114 0 131 39q16 36 16 72q0 28 -78 128l-297 380q-50 63 -50 142q0 35 10 68q34 128 135 161l948 310v-256l-571 -199q-68 -24 -92 -70q-6 -11 -6 -36q0 -28 31 -69l419 -560q36 -48 84 -84q35 -26 90 -26h65v-256h-143
q-154 0 -229 75zM325 1650h150v-150h-150v150z" />
    <glyph glyph-name="uni06AC.fina" unicode="&#x6ac;" horiz-adv-x="1907" 
d="M1073 1168v-115q-59 1 -112 -6q-80 -11 -80 -42q0 -43 38 -65q35 -20 56 -26q102 -32 102 -117q-1 -110 -88 -152q-82 -39 -216 -39q-66 0 -122 11v121q68 -9 113 -9q85 0 117 14q60 26 60 67q0 23 -78 42q-64 16 -92 57q-32 47 -31 93q2 80 77 119q82 43 256 47z
M1434 53q-110 -71 -246 -90q-140 -19 -334 -18q-315 2 -417 32q-293 88 -293 283q0 75 16 128h358q-14 -34 -14 -61q0 -46 162 -105q58 -21 183 -21q115 0 216 33q121 39 172 107q73 97 73 270v945h358v-1101q0 -106 49 -155q44 -44 112 -44h98v-256h-357q-75 0 -136 53z
M825 1500h150v-150h-150v150z" />
    <glyph glyph-name="uni06AE.init" unicode="&#x6ae;" horiz-adv-x="1191" 
d="M498 0h-518v256h396q114 0 131 39q16 36 16 72q0 28 -78 128l-297 380q-50 63 -50 142q0 35 10 68q34 128 135 161l948 310v-256l-571 -199q-68 -24 -92 -70q-6 -11 -6 -36q0 -27 31 -69l231 -311q156 -210 156 -300q0 -168 -101 -240q-106 -75 -341 -75zM450 -400h150
v-150h-150v150zM575 -150h150v-150h-150v150zM325 -150h150v-150h-150v150z" />
    <glyph glyph-name="uni06AE.medi" unicode="&#x6ae;" horiz-adv-x="1191" 
d="M839 75q-106 -75 -341 -75h-518v256h396q114 0 131 39q16 36 16 72q0 28 -78 128l-297 380q-50 63 -50 142q0 35 10 68q34 128 135 161l948 310v-256l-571 -199q-68 -24 -92 -70q-6 -11 -6 -36q0 -28 31 -69l419 -560q36 -48 84 -84q35 -26 90 -26h65v-256h-143
q-154 0 -229 75zM450 -400h150v-150h-150v150zM575 -150h150v-150h-150v150zM325 -150h150v-150h-150v150z" />
    <glyph glyph-name="uni06AE.fina" unicode="&#x6ae;" horiz-adv-x="1907" 
d="M1073 1168v-115q-59 1 -112 -6q-80 -11 -80 -42q0 -43 38 -65q35 -20 56 -26q102 -32 102 -117q-1 -110 -88 -152q-82 -39 -216 -39q-66 0 -122 11v121q68 -9 113 -9q85 0 117 14q60 26 60 67q0 23 -78 42q-64 16 -92 57q-32 47 -31 93q2 80 77 119q82 43 256 47z
M1434 53q-110 -71 -246 -90q-140 -19 -334 -18q-315 2 -417 32q-293 88 -293 283q0 75 16 128h358q-14 -34 -14 -61q0 -46 162 -105q58 -21 183 -21q115 0 216 33q121 39 172 107q73 97 73 270v945h358v-1101q0 -106 49 -155q44 -44 112 -44h98v-256h-357q-75 0 -136 53z
M850 -450h150v-150h-150v150zM975 -200h150v-150h-150v150zM725 -200h150v-150h-150v150z" />
    <glyph glyph-name="uni06B0.init" unicode="&#x6b0;" horiz-adv-x="1191" 
d="M1191 1685l-1062 -345v178l1062 345v-178zM498 0h-518v256h396q114 0 131 39q16 36 16 72q0 28 -78 128l-297 380q-50 63 -50 142q0 35 10 68q34 128 135 161l948 310v-256l-571 -199q-68 -24 -92 -70q-6 -11 -6 -36q0 -27 31 -69l231 -311q156 -210 156 -300
q0 -168 -101 -240q-106 -75 -341 -75zM1007 1095q0 36 -26 62q-25 25 -62 25t-62 -25t-25 -62q0 -38 25 -63t62 -25t62 26q26 25 26 62zM1138 1095q0 -92 -63 -156q-64 -64 -156 -64t-155 64q-64 64 -64 156t64 156q63 63 155 63t156 -63q63 -64 63 -156z" />
    <glyph glyph-name="uni06B0.medi" unicode="&#x6b0;" horiz-adv-x="1191" 
d="M1191 1685l-1062 -345v178l1062 345v-178zM839 75q-106 -75 -341 -75h-518v256h396q114 0 131 39q16 36 16 72q0 28 -78 128l-297 380q-50 63 -50 142q0 35 10 68q34 128 135 161l948 310v-256l-571 -199q-68 -24 -92 -70q-6 -11 -6 -36q0 -28 31 -69l419 -560
q36 -48 84 -84q35 -26 90 -26h65v-256h-143q-154 0 -229 75zM1007 1095q0 36 -26 62q-25 25 -62 25t-62 -25t-25 -62q0 -38 25 -63t62 -25t62 26q26 25 26 62zM1138 1095q0 -92 -63 -156q-64 -64 -156 -64t-155 64q-64 64 -64 156t64 156q63 63 155 63t156 -63
q63 -64 63 -156z" />
    <glyph glyph-name="uni06B0.fina" unicode="&#x6b0;" horiz-adv-x="2097" 
d="M2097 1685l-1062 -345v178l1062 345v-178zM1745 75q-189 -93 -341 -118q-220 -36 -493 -36q-305 0 -451 28q-329 63 -330 365q-1 138 63 230h358q-51 -94 -51 -184q0 -99 189 -157q81 -25 247 -25q180 0 348 35q103 21 129 82q16 36 16 72q0 28 -78 128l-297 380
q-50 63 -50 142q0 35 10 68q37 129 135 161l948 310v-256l-571 -199q-68 -24 -92 -70q-6 -11 -6 -36q0 -28 31 -69l419 -560q36 -48 84 -84q35 -26 90 -26h65v-256h-143q-154 0 -229 75zM1907 1095q0 36 -26 62q-25 25 -62 25t-62 -25t-25 -62q0 -38 25 -63t62 -25t62 26
q26 25 26 62zM2038 1095q0 -92 -63 -156q-64 -64 -156 -64t-155 64q-64 64 -64 156t64 156q63 63 155 63t156 -63q63 -64 63 -156z" />
    <glyph glyph-name="uni06B2.init" unicode="&#x6b2;" horiz-adv-x="1191" 
d="M1191 1685l-1062 -345v178l1062 345v-178zM498 0h-518v256h396q114 0 131 39q16 36 16 72q0 28 -78 128l-297 380q-50 63 -50 142q0 35 10 68q34 128 135 161l948 310v-256l-571 -199q-68 -24 -92 -70q-6 -11 -6 -36q0 -27 31 -69l231 -311q156 -210 156 -300
q0 -168 -101 -240q-106 -75 -341 -75zM575 -150h150v-150h-150v150zM325 -150h150v-150h-150v150z" />
    <glyph glyph-name="uni06B2.medi" unicode="&#x6b2;" horiz-adv-x="1191" 
d="M1191 1685l-1062 -345v178l1062 345v-178zM839 75q-106 -75 -341 -75h-518v256h396q114 0 131 39q16 36 16 72q0 28 -78 128l-297 380q-50 63 -50 142q0 35 10 68q34 128 135 161l948 310v-256l-571 -199q-68 -24 -92 -70q-6 -11 -6 -36q0 -28 31 -69l419 -560
q36 -48 84 -84q35 -26 90 -26h65v-256h-143q-154 0 -229 75zM575 -150h150v-150h-150v150zM325 -150h150v-150h-150v150z" />
    <glyph glyph-name="uni06B2.fina" unicode="&#x6b2;" horiz-adv-x="2097" 
d="M2097 1685l-1062 -345v178l1062 345v-178zM1745 75q-189 -93 -341 -118q-220 -36 -493 -36q-305 0 -451 28q-329 63 -330 365q-1 138 63 230h358q-51 -94 -51 -184q0 -99 189 -157q81 -25 247 -25q180 0 348 35q103 21 129 82q16 36 16 72q0 28 -78 128l-297 380
q-50 63 -50 142q0 35 10 68q37 129 135 161l948 310v-256l-571 -199q-68 -24 -92 -70q-6 -11 -6 -36q0 -28 31 -69l419 -560q36 -48 84 -84q35 -26 90 -26h65v-256h-143q-154 0 -229 75zM975 -200h150v-150h-150v150zM725 -200h150v-150h-150v150z" />
    <glyph glyph-name="uni06B4.init" unicode="&#x6b4;" horiz-adv-x="1191" 
d="M1191 1685l-1062 -345v178l1062 345v-178zM498 0h-518v256h396q114 0 131 39q16 36 16 72q0 28 -78 128l-297 380q-50 63 -50 142q0 35 10 68q34 128 135 161l948 310v-256l-571 -199q-68 -24 -92 -70q-6 -11 -6 -36q0 -27 31 -69l231 -311q156 -210 156 -300
q0 -168 -101 -240q-106 -75 -341 -75zM200 2100h150v-150h-150v150zM325 1850h150v-150h-150v150zM75 1850h150v-150h-150v150z" />
    <glyph glyph-name="uni06B4.medi" unicode="&#x6b4;" horiz-adv-x="1191" 
d="M1191 1685l-1062 -345v178l1062 345v-178zM839 75q-106 -75 -341 -75h-518v256h396q114 0 131 39q16 36 16 72q0 28 -78 128l-297 380q-50 63 -50 142q0 35 10 68q34 128 135 161l948 310v-256l-571 -199q-68 -24 -92 -70q-6 -11 -6 -36q0 -28 31 -69l419 -560
q36 -48 84 -84q35 -26 90 -26h65v-256h-143q-154 0 -229 75zM200 2100h150v-150h-150v150zM325 1850h150v-150h-150v150zM75 1850h150v-150h-150v150z" />
    <glyph glyph-name="uni06B4.fina" unicode="&#x6b4;" horiz-adv-x="2097" 
d="M2097 1685l-1062 -345v178l1062 345v-178zM1745 75q-189 -93 -341 -118q-220 -36 -493 -36q-305 0 -451 28q-329 63 -330 365q-1 138 63 230h358q-51 -94 -51 -184q0 -99 189 -157q81 -25 247 -25q180 0 348 35q103 21 129 82q16 36 16 72q0 28 -78 128l-297 380
q-50 63 -50 142q0 35 10 68q37 129 135 161l948 310v-256l-571 -199q-68 -24 -92 -70q-6 -11 -6 -36q0 -28 31 -69l419 -560q36 -48 84 -84q35 -26 90 -26h65v-256h-143q-154 0 -229 75zM1150 2100h150v-150h-150v150zM1275 1850h150v-150h-150v150zM1025 1850h150v-150
h-150v150z" />
    <glyph glyph-name="uni06B5.init" unicode="&#x6b5;" horiz-adv-x="769" 
d="M304 1662l-195 326h179l130 -195l130 195h179l-195 -326h-228zM597 371q0 -182 -68 -279q-64 -92 -192 -92h-357v256h98q68 0 112 44q49 49 49 155v1101h358v-1185z" />
    <glyph glyph-name="uni06B5.medi" unicode="&#x6b5;" horiz-adv-x="836" 
d="M304 1662l-195 326h179l130 -195l130 195h179l-195 -326h-228zM-20 0v256h98q68 0 112 44q49 49 49 155v1101h358v-1101q0 -106 49 -155q44 -44 112 -44h98v-256h-251q-110 0 -187 109q-77 -109 -187 -109h-251z" />
    <glyph glyph-name="uni06B5.fina" unicode="&#x6b5;" horiz-adv-x="1828" 
d="M1300 1662l-195 326h179l130 -195l130 195h179l-195 -326h-228zM1524 16q-112 -212 -411 -294q-350 -97 -676 -12q-292 76 -293 365q-1 138 63 230h358q-71 -102 -65 -230q5 -114 166 -148q130 -27 269 18q161 52 222 128q78 97 78 353v1130h358v-1130q0 -77 49 -126
q44 -44 112 -44h94v-256h-247q-66 0 -77 16z" />
    <glyph glyph-name="uni06B6.init" unicode="&#x6b6;" horiz-adv-x="769" 
d="M597 371q0 -182 -68 -279q-64 -92 -192 -92h-357v256h98q68 0 112 44q49 49 49 155v1101h358v-1185zM332 1950h150v-150h-150v150z" />
    <glyph glyph-name="uni06B6.medi" unicode="&#x6b6;" horiz-adv-x="836" 
d="M-20 0v256h98q68 0 112 44q49 49 49 155v1101h358v-1101q0 -106 49 -155q44 -44 112 -44h98v-256h-251q-110 0 -187 109q-77 -109 -187 -109h-251zM332 1950h150v-150h-150v150z" />
    <glyph glyph-name="uni06B6.fina" unicode="&#x6b6;" horiz-adv-x="1828" 
d="M1524 16q-112 -212 -411 -294q-350 -97 -676 -12q-292 76 -293 365q-1 138 63 230h358q-71 -102 -65 -230q5 -114 166 -148q130 -27 269 18q161 52 222 128q78 97 78 353v1130h358v-1130q0 -77 49 -126q44 -44 112 -44h94v-256h-247q-66 0 -77 16zM1330 1950h150v-150
h-150v150z" />
    <glyph glyph-name="uni06B7.init" unicode="&#x6b7;" horiz-adv-x="769" 
d="M597 371q0 -182 -68 -279q-64 -92 -192 -92h-357v256h98q68 0 112 44q49 49 49 155v1101h358v-1185zM327 2100h150v-150h-150v150zM452 1850h150v-150h-150v150zM202 1850h150v-150h-150v150z" />
    <glyph glyph-name="uni06B7.medi" unicode="&#x6b7;" horiz-adv-x="836" 
d="M-20 0v256h98q68 0 112 44q49 49 49 155v1101h358v-1101q0 -106 49 -155q44 -44 112 -44h98v-256h-251q-110 0 -187 109q-77 -109 -187 -109h-251zM327 2100h150v-150h-150v150zM452 1850h150v-150h-150v150zM202 1850h150v-150h-150v150z" />
    <glyph glyph-name="uni06B7.fina" unicode="&#x6b7;" horiz-adv-x="1828" 
d="M1524 16q-112 -212 -411 -294q-350 -97 -676 -12q-292 76 -293 365q-1 138 63 230h358q-71 -102 -65 -230q5 -114 166 -148q130 -27 269 18q161 52 222 128q78 97 78 353v1130h358v-1130q0 -77 49 -126q44 -44 112 -44h94v-256h-247q-66 0 -77 16zM1325 2100h150v-150
h-150v150zM1450 1850h150v-150h-150v150zM1200 1850h150v-150h-150v150z" />
    <glyph glyph-name="uni06B8.init" unicode="&#x6b8;" horiz-adv-x="769" 
d="M597 371q0 -182 -68 -279q-64 -92 -192 -92h-357v256h98q68 0 112 44q49 49 49 155v1101h358v-1185zM299 -350h150v-150h-150v150zM424 -100h150v-150h-150v150zM174 -100h150v-150h-150v150z" />
    <glyph glyph-name="uni06B8.medi" unicode="&#x6b8;" horiz-adv-x="836" 
d="M-20 0v256h98q68 0 112 44q49 49 49 155v1101h358v-1101q0 -106 49 -155q44 -44 112 -44h98v-256h-251q-110 0 -187 109q-77 -109 -187 -109h-251zM329 -350h150v-150h-150v150zM454 -100h150v-150h-150v150zM204 -100h150v-150h-150v150z" />
    <glyph glyph-name="uni06B8.fina" unicode="&#x6b8;" horiz-adv-x="1828" 
d="M1524 16q-112 -212 -411 -294q-350 -97 -676 -12q-292 76 -293 365q-1 138 63 230h358q-71 -102 -65 -230q5 -114 166 -148q130 -27 269 18q161 52 222 128q78 97 78 353v1130h358v-1130q0 -77 49 -126q44 -44 112 -44h94v-256h-247q-66 0 -77 16zM800 -650h150v-150
h-150v150zM925 -400h150v-150h-150v150zM675 -400h150v-150h-150v150z" />
    <glyph glyph-name="uni06B9.init" unicode="&#x6b9;" horiz-adv-x="769" 
d="M343 -205h150v-150h-150v150zM597 371q0 -182 -68 -279q-64 -92 -192 -92h-357v256h98q68 0 112 44q49 49 49 155v145h358v-229zM343 985h150v-150h-150v150z" />
    <glyph glyph-name="uni06B9.medi" unicode="&#x6b9;" horiz-adv-x="836" 
d="M343 -205h150v-150h-150v150zM856 0h-251q-110 0 -187 109q-77 -109 -187 -109h-251v256h98q68 0 112 44q49 49 49 155v145h358v-145q0 -106 49 -155q44 -44 112 -44h98v-256zM343 985h150v-150h-150v150z" />
    <glyph glyph-name="uni06B9.fina" unicode="&#x6b9;" horiz-adv-x="1843" 
d="M1529 525q40 -97 50 -108q131 -160 236 -160h48v-257h-63q-168 1 -211 60q0 -98 -93 -261q-127 -220 -359 -265q-177 -34 -317 -34q-192 0 -345 44q-349 99 -349 462q0 140 40 316h358q-42 -160 -42 -293q0 -178 201 -252q55 -21 133 -21q56 0 117 17q214 56 269 215
q33 95 33 214q0 164 -101 386h358q29 -45 37 -63zM825 -675h150v-150h-150v150zM675 785h150v-150h-150v150z" />
    <glyph glyph-name="uni06BA.init" unicode="&#x6ba;" horiz-adv-x="769" 
d="M597 371q0 -182 -68 -279q-64 -92 -192 -92h-357v256h98q68 0 112 44q49 49 49 155v145h358v-229z" />
    <glyph glyph-name="uni06BA.medi" unicode="&#x6ba;" horiz-adv-x="836" 
d="M856 0h-251q-110 0 -187 109q-77 -109 -187 -109h-251v256h98q68 0 112 44q49 49 49 155v145h358v-145q0 -106 49 -155q44 -44 112 -44h98v-256z" />
    <glyph glyph-name="uni06BC.init" unicode="&#x6bc;" horiz-adv-x="769" 
d="M506 -80q0 36 -26 62q-25 25 -62 25t-62 -25t-25 -62q0 -38 25 -63t62 -25t62 26q26 25 26 62zM637 -80q0 -92 -63 -156q-64 -64 -156 -64t-155 64q-64 64 -64 156t64 156q63 63 155 63t156 -63q63 -64 63 -156zM597 371q0 -182 -68 -279q-64 -92 -192 -92h-357v256h98
q68 0 112 44q49 49 49 155v145h358v-229zM343 985h150v-150h-150v150z" />
    <glyph glyph-name="uni06BC.medi" unicode="&#x6bc;" horiz-adv-x="836" 
d="M506 -30q0 36 -26 62q-25 25 -62 25t-62 -25t-25 -62q0 -38 25 -63t62 -25t62 26q26 25 26 62zM637 -30q0 -92 -63 -156q-64 -64 -156 -64t-155 64q-64 64 -64 156t64 156q63 63 155 63t156 -63q63 -64 63 -156zM856 0h-251q-110 0 -187 109q-77 -109 -187 -109h-251v256
h98q68 0 112 44q49 49 49 155v145h358v-145q0 -106 49 -155q44 -44 112 -44h98v-256zM343 985h150v-150h-150v150z" />
    <glyph glyph-name="uni06BC.fina" unicode="&#x6bc;" horiz-adv-x="1843" 
d="M1529 525q40 -97 50 -108q131 -160 236 -160h48v-257h-63q-168 1 -211 60q0 -98 -93 -261q-127 -220 -359 -265q-177 -34 -317 -34q-192 0 -345 44q-349 99 -349 462q0 140 40 316h358q-42 -160 -42 -293q0 -178 201 -252q55 -21 133 -21q56 0 117 17q214 56 269 215
q33 95 33 214q0 164 -101 386h358q29 -45 37 -63zM982 -630q0 36 -26 62q-25 25 -62 25t-62 -25t-25 -62q0 -38 25 -63t62 -25t62 26q26 25 26 62zM1113 -630q0 -92 -63 -156q-64 -64 -156 -64t-155 64q-64 64 -64 156t64 156q63 63 155 63t156 -63q63 -64 63 -156zM675 785
h150v-150h-150v150z" />
    <glyph glyph-name="uni06BD.init" unicode="&#x6bd;" horiz-adv-x="769" 
d="M343 -350h150v-150h-150v150zM468 -100h150v-150h-150v150zM218 -100h150v-150h-150v150zM597 371q0 -182 -68 -279q-64 -92 -192 -92h-357v256h98q68 0 112 44q49 49 49 155v145h358v-229z" />
    <glyph glyph-name="uni06BD.medi" unicode="&#x6bd;" horiz-adv-x="836" 
d="M343 -350h150v-150h-150v150zM468 -100h150v-150h-150v150zM218 -100h150v-150h-150v150zM856 0h-251q-110 0 -187 109q-77 -109 -187 -109h-251v256h98q68 0 112 44q49 49 49 155v145h358v-145q0 -106 49 -155q44 -44 112 -44h98v-256z" />
    <glyph glyph-name="uni06BD.fina" unicode="&#x6bd;" horiz-adv-x="1843" 
d="M1529 525q40 -97 50 -108q131 -160 236 -160h48v-257h-63q-168 1 -211 60q0 -98 -93 -261q-127 -220 -359 -265q-177 -34 -317 -34q-192 0 -345 44q-349 99 -349 462q0 140 40 316h358q-42 -160 -42 -293q0 -178 201 -252q55 -21 133 -21q56 0 117 17q214 56 269 215
q33 95 33 214q0 164 -101 386h358q29 -45 37 -63zM700 1035h150v-150h-150v150zM825 785h150v-150h-150v150zM575 785h150v-150h-150v150z" />
    <glyph glyph-name="uni06BF.init" unicode="&#x6bf;" horiz-adv-x="1476" 
d="M625 1085h150v-150h-150v150zM625 -350h150v-150h-150v150zM750 -100h150v-150h-150v150zM500 -100h150v-150h-150v150zM867 504q-75 25 -188 40q-94 12 -248 25q-71 6 -243 -4v256q72 7 147 8q242 0 433 -35q279 -50 519 -122v-256q-91 -32 -204 -98q-129 -76 -264 -168
q-115 -79 -327 -116q-193 -34 -384 -34h-128v256h100q206 0 345 34q142 36 251 105q96 61 191 109z" />
    <glyph glyph-name="uni06BF.medi" unicode="&#x6bf;" horiz-adv-x="1476" 
d="M625 1085h150v-150h-150v150zM625 -350h150v-150h-150v150zM750 -100h150v-150h-150v150zM500 -100h150v-150h-150v150zM1000 269q-82 -59 -181 -119q-136 -83 -327 -116q-194 -34 -384 -34h-128v256h100q206 0 345 34q142 36 251 105q96 61 191 109q-75 25 -188 40
q-94 12 -248 25q-71 6 -243 -4v256q72 7 147 8q242 0 433 -35q279 -50 519 -122v-256l-47 -18q22 -49 44 -74q59 -68 146 -68h66v-256h-86q-204 0 -311 117q-52 57 -99 152z" />
    <glyph glyph-name="uni06BF.fina" unicode="&#x6bf;" horiz-adv-x="1476" 
d="M625 1185h150v-150h-150v150zM1212 578q0 -60 73 -203q61 -119 145 -119h66v-256h-86q-158 0 -279 149q-71 88 -131 212q-50 107 -68 179q-109 -35 -192 -102q-203 -163 -203 -363q0 -121 103 -227q90 -92 327 -92q301 0 507 153v-275q-164 -134 -502 -134
q-437 1 -637 199q-156 154 -156 376q0 179 140 350q102 125 300 203q-84 3 -232 -17q-135 -19 -230 -60v256q271 63 471 63q352 0 642 -38v-256q-14 1 -27 1q-16 1 -31 1zM755 -40h150v-150h-150v150zM880 210h150v-150h-150v150zM630 210h150v-150h-150v150z" />
    <glyph glyph-name="uni06CE.init" unicode="&#x6ce;" horiz-adv-x="769" 
d="M304 762l-195 326h179l130 -195l130 195h179l-195 -326h-228zM597 371q0 -182 -68 -279q-64 -92 -192 -92h-357v256h98q68 0 112 44q49 49 49 155v145h358v-229zM468 -190h150v-150h-150v150zM218 -190h150v-150h-150v150z" />
    <glyph glyph-name="uni06CE.medi" unicode="&#x6ce;" horiz-adv-x="836" 
d="M304 762l-195 326h179l130 -195l130 195h179l-195 -326h-228zM856 0h-251q-110 0 -187 109q-77 -109 -187 -109h-251v256h98q68 0 112 44q49 49 49 155v145h358v-145q0 -106 49 -155q44 -44 112 -44h98v-256zM468 -190h150v-150h-150v150zM218 -190h150v-150h-150v150z
" />
    <glyph glyph-name="uni06CE.fina" unicode="&#x6ce;" horiz-adv-x="2072" 
d="M636 612l-195 326h179l130 -195l130 195h179l-195 -326h-228zM1220 -218q-190 -41 -372 -41q-341 -1 -425 29q-292 105 -293 354q-1 139 63 230h358q-70 -101 -65 -230q2 -68 130 -110q51 -17 212 -17q186 0 316 35q146 40 146 74q-1 26 -27 43q-54 37 -65 48
q-31 37 -31 121q0 98 48 145q74 73 124 96q76 35 225 35q257 0 360 -184q86 -154 139 -154h29v-256h-61q-171 0 -281 180q-90 147 -158 147q-18 0 -25 -3q-45 -17 -45 -55q0 -44 57 -68q66 -27 66 -147q0 -179 -425 -272z" />
    <glyph glyph-name="uni06D5.fina" unicode="&#x6d5;" horiz-adv-x="1242" 
d="M703 317q-14 40 -22 91q-4 27 -9 50q-95 -10 -136 -42q-45 -35 -45 -89q0 -48 68 -48q97 0 144 38zM657 696q-5 33 -5 54h358q2 -200 37 -342q20 -82 61 -108q68 -44 79 -44h75v-256h-224q-92 0 -163 34q-66 31 -83 66q-108 -65 -344 -64q-56 0 -114 15q-201 48 -201 234
q0 190 216 328q106 68 308 83z" />
    <glyph glyph-name="uniFB52" unicode="&#x67b;" horiz-adv-x="2058" arabic-form="isolated" 
d="M1886 669q50 -256 -61 -396q-114 -142 -339 -204q-282 -77 -666 -79q-234 -1 -360 28q-329 77 -330 365q-1 138 63 230h358q-51 -94 -51 -184q0 -91 189 -157q72 -25 156 -25q205 0 361 47q242 71 292 159q64 113 30 216h358zM895 -350h150v-150h-150v150zM895 -100h150
v-150h-150v150z" />
    <glyph glyph-name="uniFB53" unicode="&#x67b;" horiz-adv-x="2168" arabic-form="final" 
d="M895 -350h150v-150h-150v150zM895 -100h150v-150h-150v150zM1686 162q-43 -52 -200 -93q-291 -77 -666 -79q-234 -1 -360 28q-329 77 -330 365q-1 138 63 230h358q-51 -94 -51 -184q0 -91 189 -157q72 -25 156 -25q205 0 361 47q243 73 292 159q64 113 30 216h358
q16 -75 16 -120q0 -147 54 -224q50 -69 157 -69h75v-256h-130q-270 0 -372 162z" />
    <glyph glyph-name="uniFB54" unicode="&#x67b;" horiz-adv-x="769" arabic-form="initial" 
d="M338 -350h150v-150h-150v150zM338 -100h150v-150h-150v150zM597 371q0 -182 -68 -279q-64 -92 -192 -92h-357v256h98q68 0 112 44q49 49 49 155v145h358v-229z" />
    <glyph glyph-name="uniFB55" unicode="&#x67b;" horiz-adv-x="836" arabic-form="medial" 
d="M338 -350h150v-150h-150v150zM338 -100h150v-150h-150v150zM856 0h-251q-110 0 -187 109q-77 -109 -187 -109h-251v256h98q68 0 112 44q49 49 49 155v145h358v-145q0 -106 49 -155q44 -44 112 -44h98v-256z" />
    <glyph glyph-name="uniFB56" unicode="&#x67e;" horiz-adv-x="2058" arabic-form="isolated" 
d="M1886 669q50 -256 -61 -396q-114 -142 -339 -204q-282 -77 -666 -79q-234 -1 -360 28q-329 77 -330 365q-1 138 63 230h358q-51 -94 -51 -184q0 -91 189 -157q72 -25 156 -25q205 0 361 47q242 71 292 159q64 113 30 216h358zM900 -350h150v-150h-150v150zM1025 -100h150
v-150h-150v150zM775 -100h150v-150h-150v150z" />
    <glyph glyph-name="uniFB57" unicode="&#x67e;" horiz-adv-x="2168" arabic-form="final" 
d="M900 -350h150v-150h-150v150zM1025 -100h150v-150h-150v150zM775 -100h150v-150h-150v150zM1686 162q-43 -52 -200 -93q-291 -77 -666 -79q-234 -1 -360 28q-329 77 -330 365q-1 138 63 230h358q-51 -94 -51 -184q0 -91 189 -157q72 -25 156 -25q205 0 361 47
q243 73 292 159q64 113 30 216h358q16 -75 16 -120q0 -147 54 -224q50 -69 157 -69h75v-256h-130q-270 0 -372 162z" />
    <glyph glyph-name="uniFB58" unicode="&#x67e;" horiz-adv-x="769" arabic-form="initial" 
d="M343 -350h150v-150h-150v150zM468 -100h150v-150h-150v150zM218 -100h150v-150h-150v150zM597 371q0 -182 -68 -279q-64 -92 -192 -92h-357v256h98q68 0 112 44q49 49 49 155v145h358v-229z" />
    <glyph glyph-name="uniFB59" unicode="&#x67e;" horiz-adv-x="836" arabic-form="medial" 
d="M343 -350h150v-150h-150v150zM468 -100h150v-150h-150v150zM218 -100h150v-150h-150v150zM856 0h-251q-110 0 -187 109q-77 -109 -187 -109h-251v256h98q68 0 112 44q49 49 49 155v145h358v-145q0 -106 49 -155q44 -44 112 -44h98v-256z" />
    <glyph glyph-name="uniFB5A" unicode="&#x680;" horiz-adv-x="2058" arabic-form="isolated" 
d="M1886 669q50 -256 -61 -396q-114 -142 -339 -204q-282 -77 -666 -79q-234 -1 -360 28q-329 77 -330 365q-1 138 63 230h358q-51 -94 -51 -184q0 -91 189 -157q72 -25 156 -25q205 0 361 47q242 71 292 159q64 113 30 216h358zM1025 -350h150v-150h-150v150zM1025 -100
h150v-150h-150v150zM775 -350h150v-150h-150v150zM775 -100h150v-150h-150v150z" />
    <glyph glyph-name="uniFB5B" unicode="&#x680;" horiz-adv-x="2168" arabic-form="final" 
d="M1025 -350h150v-150h-150v150zM1025 -100h150v-150h-150v150zM775 -350h150v-150h-150v150zM775 -100h150v-150h-150v150zM1686 162q-43 -52 -200 -93q-291 -77 -666 -79q-234 -1 -360 28q-329 77 -330 365q-1 138 63 230h358q-51 -94 -51 -184q0 -91 189 -157
q72 -25 156 -25q205 0 361 47q243 73 292 159q64 113 30 216h358q16 -75 16 -120q0 -147 54 -224q50 -69 157 -69h75v-256h-130q-270 0 -372 162z" />
    <glyph glyph-name="uniFB5C" unicode="&#x680;" horiz-adv-x="769" arabic-form="initial" 
d="M468 -350h150v-150h-150v150zM468 -100h150v-150h-150v150zM218 -350h150v-150h-150v150zM218 -100h150v-150h-150v150zM597 371q0 -182 -68 -279q-64 -92 -192 -92h-357v256h98q68 0 112 44q49 49 49 155v145h358v-229z" />
    <glyph glyph-name="uniFB5D" unicode="&#x680;" horiz-adv-x="836" arabic-form="medial" 
d="M468 -350h150v-150h-150v150zM468 -100h150v-150h-150v150zM218 -350h150v-150h-150v150zM218 -100h150v-150h-150v150zM856 0h-251q-110 0 -187 109q-77 -109 -187 -109h-251v256h98q68 0 112 44q49 49 49 155v145h358v-145q0 -106 49 -155q44 -44 112 -44h98v-256z" />
    <glyph glyph-name="uniFB5E" unicode="&#x67a;" horiz-adv-x="2058" arabic-form="isolated" 
d="M1886 669q50 -256 -61 -396q-114 -142 -339 -204q-282 -77 -666 -79q-234 -1 -360 28q-329 77 -330 365q-1 138 63 230h358q-51 -94 -51 -184q0 -91 189 -157q72 -25 156 -25q205 0 361 47q242 71 292 159q64 113 30 216h358zM895 910h150v-150h-150v150zM895 1160h150
v-150h-150v150z" />
    <glyph glyph-name="uniFB5F" unicode="&#x67a;" horiz-adv-x="2168" arabic-form="final" 
d="M895 910h150v-150h-150v150zM895 1160h150v-150h-150v150zM1686 162q-43 -52 -200 -93q-291 -77 -666 -79q-234 -1 -360 28q-329 77 -330 365q-1 138 63 230h358q-51 -94 -51 -184q0 -91 189 -157q72 -25 156 -25q205 0 361 47q243 73 292 159q64 113 30 216h358
q16 -75 16 -120q0 -147 54 -224q50 -69 157 -69h75v-256h-130q-270 0 -372 162z" />
    <glyph glyph-name="uniFB60" unicode="&#x67a;" horiz-adv-x="769" arabic-form="initial" 
d="M338 1060h150v-150h-150v150zM338 1310h150v-150h-150v150zM597 371q0 -182 -68 -279q-64 -92 -192 -92h-357v256h98q68 0 112 44q49 49 49 155v145h358v-229z" />
    <glyph glyph-name="uniFB61" unicode="&#x67a;" horiz-adv-x="836" arabic-form="medial" 
d="M338 1060h150v-150h-150v150zM338 1310h150v-150h-150v150zM856 0h-251q-110 0 -187 109q-77 -109 -187 -109h-251v256h98q68 0 112 44q49 49 49 155v145h358v-145q0 -106 49 -155q44 -44 112 -44h98v-256z" />
    <glyph glyph-name="uniFB62" unicode="&#x67f;" horiz-adv-x="2058" arabic-form="isolated" 
d="M1886 669q50 -256 -61 -396q-114 -142 -339 -204q-282 -77 -666 -79q-234 -1 -360 28q-329 77 -330 365q-1 138 63 230h358q-51 -94 -51 -184q0 -91 189 -157q72 -25 156 -25q205 0 361 47q242 71 292 159q64 113 30 216h358zM1025 910h150v-150h-150v150zM1025 1160h150
v-150h-150v150zM775 910h150v-150h-150v150zM775 1160h150v-150h-150v150z" />
    <glyph glyph-name="uniFB63" unicode="&#x67f;" horiz-adv-x="2168" arabic-form="final" 
d="M1025 910h150v-150h-150v150zM1025 1160h150v-150h-150v150zM775 910h150v-150h-150v150zM775 1160h150v-150h-150v150zM1686 162q-43 -52 -200 -93q-291 -77 -666 -79q-234 -1 -360 28q-329 77 -330 365q-1 138 63 230h358q-51 -94 -51 -184q0 -91 189 -157
q72 -25 156 -25q205 0 361 47q243 73 292 159q64 113 30 216h358q16 -75 16 -120q0 -147 54 -224q50 -69 157 -69h75v-256h-130q-270 0 -372 162z" />
    <glyph glyph-name="uniFB64" unicode="&#x67f;" horiz-adv-x="769" arabic-form="initial" 
d="M468 1060h150v-150h-150v150zM468 1310h150v-150h-150v150zM218 1060h150v-150h-150v150zM218 1310h150v-150h-150v150zM597 371q0 -182 -68 -279q-64 -92 -192 -92h-357v256h98q68 0 112 44q49 49 49 155v145h358v-229z" />
    <glyph glyph-name="uniFB65" unicode="&#x67f;" horiz-adv-x="836" arabic-form="medial" 
d="M468 1060h150v-150h-150v150zM468 1310h150v-150h-150v150zM218 1060h150v-150h-150v150zM218 1310h150v-150h-150v150zM856 0h-251q-110 0 -187 109q-77 -109 -187 -109h-251v256h98q68 0 112 44q49 49 49 155v145h358v-145q0 -106 49 -155q44 -44 112 -44h98v-256z" />
    <glyph glyph-name="uniFB66" unicode="&#x679;" horiz-adv-x="2058" arabic-form="isolated" 
d="M1886 669q50 -256 -61 -396q-114 -142 -339 -204q-282 -77 -666 -79q-234 -1 -360 28q-329 77 -330 365q-1 138 63 230h358q-51 -94 -51 -184q0 -91 189 -157q72 -25 156 -25q205 0 361 47q242 71 292 159q64 113 30 216h358zM946 839h33q50 0 90 13q38 14 38 35
q0 37 -30 35q-21 -3 -47 -14q-49 -22 -84 -69zM1002 704h-175h-117v135h60v388h136v-280q75 84 157 84t108 -19q68 -50 68 -125q0 -92 -67 -144q-51 -39 -170 -39z" />
    <glyph glyph-name="uniFB67" unicode="&#x679;" horiz-adv-x="2168" arabic-form="final" 
d="M946 839h33q50 0 90 13q38 14 38 35q0 37 -30 35q-21 -3 -47 -14q-49 -22 -84 -69zM1002 704h-175h-117v135h60v388h136v-280q75 84 157 84t108 -19q68 -50 68 -125q0 -92 -67 -144q-51 -39 -170 -39zM1686 162q-43 -52 -200 -93q-291 -77 -666 -79q-234 -1 -360 28
q-329 77 -330 365q-1 138 63 230h358q-51 -94 -51 -184q0 -91 189 -157q72 -25 156 -25q205 0 361 47q243 73 292 159q64 113 30 216h358q16 -75 16 -120q0 -147 54 -224q50 -69 157 -69h75v-256h-130q-270 0 -372 162z" />
    <glyph glyph-name="uniFB68" unicode="&#x679;" horiz-adv-x="769" arabic-form="initial" 
d="M389 989h33q50 0 90 13q38 14 38 35q0 37 -30 35q-21 -3 -47 -14q-49 -22 -84 -69zM445 854h-175h-117v135h60v388h136v-280q75 84 157 84t108 -19q68 -50 68 -125q0 -92 -67 -144q-51 -39 -170 -39zM597 371q0 -182 -68 -279q-64 -92 -192 -92h-357v256h98q68 0 112 44
q49 49 49 155v145h358v-229z" />
    <glyph glyph-name="uniFB69" unicode="&#x679;" horiz-adv-x="836" arabic-form="medial" 
d="M389 989h33q50 0 90 13q38 14 38 35q0 37 -30 35q-21 -3 -47 -14q-49 -22 -84 -69zM445 854h-175h-117v135h60v388h136v-280q75 84 157 84t108 -19q68 -50 68 -125q0 -92 -67 -144q-51 -39 -170 -39zM856 0h-251q-110 0 -187 109q-77 -109 -187 -109h-251v256h98
q68 0 112 44q49 49 49 155v145h358v-145q0 -106 49 -155q44 -44 112 -44h98v-256z" />
    <glyph glyph-name="uniFB6A" unicode="&#x6a4;" horiz-adv-x="2379" arabic-form="isolated" 
d="M1803 591q36 28 36 66q0 59 -50 88q-28 16 -71 15q-47 0 -75 -29q-26 -26 -26 -75q0 -40 35 -69q22 -18 70 -18q52 0 81 22zM1795 354q-55 -20 -122 -20q-222 4 -316 86q-98 84 -98 216q0 52 8 96q25 160 173 217q109 42 262 43q236 0 339 -57q81 -45 142 -209
q33 -89 33 -262q0 -186 -113 -311q-95 -105 -296 -143q-313 -59 -813 -59q-496 -1 -534 8q-330 77 -330 355q0 112 63 230h358q-73 -135 -51 -184q46 -102 189 -127q134 -25 330 -25q232 0 508 47q231 39 268 99zM1650 1610h150v-150h-150v150zM1775 1360h150v-150h-150v150
zM1525 1360h150v-150h-150v150z" />
    <glyph glyph-name="uniFB6B" unicode="&#x6a4;" horiz-adv-x="2439" arabic-form="final" 
d="M1650 1610h150v-150h-150v150zM1775 1360h150v-150h-150v150zM1525 1360h150v-150h-150v150zM2128 271q125 -15 284 -15h47v-256h-107q-193 0 -352 15q-64 5 -122 14l-71 -29q-100 -56 -813 -58q-405 -1 -534 28q-329 75 -330 344q-1 138 63 230h358q-51 -94 -51 -184
q0 -70 189 -136q72 -25 330 -25q345 0 409 10q-13 12 -24 25q-140 160 -140 334q0 103 24 168q49 134 164 198q104 58 250 58q198 0 339 -66q87 -41 139 -158q36 -81 36 -236q0 -131 -88 -261zM1764 363q75 95 75 209q0 74 -50 134q-25 30 -71 30q-48 0 -75 -42
q-26 -41 -26 -119q0 -101 67 -164q26 -25 80 -48z" />
    <glyph glyph-name="uniFB6C" unicode="&#x6a4;" horiz-adv-x="1341" arabic-form="initial" 
d="M600 1610h150v-150h-150v150zM725 1360h150v-150h-150v150zM475 1360h150v-150h-150v150zM765 591q36 28 36 66q0 59 -50 88q-28 16 -71 15q-47 0 -75 -29q-26 -26 -26 -75q0 -40 35 -69q22 -18 70 -18q52 0 81 22zM636 0h-656v256h576q59 0 96 9q82 20 105 89
q-1 -6 -122 -5q-235 0 -316 71q-98 84 -98 216q0 52 8 96q28 161 173 217q109 42 262 43q233 1 339 -57q81 -45 142 -209q33 -89 33 -262q0 -151 -113 -311q-47 -66 -189 -117q-101 -36 -240 -36z" />
    <glyph glyph-name="uniFB6D" unicode="&#x6a4;" horiz-adv-x="1474" arabic-form="medial" 
d="M662 1610h150v-150h-150v150zM787 1360h150v-150h-150v150zM537 1360h150v-150h-150v150zM737 992q198 0 339 -66q87 -41 139 -158q36 -81 36 -236q0 -126 -167 -256q167 -20 363 -20h47v-256h-107q-193 0 -352 15q-196 19 -298 69q-102 -50 -298 -69q-159 -15 -352 -15
h-107v256h47q196 0 363 20q-167 130 -167 256q0 155 36 236q52 117 139 158q141 66 339 66zM737 416q137 52 137 156q0 78 -46 133q-25 30 -91 30t-91 -30q-46 -55 -46 -133q0 -104 137 -156z" />
    <glyph glyph-name="uniFB6E" unicode="&#x6a6;" horiz-adv-x="2379" arabic-form="isolated" 
d="M1803 591q36 28 36 66q0 59 -50 88q-28 16 -71 15q-47 0 -75 -29q-26 -26 -26 -75q0 -40 35 -69q22 -18 70 -18q52 0 81 22zM1795 354q-55 -20 -122 -20q-222 4 -316 86q-98 84 -98 216q0 52 8 96q25 160 173 217q109 42 262 43q236 0 339 -57q81 -45 142 -209
q33 -89 33 -262q0 -186 -113 -311q-95 -105 -296 -143q-313 -59 -813 -59q-496 -1 -534 8q-330 77 -330 355q0 112 63 230h358q-73 -135 -51 -184q46 -102 189 -127q134 -25 330 -25q232 0 508 47q231 39 268 99zM1775 1360h150v-150h-150v150zM1775 1610h150v-150h-150v150
zM1525 1360h150v-150h-150v150zM1525 1610h150v-150h-150v150z" />
    <glyph glyph-name="uniFB6F" unicode="&#x6a6;" horiz-adv-x="2439" arabic-form="final" 
d="M1775 1360h150v-150h-150v150zM1775 1610h150v-150h-150v150zM1525 1360h150v-150h-150v150zM1525 1610h150v-150h-150v150zM2128 271q125 -15 284 -15h47v-256h-107q-193 0 -352 15q-64 5 -122 14l-71 -29q-100 -56 -813 -58q-405 -1 -534 28q-329 75 -330 344
q-1 138 63 230h358q-51 -94 -51 -184q0 -70 189 -136q72 -25 330 -25q345 0 409 10q-13 12 -24 25q-140 160 -140 334q0 103 24 168q49 134 164 198q104 58 250 58q198 0 339 -66q87 -41 139 -158q36 -81 36 -236q0 -131 -88 -261zM1764 363q75 95 75 209q0 74 -50 134
q-25 30 -71 30q-48 0 -75 -42q-26 -41 -26 -119q0 -101 67 -164q26 -25 80 -48z" />
    <glyph glyph-name="uniFB70" unicode="&#x6a6;" horiz-adv-x="1341" arabic-form="initial" 
d="M725 1360h150v-150h-150v150zM725 1610h150v-150h-150v150zM475 1360h150v-150h-150v150zM475 1610h150v-150h-150v150zM765 591q36 28 36 66q0 59 -50 88q-28 16 -71 15q-47 0 -75 -29q-26 -26 -26 -75q0 -40 35 -69q22 -18 70 -18q52 0 81 22zM636 0h-656v256h576
q59 0 96 9q82 20 105 89q-1 -6 -122 -5q-235 0 -316 71q-98 84 -98 216q0 52 8 96q28 161 173 217q109 42 262 43q233 1 339 -57q81 -45 142 -209q33 -89 33 -262q0 -151 -113 -311q-47 -66 -189 -117q-101 -36 -240 -36z" />
    <glyph glyph-name="uniFB71" unicode="&#x6a6;" horiz-adv-x="1474" arabic-form="medial" 
d="M787 1360h150v-150h-150v150zM787 1610h150v-150h-150v150zM537 1360h150v-150h-150v150zM537 1610h150v-150h-150v150zM737 992q198 0 339 -66q87 -41 139 -158q36 -81 36 -236q0 -126 -167 -256q167 -20 363 -20h47v-256h-107q-193 0 -352 15q-196 19 -298 69
q-102 -50 -298 -69q-159 -15 -352 -15h-107v256h47q196 0 363 20q-167 130 -167 256q0 155 36 236q52 117 139 158q141 66 339 66zM737 416q137 52 137 156q0 78 -46 133q-25 30 -91 30t-91 -30q-46 -55 -46 -133q0 -104 137 -156z" />
    <glyph glyph-name="uniFB72" unicode="&#x684;" horiz-adv-x="1476" arabic-form="isolated" 
d="M1270 576q-335 19 -530 -138q-203 -163 -203 -363q0 -121 103 -227q90 -92 327 -92q301 0 507 153v-275q-164 -134 -502 -134q-437 1 -637 199q-156 154 -156 376q0 179 140 350q102 125 300 203q-84 3 -232 -17q-135 -19 -230 -60v256q271 63 471 63q352 0 642 -38v-256
zM920 90h150v-150h-150v150zM920 340h150v-150h-150v150z" />
    <glyph glyph-name="uniFB73" unicode="&#x684;" horiz-adv-x="1476" arabic-form="final" 
d="M1212 578q0 -60 73 -203q61 -119 145 -119h66v-256h-86q-158 0 -279 149q-71 88 -131 212q-50 107 -68 179q-109 -35 -192 -102q-203 -163 -203 -363q0 -121 103 -227q90 -92 327 -92q301 0 507 153v-275q-164 -134 -502 -134q-437 1 -637 199q-156 154 -156 376
q0 179 140 350q102 125 300 203q-84 3 -232 -17q-135 -19 -230 -60v256q271 63 471 63q352 0 642 -38v-256q-14 1 -27 1q-16 1 -31 1zM770 40h150v-150h-150v150zM770 290h150v-150h-150v150z" />
    <glyph glyph-name="uniFB74" unicode="&#x684;" horiz-adv-x="1476" arabic-form="initial" 
d="M620 -350h150v-150h-150v150zM620 -100h150v-150h-150v150zM867 504q-75 25 -188 40q-94 12 -248 25q-71 6 -243 -4v256q72 7 147 8q242 0 433 -35q279 -50 519 -122v-256q-91 -32 -204 -98q-129 -76 -264 -168q-115 -79 -327 -116q-193 -34 -384 -34h-128v256h100
q206 0 345 34q142 36 251 105q96 61 191 109z" />
    <glyph glyph-name="uniFB75" unicode="&#x684;" horiz-adv-x="1476" arabic-form="medial" 
d="M620 -350h150v-150h-150v150zM620 -100h150v-150h-150v150zM1000 269q-82 -59 -181 -119q-136 -83 -327 -116q-194 -34 -384 -34h-128v256h100q206 0 345 34q142 36 251 105q96 61 191 109q-75 25 -188 40q-94 12 -248 25q-71 6 -243 -4v256q72 7 147 8q242 0 433 -35
q279 -50 519 -122v-256l-47 -18q22 -49 44 -74q59 -68 146 -68h66v-256h-86q-204 0 -311 117q-52 57 -99 152z" />
    <glyph glyph-name="uniFB76" unicode="&#x683;" horiz-adv-x="1476" arabic-form="isolated" 
d="M1270 576q-335 19 -530 -138q-203 -163 -203 -363q0 -121 103 -227q90 -92 327 -92q301 0 507 153v-275q-164 -134 -502 -134q-437 1 -637 199q-156 154 -156 376q0 179 140 350q102 125 300 203q-84 3 -232 -17q-135 -19 -230 -60v256q271 63 471 63q352 0 642 -38v-256
zM1050 200h150v-150h-150v150zM800 200h150v-150h-150v150z" />
    <glyph glyph-name="uniFB77" unicode="&#x683;" horiz-adv-x="1476" arabic-form="final" 
d="M1212 578q0 -60 73 -203q61 -119 145 -119h66v-256h-86q-158 0 -279 149q-71 88 -131 212q-50 107 -68 179q-109 -35 -192 -102q-203 -163 -203 -363q0 -121 103 -227q90 -92 327 -92q301 0 507 153v-275q-164 -134 -502 -134q-437 1 -637 199q-156 154 -156 376
q0 179 140 350q102 125 300 203q-84 3 -232 -17q-135 -19 -230 -60v256q271 63 471 63q352 0 642 -38v-256q-14 1 -27 1q-16 1 -31 1zM925 125h150v-150h-150v150zM675 125h150v-150h-150v150z" />
    <glyph glyph-name="uniFB78" unicode="&#x683;" horiz-adv-x="1476" arabic-form="initial" 
d="M750 -90h150v-150h-150v150zM500 -90h150v-150h-150v150zM867 504q-75 25 -188 40q-94 12 -248 25q-71 6 -243 -4v256q72 7 147 8q242 0 433 -35q279 -50 519 -122v-256q-91 -32 -204 -98q-129 -76 -264 -168q-115 -79 -327 -116q-193 -34 -384 -34h-128v256h100
q206 0 345 34q142 36 251 105q96 61 191 109z" />
    <glyph glyph-name="uniFB79" unicode="&#x683;" horiz-adv-x="1476" arabic-form="medial" 
d="M750 -90h150v-150h-150v150zM500 -90h150v-150h-150v150zM1000 269q-82 -59 -181 -119q-136 -83 -327 -116q-194 -34 -384 -34h-128v256h100q206 0 345 34q142 36 251 105q96 61 191 109q-75 25 -188 40q-94 12 -248 25q-71 6 -243 -4v256q72 7 147 8q242 0 433 -35
q279 -50 519 -122v-256l-47 -18q22 -49 44 -74q59 -68 146 -68h66v-256h-86q-204 0 -311 117q-52 57 -99 152z" />
    <glyph glyph-name="uniFB7A" unicode="&#x686;" horiz-adv-x="1476" arabic-form="isolated" 
d="M1270 576q-335 19 -530 -138q-203 -163 -203 -363q0 -121 103 -227q90 -92 327 -92q301 0 507 153v-275q-164 -134 -502 -134q-437 1 -637 199q-156 154 -156 376q0 179 140 350q102 125 300 203q-84 3 -232 -17q-135 -19 -230 -60v256q271 63 471 63q352 0 642 -38v-256
zM925 40h150v-150h-150v150zM1050 290h150v-150h-150v150zM800 290h150v-150h-150v150z" />
    <glyph glyph-name="uniFB7B" unicode="&#x686;" horiz-adv-x="1476" arabic-form="final" 
d="M1212 578q0 -60 73 -203q61 -119 145 -119h66v-256h-86q-158 0 -279 149q-71 88 -131 212q-50 107 -68 179q-109 -35 -192 -102q-203 -163 -203 -363q0 -121 103 -227q90 -92 327 -92q301 0 507 153v-275q-164 -134 -502 -134q-437 1 -637 199q-156 154 -156 376
q0 179 140 350q102 125 300 203q-84 3 -232 -17q-135 -19 -230 -60v256q271 63 471 63q352 0 642 -38v-256q-14 1 -27 1q-16 1 -31 1zM755 -40h150v-150h-150v150zM880 210h150v-150h-150v150zM630 210h150v-150h-150v150z" />
    <glyph glyph-name="uniFB7C" unicode="&#x686;" horiz-adv-x="1476" arabic-form="initial" 
d="M625 -350h150v-150h-150v150zM750 -100h150v-150h-150v150zM500 -100h150v-150h-150v150zM867 504q-75 25 -188 40q-94 12 -248 25q-71 6 -243 -4v256q72 7 147 8q242 0 433 -35q279 -50 519 -122v-256q-91 -32 -204 -98q-129 -76 -264 -168q-115 -79 -327 -116
q-193 -34 -384 -34h-128v256h100q206 0 345 34q142 36 251 105q96 61 191 109z" />
    <glyph glyph-name="uniFB7D" unicode="&#x686;" horiz-adv-x="1476" arabic-form="medial" 
d="M625 -350h150v-150h-150v150zM750 -100h150v-150h-150v150zM500 -100h150v-150h-150v150zM1000 269q-82 -59 -181 -119q-136 -83 -327 -116q-194 -34 -384 -34h-128v256h100q206 0 345 34q142 36 251 105q96 61 191 109q-75 25 -188 40q-94 12 -248 25q-71 6 -243 -4v256
q72 7 147 8q242 0 433 -35q279 -50 519 -122v-256l-47 -18q22 -49 44 -74q59 -68 146 -68h66v-256h-86q-204 0 -311 117q-52 57 -99 152z" />
    <glyph glyph-name="uniFB7E" unicode="&#x687;" horiz-adv-x="1476" arabic-form="isolated" 
d="M1270 576q-335 19 -530 -138q-203 -163 -203 -363q0 -121 103 -227q90 -92 327 -92q301 0 507 153v-275q-164 -134 -502 -134q-437 1 -637 199q-156 154 -156 376q0 179 140 350q102 125 300 203q-84 3 -232 -17q-135 -19 -230 -60v256q271 63 471 63q352 0 642 -38v-256
zM1050 65h150v-150h-150v150zM1050 315h150v-150h-150v150zM800 65h150v-150h-150v150zM800 315h150v-150h-150v150z" />
    <glyph glyph-name="uniFB7F" unicode="&#x687;" horiz-adv-x="1476" arabic-form="final" 
d="M1212 578q0 -60 73 -203q61 -119 145 -119h66v-256h-86q-158 0 -279 149q-71 88 -131 212q-50 107 -68 179q-109 -35 -192 -102q-203 -163 -203 -363q0 -121 103 -227q90 -92 327 -92q301 0 507 153v-275q-164 -134 -502 -134q-437 1 -637 199q-156 154 -156 376
q0 179 140 350q102 125 300 203q-84 3 -232 -17q-135 -19 -230 -60v256q271 63 471 63q352 0 642 -38v-256q-14 1 -27 1q-16 1 -31 1zM900 5h150v-150h-150v150zM900 255h150v-150h-150v150zM650 5h150v-150h-150v150zM650 255h150v-150h-150v150z" />
    <glyph glyph-name="uniFB80" unicode="&#x687;" horiz-adv-x="1476" arabic-form="initial" 
d="M750 -350h150v-150h-150v150zM750 -100h150v-150h-150v150zM500 -350h150v-150h-150v150zM500 -100h150v-150h-150v150zM867 504q-75 25 -188 40q-94 12 -248 25q-71 6 -243 -4v256q72 7 147 8q242 0 433 -35q279 -50 519 -122v-256q-91 -32 -204 -98q-129 -76 -264 -168
q-115 -79 -327 -116q-193 -34 -384 -34h-128v256h100q206 0 345 34q142 36 251 105q96 61 191 109z" />
    <glyph glyph-name="uniFB81" unicode="&#x687;" horiz-adv-x="1476" arabic-form="medial" 
d="M750 -350h150v-150h-150v150zM750 -100h150v-150h-150v150zM500 -350h150v-150h-150v150zM500 -100h150v-150h-150v150zM1000 269q-82 -59 -181 -119q-136 -83 -327 -116q-194 -34 -384 -34h-128v256h100q206 0 345 34q142 36 251 105q96 61 191 109q-75 25 -188 40
q-94 12 -248 25q-71 6 -243 -4v256q72 7 147 8q242 0 433 -35q279 -50 519 -122v-256l-47 -18q22 -49 44 -74q59 -68 146 -68h66v-256h-86q-204 0 -311 117q-52 57 -99 152z" />
    <glyph glyph-name="uniFB82" unicode="&#x68d;" horiz-adv-x="1051" arabic-form="isolated" 
d="M391 222q175 46 200 127q27 87 -46 226q-62 121 -217 275h369q130 -164 158 -215q129 -228 50 -431q-74 -189 -440 -235q-193 -24 -340 31v255q157 -61 266 -33zM609 -150h150v-150h-150v150zM359 -150h150v-150h-150v150z" />
    <glyph glyph-name="uniFB83" unicode="&#x68d;" horiz-adv-x="1183" arabic-form="final" 
d="M921 474q27 -111 90 -174q44 -44 117 -44h75v-256h-130q-182 0 -236 105q-125 -105 -372 -136q-193 -24 -340 31v255q157 -61 266 -33q174 45 200 127q27 87 -46 226q-62 121 -217 275h369q130 -164 158 -215q46 -82 66 -161zM609 -150h150v-150h-150v150zM359 -150h150
v-150h-150v150z" />
    <glyph glyph-name="uniFB84" unicode="&#x68c;" horiz-adv-x="1051" arabic-form="isolated" 
d="M391 222q175 46 200 127q27 87 -46 226q-62 121 -217 275h369q130 -164 158 -215q129 -228 50 -431q-74 -189 -440 -235q-193 -24 -340 31v255q157 -61 266 -33zM560 1200h150v-150h-150v150zM310 1200h150v-150h-150v150z" />
    <glyph glyph-name="uniFB85" unicode="&#x68c;" horiz-adv-x="1183" arabic-form="final" 
d="M921 474q27 -111 90 -174q44 -44 117 -44h75v-256h-130q-182 0 -236 105q-125 -105 -372 -136q-193 -24 -340 31v255q157 -61 266 -33q174 45 200 127q27 87 -46 226q-62 121 -217 275h369q130 -164 158 -215q46 -82 66 -161zM560 1200h150v-150h-150v150zM310 1200h150
v-150h-150v150z" />
    <glyph glyph-name="uniFB86" unicode="&#x68e;" horiz-adv-x="1051" arabic-form="isolated" 
d="M391 222q175 46 200 127q27 87 -46 226q-62 121 -217 275h369q130 -164 158 -215q129 -228 50 -431q-74 -189 -440 -235q-193 -24 -340 31v255q157 -61 266 -33zM435 1450h150v-150h-150v150zM560 1200h150v-150h-150v150zM310 1200h150v-150h-150v150z" />
    <glyph glyph-name="uniFB87" unicode="&#x68e;" horiz-adv-x="1183" arabic-form="final" 
d="M921 474q27 -111 90 -174q44 -44 117 -44h75v-256h-130q-182 0 -236 105q-125 -105 -372 -136q-193 -24 -340 31v255q157 -61 266 -33q174 45 200 127q27 87 -46 226q-62 121 -217 275h369q130 -164 158 -215q46 -82 66 -161zM435 1450h150v-150h-150v150zM560 1200h150
v-150h-150v150zM310 1200h150v-150h-150v150z" />
    <glyph glyph-name="uniFB88" unicode="&#x688;" horiz-adv-x="1051" arabic-form="isolated" 
d="M391 222q175 46 200 127q27 87 -46 226q-62 121 -217 275h369q130 -164 158 -215q129 -228 50 -431q-74 -189 -440 -235q-193 -24 -340 31v255q157 -61 266 -33zM481 1139h33q50 0 90 13q38 14 38 35q0 37 -30 35q-21 -3 -47 -14q-49 -22 -84 -69zM537 1004h-175h-117
v135h60v388h136v-280q75 84 157 84t108 -19q68 -50 68 -125q0 -92 -67 -144q-51 -39 -170 -39z" />
    <glyph glyph-name="uniFB89" unicode="&#x688;" horiz-adv-x="1183" arabic-form="final" 
d="M921 474q27 -111 90 -174q44 -44 117 -44h75v-256h-130q-182 0 -236 105q-125 -105 -372 -136q-193 -24 -340 31v255q157 -61 266 -33q174 45 200 127q27 87 -46 226q-62 121 -217 275h369q130 -164 158 -215q46 -82 66 -161zM481 1139h33q50 0 90 13q38 14 38 35
q0 37 -30 35q-21 -3 -47 -14q-49 -22 -84 -69zM537 1004h-175h-117v135h60v388h136v-280q75 84 157 84t108 -19q68 -50 68 -125q0 -92 -67 -144q-51 -39 -170 -39z" />
    <glyph glyph-name="uniFB8A" unicode="&#x698;" horiz-adv-x="1179" arabic-form="isolated" 
d="M613 0q73 103 71 284q0 145 -52 266h358q50 -150 50 -266q0 -265 -88 -396q-127 -189 -350 -287q-230 -101 -687 -101v256q309 0 465 68q152 65 233 176zM725 1260h150v-150h-150v150zM850 1010h150v-150h-150v150zM600 1010h150v-150h-150v150z" />
    <glyph glyph-name="uniFB8B" unicode="&#x698;" horiz-adv-x="1274" arabic-form="final" 
d="M725 1260h150v-150h-150v150zM850 1010h150v-150h-150v150zM600 1010h150v-150h-150v150zM1012 26q-22 -81 -60 -138q-127 -189 -350 -287q-230 -101 -687 -101v256q309 0 465 68q154 67 233 176q73 101 71 284q0 145 -52 266h358q11 -34 20 -66q34 -125 92 -184
q44 -44 117 -44h75v-256h-130q-86 0 -152 26z" />
    <glyph glyph-name="uniFB8C" unicode="&#x691;" horiz-adv-x="1179" arabic-form="isolated" 
d="M613 0q73 103 71 284q0 145 -52 266h358q50 -150 50 -266q0 -265 -88 -396q-127 -189 -350 -287q-230 -101 -687 -101v256q309 0 465 68q152 65 233 176zM771 939h33q50 0 90 13q38 14 38 35q0 37 -30 35q-21 -3 -47 -14q-49 -22 -84 -69zM827 804h-175h-117v135h60v388
h136v-280q75 84 157 84t108 -19q68 -50 68 -125q0 -92 -67 -144q-51 -39 -170 -39z" />
    <glyph glyph-name="uniFB8D" unicode="&#x691;" horiz-adv-x="1274" arabic-form="final" 
d="M771 939h33q50 0 90 13q38 14 38 35q0 37 -30 35q-21 -3 -47 -14q-49 -22 -84 -69zM827 804h-175h-117v135h60v388h136v-280q75 84 157 84t108 -19q68 -50 68 -125q0 -92 -67 -144q-51 -39 -170 -39zM1012 26q-22 -81 -60 -138q-127 -189 -350 -287q-230 -101 -687 -101
v256q309 0 465 68q154 67 233 176q73 101 71 284q0 145 -52 266h358q11 -34 20 -66q34 -125 92 -184q44 -44 117 -44h75v-256h-130q-86 0 -152 26z" />
    <glyph glyph-name="uniFB8E" unicode="&#x6a9;" horiz-adv-x="2097" arabic-form="isolated" 
d="M1404 -43q-234 -36 -493 -36q-305 0 -451 28q-329 63 -330 365q-1 138 63 230h358q-51 -94 -51 -184q0 -99 189 -157q85 -25 247 -25q180 0 348 35q103 21 129 82q16 36 16 72q0 28 -78 128l-297 380q-50 63 -50 142q0 35 10 68q37 129 135 161l948 310v-256l-571 -199
q-68 -24 -92 -70q-6 -11 -6 -36q0 -27 31 -69l231 -311q156 -210 156 -300q0 -190 -101 -240q-189 -93 -341 -118z" />
    <glyph glyph-name="uniFB8F" unicode="&#x6a9;" horiz-adv-x="2097" arabic-form="final" 
d="M1745 75q-189 -93 -341 -118q-220 -36 -493 -36q-305 0 -451 28q-329 63 -330 365q-1 138 63 230h358q-51 -94 -51 -184q0 -99 189 -157q81 -25 247 -25q180 0 348 35q103 21 129 82q16 36 16 72q0 28 -78 128l-297 380q-50 63 -50 142q0 35 10 68q37 129 135 161
l948 310v-256l-571 -199q-68 -24 -92 -70q-6 -11 -6 -36q0 -28 31 -69l419 -560q36 -48 84 -84q35 -26 90 -26h65v-256h-143q-154 0 -229 75z" />
    <glyph glyph-name="uniFB90" unicode="&#x6a9;" horiz-adv-x="1191" arabic-form="initial" 
d="M498 0h-518v256h396q114 0 131 39q16 36 16 72q0 28 -78 128l-297 380q-50 63 -50 142q0 35 10 68q34 128 135 161l948 310v-256l-571 -199q-68 -24 -92 -70q-6 -11 -6 -36q0 -27 31 -69l231 -311q156 -210 156 -300q0 -168 -101 -240q-106 -75 -341 -75z" />
    <glyph glyph-name="uniFB91" unicode="&#x6a9;" horiz-adv-x="1191" arabic-form="medial" 
d="M839 75q-106 -75 -341 -75h-518v256h396q114 0 131 39q16 36 16 72q0 28 -78 128l-297 380q-50 63 -50 142q0 35 10 68q34 128 135 161l948 310v-256l-571 -199q-68 -24 -92 -70q-6 -11 -6 -36q0 -28 31 -69l419 -560q36 -48 84 -84q35 -26 90 -26h65v-256h-143
q-154 0 -229 75z" />
    <glyph glyph-name="uniFB92" unicode="&#x6af;" horiz-adv-x="2097" arabic-form="isolated" 
d="M1404 -43q-234 -36 -493 -36q-305 0 -451 28q-329 63 -330 365q-1 138 63 230h358q-51 -94 -51 -184q0 -99 189 -157q85 -25 247 -25q180 0 348 35q103 21 129 82q16 36 16 72q0 28 -78 128l-297 380q-50 63 -50 142q0 35 10 68q37 129 135 161l948 310v-256l-571 -199
q-68 -24 -92 -70q-6 -11 -6 -36q0 -27 31 -69l231 -311q156 -210 156 -300q0 -190 -101 -240q-189 -93 -341 -118zM2097 1685l-1062 -345v178l1062 345v-178z" />
    <glyph glyph-name="uniFB93" unicode="&#x6af;" horiz-adv-x="2097" arabic-form="final" 
d="M2097 1685l-1062 -345v178l1062 345v-178zM1745 75q-189 -93 -341 -118q-220 -36 -493 -36q-305 0 -451 28q-329 63 -330 365q-1 138 63 230h358q-51 -94 -51 -184q0 -99 189 -157q81 -25 247 -25q180 0 348 35q103 21 129 82q16 36 16 72q0 28 -78 128l-297 380
q-50 63 -50 142q0 35 10 68q37 129 135 161l948 310v-256l-571 -199q-68 -24 -92 -70q-6 -11 -6 -36q0 -28 31 -69l419 -560q36 -48 84 -84q35 -26 90 -26h65v-256h-143q-154 0 -229 75z" />
    <glyph glyph-name="uniFB94" unicode="&#x6af;" horiz-adv-x="1191" arabic-form="initial" 
d="M1191 1685l-1062 -345v178l1062 345v-178zM498 0h-518v256h396q114 0 131 39q16 36 16 72q0 28 -78 128l-297 380q-50 63 -50 142q0 35 10 68q34 128 135 161l948 310v-256l-571 -199q-68 -24 -92 -70q-6 -11 -6 -36q0 -27 31 -69l231 -311q156 -210 156 -300
q0 -168 -101 -240q-106 -75 -341 -75z" />
    <glyph glyph-name="uniFB95" unicode="&#x6af;" horiz-adv-x="1191" arabic-form="medial" 
d="M1191 1685l-1062 -345v178l1062 345v-178zM839 75q-106 -75 -341 -75h-518v256h396q114 0 131 39q16 36 16 72q0 28 -78 128l-297 380q-50 63 -50 142q0 35 10 68q34 128 135 161l948 310v-256l-571 -199q-68 -24 -92 -70q-6 -11 -6 -36q0 -28 31 -69l419 -560
q36 -48 84 -84q35 -26 90 -26h65v-256h-143q-154 0 -229 75z" />
    <glyph glyph-name="uniFB96" unicode="&#x6b3;" horiz-adv-x="2097" arabic-form="isolated" 
d="M850 -450h150v-150h-150v150zM850 -200h150v-150h-150v150zM2097 1685l-1062 -345v178l1062 345v-178zM1404 -43q-234 -36 -493 -36q-305 0 -451 28q-329 63 -330 365q-1 138 63 230h358q-51 -94 -51 -184q0 -99 189 -157q85 -25 247 -25q180 0 348 35q103 21 129 82
q16 36 16 72q0 28 -78 128l-297 380q-50 63 -50 142q0 35 10 68q37 129 135 161l948 310v-256l-571 -199q-68 -24 -92 -70q-6 -11 -6 -36q0 -27 31 -69l231 -311q156 -210 156 -300q0 -190 -101 -240q-189 -93 -341 -118z" />
    <glyph glyph-name="uniFB97" unicode="&#x6b3;" horiz-adv-x="2097" arabic-form="final" 
d="M2097 1685l-1062 -345v178l1062 345v-178zM1745 75q-189 -93 -341 -118q-220 -36 -493 -36q-305 0 -451 28q-329 63 -330 365q-1 138 63 230h358q-51 -94 -51 -184q0 -99 189 -157q81 -25 247 -25q180 0 348 35q103 21 129 82q16 36 16 72q0 28 -78 128l-297 380
q-50 63 -50 142q0 35 10 68q37 129 135 161l948 310v-256l-571 -199q-68 -24 -92 -70q-6 -11 -6 -36q0 -28 31 -69l419 -560q36 -48 84 -84q35 -26 90 -26h65v-256h-143q-154 0 -229 75zM850 -450h150v-150h-150v150zM850 -200h150v-150h-150v150z" />
    <glyph glyph-name="uniFB98" unicode="&#x6b3;" horiz-adv-x="1191" arabic-form="initial" 
d="M1191 1685l-1062 -345v178l1062 345v-178zM498 0h-518v256h396q114 0 131 39q16 36 16 72q0 28 -78 128l-297 380q-50 63 -50 142q0 35 10 68q34 128 135 161l948 310v-256l-571 -199q-68 -24 -92 -70q-6 -11 -6 -36q0 -27 31 -69l231 -311q156 -210 156 -300
q0 -168 -101 -240q-106 -75 -341 -75zM450 -400h150v-150h-150v150zM450 -150h150v-150h-150v150z" />
    <glyph glyph-name="uniFB99" unicode="&#x6b3;" horiz-adv-x="1191" arabic-form="medial" 
d="M1191 1685l-1062 -345v178l1062 345v-178zM839 75q-106 -75 -341 -75h-518v256h396q114 0 131 39q16 36 16 72q0 28 -78 128l-297 380q-50 63 -50 142q0 35 10 68q34 128 135 161l948 310v-256l-571 -199q-68 -24 -92 -70q-6 -11 -6 -36q0 -28 31 -69l419 -560
q36 -48 84 -84q35 -26 90 -26h65v-256h-143q-154 0 -229 75zM450 -400h150v-150h-150v150zM450 -150h150v-150h-150v150z" />
    <glyph glyph-name="uniFB9A" unicode="&#x6b1;" horiz-adv-x="2097" arabic-form="isolated" 
d="M1275 1850h150v-150h-150v150zM1025 1850h150v-150h-150v150zM2097 1685l-1062 -345v178l1062 345v-178zM1404 -43q-234 -36 -493 -36q-305 0 -451 28q-329 63 -330 365q-1 138 63 230h358q-51 -94 -51 -184q0 -99 189 -157q85 -25 247 -25q180 0 348 35q103 21 129 82
q16 36 16 72q0 28 -78 128l-297 380q-50 63 -50 142q0 35 10 68q37 129 135 161l948 310v-256l-571 -199q-68 -24 -92 -70q-6 -11 -6 -36q0 -27 31 -69l231 -311q156 -210 156 -300q0 -190 -101 -240q-189 -93 -341 -118z" />
    <glyph glyph-name="uniFB9B" unicode="&#x6b1;" horiz-adv-x="2097" arabic-form="final" 
d="M2097 1685l-1062 -345v178l1062 345v-178zM1745 75q-189 -93 -341 -118q-220 -36 -493 -36q-305 0 -451 28q-329 63 -330 365q-1 138 63 230h358q-51 -94 -51 -184q0 -99 189 -157q81 -25 247 -25q180 0 348 35q103 21 129 82q16 36 16 72q0 28 -78 128l-297 380
q-50 63 -50 142q0 35 10 68q37 129 135 161l948 310v-256l-571 -199q-68 -24 -92 -70q-6 -11 -6 -36q0 -28 31 -69l419 -560q36 -48 84 -84q35 -26 90 -26h65v-256h-143q-154 0 -229 75zM1275 1850h150v-150h-150v150zM1025 1850h150v-150h-150v150z" />
    <glyph glyph-name="uniFB9C" unicode="&#x6b1;" horiz-adv-x="1191" arabic-form="initial" 
d="M1191 1685l-1062 -345v178l1062 345v-178zM498 0h-518v256h396q114 0 131 39q16 36 16 72q0 28 -78 128l-297 380q-50 63 -50 142q0 35 10 68q34 128 135 161l948 310v-256l-571 -199q-68 -24 -92 -70q-6 -11 -6 -36q0 -27 31 -69l231 -311q156 -210 156 -300
q0 -168 -101 -240q-106 -75 -341 -75zM325 1850h150v-150h-150v150zM75 1850h150v-150h-150v150z" />
    <glyph glyph-name="uniFB9D" unicode="&#x6b1;" horiz-adv-x="1191" arabic-form="medial" 
d="M1191 1685l-1062 -345v178l1062 345v-178zM839 75q-106 -75 -341 -75h-518v256h396q114 0 131 39q16 36 16 72q0 28 -78 128l-297 380q-50 63 -50 142q0 35 10 68q34 128 135 161l948 310v-256l-571 -199q-68 -24 -92 -70q-6 -11 -6 -36q0 -28 31 -69l419 -560
q36 -48 84 -84q35 -26 90 -26h65v-256h-143q-154 0 -229 75zM325 1850h150v-150h-150v150zM75 1850h150v-150h-150v150z" />
    <glyph glyph-name="uniFB9E" unicode="&#x6ba;" horiz-adv-x="1748" arabic-form="isolated" 
d="M1596 312q1 -173 -100 -351q-125 -220 -359 -265q-177 -34 -317 -34q-192 0 -345 44q-349 99 -349 462q0 140 40 316h358q-42 -160 -42 -293q0 -178 201 -252q55 -20 133 -20q56 0 117 16q213 54 269 215q33 95 33 214q0 164 -101 386h358q103 -164 104 -438z" />
    <glyph glyph-name="uniFB9F" unicode="&#x6ba;" horiz-adv-x="1843" arabic-form="final" 
d="M1529 525q40 -97 50 -108q131 -160 236 -160h48v-257h-63q-168 1 -211 60q0 -98 -93 -261q-127 -220 -359 -265q-177 -34 -317 -34q-192 0 -345 44q-349 99 -349 462q0 140 40 316h358q-42 -160 -42 -293q0 -178 201 -252q55 -21 133 -21q56 0 117 17q214 56 269 215
q33 95 33 214q0 164 -101 386h358q29 -45 37 -63z" />
    <glyph glyph-name="uniFBA0" unicode="&#x6bb;" horiz-adv-x="1748" arabic-form="isolated" 
d="M808 914h33q50 0 90 13q38 14 38 35q0 37 -30 35q-21 -3 -47 -14q-49 -22 -84 -69zM864 779h-175h-117v135h60v388h136v-280q75 84 157 84t108 -19q68 -50 68 -125q0 -92 -67 -144q-51 -39 -170 -39zM1596 312q1 -173 -100 -351q-125 -220 -359 -265q-177 -34 -317 -34
q-192 0 -345 44q-349 99 -349 462q0 140 40 316h358q-42 -160 -42 -293q0 -178 201 -252q55 -20 133 -20q56 0 117 16q213 54 269 215q33 95 33 214q0 164 -101 386h358q103 -164 104 -438z" />
    <glyph glyph-name="uniFBA1" unicode="&#x6bb;" horiz-adv-x="1843" arabic-form="final" 
d="M1529 525q40 -97 50 -108q131 -160 236 -160h48v-257h-63q-168 1 -211 60q0 -98 -93 -261q-127 -220 -359 -265q-177 -34 -317 -34q-192 0 -345 44q-349 99 -349 462q0 140 40 316h358q-42 -160 -42 -293q0 -178 201 -252q55 -21 133 -21q56 0 117 17q214 56 269 215
q33 95 33 214q0 164 -101 386h358q29 -45 37 -63zM808 664h33q50 0 90 13q38 14 38 35q0 37 -30 35q-21 -3 -47 -14q-49 -22 -84 -69zM864 529h-175h-117v135h60v388h136v-280q75 84 157 84t108 -19q68 -50 68 -125q0 -92 -67 -144q-51 -39 -170 -39z" />
    <glyph glyph-name="uniFBA2" unicode="&#x6bb;" horiz-adv-x="769" arabic-form="initial" 
d="M389 989h33q50 0 90 13q38 14 38 35q0 37 -30 35q-21 -3 -47 -14q-49 -22 -84 -69zM445 854h-175h-117v135h60v388h136v-280q75 84 157 84t108 -19q68 -50 68 -125q0 -92 -67 -144q-51 -39 -170 -39zM597 371q0 -182 -68 -279q-64 -92 -192 -92h-357v256h98q68 0 112 44
q49 49 49 155v145h358v-229z" />
    <glyph glyph-name="uniFBA3" unicode="&#x6bb;" horiz-adv-x="836" arabic-form="medial" 
d="M389 989h33q50 0 90 13q38 14 38 35q0 37 -30 35q-21 -3 -47 -14q-49 -22 -84 -69zM445 854h-175h-117v135h60v388h136v-280q75 84 157 84t108 -19q68 -50 68 -125q0 -92 -67 -144q-51 -39 -170 -39zM856 0h-251q-110 0 -187 109q-77 -109 -187 -109h-251v256h98
q68 0 112 44q49 49 49 155v145h358v-145q0 -106 49 -155q44 -44 112 -44h98v-256z" />
    <glyph glyph-name="uniFBAA" unicode="&#x6be;" horiz-adv-x="1920" arabic-form="isolated" 
d="M1049 330q99 60 99 102q0 105 -70 105q-49 0 -69.5 -37t-20.5 -78.5t61 -91.5zM977 36q-254 -83 -305 -90t-130 -7t-205 38q-193 58 -193 283q0 75 16 128h358q-14 -34 -14 -61q0 -83 51 -109q37 -19 60 -19q72 0 150 35q-53 52 -87 121t-34 137q0 114 120 210
q48 38 126 56q-87 23 -145 23v256q437 -57 718 -267q334 -249 334 -477q0 -161 -94 -247q-124 -113 -352 -113t-374 103zM1431 421q-44 -125 -158 -229q29 -5 50 -5q123 0 142 67q7 25 7 60t-20 71t-21 36z" />
    <glyph glyph-name="uniFBAB" unicode="&#x6be;" horiz-adv-x="1802" arabic-form="final" 
d="M1142 756q467 0 467 -256q0 -109 -127 -244h340v-256h-376q163 -128 163 -241q0 -259 -467 -259q-215 0 -349.5 139.5t-157.5 300.5h-105q-62 0 -193 37q-193 55 -193 283q0 75 16 128h358q-14 -34 -14 -61q0 -83 51 -109q37 -19 52 -19h22v57q0 196 151 348t362 152z
M987 -10q0 -113 50.5 -174.5t135.5 -61.5t85 50t-84.5 119.5t-149.5 76.5zM987 240q100 26 185.5 90.5t85.5 122.5q0 49 -87 49t-135.5 -64t-48.5 -182v-16z" />
    <glyph glyph-name="uniFBAC" unicode="&#x6be;" horiz-adv-x="1420" arabic-form="initial" 
d="M549 330q99 60 99 105q0 38 -15 69q-16 33 -55 33q-46 0 -74 -45q-18 -30 -16 -60q1 -35 16 -54q21 -27 45 -48zM390 758q-87 18 -145 23v256q437 -57 718 -267q249 -186 315 -368q19 -52 19 -109q0 -160 -94 -247q-122 -113 -355 -113q-224 0 -371 103
q-105 -36 -360 -36h-137v256h107q79 0 157 11q-54 62 -64 84q-36 72 -36 141q0 112 120 210q46 38 126 56zM931 421q-22 -62 -56 -112q-42 -61 -102 -117q29 -5 50 -5q122 0 142 67q7 30 7 63q0 36 -36 97q-4 7 -5 7z" />
    <glyph glyph-name="uniFBAD" unicode="&#x6be;" horiz-adv-x="1352" arabic-form="medial" 
d="M179 256q5 196 161 358q136 142 352 142q260 1 380 -84q87 -64 87 -168q0 -120 -163 -248h376v-256h-376q163 -128 163 -248q0 -104 -87 -168q-120 -85 -380 -84q-216 0 -352 142q-156 162 -161 358h-199v256h199zM537 256h19q73 0 157 68q95 77 95 129q0 49 -100 49
q-72 0 -117 -57q-54 -71 -54 -189zM537 0q0 -118 54 -189q45 -57 117 -57q100 0 100 49q0 52 -95 129q-84 68 -157 68h-19z" />
    <glyph glyph-name="uniFBD3" unicode="&#x6ad;" horiz-adv-x="1688" arabic-form="isolated" 
d="M750 1750h150v-150h-150v150zM875 1500h150v-150h-150v150zM625 1500h150v-150h-150v150zM1073 1168v-115q-59 1 -112 -6q-80 -11 -80 -42q0 -43 38 -65q35 -20 56 -26q102 -32 102 -117q-1 -110 -88 -152q-82 -39 -216 -39q-66 0 -122 11v121q68 -9 113 -9q85 0 117 14
q60 26 60 67q0 23 -78 42q-64 16 -92 57q-32 47 -31 93q2 80 77 119q82 43 256 47zM1237 341q73 97 73 270v945h358v-945q0 -327 -110 -450q-150 -168 -370 -198q-140 -19 -334 -18q-315 2 -417 32q-293 88 -293 283q0 75 16 128h358q-14 -34 -14 -61q0 -46 162 -105
q58 -21 183 -21q115 0 216 33q121 39 172 107z" />
    <glyph glyph-name="uniFBD4" unicode="&#x6ad;" horiz-adv-x="1726" arabic-form="final" 
d="M1073 1168v-115q-59 1 -112 -6q-80 -11 -80 -42q0 -43 38 -65q35 -20 56 -26q102 -32 102 -117q-1 -110 -88 -152q-82 -39 -216 -39q-66 0 -122 11v121q68 -9 113 -9q85 0 117 14q60 26 60 67q0 23 -78 42q-64 16 -92 57q-32 47 -31 93q2 80 77 119q82 43 256 47z
M1434 53q-110 -71 -246 -90q-140 -19 -334 -18q-315 2 -417 32q-293 88 -293 283q0 75 16 128h358q-14 -34 -14 -61q0 -46 162 -105q58 -21 183 -21q115 0 216 33q121 39 172 107q73 97 73 270v945h358v-1101q0 -106 49 -155q44 -44 112 -44h98v-256h-357q-75 0 -136 53z
M750 1750h150v-150h-150v150zM875 1500h150v-150h-150v150zM625 1500h150v-150h-150v150z" />
    <glyph glyph-name="uniFBD5" unicode="&#x6ad;" horiz-adv-x="975" arabic-form="initial" 
d="M498 0h-518v256h396q114 0 131 39q16 36 16 72q0 28 -78 128l-297 380q-50 63 -50 142q0 35 10 68q34 128 135 161l948 310v-256l-571 -199q-68 -24 -92 -70q-6 -11 -6 -36q0 -27 31 -69l231 -311q156 -210 156 -300q0 -168 -101 -240q-106 -75 -341 -75zM200 1900h150
v-150h-150v150zM325 1650h150v-150h-150v150zM75 1650h150v-150h-150v150z" />
    <glyph glyph-name="uniFBD6" unicode="&#x6ad;" horiz-adv-x="1131" arabic-form="medial" 
d="M839 75q-106 -75 -341 -75h-518v256h396q114 0 131 39q16 36 16 72q0 28 -78 128l-297 380q-50 63 -50 142q0 35 10 68q34 128 135 161l948 310v-256l-571 -199q-68 -24 -92 -70q-6 -11 -6 -36q0 -28 31 -69l419 -560q36 -48 84 -84q35 -26 90 -26h65v-256h-143
q-154 0 -229 75zM200 1900h150v-150h-150v150zM325 1650h150v-150h-150v150zM75 1650h150v-150h-150v150z" />
    <glyph glyph-name="uniFBD7" unicode="&#x6c7;" horiz-adv-x="1273" arabic-form="isolated" 
d="M1120 156q0 -204 -89 -348q-93 -151 -313 -225q-246 -83 -803 -83v256q239 -8 411 19q178 29 261 82q101 64 127 143q-32 0 -131 2q-223 5 -316 86q-98 84 -98 216q0 52 8 96q28 161 173 217q109 42 262 43q220 0 325 -57t156 -209q27 -82 27 -238zM749 325q-6 41 -53 80
q-29 24 -68 23q-42 -1 -71 -30q-30 -30 -30 -58q0 -45 35 -64q36 -19 70 -19h122q0 39 -5 68zM573 992q-21 4 -33 13q-84 56 -84 149q0 100 66 142q55 35 110 34q75 -2 129 -52q59 -56 59 -136q0 -45 -18 -75l30 -2l27 -2v-130q-35 0 -67 2q-42 2 -65 5q-45 -52 -102 -92
q-176 -123 -350 -114v140q140 0 251 79q12 8 47 39zM658 1091q6 7 10 16q10 23 10 36q0 11 -10 29q-8 14 -32 14q-11 0 -22 -9q-18 -13 -18 -32q0 -24 33 -46q10 -7 29 -8z" />
    <glyph glyph-name="uniFBD8" unicode="&#x6c7;" horiz-adv-x="1284" arabic-form="final" 
d="M714 0q-32 0 -131 2q-223 5 -316 86q-98 84 -98 216q0 52 8 96q28 161 173 217q109 42 262 43q244 1 339 -57q89 -55 142 -209q20 -57 27 -138h184v-256h-201q-9 -91 -72 -192q-95 -151 -313 -225q-246 -83 -803 -83v256q239 -8 411 19q174 28 261 82q101 64 127 143z
M749 325q-6 41 -53 80q-29 24 -68 23q-42 -1 -71 -30q-30 -30 -30 -58q0 -45 35 -64q36 -19 70 -19h122q0 39 -5 68zM573 992q-21 4 -33 13q-84 56 -84 149q0 100 66 142q55 35 110 34q75 -2 129 -52q59 -56 59 -136q0 -45 -18 -75l30 -2l27 -2v-130q-35 0 -67 2
q-42 2 -65 5q-45 -52 -102 -92q-176 -123 -350 -114v140q140 0 251 79q12 8 47 39zM658 1091q6 7 10 16q10 23 10 36q0 11 -10 29q-8 14 -32 14q-11 0 -22 -9q-18 -13 -18 -32q0 -24 33 -46q10 -7 29 -8z" />
    <glyph glyph-name="uniFBD9" unicode="&#x6c6;" horiz-adv-x="1273" arabic-form="isolated" 
d="M511 812l-195 326h179l130 -195l130 195h179l-195 -326h-228zM1120 156q0 -204 -89 -348q-93 -151 -313 -225q-246 -83 -803 -83v256q239 -8 411 19q178 29 261 82q101 64 127 143q-32 0 -131 2q-223 5 -316 86q-98 84 -98 216q0 52 8 96q28 161 173 217q109 42 262 43
q220 0 325 -57t156 -209q27 -82 27 -238zM749 325q-6 41 -53 80q-29 24 -68 23q-42 -1 -71 -30q-30 -30 -30 -58q0 -45 35 -64q36 -19 70 -19h122q0 39 -5 68z" />
    <glyph glyph-name="uniFBDA" unicode="&#x6c6;" horiz-adv-x="1284" arabic-form="final" 
d="M511 812l-195 326h179l130 -195l130 195h179l-195 -326h-228zM714 0q-32 0 -131 2q-223 5 -316 86q-98 84 -98 216q0 52 8 96q28 161 173 217q109 42 262 43q244 1 339 -57q89 -55 142 -209q20 -57 27 -138h184v-256h-201q-9 -91 -72 -192q-95 -151 -313 -225
q-246 -83 -803 -83v256q239 -8 411 19q174 28 261 82q101 64 127 143zM749 325q-6 41 -53 80q-29 24 -68 23q-42 -1 -71 -30q-30 -30 -30 -58q0 -45 35 -64q36 -19 70 -19h122q0 39 -5 68z" />
    <glyph glyph-name="uniFBDB" unicode="&#x6c8;" horiz-adv-x="1273" arabic-form="isolated" 
d="M1120 156q0 -204 -89 -348q-93 -151 -313 -225q-246 -83 -803 -83v256q239 -8 411 19q178 29 261 82q101 64 127 143q-32 0 -131 2q-223 5 -316 86q-98 84 -98 216q0 52 8 96q28 161 173 217q109 42 262 43q220 0 325 -57t156 -209q27 -82 27 -238zM749 325q-6 41 -53 80
q-29 24 -68 23q-42 -1 -71 -30q-30 -30 -30 -58q0 -45 35 -64q36 -19 70 -19h122q0 39 -5 68zM552 763v584h140v-584h-140z" />
    <glyph glyph-name="uniFBDC" unicode="&#x6c8;" horiz-adv-x="1284" arabic-form="final" 
d="M714 0q-32 0 -131 2q-223 5 -316 86q-98 84 -98 216q0 52 8 96q28 161 173 217q109 42 262 43q244 1 339 -57q89 -55 142 -209q20 -57 27 -138h184v-256h-201q-9 -91 -72 -192q-95 -151 -313 -225q-246 -83 -803 -83v256q239 -8 411 19q174 28 261 82q101 64 127 143z
M749 325q-6 41 -53 80q-29 24 -68 23q-42 -1 -71 -30q-30 -30 -30 -58q0 -45 35 -64q36 -19 70 -19h122q0 39 -5 68zM552 763v584h140v-584h-140z" />
    <glyph glyph-name="uniFBDE" unicode="&#x6cb;" horiz-adv-x="1273" arabic-form="isolated" 
d="M1120 156q0 -204 -89 -348q-93 -151 -313 -225q-246 -83 -803 -83v256q239 -8 411 19q178 29 261 82q101 64 127 143q-32 0 -131 2q-223 5 -316 86q-98 84 -98 216q0 52 8 96q28 161 173 217q109 42 262 43q220 0 325 -57t156 -209q27 -82 27 -238zM749 325q-6 41 -53 80
q-29 24 -68 23q-42 -1 -71 -30q-30 -30 -30 -58q0 -45 35 -64q36 -19 70 -19h122q0 39 -5 68zM575 1200h150v-150h-150v150zM700 950h150v-150h-150v150zM450 950h150v-150h-150v150z" />
    <glyph glyph-name="uniFBDF" unicode="&#x6cb;" horiz-adv-x="1284" arabic-form="final" 
d="M714 0q-32 0 -131 2q-223 5 -316 86q-98 84 -98 216q0 52 8 96q28 161 173 217q109 42 262 43q244 1 339 -57q89 -55 142 -209q20 -57 27 -138h184v-256h-201q-9 -91 -72 -192q-95 -151 -313 -225q-246 -83 -803 -83v256q239 -8 411 19q174 28 261 82q101 64 127 143z
M749 325q-6 41 -53 80q-29 24 -68 23q-42 -1 -71 -30q-30 -30 -30 -58q0 -45 35 -64q36 -19 70 -19h122q0 39 -5 68zM575 1200h150v-150h-150v150zM700 950h150v-150h-150v150zM450 950h150v-150h-150v150z" />
    <glyph glyph-name="uniFBE4" unicode="&#x6d0;" horiz-adv-x="1877" arabic-form="isolated" 
d="M1640 65q-89 -157 -492 -243q-197 -41 -336 -41q-305 -1 -389 29q-292 106 -293 365q-1 138 63 230h358q-70 -101 -65 -230q3 -78 130 -121q51 -17 176 -17q147 0 280 35q247 66 249 160q1 96 -123 138q-179 61 -180 61q-73 32 -125 78q-64 57 -65 172q-2 168 190 224
q140 41 282 41q173 0 278 -46q163 -71 190 -253h-318q-22 69 -137 68q-91 -1 -114 -30q-26 -33 -25 -43q3 -36 125 -66q216 -53 305 -165q76 -96 77 -195q1 -75 -41 -151zM780 -600h150v-150h-150v150zM780 -350h150v-150h-150v150z" />
    <glyph glyph-name="uniFBE5" unicode="&#x6d0;" horiz-adv-x="2072" arabic-form="final" 
d="M780 -610h150v-150h-150v150zM780 -360h150v-150h-150v150zM1220 -218q-190 -41 -372 -41q-341 -1 -425 29q-292 105 -293 354q-1 139 63 230h358q-70 -101 -65 -230q2 -68 130 -110q51 -17 212 -17q186 0 316 35q146 40 146 74q-1 26 -27 43q-54 37 -65 48
q-31 37 -31 121q0 98 48 145q74 73 124 96q76 35 225 35q257 0 360 -184q86 -154 139 -154h29v-256h-61q-171 0 -281 180q-90 147 -158 147q-18 0 -25 -3q-45 -17 -45 -55q0 -44 57 -68q66 -27 66 -147q0 -179 -425 -272z" />
    <glyph glyph-name="uniFBE6" unicode="&#x6d0;" horiz-adv-x="769" arabic-form="initial" 
d="M597 371q0 -182 -68 -279q-64 -92 -192 -92h-357v256h98q68 0 112 44q49 49 49 155v145h358v-229zM338 -350h150v-150h-150v150zM338 -100h150v-150h-150v150z" />
    <glyph glyph-name="uniFBE7" unicode="&#x6d0;" horiz-adv-x="836" arabic-form="medial" 
d="M856 0h-251q-110 0 -187 109q-77 -109 -187 -109h-251v256h98q68 0 112 44q49 49 49 155v145h358v-145q0 -106 49 -155q44 -44 112 -44h98v-256zM338 -350h150v-150h-150v150zM338 -100h150v-150h-150v150z" />
    <glyph glyph-name="uniFBE8" unicode="&#x649;" horiz-adv-x="769" arabic-form="initial" 
d="M597 371q0 -182 -68 -279q-64 -92 -192 -92h-357v256h98q68 0 112 44q49 49 49 155v145h358v-229z" />
    <glyph glyph-name="uniFBE9" unicode="&#x649;" horiz-adv-x="836" arabic-form="medial" 
d="M856 0h-251q-110 0 -187 109q-77 -109 -187 -109h-251v256h98q68 0 112 44q49 49 49 155v145h358v-145q0 -106 49 -155q44 -44 112 -44h98v-256z" />
    <glyph glyph-name="uniFBFC" unicode="&#x6cc;" horiz-adv-x="1877" arabic-form="isolated" 
d="M1640 65q-89 -157 -492 -243q-197 -41 -336 -41q-305 -1 -389 29q-292 106 -293 365q-1 138 63 230h358q-70 -101 -65 -230q3 -78 130 -121q51 -17 176 -17q147 0 280 35q247 66 249 160q1 96 -123 138q-179 61 -180 61q-73 32 -125 78q-64 57 -65 172q-2 168 190 224
q140 41 282 41q173 0 278 -46q163 -71 190 -253h-318q-22 69 -137 68q-91 -1 -114 -30q-26 -33 -25 -43q3 -36 125 -66q216 -53 305 -165q76 -96 77 -195q1 -75 -41 -151z" />
    <glyph glyph-name="uniFBFD" unicode="&#x6cc;" horiz-adv-x="2072" arabic-form="final" 
d="M1220 -218q-190 -41 -372 -41q-341 -1 -425 29q-292 105 -293 354q-1 139 63 230h358q-70 -101 -65 -230q2 -68 130 -110q51 -17 212 -17q186 0 316 35q146 40 146 74q-1 26 -27 43q-54 37 -65 48q-31 37 -31 121q0 98 48 145q74 73 124 96q76 35 225 35q257 0 360 -184
q86 -154 139 -154h29v-256h-61q-171 0 -281 180q-90 147 -158 147q-18 0 -25 -3q-45 -17 -45 -55q0 -44 57 -68q66 -27 66 -147q0 -179 -425 -272z" />
    <glyph glyph-name="uniFBFE" unicode="&#x6cc;" horiz-adv-x="769" arabic-form="initial" 
d="M468 -190h150v-150h-150v150zM218 -190h150v-150h-150v150zM597 371q0 -182 -68 -279q-64 -92 -192 -92h-357v256h98q68 0 112 44q49 49 49 155v145h358v-229z" />
    <glyph glyph-name="uniFBFF" unicode="&#x6cc;" horiz-adv-x="836" arabic-form="medial" 
d="M468 -190h150v-150h-150v150zM218 -190h150v-150h-150v150zM856 0h-251q-110 0 -187 109q-77 -109 -187 -109h-251v256h98q68 0 112 44q49 49 49 155v145h358v-145q0 -106 49 -155q44 -44 112 -44h98v-256z" />
    <glyph glyph-name="uniFE80" unicode="&#x621;" horiz-adv-x="1047" arabic-form="isolated" 
d="M150 40v256q53 4 105 20q74 22 96 36q-120 28 -157 93q-69 125 -45 240q35 164 147 243q116 81 220 81q152 0 299 -60v-249q-64 44 -135 58q-81 17 -135 -25q-58 -46 -57 -108q0 -92 162 -127q118 -26 245 43v-256q-123 -75 -342 -154q-173 -63 -403 -91z" />
    <glyph glyph-name="uniFE81" unicode="&#x622;" horiz-adv-x="702" arabic-form="isolated" 
d="M172 1556h358v-1556h-358v1556zM-40 1817l166 123q106 -89 153 -99q78 -17 138 -18q71 0 130 21q117 41 195 112v-170q-61 -52 -180 -88q-84 -26 -151 -27q-99 0 -152 22q-58 24 -128 77l-171 -123v170z" />
    <glyph glyph-name="uniFE82" unicode="&#x622;" horiz-adv-x="769" arabic-form="final" 
d="M-40 1817l166 123q106 -89 153 -99q78 -17 138 -18q71 0 130 21q117 41 195 112v-170q-61 -52 -180 -88q-84 -26 -151 -27q-99 0 -152 22q-58 24 -128 77l-171 -123v170zM172 371v1185h358v-1101q0 -106 49 -155q44 -44 112 -44h98v-256h-357q-128 0 -192 92
q-68 97 -68 279z" />
    <glyph glyph-name="uniFE83" unicode="&#x623;" horiz-adv-x="702" arabic-form="isolated" 
d="M172 1556h358v-1556h-358v1556zM162 1708l78 18q-54 12 -70 45q-16 34 -16 74q3 106 56 149q48 40 179 40q66 0 128 -22v-125q-70 20 -128 20q-42 0 -61 -9q-29 -14 -29 -62q0 -52 63 -68q24 -6 54 -1l109 20v-129l-363 -77v127z" />
    <glyph glyph-name="uniFE84" unicode="&#x623;" horiz-adv-x="769" arabic-form="final" 
d="M172 371v1185h358v-1101q0 -106 49 -155q44 -44 112 -44h98v-256h-357q-128 0 -192 92q-68 97 -68 279zM162 1708l78 18q-54 12 -70 45q-16 34 -16 74q3 106 56 149q48 40 179 40q66 0 128 -22v-125q-70 20 -128 20q-42 0 -61 -9q-29 -14 -29 -62q0 -52 63 -68
q24 -6 54 -1l109 20v-129l-363 -77v127z" />
    <glyph glyph-name="uniFE85" unicode="&#x624;" horiz-adv-x="1273" arabic-form="isolated" 
d="M436 908l78 18q-54 12 -70 45q-16 34 -16 74q3 106 56 149q48 40 179 40q66 0 128 -22v-125q-70 20 -128 20q-42 0 -61 -9q-29 -14 -29 -62q0 -52 63 -68q24 -6 54 -1l109 20v-129l-363 -77v127zM1120 156q0 -204 -89 -348q-93 -151 -313 -225q-246 -83 -803 -83v256
q239 -8 411 19q178 29 261 82q101 64 127 143q-32 0 -131 2q-223 5 -316 86q-98 84 -98 216q0 52 8 96q28 161 173 217q109 42 262 43q220 0 325 -57t156 -209q27 -82 27 -238zM749 325q-6 41 -53 80q-29 24 -68 23q-42 -1 -71 -30q-30 -30 -30 -58q0 -45 35 -64
q36 -19 70 -19h122q0 39 -5 68z" />
    <glyph glyph-name="uniFE86" unicode="&#x624;" horiz-adv-x="1284" arabic-form="final" 
d="M436 908l78 18q-54 12 -70 45q-16 34 -16 74q3 106 56 149q48 40 179 40q66 0 128 -22v-125q-70 20 -128 20q-42 0 -61 -9q-29 -14 -29 -62q0 -52 63 -68q24 -6 54 -1l109 20v-129l-363 -77v127zM714 0q-32 0 -131 2q-223 5 -316 86q-98 84 -98 216q0 52 8 96
q28 161 173 217q109 42 262 43q244 1 339 -57q89 -55 142 -209q20 -57 27 -138h184v-256h-201q-9 -91 -72 -192q-95 -151 -313 -225q-246 -83 -803 -83v256q239 -8 411 19q174 28 261 82q101 64 127 143zM749 325q-6 41 -53 80q-29 24 -68 23q-42 -1 -71 -30
q-30 -30 -30 -58q0 -45 35 -64q36 -19 70 -19h122q0 39 -5 68z" />
    <glyph glyph-name="uniFE87" unicode="&#x625;" horiz-adv-x="702" arabic-form="isolated" 
d="M172 1556h358v-1556h-358v1556zM164 -373l78 18q-54 12 -70 45q-16 34 -16 74q3 106 56 149q48 40 179 40q66 0 128 -22v-125q-70 20 -128 20q-42 0 -61 -9q-29 -14 -29 -62q0 -52 63 -68q24 -6 54 -1l109 20v-129l-363 -77v127z" />
    <glyph glyph-name="uniFE88" unicode="&#x625;" horiz-adv-x="769" arabic-form="final" 
d="M172 371v1185h358v-1101q0 -106 49 -155q44 -44 112 -44h98v-256h-357q-128 0 -192 92q-68 97 -68 279zM164 -373l78 18q-54 12 -70 45q-16 34 -16 74q3 106 56 149q48 40 179 40q66 0 128 -22v-125q-70 20 -128 20q-42 0 -61 -9q-29 -14 -29 -62q0 -52 63 -68
q24 -6 54 -1l109 20v-129l-363 -77v127z" />
    <glyph glyph-name="uniFE89" unicode="&#x626;" horiz-adv-x="1877" arabic-form="isolated" 
d="M1640 65q-89 -157 -492 -243q-197 -41 -336 -41q-305 -1 -389 29q-292 106 -293 365q-1 138 63 230h358q-70 -101 -65 -230q3 -78 130 -121q51 -17 176 -17q147 0 280 35q247 66 249 160q1 96 -123 138q-179 61 -180 61q-73 32 -125 78q-64 57 -65 172q-2 168 190 224
q140 41 282 41q173 0 278 -46q163 -71 190 -253h-318q-22 69 -137 68q-91 -1 -114 -30q-26 -33 -25 -43q3 -36 125 -66q216 -53 305 -165q76 -96 77 -195q1 -75 -41 -151zM361 908l78 18q-54 12 -70 45q-16 34 -16 74q3 106 56 149q48 40 179 40q66 0 128 -22v-125
q-70 20 -128 20q-42 0 -61 -9q-29 -14 -29 -62q0 -52 63 -68q24 -6 54 -1l109 20v-129l-363 -77v127z" />
    <glyph glyph-name="uniFE8A" unicode="&#x626;" horiz-adv-x="1877" arabic-form="final" 
d="M561 658l78 18q-54 12 -70 45q-16 34 -16 74q3 106 56 149q48 40 179 40q66 0 128 -22v-125q-70 20 -128 20q-42 0 -61 -9q-29 -14 -29 -62q0 -52 63 -68q24 -6 54 -1l109 20v-129l-363 -77v127zM1220 -218q-190 -41 -372 -41q-341 -1 -425 29q-292 105 -293 354
q-1 139 63 230h358q-70 -101 -65 -230q2 -68 130 -110q51 -17 212 -17q186 0 316 35q146 40 146 74q-1 26 -27 43q-54 37 -65 48q-31 37 -31 121q0 98 48 145q74 73 124 96q76 35 225 35q257 0 360 -184q86 -154 139 -154h29v-256h-61q-171 0 -281 180q-90 147 -158 147
q-18 0 -25 -3q-45 -17 -45 -55q0 -44 57 -68q66 -27 66 -147q0 -179 -425 -272z" />
    <glyph glyph-name="uniFE8B" unicode="&#x626;" horiz-adv-x="769" arabic-form="initial" 
d="M229 958l78 18q-54 12 -70 45q-16 34 -16 74q3 106 56 149q48 40 179 40q66 0 128 -22v-125q-70 20 -128 20q-42 0 -61 -9q-29 -14 -29 -62q0 -52 63 -68q24 -6 54 -1l109 20v-129l-363 -77v127zM597 371q0 -182 -68 -279q-64 -92 -192 -92h-357v256h98q68 0 112 44
q49 49 49 155v145h358v-229z" />
    <glyph glyph-name="uniFE8C" unicode="&#x626;" horiz-adv-x="836" arabic-form="medial" 
d="M229 958l78 18q-54 12 -70 45q-16 34 -16 74q3 106 56 149q48 40 179 40q66 0 128 -22v-125q-70 20 -128 20q-42 0 -61 -9q-29 -14 -29 -62q0 -52 63 -68q24 -6 54 -1l109 20v-129l-363 -77v127zM856 0h-251q-110 0 -187 109q-77 -109 -187 -109h-251v256h98q68 0 112 44
q49 49 49 155v145h358v-145q0 -106 49 -155q44 -44 112 -44h98v-256z" />
    <glyph glyph-name="uniFE8D" unicode="&#x627;" horiz-adv-x="702" arabic-form="isolated" 
d="M172 1556h358v-1556h-358v1556z" />
    <glyph glyph-name="uniFE8E" unicode="&#x627;" horiz-adv-x="769" arabic-form="final" 
d="M172 371v1185h358v-1101q0 -106 49 -155q44 -44 112 -44h98v-256h-357q-128 0 -192 92q-68 97 -68 279z" />
    <glyph glyph-name="uniFE8F" unicode="&#x628;" horiz-adv-x="2058" arabic-form="isolated" 
d="M1886 669q50 -256 -61 -396q-114 -142 -339 -204q-282 -77 -666 -79q-234 -1 -360 28q-329 77 -330 365q-1 138 63 230h358q-51 -94 -51 -184q0 -91 189 -157q72 -25 156 -25q205 0 361 47q242 71 292 159q64 113 30 216h358zM900 -155h150v-150h-150v150z" />
    <glyph glyph-name="uniFE90" unicode="&#x628;" horiz-adv-x="2168" arabic-form="final" 
d="M900 -155h150v-150h-150v150zM1686 162q-43 -52 -200 -93q-291 -77 -666 -79q-234 -1 -360 28q-329 77 -330 365q-1 138 63 230h358q-51 -94 -51 -184q0 -91 189 -157q72 -25 156 -25q205 0 361 47q243 73 292 159q64 113 30 216h358q16 -75 16 -120q0 -147 54 -224
q50 -69 157 -69h75v-256h-130q-270 0 -372 162z" />
    <glyph glyph-name="uniFE91" unicode="&#x628;" horiz-adv-x="769" arabic-form="initial" 
d="M343 -205h150v-150h-150v150zM597 371q0 -182 -68 -279q-64 -92 -192 -92h-357v256h98q68 0 112 44q49 49 49 155v145h358v-229z" />
    <glyph glyph-name="uniFE92" unicode="&#x628;" horiz-adv-x="836" arabic-form="medial" 
d="M343 -205h150v-150h-150v150zM856 0h-251q-110 0 -187 109q-77 -109 -187 -109h-251v256h98q68 0 112 44q49 49 49 155v145h358v-145q0 -106 49 -155q44 -44 112 -44h98v-256z" />
    <glyph glyph-name="uniFE93" unicode="&#x629;" horiz-adv-x="1209" arabic-form="isolated" 
d="M570 480q-85 0 -100 -43q-15 -44 -14 -122q1 -68 59 -101q32 -18 87 -18q40 0 81 26q65 42 65 87q0 42 -47 91q-75 80 -131 80zM534 734q219 0 431 -160q143 -108 141 -272q-2 -170 -148 -275q-120 -86 -355 -87q-172 0 -312 41q-191 57 -193 309q-1 181 37 259
q91 185 399 185zM550 1050h150v-150h-150v150zM300 1050h150v-150h-150v150z" />
    <glyph glyph-name="uniFE94" unicode="&#x629;" horiz-adv-x="1242" arabic-form="final" 
d="M650 1050h150v-150h-150v150zM400 1050h150v-150h-150v150zM703 317q-14 40 -22 91q-4 27 -9 50q-95 -10 -136 -42q-45 -35 -45 -89q0 -48 68 -48q97 0 144 38zM657 696q-5 33 -5 54h358q2 -200 37 -342q20 -82 61 -108q68 -44 79 -44h75v-256h-224q-92 0 -163 34
q-66 31 -83 66q-108 -65 -344 -64q-56 0 -114 15q-201 48 -201 234q0 190 216 328q106 68 308 83z" />
    <glyph glyph-name="uniFE95" unicode="&#x62a;" horiz-adv-x="2058" arabic-form="isolated" 
d="M1886 669q50 -256 -61 -396q-114 -142 -339 -204q-282 -77 -666 -79q-234 -1 -360 28q-329 77 -330 365q-1 138 63 230h358q-51 -94 -51 -184q0 -91 189 -157q72 -25 156 -25q205 0 361 47q242 71 292 159q64 113 30 216h358zM1025 850h150v-150h-150v150zM775 850h150
v-150h-150v150z" />
    <glyph glyph-name="uniFE96" unicode="&#x62a;" horiz-adv-x="2168" arabic-form="final" 
d="M1025 850h150v-150h-150v150zM775 850h150v-150h-150v150zM1686 162q-43 -52 -200 -93q-291 -77 -666 -79q-234 -1 -360 28q-329 77 -330 365q-1 138 63 230h358q-51 -94 -51 -184q0 -91 189 -157q72 -25 156 -25q205 0 361 47q243 73 292 159q64 113 30 216h358
q16 -75 16 -120q0 -147 54 -224q50 -69 157 -69h75v-256h-130q-270 0 -372 162z" />
    <glyph glyph-name="uniFE97" unicode="&#x62a;" horiz-adv-x="769" arabic-form="initial" 
d="M468 1000h150v-150h-150v150zM218 1000h150v-150h-150v150zM597 371q0 -182 -68 -279q-64 -92 -192 -92h-357v256h98q68 0 112 44q49 49 49 155v145h358v-229z" />
    <glyph glyph-name="uniFE98" unicode="&#x62a;" horiz-adv-x="836" arabic-form="medial" 
d="M468 1000h150v-150h-150v150zM218 1000h150v-150h-150v150zM856 0h-251q-110 0 -187 109q-77 -109 -187 -109h-251v256h98q68 0 112 44q49 49 49 155v145h358v-145q0 -106 49 -155q44 -44 112 -44h98v-256z" />
    <glyph glyph-name="uniFE99" unicode="&#x62b;" horiz-adv-x="2058" arabic-form="isolated" 
d="M1886 669q50 -256 -61 -396q-114 -142 -339 -204q-282 -77 -666 -79q-234 -1 -360 28q-329 77 -330 365q-1 138 63 230h358q-51 -94 -51 -184q0 -91 189 -157q72 -25 156 -25q205 0 361 47q242 71 292 159q64 113 30 216h358zM900 1100h150v-150h-150v150zM1025 850h150
v-150h-150v150zM775 850h150v-150h-150v150z" />
    <glyph glyph-name="uniFE9A" unicode="&#x62b;" horiz-adv-x="2168" arabic-form="final" 
d="M900 1100h150v-150h-150v150zM1025 850h150v-150h-150v150zM775 850h150v-150h-150v150zM1686 162q-43 -52 -200 -93q-291 -77 -666 -79q-234 -1 -360 28q-329 77 -330 365q-1 138 63 230h358q-51 -94 -51 -184q0 -91 189 -157q72 -25 156 -25q205 0 361 47
q243 73 292 159q64 113 30 216h358q16 -75 16 -120q0 -147 54 -224q50 -69 157 -69h75v-256h-130q-270 0 -372 162z" />
    <glyph glyph-name="uniFE9B" unicode="&#x62b;" horiz-adv-x="769" arabic-form="initial" 
d="M343 1250h150v-150h-150v150zM468 1000h150v-150h-150v150zM218 1000h150v-150h-150v150zM597 371q0 -182 -68 -279q-64 -92 -192 -92h-357v256h98q68 0 112 44q49 49 49 155v145h358v-229z" />
    <glyph glyph-name="uniFE9C" unicode="&#x62b;" horiz-adv-x="836" arabic-form="medial" 
d="M343 1250h150v-150h-150v150zM468 1000h150v-150h-150v150zM218 1000h150v-150h-150v150zM856 0h-251q-110 0 -187 109q-77 -109 -187 -109h-251v256h98q68 0 112 44q49 49 49 155v145h358v-145q0 -106 49 -155q44 -44 112 -44h98v-256z" />
    <glyph glyph-name="uniFE9D" unicode="&#x62c;" horiz-adv-x="1476" arabic-form="isolated" 
d="M1270 576q-335 19 -530 -138q-203 -163 -203 -363q0 -121 103 -227q90 -92 327 -92q301 0 507 153v-275q-164 -134 -502 -134q-437 1 -637 199q-156 154 -156 376q0 179 140 350q102 125 300 203q-84 3 -232 -17q-135 -19 -230 -60v256q271 63 471 63q352 0 642 -38v-256
zM925 185h150v-150h-150v150z" />
    <glyph glyph-name="uniFE9E" unicode="&#x62c;" horiz-adv-x="1476" arabic-form="final" 
d="M1212 578q0 -60 73 -203q61 -119 145 -119h66v-256h-86q-158 0 -279 149q-71 88 -131 212q-50 107 -68 179q-109 -35 -192 -102q-203 -163 -203 -363q0 -121 103 -227q90 -92 327 -92q301 0 507 153v-275q-164 -134 -502 -134q-437 1 -637 199q-156 154 -156 376
q0 179 140 350q102 125 300 203q-84 3 -232 -17q-135 -19 -230 -60v256q271 63 471 63q352 0 642 -38v-256q-14 1 -27 1q-16 1 -31 1zM775 85h150v-150h-150v150z" />
    <glyph glyph-name="uniFE9F" unicode="&#x62c;" horiz-adv-x="1476" arabic-form="initial" 
d="M625 -205h150v-150h-150v150zM867 504q-75 25 -188 40q-94 12 -248 25q-71 6 -243 -4v256q72 7 147 8q242 0 433 -35q279 -50 519 -122v-256q-91 -32 -204 -98q-129 -76 -264 -168q-115 -79 -327 -116q-193 -34 -384 -34h-128v256h100q206 0 345 34q142 36 251 105
q96 61 191 109z" />
    <glyph glyph-name="uniFEA0" unicode="&#x62c;" horiz-adv-x="1476" arabic-form="medial" 
d="M625 -205h150v-150h-150v150zM1000 269q-82 -59 -181 -119q-136 -83 -327 -116q-194 -34 -384 -34h-128v256h100q206 0 345 34q142 36 251 105q96 61 191 109q-75 25 -188 40q-94 12 -248 25q-71 6 -243 -4v256q72 7 147 8q242 0 433 -35q279 -50 519 -122v-256l-47 -18
q22 -49 44 -74q59 -68 146 -68h66v-256h-86q-204 0 -311 117q-52 57 -99 152z" />
    <glyph glyph-name="uniFEA1" unicode="&#x62d;" horiz-adv-x="1476" arabic-form="isolated" 
d="M1270 576q-335 19 -530 -138q-203 -163 -203 -363q0 -121 103 -227q90 -92 327 -92q301 0 507 153v-275q-164 -134 -502 -134q-437 1 -637 199q-156 154 -156 376q0 179 140 350q102 125 300 203q-84 3 -232 -17q-135 -19 -230 -60v256q271 63 471 63q352 0 642 -38v-256
z" />
    <glyph glyph-name="uniFEA2" unicode="&#x62d;" horiz-adv-x="1476" arabic-form="final" 
d="M1212 578q0 -60 73 -203q61 -119 145 -119h66v-256h-86q-158 0 -279 149q-71 88 -131 212q-50 107 -68 179q-109 -35 -192 -102q-203 -163 -203 -363q0 -121 103 -227q90 -92 327 -92q301 0 507 153v-275q-164 -134 -502 -134q-437 1 -637 199q-156 154 -156 376
q0 179 140 350q102 125 300 203q-84 3 -232 -17q-135 -19 -230 -60v256q271 63 471 63q352 0 642 -38v-256q-14 1 -27 1q-16 1 -31 1z" />
    <glyph glyph-name="uniFEA3" unicode="&#x62d;" horiz-adv-x="1476" arabic-form="initial" 
d="M867 504q-75 25 -188 40q-94 12 -248 25q-71 6 -243 -4v256q72 7 147 8q242 0 433 -35q279 -50 519 -122v-256q-91 -32 -204 -98q-129 -76 -264 -168q-115 -79 -327 -116q-193 -34 -384 -34h-128v256h100q206 0 345 34q142 36 251 105q96 61 191 109z" />
    <glyph glyph-name="uniFEA4" unicode="&#x62d;" horiz-adv-x="1476" arabic-form="medial" 
d="M1000 269q-82 -59 -181 -119q-136 -83 -327 -116q-194 -34 -384 -34h-128v256h100q206 0 345 34q142 36 251 105q96 61 191 109q-75 25 -188 40q-94 12 -248 25q-71 6 -243 -4v256q72 7 147 8q242 0 433 -35q279 -50 519 -122v-256l-47 -18q22 -49 44 -74q59 -68 146 -68
h66v-256h-86q-204 0 -311 117q-52 57 -99 152z" />
    <glyph glyph-name="uniFEA5" unicode="&#x62e;" horiz-adv-x="1476" arabic-form="isolated" 
d="M1270 576q-335 19 -530 -138q-203 -163 -203 -363q0 -121 103 -227q90 -92 327 -92q301 0 507 153v-275q-164 -134 -502 -134q-437 1 -637 199q-156 154 -156 376q0 179 140 350q102 125 300 203q-84 3 -232 -17q-135 -19 -230 -60v256q271 63 471 63q352 0 642 -38v-256
zM625 1185h150v-150h-150v150z" />
    <glyph glyph-name="uniFEA6" unicode="&#x62e;" horiz-adv-x="1476" arabic-form="final" 
d="M625 1185h150v-150h-150v150zM1212 578q0 -60 73 -203q61 -119 145 -119h66v-256h-86q-158 0 -279 149q-71 88 -131 212q-50 107 -68 179q-109 -35 -192 -102q-203 -163 -203 -363q0 -121 103 -227q90 -92 327 -92q301 0 507 153v-275q-164 -134 -502 -134
q-437 1 -637 199q-156 154 -156 376q0 179 140 350q102 125 300 203q-84 3 -232 -17q-135 -19 -230 -60v256q271 63 471 63q352 0 642 -38v-256q-14 1 -27 1q-16 1 -31 1z" />
    <glyph glyph-name="uniFEA7" unicode="&#x62e;" horiz-adv-x="1476" arabic-form="initial" 
d="M867 504q-75 25 -188 40q-94 12 -248 25q-71 6 -243 -4v256q72 7 147 8q242 0 433 -35q279 -50 519 -122v-256q-91 -32 -204 -98q-129 -76 -264 -168q-115 -79 -327 -116q-193 -34 -384 -34h-128v256h100q206 0 345 34q142 36 251 105q96 61 191 109zM625 1085h150v-150
h-150v150z" />
    <glyph glyph-name="uniFEA8" unicode="&#x62e;" horiz-adv-x="1476" arabic-form="medial" 
d="M1000 269q-82 -59 -181 -119q-136 -83 -327 -116q-194 -34 -384 -34h-128v256h100q206 0 345 34q142 36 251 105q96 61 191 109q-75 25 -188 40q-94 12 -248 25q-71 6 -243 -4v256q72 7 147 8q242 0 433 -35q279 -50 519 -122v-256l-47 -18q22 -49 44 -74q59 -68 146 -68
h66v-256h-86q-204 0 -311 117q-52 57 -99 152zM625 1085h150v-150h-150v150z" />
    <glyph glyph-name="uniFEA9" unicode="&#x62f;" horiz-adv-x="1051" arabic-form="isolated" 
d="M391 222q175 46 200 127q27 87 -46 226q-62 121 -217 275h369q130 -164 158 -215q129 -228 50 -431q-74 -189 -440 -235q-193 -24 -340 31v255q157 -61 266 -33z" />
    <glyph glyph-name="uniFEAA" unicode="&#x62f;" horiz-adv-x="1183" arabic-form="final" 
d="M921 474q27 -111 90 -174q44 -44 117 -44h75v-256h-130q-182 0 -236 105q-125 -105 -372 -136q-193 -24 -340 31v255q157 -61 266 -33q174 45 200 127q27 87 -46 226q-62 121 -217 275h369q130 -164 158 -215q46 -82 66 -161z" />
    <glyph glyph-name="uniFEAB" unicode="&#x630;" horiz-adv-x="1051" arabic-form="isolated" 
d="M391 222q175 46 200 127q27 87 -46 226q-62 121 -217 275h369q130 -164 158 -215q129 -228 50 -431q-74 -189 -440 -235q-193 -24 -340 31v255q157 -61 266 -33zM425 1185h150v-150h-150v150z" />
    <glyph glyph-name="uniFEAC" unicode="&#x630;" horiz-adv-x="1183" arabic-form="final" 
d="M425 1185h150v-150h-150v150zM921 474q27 -111 90 -174q44 -44 117 -44h75v-256h-130q-182 0 -236 105q-125 -105 -372 -136q-193 -24 -340 31v255q157 -61 266 -33q174 45 200 127q27 87 -46 226q-62 121 -217 275h369q130 -164 158 -215q46 -82 66 -161z" />
    <glyph glyph-name="uniFEAD" unicode="&#x631;" horiz-adv-x="1179" arabic-form="isolated" 
d="M613 0q73 103 71 284q0 145 -52 266h358q50 -150 50 -266q0 -265 -88 -396q-127 -189 -350 -287q-230 -101 -687 -101v256q309 0 465 68q152 65 233 176z" />
    <glyph glyph-name="uniFEAE" unicode="&#x631;" horiz-adv-x="1274" arabic-form="final" 
d="M1012 26q-22 -81 -60 -138q-127 -189 -350 -287q-230 -101 -687 -101v256q309 0 465 68q154 67 233 176q73 101 71 284q0 145 -52 266h358q11 -34 20 -66q34 -125 92 -184q44 -44 117 -44h75v-256h-130q-86 0 -152 26z" />
    <glyph glyph-name="uniFEAF" unicode="&#x632;" horiz-adv-x="1179" arabic-form="isolated" 
d="M613 0q73 103 71 284q0 145 -52 266h358q50 -150 50 -266q0 -265 -88 -396q-127 -189 -350 -287q-230 -101 -687 -101v256q309 0 465 68q152 65 233 176zM725 935h150v-150h-150v150z" />
    <glyph glyph-name="uniFEB0" unicode="&#x632;" horiz-adv-x="1274" arabic-form="final" 
d="M725 935h150v-150h-150v150zM1012 26q-22 -81 -60 -138q-127 -189 -350 -287q-230 -101 -687 -101v256q309 0 465 68q154 67 233 176q73 101 71 284q0 145 -52 266h358q11 -34 20 -66q34 -125 92 -184q44 -44 117 -44h75v-256h-130q-86 0 -152 26z" />
    <glyph glyph-name="uniFEB1" unicode="&#x633;" horiz-adv-x="2826" arabic-form="isolated" 
d="M1037 -40q58 104 58 220q0 122 -17 186l-64 234h358l36 -156q16 -74 44 -134q27 -59 110 -60q71 -1 95 53q37 84 37 297h358q0 -205 19 -255q36 -95 102 -95q125 0 125 206v294h358v-342q0 -199 -92 -312q-72 -89 -213 -113q-67 -12 -180 -12q-81 0 -139 29
q-149 72 -159 169q-35 -133 -173 -169q-72 -18 -142 -18q-86 0 -154 90q0 -183 -78 -301q-120 -181 -355 -245q-96 -26 -244 -26q-199 0 -304 36q-293 101 -293 442q0 196 105 376h358q-108 -206 -107 -376q1 -159 144 -200q38 -11 91 -11q110 0 188 58q89 67 128 135z" />
    <glyph glyph-name="uniFEB2" unicode="&#x633;" horiz-adv-x="2895" arabic-form="final" 
d="M1562 250q74 -3 95 53q37 98 37 297h358q0 -205 19 -255q36 -95 102 -95q125 0 125 206v294h358v-295q0 -106 49 -155q44 -44 112 -44h98v-256h-268q-80 0 -129 52q-88 -55 -167 -69q-61 -12 -180 -12q-81 0 -139 29q-149 72 -159 169q-35 -133 -173 -169
q-72 -18 -142 -18q-86 0 -154 90q0 -183 -78 -301q-120 -181 -355 -245q-96 -26 -244 -26q-199 0 -304 36q-293 101 -293 442q0 196 105 376h358q-108 -206 -107 -376q1 -159 144 -200q38 -11 91 -11q110 0 188 58q89 67 128 135q58 104 58 220q0 122 -17 186l-64 234h358
l36 -156q16 -74 44 -134q26 -57 110 -60z" />
    <glyph glyph-name="uniFEB3" unicode="&#x633;" horiz-adv-x="2014" arabic-form="initial" 
d="M409 78q-74 -78 -161 -78h-268v256h98q68 0 112 44q50 50 49 155l-1 145h358v-156q0 -36 45 -134q27 -59 110 -60q71 -1 95 53q37 84 37 297h358q0 -205 19 -255q36 -95 102 -95q125 0 125 206v294h358v-342q0 -199 -92 -312q-72 -89 -213 -113q-67 -12 -180 -12
q-81 0 -139 29q-149 72 -159 169q-35 -133 -173 -169q-72 -18 -142 -18q-255 0 -338 96z" />
    <glyph glyph-name="uniFEB4" unicode="&#x633;" horiz-adv-x="2084" arabic-form="medial" 
d="M1540 -17q-67 -12 -180 -12q-81 0 -139 29q-149 72 -159 169q-35 -133 -173 -169q-72 -18 -142 -18q-255 0 -338 96q-74 -78 -161 -78h-268v256h98q68 0 112 44q50 50 49 155l-1 145h358v-156q0 -36 45 -134q27 -59 110 -60q71 -1 95 53q37 84 37 297h358q0 -205 19 -255
q36 -95 102 -95q125 0 125 206v294h358v-295q0 -106 49 -155q44 -44 112 -44h98v-256h-268q-80 0 -129 52q-88 -55 -167 -69z" />
    <glyph glyph-name="uniFEB5" unicode="&#x634;" horiz-adv-x="2826" arabic-form="isolated" 
d="M1585 1200h150v-150h-150v150zM1710 950h150v-150h-150v150zM1460 950h150v-150h-150v150zM1037 -40q58 104 58 220q0 122 -17 186l-64 234h358l36 -156q16 -74 44 -134q27 -59 110 -60q71 -1 95 53q37 84 37 297h358q0 -205 19 -255q36 -95 102 -95q125 0 125 206v294
h358v-342q0 -199 -92 -312q-72 -89 -213 -113q-67 -12 -180 -12q-81 0 -139 29q-149 72 -159 169q-35 -133 -173 -169q-72 -18 -142 -18q-86 0 -154 90q0 -183 -78 -301q-120 -181 -355 -245q-96 -26 -244 -26q-199 0 -304 36q-293 101 -293 442q0 196 105 376h358
q-108 -206 -107 -376q1 -159 144 -200q38 -11 91 -11q110 0 188 58q89 67 128 135z" />
    <glyph glyph-name="uniFEB6" unicode="&#x634;" horiz-adv-x="2895" arabic-form="final" 
d="M1585 1200h150v-150h-150v150zM1710 950h150v-150h-150v150zM1460 950h150v-150h-150v150zM1562 250q74 -3 95 53q37 98 37 297h358q0 -205 19 -255q36 -95 102 -95q125 0 125 206v294h358v-295q0 -106 49 -155q44 -44 112 -44h98v-256h-268q-80 0 -129 52
q-88 -55 -167 -69q-61 -12 -180 -12q-81 0 -139 29q-149 72 -159 169q-35 -133 -173 -169q-72 -18 -142 -18q-86 0 -154 90q0 -183 -78 -301q-120 -181 -355 -245q-96 -26 -244 -26q-199 0 -304 36q-293 101 -293 442q0 196 105 376h358q-108 -206 -107 -376
q1 -159 144 -200q38 -11 91 -11q110 0 188 58q89 67 128 135q58 104 58 220q0 122 -17 186l-64 234h358l36 -156q16 -74 44 -134q26 -57 110 -60z" />
    <glyph glyph-name="uniFEB7" unicode="&#x634;" horiz-adv-x="2014" arabic-form="initial" 
d="M935 1200h150v-150h-150v150zM1060 950h150v-150h-150v150zM810 950h150v-150h-150v150zM409 78q-74 -78 -161 -78h-268v256h98q68 0 112 44q50 50 49 155l-1 145h358v-156q0 -36 45 -134q27 -59 110 -60q71 -1 95 53q37 84 37 297h358q0 -205 19 -255q36 -95 102 -95
q125 0 125 206v294h358v-342q0 -199 -92 -312q-72 -89 -213 -113q-67 -12 -180 -12q-81 0 -139 29q-149 72 -159 169q-35 -133 -173 -169q-72 -18 -142 -18q-255 0 -338 96z" />
    <glyph glyph-name="uniFEB8" unicode="&#x634;" horiz-adv-x="2084" arabic-form="medial" 
d="M935 1200h150v-150h-150v150zM1060 950h150v-150h-150v150zM810 950h150v-150h-150v150zM1540 -17q-67 -12 -180 -12q-81 0 -139 29q-149 72 -159 169q-35 -133 -173 -169q-72 -18 -142 -18q-255 0 -338 96q-74 -78 -161 -78h-268v256h98q68 0 112 44q50 50 49 155
l-1 145h358v-156q0 -36 45 -134q27 -59 110 -60q71 -1 95 53q37 84 37 297h358q0 -205 19 -255q36 -95 102 -95q125 0 125 206v294h358v-295q0 -106 49 -155q44 -44 112 -44h98v-256h-268q-80 0 -129 52q-88 -55 -167 -69z" />
    <glyph glyph-name="uniFEB9" unicode="&#x635;" horiz-adv-x="2755" arabic-form="isolated" 
d="M1095 180q0 90 -51 270h330q2 -30 15 -70q14 -45 50 -90q104 223 296 346q164 105 320 105q185 0 304 -51q231 -99 231 -292q0 -211 -184 -307q-174 -91 -576 -91h-249q-61 0 -129 30q-27 12 -48 42q0 -183 -78 -301q-120 -181 -355 -245q-96 -26 -244 -26
q-199 0 -304 36q-293 101 -293 442q0 196 105 376h358q-108 -206 -107 -376q1 -159 144 -200q38 -11 91 -11q110 0 188 58q89 67 128 135q58 104 58 220zM1763 256h68q157 0 283 50q118 47 118 102q0 28 -59 55q-53 22 -102 22q-75 -2 -185 -81q-67 -50 -123 -148z" />
    <glyph glyph-name="uniFEBA" unicode="&#x635;" horiz-adv-x="2794" arabic-form="final" 
d="M1581 0q-61 0 -129 30q-27 12 -48 42q0 -183 -78 -301q-120 -181 -355 -245q-96 -26 -244 -26q-199 0 -304 36q-293 101 -293 442q0 196 105 376h358q-108 -206 -107 -376q1 -159 144 -200q38 -11 91 -11q110 0 188 58q89 67 128 135q58 104 58 220q0 90 -51 270h330
q2 -30 15 -70q14 -45 50 -90q104 223 296 346q164 105 320 105q185 0 304 -51q231 -99 231 -292q0 -50 71 -107q45 -35 87 -35h66v-256h-86q-189 0 -277 120q-21 -16 -45 -29q-163 -91 -576 -91h-249zM1763 256h68q157 0 283 50q118 47 118 102q0 28 -59 55q-53 22 -102 22
q-75 -2 -185 -81q-67 -50 -123 -148z" />
    <glyph glyph-name="uniFEBB" unicode="&#x635;" horiz-adv-x="1979" arabic-form="initial" 
d="M456 114q-108 -114 -208 -114h-268v256h98q68 0 112 44q50 50 49 155l-1 145h358v-156q0 -101 67 -154q104 223 296 346q164 105 320 105q185 0 304 -51q231 -99 231 -292q0 -211 -184 -307q-174 -91 -576 -91h-276q-103 0 -198 30q-76 24 -124 84zM987 256h68
q157 0 283 50q118 47 118 102q0 28 -59 55q-53 22 -102 22q-75 -2 -185 -81q-67 -50 -123 -148z" />
    <glyph glyph-name="uniFEBC" unicode="&#x635;" horiz-adv-x="2018" arabic-form="medial" 
d="M1630 91q-167 -91 -576 -91h-276q-103 0 -198 30q-76 24 -124 84q-108 -114 -208 -114h-268v256h98q68 0 112 44q50 50 49 155l-1 145h358v-156q0 -101 67 -154q104 223 296 346q164 105 320 105q185 0 304 -51q231 -99 231 -292q0 -50 71 -107q45 -35 87 -35h66v-256
h-86q-189 0 -277 120q-25 -19 -45 -29zM987 256h68q157 0 283 50q118 47 118 102q0 28 -59 55q-53 22 -102 22q-75 -2 -185 -81q-67 -50 -123 -148z" />
    <glyph glyph-name="uniFEBD" unicode="&#x636;" horiz-adv-x="2755" arabic-form="isolated" 
d="M1375 935h150v-150h-150v150zM1095 180q0 90 -51 270h330q2 -30 15 -70q14 -45 50 -90q104 223 296 346q164 105 320 105q185 0 304 -51q231 -99 231 -292q0 -211 -184 -307q-174 -91 -576 -91h-249q-61 0 -129 30q-27 12 -48 42q0 -183 -78 -301q-120 -181 -355 -245
q-96 -26 -244 -26q-199 0 -304 36q-293 101 -293 442q0 196 105 376h358q-108 -206 -107 -376q1 -159 144 -200q38 -11 91 -11q110 0 188 58q89 67 128 135q58 104 58 220zM1763 256h68q157 0 283 50q118 47 118 102q0 28 -59 55q-53 22 -102 22q-75 -2 -185 -81
q-67 -50 -123 -148z" />
    <glyph glyph-name="uniFEBE" unicode="&#x636;" horiz-adv-x="2794" arabic-form="final" 
d="M1375 935h150v-150h-150v150zM1581 0q-61 0 -129 30q-27 12 -48 42q0 -183 -78 -301q-120 -181 -355 -245q-96 -26 -244 -26q-199 0 -304 36q-293 101 -293 442q0 196 105 376h358q-108 -206 -107 -376q1 -159 144 -200q38 -11 91 -11q110 0 188 58q89 67 128 135
q58 104 58 220q0 90 -51 270h330q2 -30 15 -70q14 -45 50 -90q104 223 296 346q164 105 320 105q185 0 304 -51q231 -99 231 -292q0 -50 71 -107q45 -35 87 -35h66v-256h-86q-189 0 -277 120q-21 -16 -45 -29q-163 -91 -576 -91h-249zM1763 256h68q157 0 283 50
q118 47 118 102q0 28 -59 55q-53 22 -102 22q-75 -2 -185 -81q-67 -50 -123 -148z" />
    <glyph glyph-name="uniFEBF" unicode="&#x636;" horiz-adv-x="1979" arabic-form="initial" 
d="M625 985h150v-150h-150v150zM456 114q-108 -114 -208 -114h-268v256h98q68 0 112 44q50 50 49 155l-1 145h358v-156q0 -101 67 -154q104 223 296 346q164 105 320 105q185 0 304 -51q231 -99 231 -292q0 -211 -184 -307q-174 -91 -576 -91h-276q-103 0 -198 30
q-76 24 -124 84zM987 256h68q157 0 283 50q118 47 118 102q0 28 -59 55q-53 22 -102 22q-75 -2 -185 -81q-67 -50 -123 -148z" />
    <glyph glyph-name="uniFEC0" unicode="&#x636;" horiz-adv-x="2018" arabic-form="medial" 
d="M625 985h150v-150h-150v150zM1630 91q-167 -91 -576 -91h-276q-103 0 -198 30q-76 24 -124 84q-108 -114 -208 -114h-268v256h98q68 0 112 44q50 50 49 155l-1 145h358v-156q0 -101 67 -154q104 223 296 346q164 105 320 105q185 0 304 -51q231 -99 231 -292
q0 -50 71 -107q45 -35 87 -35h66v-256h-86q-189 0 -277 120q-25 -19 -45 -29zM987 256h68q157 0 283 50q118 47 118 102q0 28 -59 55q-53 22 -102 22q-75 -2 -185 -81q-67 -50 -123 -148z" />
    <glyph glyph-name="uniFEC1" unicode="&#x637;" horiz-adv-x="2127" arabic-form="isolated" 
d="M1162 256h68q157 0 283 50q118 47 118 102q0 28 -59 55q-53 22 -102 22q-75 -2 -185 -81q-67 -50 -123 -148zM1229 0h-652h-433v256h336v1300h358v-1194q138 173 296 274q164 105 320 105q185 0 304 -51q231 -99 231 -292q0 -211 -184 -307q-174 -91 -576 -91z" />
    <glyph glyph-name="uniFEC2" unicode="&#x637;" horiz-adv-x="2193" arabic-form="final" 
d="M1805 91q-167 -91 -576 -91h-652h-433v256h336v1300h358v-1194q138 173 296 274q164 105 320 105q185 0 304 -51q231 -99 231 -292q0 -50 71 -107q45 -35 87 -35h66v-256h-86q-189 0 -277 120q-15 -11 -45 -29zM1162 256h68q157 0 283 50q118 47 118 102q0 28 -59 55
q-53 22 -102 22q-75 -2 -185 -81q-67 -50 -123 -148z" />
    <glyph glyph-name="uniFEC3" unicode="&#x637;" horiz-adv-x="1929" arabic-form="initial" 
d="M964 256h68q157 0 283 50q118 47 118 102q0 28 -59 55q-53 22 -102 22q-75 -2 -185 -81q-67 -50 -123 -148zM1031 0h-652h-399v256h302v1300h358v-1194q138 173 296 274q164 105 320 105q185 0 304 -51q231 -99 231 -292q0 -211 -184 -307q-174 -91 -576 -91z" />
    <glyph glyph-name="uniFEC4" unicode="&#x637;" horiz-adv-x="1995" arabic-form="medial" 
d="M379 0h-399v256h302v1300h358v-1194q138 173 296 274q164 105 320 105q185 0 304 -51q231 -99 231 -292q0 -50 71 -107q45 -35 87 -35h66v-256h-86q-189 0 -277 120q-15 -11 -45 -29q-167 -91 -576 -91h-652zM964 256h68q157 0 283 50q118 47 118 102q0 28 -59 55
q-53 22 -102 22q-75 -2 -185 -81q-67 -50 -123 -148z" />
    <glyph glyph-name="uniFEC5" unicode="&#x638;" horiz-adv-x="2127" arabic-form="isolated" 
d="M1162 256h68q157 0 283 50q118 47 118 102q0 28 -59 55q-53 22 -102 22q-75 -2 -185 -81q-67 -50 -123 -148zM1229 0h-652h-433v256h336v1300h358v-1194q138 173 296 274q164 105 320 105q185 0 304 -51q231 -99 231 -292q0 -211 -184 -307q-174 -91 -576 -91zM1135 985
h150v-150h-150v150z" />
    <glyph glyph-name="uniFEC6" unicode="&#x638;" horiz-adv-x="2193" arabic-form="final" 
d="M1135 985h150v-150h-150v150zM1805 91q-167 -91 -576 -91h-652h-433v256h336v1300h358v-1194q138 173 296 274q164 105 320 105q185 0 304 -51q231 -99 231 -292q0 -50 71 -107q45 -35 87 -35h66v-256h-86q-189 0 -277 120q-15 -11 -45 -29zM1162 256h68q157 0 283 50
q118 47 118 102q0 28 -59 55q-53 22 -102 22q-75 -2 -185 -81q-67 -50 -123 -148z" />
    <glyph glyph-name="uniFEC7" unicode="&#x638;" horiz-adv-x="1929" arabic-form="initial" 
d="M937 985h150v-150h-150v150zM964 256h68q157 0 283 50q118 47 118 102q0 28 -59 55q-53 22 -102 22q-75 -2 -185 -81q-67 -50 -123 -148zM1031 0h-652h-399v256h302v1300h358v-1194q138 173 296 274q164 105 320 105q185 0 304 -51q231 -99 231 -292q0 -211 -184 -307
q-174 -91 -576 -91z" />
    <glyph glyph-name="uniFEC8" unicode="&#x638;" horiz-adv-x="1995" arabic-form="medial" 
d="M937 985h150v-150h-150v150zM379 0h-399v256h302v1300h358v-1194q138 173 296 274q164 105 320 105q185 0 304 -51q231 -99 231 -292q0 -50 71 -107q45 -35 87 -35h66v-256h-86q-189 0 -277 120q-15 -11 -45 -29q-167 -91 -576 -91h-652zM964 256h68q157 0 283 50
q118 47 118 102q0 28 -59 55q-53 22 -102 22q-75 -2 -185 -81q-67 -50 -123 -148z" />
    <glyph glyph-name="uniFEC9" unicode="&#x639;" horiz-adv-x="1399" arabic-form="isolated" 
d="M300 353q48 55 94 81q-50 4 -98 34q-89 56 -88 217q1 150 227 312q119 85 530 69v-256q-233 6 -311 -32q-93 -45 -93 -125q0 -49 48 -77q46 -28 172 19q149 55 412 73v-256q-363 -51 -483 -132q-173 -118 -173 -255q0 -103 103 -192q90 -78 327 -77q301 0 507 153v-275
q-164 -134 -502 -134q-473 1 -636 162q-157 154 -157 338q0 214 121 353z" />
    <glyph glyph-name="uniFECA" unicode="&#x639;" horiz-adv-x="1399" arabic-form="final" 
d="M475 0q0 -78 103 -167q90 -78 327 -77q303 1 507 153v-275q-164 -134 -502 -134q-473 1 -636 162q-157 154 -157 338q0 138 87 254q82 112 135 143q-43 31 -72 73q-30 42 -30 84q0 34 13 77q16 55 120 107q89 45 292 45t292 -45q104 -52 120 -107q13 -41 13 -77
q0 -42 -30 -84q-33 -47 -117 -112q41 -35 101 -56q134 -46 282 -46h96v-256h-118q-461 0 -680 213q-146 -89 -146 -213z" />
    <glyph glyph-name="uniFECB" unicode="&#x639;" horiz-adv-x="1399" arabic-form="initial" 
d="M675 755q-120 -64 -120 -150q0 -110 60 -150q91 -61 166 -41q180 48 412 146v-256q-189 -94 -493 -189q-368 -115 -585 -115h-135v256h110q175 0 304 41q-100 84 -139 148q-58 97 -47 235q11 142 212 285q127 90 545 101v-256q-178 5 -290 -55z" />
    <glyph glyph-name="uniFECC" unicode="&#x639;" horiz-adv-x="1156" arabic-form="medial" 
d="M578 163q-250 -163 -480 -163h-118v256h96q105 0 164 46q17 13 60 56q-84 65 -117 112q-30 42 -30 84q0 36 13 77q16 55 120 107q89 45 292 45t292 -45q104 -52 120 -107q13 -41 13 -77q0 -42 -30 -84q-33 -47 -117 -112q43 -43 60 -56q59 -46 164 -46h96v-256h-118
q-230 0 -480 163z" />
    <glyph glyph-name="uniFECD" unicode="&#x63a;" horiz-adv-x="1399" arabic-form="isolated" 
d="M300 353q48 55 94 81q-50 4 -98 34q-89 56 -88 217q1 150 227 312q119 85 530 69v-256q-233 6 -311 -32q-93 -45 -93 -125q0 -49 48 -77q46 -28 172 19q149 55 412 73v-256q-363 -51 -483 -132q-173 -118 -173 -255q0 -103 103 -192q90 -78 327 -77q301 0 507 153v-275
q-164 -134 -502 -134q-473 1 -636 162q-157 154 -157 338q0 214 121 353zM475 1335h150v-150h-150v150z" />
    <glyph glyph-name="uniFECE" unicode="&#x63a;" horiz-adv-x="1399" arabic-form="final" 
d="M575 1085h150v-150h-150v150zM475 0q0 -78 103 -167q90 -78 327 -77q303 1 507 153v-275q-164 -134 -502 -134q-473 1 -636 162q-157 154 -157 338q0 138 87 254q82 112 135 143q-43 31 -72 73q-30 42 -30 84q0 34 13 77q16 55 120 107q89 45 292 45t292 -45
q104 -52 120 -107q13 -41 13 -77q0 -42 -30 -84q-33 -47 -117 -112q41 -35 101 -56q134 -46 282 -46h96v-256h-118q-461 0 -680 213q-146 -89 -146 -213z" />
    <glyph glyph-name="uniFECF" unicode="&#x63a;" horiz-adv-x="1399" arabic-form="initial" 
d="M475 1335h150v-150h-150v150zM675 755q-120 -64 -120 -150q0 -110 60 -150q91 -61 166 -41q180 48 412 146v-256q-189 -94 -493 -189q-368 -115 -585 -115h-135v256h110q175 0 304 41q-100 84 -139 148q-58 97 -47 235q11 142 212 285q127 90 545 101v-256
q-178 5 -290 -55z" />
    <glyph glyph-name="uniFED0" unicode="&#x63a;" horiz-adv-x="1156" arabic-form="medial" 
d="M503 1085h150v-150h-150v150zM578 163q-250 -163 -480 -163h-118v256h96q105 0 164 46q17 13 60 56q-84 65 -117 112q-30 42 -30 84q0 36 13 77q16 55 120 107q89 45 292 45t292 -45q104 -52 120 -107q13 -41 13 -77q0 -42 -30 -84q-33 -47 -117 -112q43 -43 60 -56
q59 -46 164 -46h96v-256h-118q-230 0 -480 163z" />
    <glyph glyph-name="uniFED1" unicode="&#x641;" horiz-adv-x="2379" arabic-form="isolated" 
d="M1803 591q36 28 36 66q0 59 -50 88q-28 16 -71 15q-47 0 -75 -29q-26 -26 -26 -75q0 -40 35 -69q22 -18 70 -18q52 0 81 22zM1795 354q-55 -20 -122 -20q-222 4 -316 86q-98 84 -98 216q0 52 8 96q25 160 173 217q109 42 262 43q236 0 339 -57q81 -45 142 -209
q33 -89 33 -262q0 -186 -113 -311q-95 -105 -296 -143q-313 -59 -813 -59q-496 -1 -534 8q-330 77 -330 355q0 112 63 230h358q-73 -135 -51 -184q46 -102 189 -127q134 -25 330 -25q232 0 508 47q231 39 268 99zM1650 1285h150v-150h-150v150z" />
    <glyph glyph-name="uniFED2" unicode="&#x641;" horiz-adv-x="2439" arabic-form="final" 
d="M1650 1285h150v-150h-150v150zM2128 271q125 -15 284 -15h47v-256h-107q-193 0 -352 15q-64 5 -122 14l-71 -29q-100 -56 -813 -58q-405 -1 -534 28q-329 75 -330 344q-1 138 63 230h358q-51 -94 -51 -184q0 -70 189 -136q72 -25 330 -25q345 0 409 10q-13 12 -24 25
q-140 160 -140 334q0 103 24 168q49 134 164 198q104 58 250 58q198 0 339 -66q87 -41 139 -158q36 -81 36 -236q0 -131 -88 -261zM1764 363q75 95 75 209q0 74 -50 134q-25 30 -71 30q-48 0 -75 -42q-26 -41 -26 -119q0 -101 67 -164q26 -25 80 -48z" />
    <glyph glyph-name="uniFED3" unicode="&#x641;" horiz-adv-x="1341" arabic-form="initial" 
d="M600 1285h150v-150h-150v150zM765 591q36 28 36 66q0 59 -50 88q-28 16 -71 15q-47 0 -75 -29q-26 -26 -26 -75q0 -40 35 -69q22 -18 70 -18q52 0 81 22zM636 0h-656v256h576q59 0 96 9q82 20 105 89q-1 -6 -122 -5q-235 0 -316 71q-98 84 -98 216q0 52 8 96
q28 161 173 217q109 42 262 43q233 1 339 -57q81 -45 142 -209q33 -89 33 -262q0 -151 -113 -311q-47 -66 -189 -117q-101 -36 -240 -36z" />
    <glyph glyph-name="uniFED4" unicode="&#x641;" horiz-adv-x="1474" arabic-form="medial" 
d="M662 1285h150v-150h-150v150zM737 992q198 0 339 -66q87 -41 139 -158q36 -81 36 -236q0 -126 -167 -256q167 -20 363 -20h47v-256h-107q-193 0 -352 15q-196 19 -298 69q-102 -50 -298 -69q-159 -15 -352 -15h-107v256h47q196 0 363 20q-167 130 -167 256q0 155 36 236
q52 117 139 158q141 66 339 66zM737 416q137 52 137 156q0 78 -46 133q-25 30 -91 30t-91 -30q-46 -55 -46 -133q0 -104 137 -156z" />
    <glyph glyph-name="uniFED5" unicode="&#x642;" horiz-adv-x="1831" arabic-form="isolated" 
d="M1276 591q36 28 36 66q0 59 -50 88q-28 16 -71 15q-47 0 -75 -29q-26 -26 -26 -75q0 -40 35 -69q22 -18 70 -18q52 0 81 22zM655 -184q217 0 374 98q305 196 305 470q-74 -50 -188 -50q-218 0 -316 86q-98 84 -98 216q0 52 8 96q25 160 173 217q109 42 262 43
q236 0 339 -57q81 -45 142 -209q33 -89 33 -262q0 -206 -60 -344q-104 -239 -340 -402q-229 -158 -639 -158q-333 1 -466 192q-77 110 -77 284q0 180 82 396h358q-85 -185 -88 -340q-1 -50 11 -112q30 -163 185 -164zM1250 1300h150v-150h-150v150zM1000 1300h150v-150h-150
v150z" />
    <glyph glyph-name="uniFED6" unicode="&#x642;" horiz-adv-x="1846" arabic-form="final" 
d="M1250 975h150v-150h-150v150zM1000 975h150v-150h-150v150zM1312 325q-6 41 -53 80q-29 24 -68 23q-42 -1 -71 -30q-30 -30 -30 -58q0 -45 35 -64q36 -19 70 -19h122q0 39 -5 68zM1664 0q-19 -110 -90 -212q-95 -131 -270 -193q-279 -99 -609 -95q-382 3 -511 192
q-84 123 -77 243q8 120 47 165h358q-53 -45 -53 -109q0 -58 11 -86q60 -149 230 -149q265 0 433 98q108 64 134 146q-22 0 -121 2q-223 5 -316 86q-98 84 -98 216q0 52 8 96q28 161 173 217q109 42 262 43q244 1 339 -57q89 -55 142 -209q20 -57 27 -138h183v-256h-202z" />
    <glyph glyph-name="uniFED7" unicode="&#x642;" horiz-adv-x="1341" arabic-form="initial" 
d="M725 1300h150v-150h-150v150zM475 1300h150v-150h-150v150zM765 591q36 28 36 66q0 59 -50 88q-28 16 -71 15q-47 0 -75 -29q-26 -26 -26 -75q0 -40 35 -69q22 -18 70 -18q52 0 81 22zM636 0h-656v256h576q59 0 96 9q82 20 105 89q-1 -6 -122 -5q-235 0 -316 71
q-98 84 -98 216q0 52 8 96q28 161 173 217q109 42 262 43q233 1 339 -57q81 -45 142 -209q33 -89 33 -262q0 -151 -113 -311q-47 -66 -189 -117q-101 -36 -240 -36z" />
    <glyph glyph-name="uniFED8" unicode="&#x642;" horiz-adv-x="1474" arabic-form="medial" 
d="M787 1300h150v-150h-150v150zM537 1300h150v-150h-150v150zM737 992q198 0 339 -66q87 -41 139 -158q36 -81 36 -236q0 -126 -167 -256q167 -20 363 -20h47v-256h-107q-193 0 -352 15q-196 19 -298 69q-102 -50 -298 -69q-159 -15 -352 -15h-107v256h47q196 0 363 20
q-167 130 -167 256q0 155 36 236q52 117 139 158q141 66 339 66zM737 416q137 52 137 156q0 78 -46 133q-25 30 -91 30t-91 -30q-46 -55 -46 -133q0 -104 137 -156z" />
    <glyph glyph-name="uniFED9" unicode="&#x643;" horiz-adv-x="1877" arabic-form="isolated" 
d="M1073 1168v-115q-59 1 -112 -6q-80 -11 -80 -42q0 -43 38 -65q35 -20 56 -26q102 -32 102 -117q-1 -110 -88 -152q-82 -39 -216 -39q-66 0 -122 11v121q68 -9 113 -9q85 0 117 14q60 26 60 67q0 23 -78 42q-64 16 -92 57q-32 47 -31 93q2 80 77 119q82 43 256 47z
M1237 341q73 97 73 270v945h358v-945q0 -327 -110 -450q-150 -168 -370 -198q-140 -19 -334 -18q-315 2 -417 32q-293 88 -293 283q0 75 16 128h358q-14 -34 -14 -61q0 -46 162 -105q58 -21 183 -21q115 0 216 33q121 39 172 107z" />
    <glyph glyph-name="uniFEDA" unicode="&#x643;" horiz-adv-x="1907" arabic-form="final" 
d="M1073 1168v-115q-59 1 -112 -6q-80 -11 -80 -42q0 -43 38 -65q35 -20 56 -26q102 -32 102 -117q-1 -110 -88 -152q-82 -39 -216 -39q-66 0 -122 11v121q68 -9 113 -9q85 0 117 14q60 26 60 67q0 23 -78 42q-64 16 -92 57q-32 47 -31 93q2 80 77 119q82 43 256 47z
M1434 53q-110 -71 -246 -90q-140 -19 -334 -18q-315 2 -417 32q-293 88 -293 283q0 75 16 128h358q-14 -34 -14 -61q0 -46 162 -105q58 -21 183 -21q115 0 216 33q121 39 172 107q73 97 73 270v945h358v-1101q0 -106 49 -155q44 -44 112 -44h98v-256h-357q-75 0 -136 53z
" />
    <glyph glyph-name="uniFEDB" unicode="&#x643;" horiz-adv-x="1191" arabic-form="initial" 
d="M498 0h-518v256h396q114 0 131 39q16 36 16 72q0 28 -78 128l-297 380q-50 63 -50 142q0 35 10 68q34 128 135 161l948 310v-256l-571 -199q-68 -24 -92 -70q-6 -11 -6 -36q0 -27 31 -69l231 -311q156 -210 156 -300q0 -168 -101 -240q-106 -75 -341 -75z" />
    <glyph glyph-name="uniFEDC" unicode="&#x643;" horiz-adv-x="1191" arabic-form="medial" 
d="M839 75q-106 -75 -341 -75h-518v256h396q114 0 131 39q16 36 16 72q0 28 -78 128l-297 380q-50 63 -50 142q0 35 10 68q34 128 135 161l948 310v-256l-571 -199q-68 -24 -92 -70q-6 -11 -6 -36q0 -28 31 -69l419 -560q36 -48 84 -84q35 -26 90 -26h65v-256h-143
q-154 0 -229 75z" />
    <glyph glyph-name="uniFEDD" unicode="&#x644;" horiz-adv-x="1777" arabic-form="isolated" 
d="M1157 73q78 97 78 353v1130h358v-1130q0 -317 -98 -461q-116 -170 -382 -243q-351 -96 -676 -12q-292 76 -293 365q-1 138 63 230h358q-71 -102 -65 -230q5 -114 166 -148q130 -27 269 18q161 52 222 128z" />
    <glyph glyph-name="uniFEDE" unicode="&#x644;" horiz-adv-x="1828" arabic-form="final" 
d="M1524 16q-112 -212 -411 -294q-350 -97 -676 -12q-292 76 -293 365q-1 138 63 230h358q-71 -102 -65 -230q5 -114 166 -148q130 -27 269 18q161 52 222 128q78 97 78 353v1130h358v-1130q0 -77 49 -126q44 -44 112 -44h94v-256h-247q-66 0 -77 16z" />
    <glyph glyph-name="uniFEDF" unicode="&#x644;" horiz-adv-x="769" arabic-form="initial" 
d="M597 371q0 -182 -68 -279q-64 -92 -192 -92h-357v256h98q68 0 112 44q49 49 49 155v1101h358v-1185z" />
    <glyph glyph-name="uniFEE0" unicode="&#x644;" horiz-adv-x="836" arabic-form="medial" 
d="M-20 0v256h98q68 0 112 44q49 49 49 155v1101h358v-1101q0 -106 49 -155q44 -44 112 -44h98v-256h-251q-110 0 -187 109q-77 -109 -187 -109h-251z" />
    <glyph glyph-name="uniFEE1" unicode="&#x645;" horiz-adv-x="1501" arabic-form="isolated" 
d="M988 347q34 23 34 51q0 41 -23 64q-12 12 -44 32q-11 8 -51 6q-32 -2 -48 -21q-29 -31 -29 -83q0 -28 10 -54q26 -14 85 -14q39 0 66 19zM575 139q-22 18 -59 -50q-18 -32 -18 -89v-500h-358v500q0 223 120 292q149 85 240 97l-2 23q0 148 162 280q77 63 236 63
q158 0 237 -36q187 -85 210 -250q8 -53 8 -101q0 -142 -98 -211q-120 -85 -318 -85q-278 0 -360 67z" />
    <glyph glyph-name="uniFEE2" unicode="&#x645;" horiz-adv-x="1606" arabic-form="final" 
d="M1253 37q-120 -85 -318 -85q-278 0 -360 67q-22 18 -59 -50q-18 -32 -18 -89v-380h-358v380q0 223 120 292q149 85 240 97l-2 23q0 148 162 280q77 63 236 63q158 0 237 -36q138 -63 187 -169q48 -105 78 -140q29 -34 153 -34h75v-256h-130q-179 0 -215 59
q-21 -17 -28 -22zM988 227q34 23 34 51q0 41 -23 64q-12 12 -44 32q-11 8 -51 6q-32 -2 -48 -21q-29 -31 -29 -83q0 -28 10 -54q26 -14 85 -14q39 0 66 19z" />
    <glyph glyph-name="uniFEE3" unicode="&#x645;" horiz-adv-x="1268" arabic-form="initial" 
d="M755 227q34 23 34 51q0 41 -23 64q-6 6 -44 32q-11 8 -51 6q-31 -2 -48 -21q-30 -33 -35 -63q-4 -28 -18 -48q60 -40 119 -40q39 0 66 19zM283 388q36 96 144 184q77 63 236 63q158 0 237 -36q187 -85 210 -250q8 -53 8 -101q0 -142 -98 -211q-120 -85 -318 -85
q-236 0 -360 67q-26 14 -33 29q-64 -48 -168 -48h-161v256h117q62 0 117 38q46 31 69 94z" />
    <glyph glyph-name="uniFEE4" unicode="&#x645;" horiz-adv-x="1373" arabic-form="medial" 
d="M1020 37q-120 -85 -318 -85q-236 0 -360 67q-26 14 -33 29q-64 -48 -168 -48h-161v256h117q62 0 117 38q46 31 69 94q36 96 144 184q77 63 236 63q162 0 237 -36q140 -68 187 -169q48 -105 78 -140q29 -34 153 -34h75v-256h-130q-179 0 -215 59q-21 -17 -28 -22zM755 227
q34 23 34 51q0 41 -23 64q-6 6 -44 32q-11 8 -51 6q-31 -2 -48 -21q-30 -33 -35 -63q-4 -28 -18 -48q60 -40 119 -40q39 0 66 19z" />
    <glyph glyph-name="uniFEE5" unicode="&#x646;" horiz-adv-x="1748" arabic-form="isolated" 
d="M1596 312q1 -173 -100 -351q-125 -220 -359 -265q-177 -34 -317 -34q-192 0 -345 44q-349 99 -349 462q0 140 40 316h358q-42 -160 -42 -293q0 -178 201 -252q55 -20 133 -20q56 0 117 16q213 54 269 215q33 95 33 214q0 164 -101 386h358q103 -164 104 -438zM675 935
h150v-150h-150v150z" />
    <glyph glyph-name="uniFEE6" unicode="&#x646;" horiz-adv-x="1843" arabic-form="final" 
d="M675 785h150v-150h-150v150zM1529 525q40 -97 50 -108q131 -160 236 -160h48v-257h-63q-168 1 -211 60q0 -98 -93 -261q-127 -220 -359 -265q-177 -34 -317 -34q-192 0 -345 44q-349 99 -349 462q0 140 40 316h358q-42 -160 -42 -293q0 -178 201 -252q55 -21 133 -21
q56 0 117 17q214 56 269 215q33 95 33 214q0 164 -101 386h358q29 -45 37 -63z" />
    <glyph glyph-name="uniFEE7" unicode="&#x646;" horiz-adv-x="769" arabic-form="initial" 
d="M597 371q0 -182 -68 -279q-64 -92 -192 -92h-357v256h98q68 0 112 44q49 49 49 155v145h358v-229zM343 985h150v-150h-150v150z" />
    <glyph glyph-name="uniFEE8" unicode="&#x646;" horiz-adv-x="836" arabic-form="medial" 
d="M856 0h-251q-110 0 -187 109q-77 -109 -187 -109h-251v256h98q68 0 112 44q49 49 49 155v145h358v-145q0 -106 49 -155q44 -44 112 -44h98v-256zM343 985h150v-150h-150v150z" />
    <glyph glyph-name="uniFEE9" unicode="&#x647;" horiz-adv-x="1209" arabic-form="isolated" 
d="M570 480q-85 0 -100 -43q-15 -44 -14 -122q1 -68 59 -101q32 -18 87 -18q40 0 81 26q65 42 65 87q0 42 -47 91q-75 80 -131 80zM534 734q219 0 431 -160q143 -108 141 -272q-2 -170 -148 -275q-120 -86 -355 -87q-172 0 -312 41q-191 57 -193 309q-1 181 37 259
q91 185 399 185z" />
    <glyph glyph-name="uniFEEA" unicode="&#x647;" horiz-adv-x="1242" arabic-form="final" 
d="M703 317q-14 40 -22 91q-4 27 -9 50q-95 -10 -136 -42q-45 -35 -45 -89q0 -48 68 -48q97 0 144 38zM657 696q-5 33 -5 54h358q2 -200 37 -342q20 -82 61 -108q68 -44 79 -44h75v-256h-224q-92 0 -163 34q-66 31 -83 66q-108 -65 -344 -64q-56 0 -114 15q-201 48 -201 234
q0 190 216 328q106 68 308 83z" />
    <glyph glyph-name="uniFEEB" unicode="&#x647;" horiz-adv-x="1420" arabic-form="initial" 
d="M549 330q99 60 99 105q0 38 -15 69q-16 33 -55 33q-46 0 -74 -45q-18 -30 -16 -60q1 -35 16 -54q21 -27 45 -48zM390 758q-87 18 -145 23v256q437 -57 718 -267q249 -186 315 -368q19 -52 19 -109q0 -160 -94 -247q-122 -113 -355 -113q-224 0 -371 103
q-105 -36 -360 -36h-137v256h107q79 0 157 11q-54 62 -64 84q-36 72 -36 141q0 112 120 210q46 38 126 56zM931 421q-22 -62 -56 -112q-42 -61 -102 -117q29 -5 50 -5q122 0 142 67q7 30 7 63q0 36 -36 97q-4 7 -5 7z" />
    <glyph glyph-name="uniFEEC" unicode="&#x647;" horiz-adv-x="1352" arabic-form="medial" 
d="M179 256q5 196 161 358q136 142 352 142q260 1 380 -84q87 -64 87 -168q0 -120 -163 -248h376v-256h-376q163 -128 163 -248q0 -104 -87 -168q-120 -85 -380 -84q-216 0 -352 142q-156 162 -161 358h-199v256h199zM537 256h19q73 0 157 68q95 77 95 129q0 49 -100 49
q-72 0 -117 -57q-54 -71 -54 -189zM537 0q0 -118 54 -189q45 -57 117 -57q100 0 100 49q0 52 -95 129q-84 68 -157 68h-19z" />
    <glyph glyph-name="uniFEED" unicode="&#x648;" horiz-adv-x="1273" arabic-form="isolated" 
d="M1120 156q0 -204 -89 -348q-93 -151 -313 -225q-246 -83 -803 -83v256q239 -8 411 19q178 29 261 82q101 64 127 143q-32 0 -131 2q-223 5 -316 86q-98 84 -98 216q0 52 8 96q28 161 173 217q109 42 262 43q220 0 325 -57t156 -209q27 -82 27 -238zM749 325q-6 41 -53 80
q-29 24 -68 23q-42 -1 -71 -30q-30 -30 -30 -58q0 -45 35 -64q36 -19 70 -19h122q0 39 -5 68z" />
    <glyph glyph-name="uniFEEE" unicode="&#x648;" horiz-adv-x="1284" arabic-form="final" 
d="M714 0q-32 0 -131 2q-223 5 -316 86q-98 84 -98 216q0 52 8 96q28 161 173 217q109 42 262 43q244 1 339 -57q89 -55 142 -209q20 -57 27 -138h184v-256h-201q-9 -91 -72 -192q-95 -151 -313 -225q-246 -83 -803 -83v256q239 -8 411 19q174 28 261 82q101 64 127 143z
M749 325q-6 41 -53 80q-29 24 -68 23q-42 -1 -71 -30q-30 -30 -30 -58q0 -45 35 -64q36 -19 70 -19h122q0 39 -5 68z" />
    <glyph glyph-name="uniFEEF" unicode="&#x649;" horiz-adv-x="1877" arabic-form="isolated" 
d="M1640 65q-89 -157 -492 -243q-197 -41 -336 -41q-305 -1 -389 29q-292 106 -293 365q-1 138 63 230h358q-70 -101 -65 -230q3 -78 130 -121q51 -17 176 -17q147 0 280 35q247 66 249 160q1 96 -123 138q-179 61 -180 61q-73 32 -125 78q-64 57 -65 172q-2 168 190 224
q140 41 282 41q173 0 278 -46q163 -71 190 -253h-318q-22 69 -137 68q-91 -1 -114 -30q-26 -33 -25 -43q3 -36 125 -66q216 -53 305 -165q76 -96 77 -195q1 -75 -41 -151z" />
    <glyph glyph-name="uniFEF0" unicode="&#x649;" horiz-adv-x="2072" arabic-form="final" 
d="M1220 -218q-190 -41 -372 -41q-341 -1 -425 29q-292 105 -293 354q-1 139 63 230h358q-70 -101 -65 -230q2 -68 130 -110q51 -17 212 -17q186 0 316 35q146 40 146 74q-1 26 -27 43q-54 37 -65 48q-31 37 -31 121q0 98 48 145q74 73 124 96q76 35 225 35q257 0 360 -184
q86 -154 139 -154h29v-256h-61q-171 0 -281 180q-90 147 -158 147q-18 0 -25 -3q-45 -17 -45 -55q0 -44 57 -68q66 -27 66 -147q0 -179 -425 -272z" />
    <glyph glyph-name="uniFEF1" unicode="&#x64a;" horiz-adv-x="1877" arabic-form="isolated" 
d="M1640 65q-89 -157 -492 -243q-197 -41 -336 -41q-305 -1 -389 29q-292 106 -293 365q-1 138 63 230h358q-70 -101 -65 -230q3 -78 130 -121q51 -17 176 -17q147 0 280 35q247 66 249 160q1 96 -123 138q-179 61 -180 61q-73 32 -125 78q-64 57 -65 172q-2 168 190 224
q140 41 282 41q173 0 278 -46q163 -71 190 -253h-318q-22 69 -137 68q-91 -1 -114 -30q-26 -33 -25 -43q3 -36 125 -66q216 -53 305 -165q76 -96 77 -195q1 -75 -41 -151zM900 -350h150v-150h-150v150zM650 -350h150v-150h-150v150z" />
    <glyph glyph-name="uniFEF2" unicode="&#x64a;" horiz-adv-x="2072" arabic-form="final" 
d="M900 -350h150v-150h-150v150zM650 -350h150v-150h-150v150zM1220 -218q-190 -41 -372 -41q-341 -1 -425 29q-292 105 -293 354q-1 139 63 230h358q-70 -101 -65 -230q2 -68 130 -110q51 -17 212 -17q186 0 316 35q146 40 146 74q-1 26 -27 43q-54 37 -65 48
q-31 37 -31 121q0 98 48 145q74 73 124 96q76 35 225 35q257 0 360 -184q86 -154 139 -154h29v-256h-61q-171 0 -281 180q-90 147 -158 147q-18 0 -25 -3q-45 -17 -45 -55q0 -44 57 -68q66 -27 66 -147q0 -179 -425 -272z" />
    <glyph glyph-name="uniFEF3" unicode="&#x64a;" horiz-adv-x="769" arabic-form="initial" 
d="M468 -190h150v-150h-150v150zM218 -190h150v-150h-150v150zM597 371q0 -182 -68 -279q-64 -92 -192 -92h-357v256h98q68 0 112 44q49 49 49 155v145h358v-229z" />
    <glyph glyph-name="uniFEF4" unicode="&#x64a;" horiz-adv-x="836" arabic-form="medial" 
d="M468 -190h150v-150h-150v150zM218 -190h150v-150h-150v150zM856 0h-251q-110 0 -187 109q-77 -109 -187 -109h-251v256h98q68 0 112 44q49 49 49 155v145h358v-145q0 -106 49 -155q44 -44 112 -44h98v-256z" />
    <glyph glyph-name=".notdef" horiz-adv-x="1229" 
d="M102 -362v1806h1024v-1806h-1024zM217 -248h795v1577h-795v-1577z" />
    <glyph glyph-name=".null" horiz-adv-x="0" 
 />
    <glyph glyph-name="nonmarkingreturn" horiz-adv-x="682" 
 />
    <glyph glyph-name="space" unicode=" " horiz-adv-x="713" 
 />
    <glyph glyph-name="exclam" unicode="!" horiz-adv-x="934" 
d="M287 1493h360v-573l-51 -418h-258l-51 418v573zM287 356h360v-356h-360v356z" />
    <glyph glyph-name="quotedbl" unicode="&#x22;" horiz-adv-x="1067" 
d="M872 1493v-555h-237v555h237zM432 1493v-555h-237v555h237z" />
    <glyph glyph-name="numbersign" unicode="#" 
d="M911 1470l-96 -385h264l97 385h221l-97 -385h277v-213h-330l-69 -274h284v-215h-336l-96 -383h-221l96 383h-264l-96 -383h-223l96 383h-279v215h328l70 274h-283v213h338l96 385h223zM1024 872h-264l-70 -274h264z" />
    <glyph glyph-name="dollar" unicode="$" horiz-adv-x="1425" 
d="M795 -301h-162l-1 301q-125 5 -242 28t-228 64v262q115 -59 232.5 -90.5t238.5 -35.5v311l-33 6q-239 42 -339.5 132t-100.5 259q0 179 122.5 279.5t349.5 109.5l1 231h162v-227q100 -8 200 -25t201 -44v-254q-100 42 -200 65.5t-201 28.5v-287l32 -6
q254 -40 356.5 -133.5t102.5 -276.5q0 -184 -122 -282.5t-369 -112.5v-303zM633 836v261q-71 -4 -113.5 -38.5t-42.5 -87.5q0 -59 39 -92.5t117 -42.5zM795 510v-278q87 1 130.5 34t43.5 99q0 68 -40 101.5t-134 43.5z" />
    <glyph glyph-name="percent" unicode="%" horiz-adv-x="2052" 
d="M1587 616q-71 0 -110 -61.5t-39 -175.5q0 -115 38.5 -176.5t110.5 -61.5t110 61.5t38 176.5q0 114 -38.5 175.5t-109.5 61.5zM1587 784q186 0 293 -108t107 -297t-107 -298.5t-293 -109.5t-293.5 109.5t-107.5 298.5q0 188 107.5 296.5t293.5 108.5zM670 -29h-221
l933 1549h222zM465 1520q186 0 292.5 -108.5t106.5 -297.5t-106.5 -298t-292.5 -109t-292.5 109t-106.5 298t106.5 297.5t292.5 108.5zM465 1352q-72 0 -111 -62t-39 -176q0 -115 39 -177.5t111 -62.5t110.5 62.5t38.5 177.5q0 114 -39 176t-110 62z" />
    <glyph glyph-name="ampersand" unicode="&#x26;" horiz-adv-x="1786" 
d="M799 991l409 -450q53 70 80.5 157t32.5 197h311q-15 -182 -70.5 -324t-154.5 -249l293 -322h-424l-98 109q-105 -70 -221 -104t-246 -34q-263 0 -425.5 138.5t-162.5 357.5q0 146 71.5 258.5t233.5 218.5q-42 53 -62 106t-20 111q0 163 127 261t338 98q91 0 189.5 -14.5
t205.5 -43.5v-278q-94 48 -178 71t-164 23q-77 0 -119.5 -29.5t-42.5 -83.5q0 -34 24.5 -77.5t72.5 -96.5zM600 743q-65 -47 -98 -106.5t-33 -130.5q0 -115 85 -196t204 -81q67 0 125 20.5t108 61.5z" />
    <glyph glyph-name="quotesingle" unicode="'" horiz-adv-x="627" 
d="M432 1493v-555h-237v555h237z" />
    <glyph glyph-name="parenleft" unicode="(" horiz-adv-x="936" 
d="M772 -270h-297q-153 247 -226 469.5t-73 441.5t73.5 443.5t225.5 469.5h297q-128 -237 -192 -463.5t-64 -447.5t63.5 -448t192.5 -465z" />
    <glyph glyph-name="parenright" unicode=")" horiz-adv-x="936" 
d="M164 -270q128 238 192 465t64 448t-64 447.5t-192 463.5h297q152 -245 225.5 -469.5t73.5 -443.5t-73 -441.5t-226 -469.5h-297z" />
    <glyph glyph-name="asterisk" unicode="*" horiz-adv-x="1071" 
d="M1030 1217l-330 -173l330 -174l-76 -141l-333 184v-344h-170v344l-334 -184l-76 141l334 174l-334 173l76 141l334 -182v344h170v-344l333 182z" />
    <glyph glyph-name="plus" unicode="+" 
d="M977 1284v-524h522v-236h-522v-524h-238v524h-522v236h522v524h238z" />
    <glyph glyph-name="comma" unicode="," horiz-adv-x="778" 
d="M209 387h360v-305l-247 -373h-213l100 373v305z" />
    <glyph glyph-name="hyphen" unicode="-" horiz-adv-x="850" 
d="M111 735h628v-291h-628v291z" />
    <glyph glyph-name="period" unicode="." horiz-adv-x="778" 
d="M209 387h360v-387h-360v387z" />
    <glyph glyph-name="slash" unicode="/" horiz-adv-x="748" 
d="M526 1493h222l-527 -1683h-221z" />
    <glyph glyph-name="zero" unicode="0" horiz-adv-x="1425" 
d="M942 748q0 280 -52.5 394.5t-176.5 114.5t-177 -114.5t-53 -394.5q0 -283 53 -399t177 -116q123 0 176 116t53 399zM1327 745q0 -371 -160 -572.5t-454 -201.5q-295 0 -455 201.5t-160 572.5q0 372 160 573.5t455 201.5q294 0 454 -201.5t160 -573.5z" />
    <glyph glyph-name="one" unicode="1" horiz-adv-x="1425" 
d="M240 266h340v965l-349 -72v262l347 72h366v-1227h340v-266h-1044v266z" />
    <glyph glyph-name="two" unicode="2" horiz-adv-x="1425" 
d="M590 283h657v-283h-1085v283l545 481q73 66 108 129t35 131q0 105 -70.5 169t-187.5 64q-90 0 -197 -38.5t-229 -114.5v328q130 43 257 65.5t249 22.5q268 0 416.5 -118t148.5 -329q0 -122 -63 -227.5t-265 -282.5z" />
    <glyph glyph-name="three" unicode="3" horiz-adv-x="1425" 
d="M954 805q151 -39 229.5 -135.5t78.5 -245.5q0 -222 -170 -337.5t-496 -115.5q-115 0 -230.5 18.5t-228.5 55.5v297q108 -54 214.5 -81.5t209.5 -27.5q153 0 234.5 53t81.5 152q0 102 -83.5 154.5t-246.5 52.5h-154v248h162q145 0 216 45.5t71 138.5q0 86 -69 133t-195 47
q-93 0 -188 -21t-189 -62v282q114 32 226 48t220 16q291 0 435.5 -95.5t144.5 -287.5q0 -131 -69 -214.5t-204 -117.5z" />
    <glyph glyph-name="four" unicode="4" horiz-adv-x="1425" 
d="M754 1176l-422 -625h422v625zM690 1493h428v-942h213v-279h-213v-272h-364v272h-662v330z" />
    <glyph glyph-name="five" unicode="5" horiz-adv-x="1425" 
d="M217 1493h957v-283h-650v-231q44 12 88.5 18.5t92.5 6.5q273 0 425 -136.5t152 -380.5q0 -242 -165.5 -379t-459.5 -137q-127 0 -251.5 24.5t-247.5 74.5v303q122 -70 231.5 -105t206.5 -35q140 0 220.5 68.5t80.5 185.5q0 118 -80.5 186t-220.5 68q-83 0 -177 -21.5
t-202 -66.5v840z" />
    <glyph glyph-name="six" unicode="6" horiz-adv-x="1425" 
d="M741 737q-101 0 -151.5 -65.5t-50.5 -196.5t50.5 -196.5t151.5 -65.5q102 0 152.5 65.5t50.5 196.5t-50.5 196.5t-152.5 65.5zM1217 1454v-276q-95 45 -179 66.5t-164 21.5q-172 0 -268 -95.5t-112 -283.5q66 49 143 73.5t168 24.5q229 0 369.5 -134t140.5 -351
q0 -240 -157 -384.5t-421 -144.5q-291 0 -450.5 196.5t-159.5 557.5q0 370 186.5 581.5t511.5 211.5q103 0 200 -16t192 -48z" />
    <glyph glyph-name="seven" unicode="7" horiz-adv-x="1425" 
d="M137 1493h1125v-217l-582 -1276h-375l551 1210h-719v283z" />
    <glyph glyph-name="eight" unicode="8" horiz-adv-x="1425" 
d="M713 668q-108 0 -166 -59t-58 -169t58 -168.5t166 -58.5q107 0 164 58.5t57 168.5q0 111 -57 169.5t-164 58.5zM432 795q-136 41 -205 126t-69 212q0 189 141 288t414 99q271 0 412 -98.5t141 -288.5q0 -127 -69.5 -212t-205.5 -126q152 -42 229.5 -136.5t77.5 -238.5
q0 -222 -147.5 -335.5t-437.5 -113.5q-291 0 -439.5 113.5t-148.5 335.5q0 144 77.5 238.5t229.5 136.5zM522 1094q0 -89 49.5 -137t141.5 -48q90 0 139 48t49 137t-49 136.5t-139 47.5q-92 0 -141.5 -48t-49.5 -136z" />
    <glyph glyph-name="nine" unicode="9" horiz-adv-x="1425" 
d="M205 33v276q92 -43 176 -64.5t166 -21.5q172 0 268 95.5t113 283.5q-68 -50 -145 -75t-167 -25q-229 0 -369.5 133.5t-140.5 351.5q0 241 156.5 386t419.5 145q292 0 452 -197t160 -557q0 -370 -187 -581.5t-513 -211.5q-105 0 -201 15.5t-188 46.5zM680 752
q101 0 152 65.5t51 196.5q0 130 -51 196t-152 66t-152 -66t-51 -196q0 -131 51 -196.5t152 -65.5z" />
    <glyph glyph-name="colon" unicode=":" horiz-adv-x="819" 
d="M229 1120h361v-387h-361v387zM229 387h361v-387h-361v387z" />
    <glyph glyph-name="semicolon" unicode=";" horiz-adv-x="819" 
d="M229 387h361v-305l-248 -373h-213l100 373v305zM229 1120h361v-387h-361v387z" />
    <glyph glyph-name="less" unicode="&#x3c;" 
d="M1499 973l-964 -332l964 -330v-250l-1282 463v236l1282 463v-250z" />
    <glyph glyph-name="equal" unicode="=" 
d="M217 987h1282v-235h-1282v235zM217 532h1282v-237h-1282v237z" />
    <glyph glyph-name="greater" unicode="&#x3e;" 
d="M217 973v250l1282 -463v-236l-1282 -463v250l965 330z" />
    <glyph glyph-name="question" unicode="?" horiz-adv-x="1188" 
d="M709 504h-361v49q0 82 33 145.5t139 161.5l64 58q57 52 83.5 98t26.5 92q0 70 -48 109.5t-134 39.5q-81 0 -175 -33.5t-196 -99.5v314q121 42 221 62t193 20q244 0 372 -99.5t128 -290.5q0 -98 -39 -175.5t-133 -166.5l-64 -57q-68 -62 -89 -99.5t-21 -82.5v-45zM348 356
h361v-356h-361v356z" />
    <glyph glyph-name="at" unicode="@" horiz-adv-x="2048" 
d="M831 539q0 -123 52.5 -194t142.5 -71q89 0 142 71.5t53 193.5q0 121 -53.5 191.5t-143.5 70.5q-88 0 -140.5 -70.5t-52.5 -191.5zM1241 238q-30 -71 -96.5 -110.5t-155.5 -39.5q-172 0 -279.5 124.5t-107.5 324.5t108 325t279 125q89 0 155.5 -40t96.5 -111v131h209v-693
q124 19 195 119.5t71 257.5q0 100 -29 187.5t-88 160.5q-95 122 -237.5 188t-308.5 66q-116 0 -222 -30.5t-196 -89.5q-148 -98 -230.5 -253.5t-82.5 -336.5q0 -149 53.5 -279.5t154.5 -230.5q100 -98 229.5 -149.5t276.5 -51.5q126 0 252 47t215 127l107 -162
q-125 -97 -272.5 -148.5t-299.5 -51.5q-185 0 -349 65.5t-292 190.5t-195 289.5t-67 353.5q0 182 68 347t194 290q126 124 293.5 192t347.5 68q224 0 407 -85.5t306 -246.5q75 -98 113.5 -212.5t38.5 -240.5q0 -271 -163 -421t-460 -150h-39v154z" />
    <glyph glyph-name="A" unicode="A" horiz-adv-x="1585" 
d="M1094 272h-602l-95 -272h-387l553 1493h459l553 -1493h-387zM588 549h409l-204 594z" />
    <glyph glyph-name="B" unicode="B" horiz-adv-x="1561" 
d="M786 915q91 0 138 40t47 118q0 77 -47 117.5t-138 40.5h-213v-316h213zM799 262q116 0 174.5 49t58.5 148q0 97 -58 145.5t-175 48.5h-226v-391h226zM1157 799q124 -36 192 -133t68 -238q0 -216 -146 -322t-444 -106h-639v1493h578q311 0 450.5 -94t139.5 -301
q0 -109 -51 -185.5t-148 -113.5z" />
    <glyph glyph-name="C" unicode="C" horiz-adv-x="1503" 
d="M1372 82q-106 -55 -221 -83t-240 -28q-373 0 -591 208.5t-218 565.5q0 358 218 566.5t591 208.5q125 0 240 -28t221 -83v-309q-107 73 -211 107t-219 34q-206 0 -324 -132t-118 -364q0 -231 118 -363t324 -132q115 0 219 34t211 107v-309z" />
    <glyph glyph-name="D" unicode="D" horiz-adv-x="1700" 
d="M573 1202v-911h138q236 0 360.5 117t124.5 340q0 222 -124 338t-361 116h-138zM188 1493h406q340 0 506.5 -48.5t285.5 -164.5q105 -101 156 -233t51 -299q0 -169 -51 -301.5t-156 -233.5q-120 -116 -288 -164.5t-504 -48.5h-406v1493z" />
    <glyph glyph-name="E" unicode="E" horiz-adv-x="1399" 
d="M188 1493h1039v-291h-654v-278h615v-291h-615v-342h676v-291h-1061v1493z" />
    <glyph glyph-name="F" unicode="F" horiz-adv-x="1399" 
d="M188 1493h1039v-291h-654v-278h615v-291h-615v-633h-385v1493z" />
    <glyph glyph-name="G" unicode="G" horiz-adv-x="1681" 
d="M1530 111q-144 -70 -299 -105t-320 -35q-373 0 -591 208.5t-218 565.5q0 361 222 568t608 207q149 0 285.5 -28t257.5 -83v-309q-125 71 -248.5 106t-247.5 35q-230 0 -354.5 -128.5t-124.5 -367.5q0 -237 120 -366t341 -129q60 0 111.5 7.5t92.5 23.5v290h-235v258h600
v-718z" />
    <glyph glyph-name="H" unicode="H" horiz-adv-x="1714" 
d="M188 1493h385v-569h568v569h385v-1493h-385v633h-568v-633h-385v1493z" />
    <glyph glyph-name="I" unicode="I" horiz-adv-x="762" 
d="M188 1493h385v-1493h-385v1493z" />
    <glyph glyph-name="J" unicode="J" horiz-adv-x="762" 
d="M188 1493h385v-1348q0 -279 -151.5 -417t-458.5 -138h-78v291h60q120 0 181.5 67t61.5 197v1348z" />
    <glyph glyph-name="K" unicode="K" horiz-adv-x="1587" 
d="M188 1493h385v-545l555 545h447l-719 -707l793 -786h-482l-594 588v-588h-385v1493z" />
    <glyph glyph-name="L" unicode="L" horiz-adv-x="1305" 
d="M188 1493h385v-1202h676v-291h-1061v1493z" />
    <glyph glyph-name="M" unicode="M" horiz-adv-x="2038" 
d="M188 1493h490l340 -799l342 799h489v-1493h-364v1092l-344 -805h-244l-344 805v-1092h-365v1493z" />
    <glyph glyph-name="N" unicode="N" horiz-adv-x="1714" 
d="M188 1493h430l543 -1024v1024h365v-1493h-430l-543 1024v-1024h-365v1493z" />
    <glyph glyph-name="O" unicode="O" horiz-adv-x="1741" 
d="M870 1241q-176 0 -273 -130t-97 -366q0 -235 97 -365t273 -130q177 0 274 130t97 365q0 236 -97 366t-274 130zM870 1520q360 0 564 -206t204 -569q0 -362 -204 -568t-564 -206q-359 0 -563.5 206t-204.5 568q0 363 204.5 569t563.5 206z" />
    <glyph glyph-name="P" unicode="P" horiz-adv-x="1501" 
d="M188 1493h639q285 0 437.5 -126.5t152.5 -360.5q0 -235 -152.5 -361.5t-437.5 -126.5h-254v-518h-385v1493zM573 1214v-417h213q112 0 173 54.5t61 154.5t-61 154t-173 54h-213z" />
    <glyph glyph-name="Q" unicode="Q" horiz-adv-x="1741" 
d="M911 -27h-30q-369 0 -574 204t-205 568q0 363 204.5 569t563.5 206q363 0 565.5 -204t202.5 -571q0 -252 -107.5 -434t-309.5 -274l301 -336h-367zM870 1241q-176 0 -273 -130t-97 -366q0 -240 95 -367.5t275 -127.5q177 0 274 130t97 365q0 236 -97 366t-274 130z" />
    <glyph glyph-name="R" unicode="R" horiz-adv-x="1577" 
d="M735 831q121 0 173.5 45t52.5 148q0 102 -52.5 146t-173.5 44h-162v-383h162zM573 565v-565h-385v1493h588q295 0 432.5 -99t137.5 -313q0 -148 -71.5 -243t-215.5 -140q79 -18 141.5 -81.5t126.5 -192.5l209 -424h-410l-182 371q-55 112 -111.5 153t-150.5 41h-109z" />
    <glyph glyph-name="S" unicode="S" horiz-adv-x="1475" 
d="M1227 1446v-316q-123 55 -240 83t-221 28q-138 0 -204 -38t-66 -118q0 -60 44.5 -93.5t161.5 -57.5l164 -33q249 -50 354 -152t105 -290q0 -247 -146.5 -367.5t-447.5 -120.5q-142 0 -285 27t-286 80v325q143 -76 276.5 -114.5t257.5 -38.5q126 0 193 42t67 120
q0 70 -45.5 108t-181.5 68l-149 33q-224 48 -327.5 153t-103.5 283q0 223 144 343t414 120q123 0 253 -18.5t269 -55.5z" />
    <glyph glyph-name="T" unicode="T" horiz-adv-x="1397" 
d="M10 1493h1376v-291h-495v-1202h-385v1202h-496v291z" />
    <glyph glyph-name="U" unicode="U" horiz-adv-x="1663" 
d="M188 1493h385v-895q0 -185 60.5 -264.5t197.5 -79.5q138 0 198.5 79.5t60.5 264.5v895h385v-895q0 -317 -159 -472t-485 -155q-325 0 -484 155t-159 472v895z" />
    <glyph glyph-name="V" unicode="V" horiz-adv-x="1585" 
d="M10 1493h387l396 -1102l395 1102h387l-553 -1493h-459z" />
    <glyph glyph-name="W" unicode="W" horiz-adv-x="2259" 
d="M61 1493h369l258 -1085l256 1085h371l256 -1085l258 1085h366l-352 -1493h-444l-271 1135l-268 -1135h-444z" />
    <glyph glyph-name="X" unicode="X" horiz-adv-x="1579" 
d="M1020 762l518 -762h-401l-349 510l-346 -510h-403l518 762l-498 731h402l327 -481l326 481h404z" />
    <glyph glyph-name="Y" unicode="Y" horiz-adv-x="1483" 
d="M-20 1493h421l340 -532l340 532h422l-569 -864v-629h-385v629z" />
    <glyph glyph-name="Z" unicode="Z" horiz-adv-x="1485" 
d="M115 1493h1255v-233l-801 -969h824v-291h-1301v233l801 969h-778v291z" />
    <glyph glyph-name="bracketleft" unicode="[" horiz-adv-x="936" 
d="M176 1556h621v-225h-281v-1376h281v-225h-621v1826z" />
    <glyph glyph-name="backslash" unicode="\" horiz-adv-x="748" 
d="M526 -190l-526 1683h221l527 -1683h-222z" />
    <glyph glyph-name="bracketright" unicode="]" horiz-adv-x="936" 
d="M760 -270h-621v225h281v1376h-281v225h621v-1826z" />
    <glyph glyph-name="asciicircum" unicode="^" 
d="M981 1493l528 -557h-241l-410 301l-409 -301h-242l528 557h246z" />
    <glyph glyph-name="underscore" unicode="_" horiz-adv-x="1024" 
d="M1024 -293v-190h-1024v190h1024z" />
    <glyph glyph-name="grave" unicode="`" horiz-adv-x="1024" 
d="M377 1638l282 -376h-196l-369 376h283z" />
    <glyph glyph-name="a" unicode="a" horiz-adv-x="1382" 
d="M674 504q-112 0 -168.5 -38t-56.5 -112q0 -68 45.5 -106.5t126.5 -38.5q101 0 170 72.5t69 181.5v41h-186zM1221 639v-639h-361v166q-72 -102 -162 -148.5t-219 -46.5q-174 0 -282.5 101.5t-108.5 263.5q0 197 135.5 289t425.5 92h211v28q0 85 -67 124.5t-209 39.5
q-115 0 -214 -23t-184 -69v273q115 28 231 42.5t232 14.5q303 0 437.5 -119.5t134.5 -388.5z" />
    <glyph glyph-name="b" unicode="b" horiz-adv-x="1466" 
d="M768 231q115 0 175.5 84t60.5 244t-60.5 244t-175.5 84t-176.5 -84.5t-61.5 -243.5t61.5 -243.5t176.5 -84.5zM530 956q74 98 164 144.5t207 46.5q207 0 340 -164.5t133 -423.5t-133 -423.5t-340 -164.5q-117 0 -207 46.5t-164 144.5v-162h-358v1556h358v-600z" />
    <glyph glyph-name="c" unicode="c" horiz-adv-x="1214" 
d="M1077 1085v-292q-73 50 -146.5 74t-152.5 24q-150 0 -233.5 -87.5t-83.5 -244.5t83.5 -244.5t233.5 -87.5q84 0 159.5 25t139.5 74v-293q-84 -31 -170.5 -46.5t-173.5 -15.5q-303 0 -474 155.5t-171 432.5t171 432.5t474 155.5q88 0 173.5 -15.5t170.5 -46.5z" />
    <glyph glyph-name="d" unicode="d" horiz-adv-x="1466" 
d="M934 956v600h360v-1556h-360v162q-74 -99 -163 -145t-206 -46q-207 0 -340 164.5t-133 423.5t133 423.5t340 164.5q116 0 205.5 -46.5t163.5 -144.5zM698 231q115 0 175.5 84t60.5 244t-60.5 244t-175.5 84q-114 0 -174.5 -84t-60.5 -244t60.5 -244t174.5 -84z" />
    <glyph glyph-name="e" unicode="e" horiz-adv-x="1389" 
d="M1290 563v-102h-837q13 -126 91 -189t218 -63q113 0 231.5 33.5t243.5 101.5v-276q-127 -48 -254 -72.5t-254 -24.5q-304 0 -472.5 154.5t-168.5 433.5q0 274 165.5 431t455.5 157q264 0 422.5 -159t158.5 -425zM922 682q0 102 -59.5 164.5t-155.5 62.5
q-104 0 -169 -58.5t-81 -168.5h465z" />
    <glyph glyph-name="f" unicode="f" horiz-adv-x="891" 
d="M909 1556v-235h-198q-76 0 -106 -27.5t-30 -95.5v-78h306v-256h-306v-864h-358v864h-178v256h178v78q0 183 102 270.5t316 87.5h274z" />
    <glyph glyph-name="g" unicode="g" horiz-adv-x="1466" 
d="M934 190q-74 -98 -163 -144t-206 -46q-205 0 -339 161.5t-134 411.5q0 251 134 411.5t339 160.5q117 0 206 -46t163 -145v166h360v-1007q0 -270 -170.5 -412.5t-494.5 -142.5q-105 0 -203 16t-197 49v279q94 -54 184 -80.5t181 -26.5q176 0 258 77t82 241v77zM698 887
q-111 0 -173 -82t-62 -232q0 -154 60 -233.5t175 -79.5q112 0 174 82t62 231q0 150 -62 232t-174 82z" />
    <glyph glyph-name="h" unicode="h" horiz-adv-x="1458" 
d="M1298 682v-682h-360v111v409q0 147 -6.5 202t-22.5 81q-21 35 -57 54.5t-82 19.5q-112 0 -176 -86.5t-64 -239.5v-551h-358v1556h358v-600q81 98 172 144.5t201 46.5q194 0 294.5 -119t100.5 -346z" />
    <glyph glyph-name="i" unicode="i" horiz-adv-x="702" 
d="M172 1120h358v-1120h-358v1120zM172 1556h358v-292h-358v292z" />
    <glyph glyph-name="j" unicode="j" horiz-adv-x="702" 
d="M172 1120h358v-1100q0 -225 -108 -343.5t-313 -118.5h-177v235h62q102 0 140 46t38 181v1100zM172 1556h358v-292h-358v292z" />
    <glyph glyph-name="k" unicode="k" horiz-adv-x="1362" 
d="M172 1556h358v-847l412 411h416l-547 -514l590 -606h-434l-437 467v-467h-358v1556z" />
    <glyph glyph-name="l" unicode="l" horiz-adv-x="702" 
d="M172 1556h358v-1556h-358v1556z" />
    <glyph glyph-name="m" unicode="m" horiz-adv-x="2134" 
d="M1210 934q68 104 161.5 158.5t205.5 54.5q193 0 294 -119t101 -346v-682h-360v584q1 13 1.5 27t0.5 40q0 119 -35 172.5t-113 53.5q-102 0 -157.5 -84t-57.5 -243v-550h-360v584q0 186 -32 239.5t-114 53.5q-103 0 -159 -84.5t-56 -241.5v-551h-360v1120h360v-164
q66 95 151.5 143t188.5 48q116 0 205 -56t135 -157z" />
    <glyph glyph-name="n" unicode="n" horiz-adv-x="1458" 
d="M1298 682v-682h-360v111v411q0 145 -6.5 200t-22.5 81q-21 35 -57 54.5t-82 19.5q-112 0 -176 -86.5t-64 -239.5v-551h-358v1120h358v-164q81 98 172 144.5t201 46.5q194 0 294.5 -119t100.5 -346z" />
    <glyph glyph-name="o" unicode="o" horiz-adv-x="1407" 
d="M705 891q-119 0 -181.5 -85.5t-62.5 -246.5t62.5 -246.5t181.5 -85.5q117 0 179 85.5t62 246.5t-62 246.5t-179 85.5zM705 1147q289 0 451.5 -156t162.5 -432t-162.5 -432t-451.5 -156q-290 0 -453.5 156t-163.5 432t163.5 432t453.5 156z" />
    <glyph glyph-name="p" unicode="p" horiz-adv-x="1466" 
d="M530 162v-588h-358v1546h358v-164q74 98 164 144.5t207 46.5q207 0 340 -164.5t133 -423.5t-133 -423.5t-340 -164.5q-117 0 -207 46.5t-164 144.5zM768 887q-115 0 -176.5 -84.5t-61.5 -243.5t61.5 -243.5t176.5 -84.5t175.5 84t60.5 244t-60.5 244t-175.5 84z" />
    <glyph glyph-name="q" unicode="q" horiz-adv-x="1466" 
d="M698 887q-114 0 -174.5 -84t-60.5 -244t60.5 -244t174.5 -84q115 0 175.5 84t60.5 244t-60.5 244t-175.5 84zM934 162q-74 -99 -163 -145t-206 -46q-207 0 -340 164.5t-133 423.5t133 422.5t340 163.5q117 0 206 -46t163 -145v166h360v-1546h-360v588z" />
    <glyph glyph-name="r" unicode="r" horiz-adv-x="1010" 
d="M1004 815q-47 22 -93.5 32.5t-93.5 10.5q-138 0 -212.5 -88.5t-74.5 -253.5v-516h-358v1120h358v-184q69 110 158.5 160.5t214.5 50.5q18 0 39 -1.5t61 -6.5z" />
    <glyph glyph-name="s" unicode="s" horiz-adv-x="1219" 
d="M1047 1085v-272q-115 48 -222 72t-202 24q-102 0 -151.5 -25.5t-49.5 -78.5q0 -43 37.5 -66t134.5 -34l63 -9q275 -35 370 -115t95 -251q0 -179 -132 -269t-394 -90q-111 0 -229.5 17.5t-243.5 52.5v272q107 -52 219.5 -78t228.5 -26q105 0 158 29t53 86q0 48 -36.5 71.5
t-145.5 36.5l-63 8q-239 30 -335 111t-96 246q0 178 122 264t374 86q99 0 208 -15t237 -47z" />
    <glyph glyph-name="t" unicode="t" horiz-adv-x="979" 
d="M563 1438v-318h369v-256h-369v-475q0 -78 31 -105.5t123 -27.5h184v-256h-307q-212 0 -300.5 88.5t-88.5 300.5v475h-178v256h178v318h358z" />
    <glyph glyph-name="u" unicode="u" horiz-adv-x="1458" 
d="M160 436v684h360v-112q0 -91 -1 -228.5t-1 -183.5q0 -135 7 -194.5t24 -86.5q22 -35 57.5 -54t81.5 -19q112 0 176 86t64 239v553h358v-1120h-358v162q-81 -98 -171.5 -144.5t-199.5 -46.5q-194 0 -295.5 119t-101.5 346z" />
    <glyph glyph-name="v" unicode="v" horiz-adv-x="1335" 
d="M31 1120h358l279 -774l278 774h359l-441 -1120h-393z" />
    <glyph glyph-name="w" unicode="w" horiz-adv-x="1892" 
d="M72 1120h348l188 -772l189 772h299l188 -764l189 764h348l-295 -1120h-391l-189 770l-188 -770h-391z" />
    <glyph glyph-name="x" unicode="x" horiz-adv-x="1321" 
d="M455 573l-404 547h379l229 -332l232 332h379l-404 -545l424 -575h-379l-252 354l-249 -354h-379z" />
    <glyph glyph-name="y" unicode="y" horiz-adv-x="1335" 
d="M25 1120h358l301 -760l256 760h358l-471 -1226q-71 -187 -165.5 -261.5t-249.5 -74.5h-207v235h112q91 0 132.5 29t64.5 104l10 31z" />
    <glyph glyph-name="z" unicode="z" horiz-adv-x="1192" 
d="M117 1120h977v-250l-590 -614h590v-256h-1002v250l590 614h-565v256z" />
    <glyph glyph-name="braceleft" unicode="{" horiz-adv-x="1458" 
d="M1202 -109v-225h-217q-218 0 -318 88t-100 281v192q0 150 -54 208.5t-196 58.5h-61v223h61q142 0 196 58t54 208v205q0 193 100 280.5t318 87.5h217v-225h-69q-141 0 -183.5 -43.5t-42.5 -185.5v-166q0 -157 -45 -228t-155 -96q111 -27 155.5 -98t44.5 -227v-166
q0 -143 42.5 -186.5t183.5 -43.5h69z" />
    <glyph glyph-name="bar" unicode="|" horiz-adv-x="748" 
d="M487 1565v-2048h-227v2048h227z" />
    <glyph glyph-name="braceright" unicode="}" horiz-adv-x="1458" 
d="M256 -109h70q140 0 182.5 43.5t42.5 186.5v166q0 156 45 227t156 98q-111 25 -156 96t-45 228v166q0 142 -42.5 185.5t-182.5 43.5h-70v225h217q218 0 318 -87.5t100 -280.5v-205q0 -150 54 -208t196 -58h61v-223h-61q-142 0 -196 -58.5t-54 -208.5v-192
q0 -193 -100 -281t-318 -88h-217v225z" />
    <glyph glyph-name="asciitilde" unicode="~" 
d="M1499 850v-244q-106 -80 -195.5 -114.5t-185.5 -34.5q-107 0 -250 58q-14 6 -22 9q-7 3 -22 9q-155 61 -249 61q-88 0 -174 -38.5t-184 -121.5v244q107 80 196 114.5t185 34.5q107 0 250 -58q15 -6 22 -9t22 -9q155 -61 249 -61q86 0 170.5 37.5t187.5 122.5z" />
    <glyph glyph-name="nonbreakingspace" unicode="&#xa0;" horiz-adv-x="713" 
 />
    <glyph glyph-name="exclamdown" unicode="&#xa1;" horiz-adv-x="934" 
d="M287 -373v573l51 418h258l51 -418v-573h-360zM287 764v356h360v-356h-360z" />
    <glyph glyph-name="cent" unicode="&#xa2;" horiz-adv-x="1425" 
d="M702 858q-78 -44 -116.5 -117.5t-38.5 -181.5q0 -109 38.5 -183t116.5 -116v598zM1161 1085v-292q-74 48 -145.5 73t-136.5 25h-15v-663q89 1 164.5 26t132.5 72v-293q-83 -30 -156 -46t-131 -16h-10v-284h-162v288q-262 40 -395 191t-133 409q0 244 135 389.5t393 180.5
v287h162l1 -287q71 -3 144.5 -17.5t151.5 -42.5z" />
    <glyph glyph-name="sterling" unicode="&#xa3;" horiz-adv-x="1425" 
d="M1243 1466v-286q-70 39 -144 58t-151 19q-118 0 -174.5 -62.5t-56.5 -193.5v-170h373v-239h-373v-326h538v-266h-1130v266h227v326h-194v239h194v170q0 271 127 395t402 124q92 0 182.5 -13.5t179.5 -40.5z" />
    <glyph glyph-name="currency" unicode="&#xa4;" horiz-adv-x="1303" 
d="M434 268l-207 -207l-153 154l207 207q-28 49 -42 102.5t-14 116.5t15 117t45 100l-209 205l153 154l207 -207q48 30 102 44.5t115 14.5q54 0 108 -13.5t111 -41.5l207 207l152 -154l-207 -207q29 -55 43 -110t14 -109q0 -63 -14.5 -115.5t-44.5 -99.5l207 -207l-154 -153
l-207 206q-46 -30 -99 -44.5t-116 -14.5q-58 0 -112 13.5t-107 41.5zM653 422q91 0 155 63.5t64 155.5t-63.5 155.5t-155.5 63.5q-91 0 -155 -63.5t-64 -155.5q0 -93 63 -156t156 -63z" />
    <glyph glyph-name="yen" unicode="&#xa5;" horiz-adv-x="1425" 
d="M1358 416h-455v-416h-381v416h-454v194h454v66l-49 86h-405v192h292l-335 539h399l289 -461l288 461h400l-336 -539h293v-192h-406l-49 -86v-66h455v-194z" />
    <glyph glyph-name="brokenbar" unicode="&#xa6;" horiz-adv-x="748" 
d="M487 1432v-758h-227v758h227zM487 408v-758h-227v758h227z" />
    <glyph glyph-name="section" unicode="&#xa7;" horiz-adv-x="1024" 
d="M885 1462v-227q-99 39 -178 58.5t-136 19.5q-75 0 -113 -24.5t-38 -71.5q0 -67 188 -146q26 -11 39 -16q210 -89 289.5 -175.5t79.5 -211.5q0 -117 -56.5 -196.5t-173.5 -127.5q77 -41 114.5 -97.5t37.5 -129.5q0 -145 -121 -228.5t-334 -83.5q-85 0 -175.5 14.5
t-192.5 43.5v237q115 -41 206 -62.5t148 -21.5q65 0 104 25t39 65q0 70 -180 144q-36 14 -55 22q-203 87 -283 176.5t-80 219.5q0 104 55.5 181t168.5 128q-75 51 -107.5 106.5t-32.5 130.5q0 144 114.5 225t315.5 81q84 0 174 -14.5t183 -43.5zM434 856q-68 -28 -101.5 -66
t-33.5 -88q0 -67 61.5 -116t243.5 -115q65 23 100 62.5t35 91.5q0 67 -69 120t-236 111z" />
    <glyph glyph-name="dieresis" unicode="&#xa8;" horiz-adv-x="1024" 
d="M197 1585h235v-246h-235v246zM592 1585h235v-246h-235v246z" />
    <glyph glyph-name="copyright" unicode="&#xa9;" horiz-adv-x="2048" 
d="M1323 1126v-215q-57 37 -112.5 54.5t-112.5 17.5q-113 0 -176.5 -64t-63.5 -178q0 -115 63 -178t177 -63q64 0 121.5 18t103.5 53v-213q-65 -22 -130.5 -33.5t-127.5 -11.5q-211 0 -338 117t-127 311q0 195 127 311.5t338 116.5q69 0 133 -10.5t125 -32.5zM1024 1331
q-121 0 -225 -43.5t-191 -130.5t-130.5 -190.5t-43.5 -225.5q0 -121 43.5 -224.5t130.5 -190.5q86 -86 190.5 -129t225.5 -43q123 0 226 42.5t190 129.5t130.5 190.5t43.5 224.5q0 122 -43.5 225.5t-130.5 190.5q-88 88 -191.5 131t-224.5 43zM1024 1485q152 0 283.5 -55
t240.5 -164t163 -240t54 -285q0 -152 -54 -282.5t-163 -239.5t-240.5 -164t-283.5 -55t-283.5 55t-240.5 164t-163 239.5t-54 282.5q0 154 54 285t163 240t240.5 164t283.5 55z" />
    <glyph glyph-name="ordfeminine" unicode="&#xaa;" horiz-adv-x="1155" 
d="M176 573h813v-200h-813v200zM643 1081q-133 0 -185 -26t-52 -88q0 -51 33 -80t91 -29q89 0 146 57t57 144v22h-90zM1001 1165v-448h-245v127q-55 -76 -125 -112t-164 -36q-145 0 -227 67t-82 183q0 141 105 207t331 66h137v20q0 56 -44.5 85.5t-129.5 29.5
q-87 0 -170 -17.5t-162 -52.5v180q92 28 176.5 42t159.5 14q224 0 332 -87.5t108 -267.5z" />
    <glyph glyph-name="guillemotleft" unicode="&#xab;" horiz-adv-x="1323" 
d="M651 1063v-242l-293 -221l293 -221v-242l-493 369v186zM1130 1063v-242l-292 -221l292 -221v-242l-493 369v186z" />
    <glyph glyph-name="logicalnot" unicode="&#xac;" 
d="M217 909h1282v-622h-235v385h-1047v237z" />
    <glyph glyph-name="sfthyphen" unicode="&#xad;" horiz-adv-x="850" 
d="M111 735h628v-291h-628v291z" />
    <glyph glyph-name="registered" unicode="&#xae;" horiz-adv-x="2048" 
d="M1024 1331q-121 0 -225 -43.5t-191 -130.5t-130.5 -190.5t-43.5 -225.5q0 -121 43.5 -224.5t130.5 -190.5q86 -86 190.5 -129t225.5 -43q123 0 226 42.5t190 129.5t130.5 190.5t43.5 224.5q0 122 -43.5 225.5t-130.5 190.5q-88 88 -191.5 131t-224.5 43zM967 1036h-35
v-207h35q78 0 117.5 26.5t39.5 78.5t-38.5 77t-118.5 25zM1004 1174q176 0 263 -59.5t87 -180.5q0 -86 -52.5 -142t-148.5 -73q41 -22 76.5 -62t64.5 -98l111 -221h-229l-107 213q-38 78 -67 110.5t-58 32.5h-12v-356h-213v836h285zM1024 1485q152 0 283.5 -55t240.5 -164
t163 -240t54 -285q0 -152 -54 -282.5t-163 -239.5t-240.5 -164t-283.5 -55t-283.5 55t-240.5 164t-163 239.5t-54 282.5q0 154 54 285t163 240t240.5 164t283.5 55z" />
    <glyph glyph-name="macron" unicode="&#xaf;" horiz-adv-x="1024" 
d="M197 1556h630v-188h-630v188z" />
    <glyph glyph-name="degree" unicode="&#xb0;" horiz-adv-x="1024" 
d="M512 1372q-72 0 -122 -50t-50 -122t49.5 -121t122.5 -49q72 0 122 49.5t50 120.5q0 72 -50.5 122t-121.5 50zM512 1534q66 0 127 -25.5t109 -72.5q47 -48 71.5 -108t24.5 -128q0 -67 -24.5 -127.5t-69.5 -105.5q-48 -48 -110 -73.5t-130 -25.5q-141 0 -236.5 95.5
t-95.5 236.5t96.5 237.5t237.5 96.5z" />
    <glyph glyph-name="plusminus" unicode="&#xb1;" 
d="M977 1284v-354h522v-236h-522v-354h-238v354h-522v236h522v354h238zM217 238h1282v-238h-1282v238z" />
    <glyph glyph-name="twosuperior" unicode="&#xb2;" horiz-adv-x="897" 
d="M412 836h370v-168h-673v153l313 266q61 53 87 93t26 80q0 50 -36.5 81t-95.5 31q-62 0 -133 -22.5t-155 -69.5v186q87 27 168.5 40.5t156.5 13.5q158 0 248 -64.5t90 -175.5q0 -72 -35.5 -132.5t-136.5 -146.5z" />
    <glyph glyph-name="threesuperior" unicode="&#xb3;" horiz-adv-x="897" 
d="M592 1120q92 -18 143 -73t51 -136q0 -129 -99 -193.5t-300 -64.5q-81 0 -155 11.5t-142 33.5v174q66 -36 130 -54.5t124 -18.5q95 0 147 32t52 91q0 64 -53.5 94.5t-167.5 30.5h-74v137h84q98 0 143 23.5t45 74.5q0 45 -39 67.5t-119 22.5q-52 0 -113.5 -13t-131.5 -40
v166q65 17 140.5 26t162.5 9q167 0 255.5 -56t88.5 -161q0 -69 -45 -117t-127 -66z" />
    <glyph glyph-name="acute" unicode="&#xb4;" horiz-adv-x="1024" 
d="M647 1638h283l-369 -376h-196z" />
    <glyph glyph-name="mu" unicode="&#xb5;" horiz-adv-x="1507" 
d="M174 -428v1548h361v-651q0 -116 50 -172.5t152 -56.5q103 0 153 56.5t50 172.5v651h360v-749q0 -71 16.5 -99t55.5 -28q18 0 34.5 5t35.5 17v-250q-53 -23 -99.5 -34t-91.5 -11q-89 0 -145.5 37.5t-91.5 120.5q-47 -79 -114.5 -118.5t-156.5 -39.5q-74 0 -126 23.5
t-82 71.5v-494h-361z" />
    <glyph glyph-name="paragraph" unicode="&#xb6;" horiz-adv-x="1303" 
d="M604 1493h520v-1690h-190v1543h-189v-1543h-190v846q-204 25 -315 134.5t-111 287.5q0 190 130 306t345 116z" />
    <glyph glyph-name="periodcentered" unicode="&#xb7;" horiz-adv-x="778" 
d="M209 905h360v-387h-360v387z" />
    <glyph glyph-name="cedilla" unicode="&#xb8;" horiz-adv-x="1024" 
d="M602 0q58 -62 85.5 -115t27.5 -100q0 -95 -61.5 -140.5t-188.5 -45.5q-48 0 -99 6.5t-103 19.5l-1 152q50 -16 91.5 -23.5t74.5 -7.5q58 0 90.5 23t32.5 63q0 26 -21.5 67t-66.5 101h139z" />
    <glyph glyph-name="onesuperior" unicode="&#xb9;" horiz-adv-x="897" 
d="M141 825h207v521l-225 -52v160l229 49h226v-678h204v-157h-641v157z" />
    <glyph glyph-name="ordmasculine" unicode="&#xba;" horiz-adv-x="1155" 
d="M578 1520q213 0 336.5 -111t123.5 -301t-123 -300t-337 -110t-337.5 110t-123.5 300t123.5 301t337.5 111zM166 573h823v-200h-823v200zM578 1350q-84 0 -129.5 -63t-45.5 -179t45.5 -178t129.5 -62q83 0 128.5 62t45.5 178t-45.5 179t-128.5 63z" />
    <glyph glyph-name="guillemotright" unicode="&#xbb;" horiz-adv-x="1323" 
d="M672 1063l493 -371v-186l-493 -369v242l293 221l-293 221v242zM193 1063l491 -371v-186l-491 -369v242l292 221l-292 221v242z" />
    <glyph glyph-name="onequarter" unicode="&#xbc;" horiz-adv-x="2120" 
d="M1593 640l-239 -323h239v323zM1575 835h248v-518h137v-155h-137v-162h-230v162h-391v168zM734 -29h-224l934 1549h224zM118 825h207v521l-225 -52v160l229 49h226v-678h204v-157h-641v157z" />
    <glyph glyph-name="onehalf" unicode="&#xbd;" horiz-adv-x="2120" 
d="M734 -29h-224l934 1549h224zM1651 168h370v-168h-673v153l313 266q61 53 87 93t26 80q0 50 -36.5 81t-95.5 31q-62 0 -133 -22.5t-155 -69.5v186q87 27 168.5 40.5t156.5 13.5q158 0 248 -64.5t90 -175.5q0 -72 -35.5 -132.5t-136.5 -146.5zM118 825h207v521l-225 -52
v160l229 49h226v-678h204v-157h-641v157z" />
    <glyph glyph-name="threequarters" unicode="&#xbe;" horiz-adv-x="2120" 
d="M1593 640l-239 -323h239v323zM1575 835h248v-518h137v-155h-137v-162h-230v162h-391v168zM734 -29h-224l934 1549h224zM606 1120q92 -18 143 -73t51 -136q0 -129 -99 -193.5t-300 -64.5q-81 0 -155 11.5t-142 33.5v174q66 -36 130 -54.5t124 -18.5q95 0 147 32t52 91
q0 64 -53.5 94.5t-167.5 30.5h-74v137h84q98 0 143 23.5t45 74.5q0 45 -39 67.5t-119 22.5q-52 0 -113.5 -13t-131.5 -40v166q65 17 140.5 26t162.5 9q167 0 255.5 -56t88.5 -161q0 -69 -45 -117t-127 -66z" />
    <glyph glyph-name="questiondown" unicode="&#xbf;" horiz-adv-x="1188" 
d="M487 614h361v-49q0 -81 -32.5 -144t-141.5 -163l-64 -58q-56 -51 -82 -97t-26 -93q0 -70 48 -110t134 -40q81 0 175.5 34t195.5 100v-314q-119 -42 -220.5 -62t-193.5 -20q-244 0 -372 99.5t-128 289.5q0 99 39 176.5t133 165.5l64 58q68 61 89 99t21 83v45zM848 764
h-361v356h361v-356z" />
    <glyph glyph-name="Agrave" unicode="&#xc0;" horiz-adv-x="1585" 
d="M1094 272h-602l-95 -272h-387l553 1493h459l553 -1493h-387zM588 549h409l-204 594zM717 1899l198 -264h-196l-285 264h283z" />
    <glyph glyph-name="Aacute" unicode="&#xc1;" horiz-adv-x="1585" 
d="M1094 272h-602l-95 -272h-387l553 1493h459l553 -1493h-387zM588 549h409l-204 594zM819 1899h283l-285 -264h-196z" />
    <glyph glyph-name="Acircumflex" unicode="&#xc2;" horiz-adv-x="1585" 
d="M1094 272h-602l-95 -272h-387l553 1493h459l553 -1493h-387zM588 549h409l-204 594zM638 1899h308l223 -264h-178l-199 161l-199 -161h-178z" />
    </font>
</defs>
</svg>
