<?xml version="1.0" standalone="no"?>
<!DOCTYPE svg PUBLIC "-//W3C//DTD SVG 1.1//EN" "http://www.w3.org/Graphics/SVG/1.1/DTD/svg11.dtd" >
<svg xmlns="http://www.w3.org/2000/svg" xmlns:xlink="http://www.w3.org/1999/xlink" version="1.1">
<metadata>
Created by FontForge 20201107 at Wed Aug  4 17:12:24 2021
 By Unknown
Copyright 2010 The Josefin Sans Project Authors (https://github.com/ThomasJockin/JosefinSansFont-master), with Reserved Font Name "Josefin Sans".
</metadata>
<defs>
<font id="JosefinSans-Light" horiz-adv-x="0" >
  <font-face 
    font-family="Josefin Sans Light"
    font-weight="300"
    font-stretch="normal"
    units-per-em="1000"
    panose-1="0 0 0 0 0 0 0 0 0 0"
    ascent="750"
    descent="-250"
    x-height="391"
    cap-height="710"
    bbox="-67 -234 1381 1124"
    underline-thickness="50"
    underline-position="-125"
    unicode-range="U+000D-FB02"
  />
<missing-glyph horiz-adv-x="300" 
 />
    <glyph glyph-name="f_f" unicode="ff" horiz-adv-x="612" 
d="M115 0v347h-68v43h68v197q0 94 32.5 135.5t96.5 41.5q14 0 30 -3.5t29 -11.5l-20 -34q-7 5 -15.5 7.5t-19.5 2.5q-43 0 -64.5 -30t-21.5 -107v-198h131v-43h-131v-347h-47zM403 0v347h-68v43h68v197q0 94 32.5 135.5t96.5 41.5q14 0 30 -3.5t29 -11.5l-20 -34
q-7 5 -15.5 7.5t-19.5 2.5q-43 0 -64.5 -30t-21.5 -107v-198h131v-43h-131v-347h-47z" />
    <glyph glyph-name="f_f_i" unicode="ffi" horiz-adv-x="837" 
d="M115 0v347h-68v43h68v197q0 94 32.5 135.5t96.5 41.5q14 0 30 -3.5t29 -11.5l-20 -34q-7 5 -15.5 7.5t-19.5 2.5q-43 0 -64.5 -30t-21.5 -107v-198h131v-43h-131v-347h-47zM403 0v347h-68v43h68v197q0 94 32.5 135.5t96.5 41.5q14 0 30 -3.5t29 -11.5l-20 -34
q-7 5 -15.5 7.5t-19.5 2.5q-43 0 -64.5 -30t-21.5 -107v-198h131v-43h-131v-347h-47zM701 391h47v-391h-47v391zM691 535q0 14 11 23.5t24 9.5q14 0 24 -9.5t10 -23.5q0 -15 -10 -24.5t-24 -9.5q-13 0 -24 10t-11 24z" />
    <glyph glyph-name="f_f_l" unicode="ffl" horiz-adv-x="837" 
d="M115 0v347h-68v43h68v197q0 94 32.5 135.5t96.5 41.5q14 0 30 -3.5t29 -11.5l-20 -34q-7 5 -15.5 7.5t-19.5 2.5q-43 0 -64.5 -30t-21.5 -107v-198h131v-43h-131v-347h-47zM403 0v347h-68v43h68v197q0 94 32.5 135.5t96.5 41.5q14 0 30 -3.5t29 -11.5l-20 -34
q-7 5 -15.5 7.5t-19.5 2.5q-43 0 -64.5 -30t-21.5 -107v-198h131v-43h-131v-347h-47zM701 760h47v-760h-47v760z" />
    <glyph glyph-name="fi" unicode="fi" horiz-adv-x="526" 
d="M115 0v347h-68v43h68v197q0 94 32.5 135.5t96.5 41.5q14 0 30 -3.5t29 -11.5l-20 -34q-7 5 -15.5 7.5t-19.5 2.5q-43 0 -64.5 -30t-21.5 -107v-198h125v-43h-125v-347h-47zM390 391h47v-391h-47v391zM380 535q0 14 11 23.5t25 9.5q13 0 23 -9.5t10 -23.5q0 -15 -10 -24.5
t-23 -9.5q-14 0 -25 10t-11 24z" />
    <glyph glyph-name="fl" unicode="fl" horiz-adv-x="526" 
d="M115 0v347h-68v43h68v197q0 94 32.5 135.5t96.5 41.5q14 0 30 -3.5t29 -11.5l-20 -34q-7 5 -15.5 7.5t-19.5 2.5q-43 0 -64.5 -30t-21.5 -107v-198h125v-43h-125v-347h-47zM390 760h47v-760h-47v760z" />
    <glyph glyph-name=".notdef" horiz-adv-x="300" 
 />
    <glyph glyph-name="A" unicode="A" horiz-adv-x="706" 
d="M51 0l300 741h4l300 -741h-55l-261 663l34 19l-273 -682h-49zM196 281h315l14 -46h-341z" />
    <glyph glyph-name="Aacute" unicode="&#xc1;" horiz-adv-x="706" 
d="M51 0l300 741h4l300 -741h-55l-261 663l34 19l-273 -682h-49zM196 281h315l14 -46h-341zM476 889l-106 -133h-34l87 133h53z" />
    <glyph glyph-name="Abreve" unicode="&#x102;" horiz-adv-x="706" 
d="M51 0l300 741h4l300 -741h-55l-261 663l34 19l-273 -682h-49zM196 281h315l14 -46h-341zM355 767q-37 0 -66.5 20.5t-47 58t-21.5 86.5h34q3 -35 16 -65t35 -47.5t50 -17.5q29 0 50 17.5t33.5 47.5t14.5 65h35q-3 -50 -20.5 -87t-46.5 -57.5t-66 -20.5z" />
    <glyph glyph-name="uni1EAE" unicode="&#x1eae;" horiz-adv-x="706" 
d="M51 0l300 741h4l300 -741h-55l-261 663l34 19l-273 -682h-49zM196 281h315l14 -46h-341zM355 767q-37 0 -66.5 20.5t-47 58t-21.5 86.5h34q3 -35 16 -65t35 -47.5t50 -17.5q29 0 50 17.5t33.5 47.5t14.5 65h35q-3 -50 -20.5 -87t-46.5 -57.5t-66 -20.5zM475 1103
l-106 -133h-34l87 133h53z" />
    <glyph glyph-name="uni1EB6" unicode="&#x1eb6;" horiz-adv-x="706" 
d="M51 0l300 741h4l300 -741h-55l-261 663l34 19l-273 -682h-49zM196 281h315l14 -46h-341zM318 -87q0 14 11 23.5t24 9.5q14 0 24 -9.5t10 -23.5q0 -15 -10 -24.5t-24 -9.5q-13 0 -24 10t-11 24zM355 767q-37 0 -66.5 20.5t-47 58t-21.5 86.5h34q3 -35 16 -65t35 -47.5
t50 -17.5q29 0 50 17.5t33.5 47.5t14.5 65h35q-3 -50 -20.5 -87t-46.5 -57.5t-66 -20.5z" />
    <glyph glyph-name="uni1EB0" unicode="&#x1eb0;" horiz-adv-x="706" 
d="M51 0l300 741h4l300 -741h-55l-261 663l34 19l-273 -682h-49zM196 281h315l14 -46h-341zM355 767q-37 0 -66.5 20.5t-47 58t-21.5 86.5h34q3 -35 16 -65t35 -47.5t50 -17.5q29 0 50 17.5t33.5 47.5t14.5 65h35q-3 -50 -20.5 -87t-46.5 -57.5t-66 -20.5zM236 1112h52
l83 -133h-34z" />
    <glyph glyph-name="uni1EB2" unicode="&#x1eb2;" horiz-adv-x="706" 
d="M51 0l300 741h4l300 -741h-55l-261 663l34 19l-273 -682h-49zM196 281h315l14 -46h-341zM355 767q-37 0 -66.5 20.5t-47 58t-21.5 86.5h34q3 -35 16 -65t35 -47.5t50 -17.5q29 0 50 17.5t33.5 47.5t14.5 65h35q-3 -50 -20.5 -87t-46.5 -57.5t-66 -20.5zM349 986
q22 18 36 33t14 35q0 17 -10 27t-26 10q-18 0 -29.5 -8.5t-24.5 -26.5l-21 16q17 27 36.5 39.5t43.5 12.5q19 0 33 -7.5t22.5 -22.5t8.5 -38q0 -30 -19 -51t-46 -41z" />
    <glyph glyph-name="uni1EB4" unicode="&#x1eb4;" horiz-adv-x="706" 
d="M51 0l300 741h4l300 -741h-55l-261 663l34 19l-273 -682h-49zM196 281h315l14 -46h-341zM355 767q-37 0 -66.5 20.5t-47 58t-21.5 86.5h34q3 -35 16 -65t35 -47.5t50 -17.5q29 0 50 17.5t33.5 47.5t14.5 65h35q-3 -50 -20.5 -87t-46.5 -57.5t-66 -20.5zM427 1000
q-30 0 -48.5 14.5t-34.5 31.5q-13 13 -26.5 24.5t-31.5 11.5q-12 0 -23.5 -8.5t-19.5 -27t-9 -50.5l-30 1q-1 39 10.5 66.5t30.5 41.5t43 14q27 0 45 -14.5t33 -30.5q13 -15 27 -27t33 -12q20 0 33.5 20t15.5 68l30 -1q1 -40 -9.5 -67.5t-28.5 -41t-40 -13.5z" />
    <glyph glyph-name="Acircumflex" unicode="&#xc2;" horiz-adv-x="706" 
d="M51 0l300 741h4l300 -741h-55l-261 663l34 19l-273 -682h-49zM196 281h315l14 -46h-341zM451 779l-109 122l21 3l-110 -125h-47l145 159h1l146 -159h-47z" />
    <glyph glyph-name="uni1EA4" unicode="&#x1ea4;" horiz-adv-x="706" 
d="M51 0l300 741h4l300 -741h-55l-261 663l34 19l-273 -682h-49zM196 281h315l14 -46h-341zM451 801l-109 122l21 3l-110 -125h-47l145 159h1l146 -159h-47zM578 1023l-106 -133h-34l87 133h53z" />
    <glyph glyph-name="uni1EAC" unicode="&#x1eac;" horiz-adv-x="706" 
d="M51 0l300 741h4l300 -741h-55l-261 663l34 19l-273 -682h-49zM196 281h315l14 -46h-341zM318 -87q0 14 11 23.5t24 9.5q14 0 24 -9.5t10 -23.5q0 -15 -10 -24.5t-24 -9.5q-13 0 -24 10t-11 24zM451 779l-109 122l21 3l-110 -125h-47l145 159h1l146 -159h-47z" />
    <glyph glyph-name="uni1EA6" unicode="&#x1ea6;" horiz-adv-x="706" 
d="M51 0l300 741h4l300 -741h-55l-261 663l34 19l-273 -682h-49zM196 281h315l14 -46h-341zM446 795l-109 122l21 3l-110 -125h-47l145 159h1l146 -159h-47zM97 1031h52l83 -133h-34z" />
    <glyph glyph-name="uni1EA8" unicode="&#x1ea8;" horiz-adv-x="706" 
d="M51 0l300 741h4l300 -741h-55l-261 663l34 19l-273 -682h-49zM196 281h315l14 -46h-341zM447 801l-109 122l21 3l-110 -125h-47l145 159h1l146 -159h-47zM469 899q22 18 36 33t14 35q0 17 -10 27t-26 10q-18 0 -29.5 -8.5t-24.5 -26.5l-21 16q17 27 36.5 39.5t43.5 12.5
q19 0 33 -7.5t22.5 -22.5t8.5 -38q0 -30 -19 -51t-46 -41z" />
    <glyph glyph-name="uni1EAA" unicode="&#x1eaa;" horiz-adv-x="706" 
d="M51 0l300 741h4l300 -741h-55l-261 663l34 19l-273 -682h-49zM196 281h315l14 -46h-341zM449 786l-109 122l21 3l-110 -125h-47l145 159h1l146 -159h-47zM425 966q-30 0 -48.5 14.5t-34.5 31.5q-13 13 -26.5 24.5t-31.5 11.5q-12 0 -23.5 -8.5t-19.5 -27t-9 -50.5l-30 1
q-1 39 10.5 66.5t30.5 41.5t43 14q27 0 45 -14.5t33 -30.5q13 -15 27 -27t33 -12q20 0 33.5 20t15.5 68l30 -1q1 -40 -9.5 -67.5t-28.5 -41t-40 -13.5z" />
    <glyph glyph-name="uni0200" unicode="&#x200;" horiz-adv-x="706" 
d="M51 0l300 741h4l300 -741h-55l-261 663l34 19l-273 -682h-49zM196 281h315l14 -46h-341zM188 914h52l83 -133h-34zM302 914h52l83 -133h-34z" />
    <glyph glyph-name="Adieresis" unicode="&#xc4;" horiz-adv-x="706" 
d="M51 0l300 741h4l300 -741h-55l-261 663l34 19l-273 -682h-49zM196 281h315l14 -46h-341zM231 806q0 14 10 24t23 10t23.5 -10t10.5 -24t-10.5 -24t-23.5 -10t-23 10t-10 24v0zM405 806q0 14 10.5 24t23.5 10q12 0 22.5 -10t10.5 -24t-10.5 -24t-22.5 -10q-13 0 -23.5 10
t-10.5 24v0z" />
    <glyph glyph-name="uni1EA0" unicode="&#x1ea0;" horiz-adv-x="706" 
d="M51 0l300 741h4l300 -741h-55l-261 663l34 19l-273 -682h-49zM196 281h315l14 -46h-341zM318 -87q0 14 11 23.5t24 9.5q14 0 24 -9.5t10 -23.5q0 -15 -10 -24.5t-24 -9.5q-13 0 -24 10t-11 24z" />
    <glyph glyph-name="Agrave" unicode="&#xc0;" horiz-adv-x="706" 
d="M51 0l300 741h4l300 -741h-55l-261 663l34 19l-273 -682h-49zM196 281h315l14 -46h-341zM237 898h52l83 -133h-34z" />
    <glyph glyph-name="uni1EA2" unicode="&#x1ea2;" horiz-adv-x="706" 
d="M51 0l300 741h4l300 -741h-55l-261 663l34 19l-273 -682h-49zM196 281h315l14 -46h-341zM350 772q22 18 36 33t14 35q0 17 -10 27t-26 10q-18 0 -29.5 -8.5t-24.5 -26.5l-21 16q17 27 36.5 39.5t43.5 12.5q19 0 33 -7.5t22.5 -22.5t8.5 -38q0 -30 -19 -51t-46 -41z" />
    <glyph glyph-name="uni0202" unicode="&#x202;" horiz-adv-x="706" 
d="M51 0l300 741h4l300 -741h-55l-261 663l34 19l-273 -682h-49zM196 281h315l14 -46h-341zM350 912q38 0 67 -20.5t47 -57.5t21 -87h-34q-2 36 -15.5 65.5t-35 47t-50.5 17.5q-28 0 -49.5 -17.5t-34 -47t-14.5 -65.5h-35q3 50 20.5 87t46.5 57.5t66 20.5z" />
    <glyph glyph-name="Amacron" unicode="&#x100;" horiz-adv-x="706" 
d="M51 0l300 741h4l300 -741h-55l-261 663l34 19l-273 -682h-49zM196 281h315l14 -46h-341zM234 805h236v-36h-236v36z" />
    <glyph glyph-name="Aogonek" unicode="&#x104;" horiz-adv-x="706" 
d="M51 0l300 741h4l300 -741h-55l-261 663l34 19l-273 -682h-49zM196 281h315l14 -46h-341zM603 -198q-36 0 -62.5 24.5t-26.5 64.5q0 37 27.5 69t67.5 51l47 -11q-47 -25 -74 -51t-27 -55q0 -27 16.5 -41.5t35.5 -14.5q20 0 36 13t28 33l22 -23q-13 -25 -37.5 -42
t-52.5 -17z" />
    <glyph glyph-name="Aring" unicode="&#xc5;" horiz-adv-x="706" 
d="M51 0l300 741h4l300 -741h-55l-261 663l34 19l-273 -682h-49zM196 281h315l14 -46h-341zM278 851q0 32 21.5 53t54.5 21q32 0 53.5 -21t21.5 -53t-21.5 -53t-53.5 -21q-33 0 -54.5 20.5t-21.5 53.5zM307 850q0 -19 14 -33t33 -14t32.5 14t13.5 33q0 20 -13.5 33.5
t-32.5 13.5t-33 -13.5t-14 -33.5z" />
    <glyph glyph-name="Aringacute" unicode="&#x1fa;" horiz-adv-x="706" 
d="M51 0l300 741h4l300 -741h-55l-261 663l34 19l-273 -682h-49zM196 281h315l14 -46h-341zM278 851q0 32 21.5 53t54.5 21q32 0 53.5 -21t21.5 -53t-21.5 -53t-53.5 -21q-33 0 -54.5 20.5t-21.5 53.5zM307 850q0 -19 14 -33t33 -14t32.5 14t13.5 33q0 20 -13.5 33.5
t-32.5 13.5t-33 -13.5t-14 -33.5zM476 1096l-106 -133h-34l87 133h53z" />
    <glyph glyph-name="Atilde" unicode="&#xc3;" horiz-adv-x="706" 
d="M51 0l300 741h4l300 -741h-55l-261 663l34 19l-273 -682h-49zM196 281h315l14 -46h-341zM428 786q-30 0 -48.5 14.5t-34.5 31.5q-13 13 -26.5 24.5t-31.5 11.5q-12 0 -23.5 -8.5t-19.5 -27t-9 -50.5l-30 1q-1 39 10.5 66.5t30.5 41.5t43 14q27 0 45 -14.5t33 -30.5
q13 -15 27 -27t33 -12q20 0 33.5 20t15.5 68l30 -1q1 -40 -9.5 -67.5t-28.5 -41t-40 -13.5z" />
    <glyph glyph-name="AE" unicode="&#xc6;" horiz-adv-x="934" 
d="M468 710h378v-48h-329v-282h289v-47h-289v-286h343v-47h-392v710zM482 664q-2 -7 -5 -15.5t-5 -13.5l-397 -635h-55l448 710zM190 236h289v-40h-301z" />
    <glyph glyph-name="AEacute" unicode="&#x1fc;" horiz-adv-x="934" 
d="M468 710h378v-48h-329v-282h289v-47h-289v-286h343v-47h-392v710zM482 664q-2 -7 -5 -15.5t-5 -13.5l-397 -635h-55l448 710zM190 236h289v-40h-301zM757 884l-106 -133h-34l87 133h53z" />
    <glyph glyph-name="B" unicode="B" horiz-adv-x="590" 
d="M270 710q103 0 159.5 -42.5t56.5 -137.5q0 -47 -18 -86t-53.5 -64t-88.5 -32l-5 24q55 -4 100.5 -27.5t73 -63t27.5 -92.5q0 -48 -18.5 -83.5t-50 -59t-71.5 -35t-84 -11.5h-185v710h157zM293 378q76 0 109.5 41t33.5 102q0 76 -44.5 109t-119.5 33h-110v-285h131z
M296 45q48 0 88 15.5t64 47.5t24 79q0 52 -27 83.5t-68 46t-84 14.5h-131v-286h134z" />
    <glyph glyph-name="C" unicode="C" horiz-adv-x="691" 
d="M623 47q-23 -14 -53 -27t-66 -20.5t-78 -7.5q-81 0 -147 28.5t-113 78t-72.5 114t-25.5 137.5q0 78 27 145t76 117t114 78t141 28q56 0 105 -15t89 -39l-21 -45q-35 22 -79 37t-93 15q-63 0 -119 -24.5t-98.5 -68t-66.5 -101.5t-24 -125q0 -64 21.5 -121t62 -100
t97.5 -67.5t127 -24.5q52 0 95.5 14.5t77.5 36.5z" />
    <glyph glyph-name="Cacute" unicode="&#x106;" horiz-adv-x="691" 
d="M623 47q-23 -14 -53 -27t-66 -20.5t-78 -7.5q-81 0 -147 28.5t-113 78t-72.5 114t-25.5 137.5q0 78 27 145t76 117t114 78t141 28q56 0 105 -15t89 -39l-21 -45q-35 22 -79 37t-93 15q-63 0 -119 -24.5t-98.5 -68t-66.5 -101.5t-24 -125q0 -64 21.5 -121t62 -100
t97.5 -67.5t127 -24.5q52 0 95.5 14.5t77.5 36.5zM531 891l-106 -133h-34l87 133h53z" />
    <glyph glyph-name="Ccaron" unicode="&#x10c;" horiz-adv-x="691" 
d="M623 47q-23 -14 -53 -27t-66 -20.5t-78 -7.5q-81 0 -147 28.5t-113 78t-72.5 114t-25.5 137.5q0 78 27 145t76 117t114 78t141 28q56 0 105 -15t89 -39l-21 -45q-35 22 -79 37t-93 15q-63 0 -119 -24.5t-98.5 -68t-66.5 -101.5t-24 -125q0 -64 21.5 -121t62 -100
t97.5 -67.5t127 -24.5q52 0 95.5 14.5t77.5 36.5zM307 915l110 -123l-22 -3l111 126h47l-145 -159h-1l-147 159h47z" />
    <glyph glyph-name="Ccedilla" unicode="&#xc7;" horiz-adv-x="691" 
d="M623 47q-23 -14 -53 -27t-66 -20.5t-78 -7.5q-81 0 -147 28.5t-113 78t-72.5 114t-25.5 137.5q0 78 27 145t76 117t114 78t141 28q56 0 105 -15t89 -39l-21 -45q-35 22 -79 37t-93 15q-63 0 -119 -24.5t-98.5 -68t-66.5 -101.5t-24 -125q0 -64 21.5 -121t62 -100
t97.5 -67.5t127 -24.5q52 0 95.5 14.5t77.5 36.5zM332 -171q11 -11 29.5 -18.5t43.5 -7.5q35 0 58.5 14.5t23.5 40.5q0 23 -18 40t-58 17q-16 0 -37 -4.5t-33 -9.5l-15 25l70 78l36 -7l-67 -82l-17 11q11 7 32 11.5t40 4.5q51 1 80 -20.5t29 -62.5q0 -29 -16 -48t-43 -28
t-60 -9q-31 0 -55.5 9t-39.5 22z" />
    <glyph glyph-name="Ccircumflex" unicode="&#x108;" horiz-adv-x="691" 
d="M623 47q-23 -14 -53 -27t-66 -20.5t-78 -7.5q-81 0 -147 28.5t-113 78t-72.5 114t-25.5 137.5q0 78 27 145t76 117t114 78t141 28q56 0 105 -15t89 -39l-21 -45q-35 22 -79 37t-93 15q-63 0 -119 -24.5t-98.5 -68t-66.5 -101.5t-24 -125q0 -64 21.5 -121t62 -100
t97.5 -67.5t127 -24.5q52 0 95.5 14.5t77.5 36.5zM506 781l-109 122l21 3l-110 -125h-47l145 159h1l146 -159h-47z" />
    <glyph glyph-name="Cdotaccent" unicode="&#x10a;" horiz-adv-x="691" 
d="M623 47q-23 -14 -53 -27t-66 -20.5t-78 -7.5q-81 0 -147 28.5t-113 78t-72.5 114t-25.5 137.5q0 78 27 145t76 117t114 78t141 28q56 0 105 -15t89 -39l-21 -45q-35 22 -79 37t-93 15q-63 0 -119 -24.5t-98.5 -68t-66.5 -101.5t-24 -125q0 -64 21.5 -121t62 -100
t97.5 -67.5t127 -24.5q52 0 95.5 14.5t77.5 36.5zM374 807q0 14 11 23.5t24 9.5q14 0 24 -9.5t10 -23.5q0 -15 -10 -24.5t-24 -9.5q-13 0 -24 10t-11 24z" />
    <glyph glyph-name="D" unicode="D" horiz-adv-x="736" 
d="M113 0v710h175q103 0 175.5 -32.5t117.5 -85.5t66 -116t21 -125q0 -81 -28 -145.5t-76.5 -110.5t-110.5 -70.5t-131 -24.5h-209zM162 47h147q64 0 120 21t98.5 61t66.5 96.5t24 128.5q0 61 -20.5 116.5t-61.5 98.5t-101 68t-140 25h-133v-615z" />
    <glyph glyph-name="uni01C4" unicode="&#x1c4;" horiz-adv-x="1439" 
d="M113 0v710h175q103 0 175.5 -32.5t117.5 -85.5t66 -116t21 -125q0 -81 -28 -145.5t-76.5 -110.5t-110.5 -70.5t-131 -24.5h-209zM162 47h147q64 0 120 21t98.5 61t66.5 96.5t24 128.5q0 61 -20.5 116.5t-61.5 98.5t-101 68t-140 25h-133v-615zM792 0q23 32 51 71
t59.5 83.5t65 92t68.5 95.5t68.5 94.5t65 90t59.5 81.5t51 68l9 -13h-401q-18 0 -33 5t-24 16t-9 30v31h47v-12q0 -13 7 -18t24 -5h457l-486 -671l-4 8h514v-47h-589zM986 903l110 -123l-22 -3l111 126h47l-145 -159h-1l-147 159h47z" />
    <glyph glyph-name="Eth" unicode="&#xd0;" horiz-adv-x="736" 
d="M113 0v710h175q103 0 175.5 -32.5t117.5 -85.5t66 -116t21 -125q0 -81 -28 -145.5t-76.5 -110.5t-110.5 -70.5t-131 -24.5h-209zM162 47h147q64 0 120 21t98.5 61t66.5 96.5t24 128.5q0 61 -20.5 116.5t-61.5 98.5t-101 68t-140 25h-133v-615zM14 376h241v-45h-241v45z
" />
    <glyph glyph-name="Dcaron" unicode="&#x10e;" horiz-adv-x="736" 
d="M113 0v710h175q103 0 175.5 -32.5t117.5 -85.5t66 -116t21 -125q0 -81 -28 -145.5t-76.5 -110.5t-110.5 -70.5t-131 -24.5h-209zM162 47h147q64 0 120 21t98.5 61t66.5 96.5t24 128.5q0 61 -20.5 116.5t-61.5 98.5t-101 68t-140 25h-133v-615zM196 903l110 -123l-22 -3
l111 126h47l-145 -159h-1l-147 159h47z" />
    <glyph glyph-name="Dcroat" unicode="&#x110;" horiz-adv-x="736" 
d="M113 0v710h175q103 0 175.5 -32.5t117.5 -85.5t66 -116t21 -125q0 -81 -28 -145.5t-76.5 -110.5t-110.5 -70.5t-131 -24.5h-209zM162 47h147q64 0 120 21t98.5 61t66.5 96.5t24 128.5q0 61 -20.5 116.5t-61.5 98.5t-101 68t-140 25h-133v-615zM14 376h241v-45h-241v45z
" />
    <glyph glyph-name="uni01C5" unicode="&#x1c5;" horiz-adv-x="1140" 
d="M113 0v710h175q103 0 175.5 -32.5t117.5 -85.5t66 -116t21 -125q0 -81 -28 -145.5t-76.5 -110.5t-110.5 -70.5t-131 -24.5h-209zM162 47h147q64 0 120 21t98.5 61t66.5 96.5t24 128.5q0 61 -20.5 116.5t-61.5 98.5t-101 68t-140 25h-133v-615zM835 352q-26 0 -43 12.5
t-17 44.5v19h37v-12q0 -12 8.5 -18.5t25.5 -6.5h253l-254 -361l-10 10h260v-40h-323l257 365l10 -13h-204zM847 601l110 -123l-22 -3l111 126h47l-145 -159h-1l-147 159h47z" />
    <glyph glyph-name="E" unicode="E" horiz-adv-x="639" 
d="M113 710h438v-47h-389v-282h350v-47h-350v-287h403v-47h-452v710z" />
    <glyph glyph-name="Eacute" unicode="&#xc9;" horiz-adv-x="639" 
d="M113 710h438v-47h-389v-282h350v-47h-350v-287h403v-47h-452v710zM446 884l-106 -133h-34l87 133h53z" />
    <glyph glyph-name="Ebreve" unicode="&#x114;" horiz-adv-x="639" 
d="M113 710h438v-47h-389v-282h350v-47h-350v-287h403v-47h-452v710zM325 762q-37 0 -66.5 20.5t-47 58t-21.5 86.5h34q3 -35 16 -65t35 -47.5t50 -17.5q29 0 50 17.5t33.5 47.5t14.5 65h35q-3 -50 -20.5 -87t-46.5 -57.5t-66 -20.5z" />
    <glyph glyph-name="Ecaron" unicode="&#x11a;" horiz-adv-x="639" 
d="M113 710h438v-47h-389v-282h350v-47h-350v-287h403v-47h-452v710zM222 908l110 -123l-22 -3l111 126h47l-145 -159h-1l-147 159h47z" />
    <glyph glyph-name="Ecircumflex" unicode="&#xca;" horiz-adv-x="639" 
d="M113 710h438v-47h-389v-282h350v-47h-350v-287h403v-47h-452v710zM421 774l-109 122l21 3l-110 -125h-47l145 159h1l146 -159h-47z" />
    <glyph glyph-name="uni1EBE" unicode="&#x1ebe;" horiz-adv-x="639" 
d="M113 710h438v-47h-389v-282h350v-47h-350v-287h403v-47h-452v710zM421 796l-109 122l21 3l-110 -125h-47l145 159h1l146 -159h-47zM548 1018l-106 -133h-34l87 133h53z" />
    <glyph glyph-name="uni1EC6" unicode="&#x1ec6;" horiz-adv-x="639" 
d="M113 710h438v-47h-389v-282h350v-47h-350v-287h403v-47h-452v710zM288 -87q0 14 11 23.5t24 9.5q14 0 24 -9.5t10 -23.5q0 -15 -10 -24.5t-24 -9.5q-13 0 -24 10t-11 24zM421 774l-109 122l21 3l-110 -125h-47l145 159h1l146 -159h-47z" />
    <glyph glyph-name="uni1EC0" unicode="&#x1ec0;" horiz-adv-x="639" 
d="M113 710h438v-47h-389v-282h350v-47h-350v-287h403v-47h-452v710zM416 790l-109 122l21 3l-110 -125h-47l145 159h1l146 -159h-47zM67 1026h52l83 -133h-34z" />
    <glyph glyph-name="uni1EC2" unicode="&#x1ec2;" horiz-adv-x="639" 
d="M113 710h438v-47h-389v-282h350v-47h-350v-287h403v-47h-452v710zM417 796l-109 122l21 3l-110 -125h-47l145 159h1l146 -159h-47zM439 894q22 18 36 33t14 35q0 17 -10 27t-26 10q-18 0 -29.5 -8.5t-24.5 -26.5l-21 16q17 27 36.5 39.5t43.5 12.5q19 0 33 -7.5
t22.5 -22.5t8.5 -38q0 -30 -19 -51t-46 -41z" />
    <glyph glyph-name="uni1EC4" unicode="&#x1ec4;" horiz-adv-x="639" 
d="M113 710h438v-47h-389v-282h350v-47h-350v-287h403v-47h-452v710zM419 781l-109 122l21 3l-110 -125h-47l145 159h1l146 -159h-47zM395 961q-30 0 -48.5 14.5t-34.5 31.5q-13 13 -26.5 24.5t-31.5 11.5q-12 0 -23.5 -8.5t-19.5 -27t-9 -50.5l-30 1q-1 39 10.5 66.5
t30.5 41.5t43 14q27 0 45 -14.5t33 -30.5q13 -15 27 -27t33 -12q20 0 33.5 20t15.5 68l30 -1q1 -40 -9.5 -67.5t-28.5 -41t-40 -13.5z" />
    <glyph glyph-name="uni0204" unicode="&#x204;" horiz-adv-x="639" 
d="M113 710h438v-47h-389v-282h350v-47h-350v-287h403v-47h-452v710zM158 909h52l83 -133h-34zM272 909h52l83 -133h-34z" />
    <glyph glyph-name="Edieresis" unicode="&#xcb;" horiz-adv-x="639" 
d="M113 710h438v-47h-389v-282h350v-47h-350v-287h403v-47h-452v710zM201 801q0 14 10 24t23 10t23.5 -10t10.5 -24t-10.5 -24t-23.5 -10t-23 10t-10 24v0zM375 801q0 14 10.5 24t23.5 10q12 0 22.5 -10t10.5 -24t-10.5 -24t-22.5 -10q-13 0 -23.5 10t-10.5 24v0z" />
    <glyph glyph-name="Edotaccent" unicode="&#x116;" horiz-adv-x="639" 
d="M113 710h438v-47h-389v-282h350v-47h-350v-287h403v-47h-452v710zM289 800q0 14 11 23.5t24 9.5q14 0 24 -9.5t10 -23.5q0 -15 -10 -24.5t-24 -9.5q-13 0 -24 10t-11 24z" />
    <glyph glyph-name="uni1EB8" unicode="&#x1eb8;" horiz-adv-x="639" 
d="M113 710h438v-47h-389v-282h350v-47h-350v-287h403v-47h-452v710zM288 -87q0 14 11 23.5t24 9.5q14 0 24 -9.5t10 -23.5q0 -15 -10 -24.5t-24 -9.5q-13 0 -24 10t-11 24z" />
    <glyph glyph-name="Egrave" unicode="&#xc8;" horiz-adv-x="639" 
d="M113 710h438v-47h-389v-282h350v-47h-350v-287h403v-47h-452v710zM207 893h52l83 -133h-34z" />
    <glyph glyph-name="uni1EBA" unicode="&#x1eba;" horiz-adv-x="639" 
d="M113 710h438v-47h-389v-282h350v-47h-350v-287h403v-47h-452v710zM320 767q22 18 36 33t14 35q0 17 -10 27t-26 10q-18 0 -29.5 -8.5t-24.5 -26.5l-21 16q17 27 36.5 39.5t43.5 12.5q19 0 33 -7.5t22.5 -22.5t8.5 -38q0 -30 -19 -51t-46 -41z" />
    <glyph glyph-name="uni0206" unicode="&#x206;" horiz-adv-x="639" 
d="M113 710h438v-47h-389v-282h350v-47h-350v-287h403v-47h-452v710zM320 907q38 0 67 -20.5t47 -57.5t21 -87h-34q-2 36 -15.5 65.5t-35 47t-50.5 17.5q-28 0 -49.5 -17.5t-34 -47t-14.5 -65.5h-35q3 50 20.5 87t46.5 57.5t66 20.5z" />
    <glyph glyph-name="Emacron" unicode="&#x112;" horiz-adv-x="639" 
d="M113 710h438v-47h-389v-282h350v-47h-350v-287h403v-47h-452v710zM204 800h236v-36h-236v36z" />
    <glyph glyph-name="Eogonek" unicode="&#x118;" horiz-adv-x="639" 
d="M113 710h438v-47h-389v-282h350v-47h-350v-287h403v-47h-452v710zM512 -198q-36 0 -62.5 24.5t-26.5 64.5q0 37 27.5 69t67.5 51l47 -11q-47 -25 -74 -51t-27 -55q0 -27 16.5 -41.5t35.5 -14.5q20 0 36 13t28 33l22 -23q-13 -25 -37.5 -42t-52.5 -17z" />
    <glyph glyph-name="uni1EBC" unicode="&#x1ebc;" horiz-adv-x="639" 
d="M113 710h438v-47h-389v-282h350v-47h-350v-287h403v-47h-452v710zM398 781q-30 0 -48.5 14.5t-34.5 31.5q-13 13 -26.5 24.5t-31.5 11.5q-12 0 -23.5 -8.5t-19.5 -27t-9 -50.5l-30 1q-1 39 10.5 66.5t30.5 41.5t43 14q27 0 45 -14.5t33 -30.5q13 -15 27 -27t33 -12
q20 0 33.5 20t15.5 68l30 -1q1 -40 -9.5 -67.5t-28.5 -41t-40 -13.5z" />
    <glyph glyph-name="F" unicode="F" horiz-adv-x="578" 
d="M113 710h398v-47h-349v-293h309v-46h-309v-324h-49v710z" />
    <glyph glyph-name="G" unicode="G" horiz-adv-x="741" 
d="M649 50q-18 -12 -43.5 -22.5t-54.5 -18.5t-59.5 -12.5t-57.5 -4.5q-84 0 -151.5 27.5t-115.5 76t-73.5 113t-25.5 139.5q0 81 28.5 149t78.5 117.5t116 76.5t140 27q56 0 105.5 -14t89.5 -38l-18 -44q-23 14 -52 24.5t-59.5 16.5t-60.5 6q-68 0 -126 -24t-101 -67
t-67 -101t-24 -126q0 -66 22.5 -122.5t64 -99t99.5 -66t129 -23.5q42 0 88 10t79 29v197h-160v47h209v-273z" />
    <glyph glyph-name="Gbreve" unicode="&#x11e;" horiz-adv-x="741" 
d="M649 50q-18 -12 -43.5 -22.5t-54.5 -18.5t-59.5 -12.5t-57.5 -4.5q-84 0 -151.5 27.5t-115.5 76t-73.5 113t-25.5 139.5q0 81 28.5 149t78.5 117.5t116 76.5t140 27q56 0 105.5 -14t89.5 -38l-18 -44q-23 14 -52 24.5t-59.5 16.5t-60.5 6q-68 0 -126 -24t-101 -67
t-67 -101t-24 -126q0 -66 22.5 -122.5t64 -99t99.5 -66t129 -23.5q42 0 88 10t79 29v197h-160v47h209v-273zM405 757q-37 0 -66.5 20.5t-47 58t-21.5 86.5h34q3 -35 16 -65t35 -47.5t50 -17.5q29 0 50 17.5t33.5 47.5t14.5 65h35q-3 -50 -20.5 -87t-46.5 -57.5t-66 -20.5z
" />
    <glyph glyph-name="Gcaron" unicode="&#x1e6;" horiz-adv-x="741" 
d="M649 50q-18 -12 -43.5 -22.5t-54.5 -18.5t-59.5 -12.5t-57.5 -4.5q-84 0 -151.5 27.5t-115.5 76t-73.5 113t-25.5 139.5q0 81 28.5 149t78.5 117.5t116 76.5t140 27q56 0 105.5 -14t89.5 -38l-18 -44q-23 14 -52 24.5t-59.5 16.5t-60.5 6q-68 0 -126 -24t-101 -67
t-67 -101t-24 -126q0 -66 22.5 -122.5t64 -99t99.5 -66t129 -23.5q42 0 88 10t79 29v197h-160v47h209v-273zM302 903l110 -123l-22 -3l111 126h47l-145 -159h-1l-147 159h47z" />
    <glyph glyph-name="Gcircumflex" unicode="&#x11c;" horiz-adv-x="741" 
d="M649 50q-18 -12 -43.5 -22.5t-54.5 -18.5t-59.5 -12.5t-57.5 -4.5q-84 0 -151.5 27.5t-115.5 76t-73.5 113t-25.5 139.5q0 81 28.5 149t78.5 117.5t116 76.5t140 27q56 0 105.5 -14t89.5 -38l-18 -44q-23 14 -52 24.5t-59.5 16.5t-60.5 6q-68 0 -126 -24t-101 -67
t-67 -101t-24 -126q0 -66 22.5 -122.5t64 -99t99.5 -66t129 -23.5q42 0 88 10t79 29v197h-160v47h209v-273zM501 769l-109 122l21 3l-110 -125h-47l145 159h1l146 -159h-47z" />
    <glyph glyph-name="uni0122" unicode="&#x122;" horiz-adv-x="741" 
d="M649 50q-18 -12 -43.5 -22.5t-54.5 -18.5t-59.5 -12.5t-57.5 -4.5q-84 0 -151.5 27.5t-115.5 76t-73.5 113t-25.5 139.5q0 81 28.5 149t78.5 117.5t116 76.5t140 27q56 0 105.5 -14t89.5 -38l-18 -44q-23 14 -52 24.5t-59.5 16.5t-60.5 6q-68 0 -126 -24t-101 -67
t-67 -101t-24 -126q0 -66 22.5 -122.5t64 -99t99.5 -66t129 -23.5q42 0 88 10t79 29v197h-160v47h209v-273zM347 -195l-24 18q27 20 37.5 55t5.5 75h45q3 -26 -2 -54.5t-19.5 -53t-42.5 -40.5z" />
    <glyph glyph-name="Gdotaccent" unicode="&#x120;" horiz-adv-x="741" 
d="M649 50q-18 -12 -43.5 -22.5t-54.5 -18.5t-59.5 -12.5t-57.5 -4.5q-84 0 -151.5 27.5t-115.5 76t-73.5 113t-25.5 139.5q0 81 28.5 149t78.5 117.5t116 76.5t140 27q56 0 105.5 -14t89.5 -38l-18 -44q-23 14 -52 24.5t-59.5 16.5t-60.5 6q-68 0 -126 -24t-101 -67
t-67 -101t-24 -126q0 -66 22.5 -122.5t64 -99t99.5 -66t129 -23.5q42 0 88 10t79 29v197h-160v47h209v-273zM369 795q0 14 11 23.5t24 9.5q14 0 24 -9.5t10 -23.5q0 -15 -10 -24.5t-24 -9.5q-13 0 -24 10t-11 24z" />
    <glyph glyph-name="H" unicode="H" horiz-adv-x="752" 
d="M639 710v-710h-49v334h-428v-334h-49v710h49v-330h428v330h49z" />
    <glyph glyph-name="Hbar" unicode="&#x126;" horiz-adv-x="912" 
d="M113 532h686v-38h-686v38zM699 710v-710h-49v334h-428v-334h-49v710h49v-330h428v330h49z" />
    <glyph glyph-name="Hcircumflex" unicode="&#x124;" horiz-adv-x="752" 
d="M639 710v-710h-49v334h-428v-334h-49v710h49v-330h428v330h49zM474 769l-109 122l21 3l-110 -125h-47l145 159h1l146 -159h-47z" />
    <glyph glyph-name="I" unicode="I" horiz-adv-x="275" 
d="M113 710h49v-710h-49v710z" />
    <glyph glyph-name="IJ" unicode="&#x132;" horiz-adv-x="605" 
d="M113 710h49v-710h-49v710zM492 107q0 -79 -29 -135t-77.5 -85.5t-109.5 -31.5v0v47q72 4 119.5 57t47.5 151v600h49v-603z" />
    <glyph glyph-name="Iacute" unicode="&#xcd;" horiz-adv-x="275" 
d="M113 710h49v-710h-49v710zM261 884l-106 -133h-34l87 133h53z" />
    <glyph glyph-name="Ibreve" unicode="&#x12c;" horiz-adv-x="275" 
d="M113 710h49v-710h-49v710zM140 762q-37 0 -66.5 20.5t-47 58t-21.5 86.5h34q3 -35 16 -65t35 -47.5t50 -17.5q29 0 50 17.5t33.5 47.5t14.5 65h35q-3 -50 -20.5 -87t-46.5 -57.5t-66 -20.5z" />
    <glyph glyph-name="Icircumflex" unicode="&#xce;" horiz-adv-x="275" 
d="M113 710h49v-710h-49v710zM236 774l-109 122l21 3l-110 -125h-47l145 159h1l146 -159h-47z" />
    <glyph glyph-name="uni0208" unicode="&#x208;" horiz-adv-x="275" 
d="M113 710h49v-710h-49v710zM-27 909h52l83 -133h-34zM87 909h52l83 -133h-34z" />
    <glyph glyph-name="Idieresis" unicode="&#xcf;" horiz-adv-x="275" 
d="M113 710h49v-710h-49v710zM16 801q0 14 10 24t23 10t23.5 -10t10.5 -24t-10.5 -24t-23.5 -10t-23 10t-10 24v0zM190 801q0 14 10.5 24t23.5 10q12 0 22.5 -10t10.5 -24t-10.5 -24t-22.5 -10q-13 0 -23.5 10t-10.5 24v0z" />
    <glyph glyph-name="Idotaccent" unicode="&#x130;" horiz-adv-x="275" 
d="M113 710h49v-710h-49v710zM104 800q0 14 11 23.5t24 9.5q14 0 24 -9.5t10 -23.5q0 -15 -10 -24.5t-24 -9.5q-13 0 -24 10t-11 24z" />
    <glyph glyph-name="uni1ECA" unicode="&#x1eca;" horiz-adv-x="275" 
d="M113 710h49v-710h-49v710zM103 -87q0 14 11 23.5t24 9.5q14 0 24 -9.5t10 -23.5q0 -15 -10 -24.5t-24 -9.5q-13 0 -24 10t-11 24z" />
    <glyph glyph-name="Igrave" unicode="&#xcc;" horiz-adv-x="275" 
d="M113 710h49v-710h-49v710zM22 893h52l83 -133h-34z" />
    <glyph glyph-name="uni1EC8" unicode="&#x1ec8;" horiz-adv-x="275" 
d="M113 710h49v-710h-49v710zM135 767q22 18 36 33t14 35q0 17 -10 27t-26 10q-18 0 -29.5 -8.5t-24.5 -26.5l-21 16q17 27 36.5 39.5t43.5 12.5q19 0 33 -7.5t22.5 -22.5t8.5 -38q0 -30 -19 -51t-46 -41z" />
    <glyph glyph-name="uni020A" unicode="&#x20a;" horiz-adv-x="275" 
d="M113 710h49v-710h-49v710zM135 907q38 0 67 -20.5t47 -57.5t21 -87h-34q-2 36 -15.5 65.5t-35 47t-50.5 17.5q-28 0 -49.5 -17.5t-34 -47t-14.5 -65.5h-35q3 50 20.5 87t46.5 57.5t66 20.5z" />
    <glyph glyph-name="Imacron" unicode="&#x12a;" horiz-adv-x="275" 
d="M113 710h49v-710h-49v710zM19 800h236v-36h-236v36z" />
    <glyph glyph-name="Iogonek" unicode="&#x12e;" horiz-adv-x="262" 
d="M110 -198q-36 0 -62.5 23t-26.5 63q0 38 27.5 70t67.5 51l34 -3l9 -6q-46 -24 -71.5 -50t-25.5 -56q0 -27 16.5 -41.5t36.5 -14.5t35.5 13t27.5 33l22 -23q-13 -25 -37.5 -42t-52.5 -17zM113 710h49v-710h-49v710z" />
    <glyph glyph-name="Itilde" unicode="&#x128;" horiz-adv-x="275" 
d="M113 710h49v-710h-49v710zM213 781q-30 0 -48.5 14.5t-34.5 31.5q-13 13 -26.5 24.5t-31.5 11.5q-12 0 -23.5 -8.5t-19.5 -27t-9 -50.5l-30 1q-1 39 10.5 66.5t30.5 41.5t43 14q27 0 45 -14.5t33 -30.5q13 -15 27 -27t33 -12q20 0 33.5 20t15.5 68l30 -1
q1 -40 -9.5 -67.5t-28.5 -41t-40 -13.5z" />
    <glyph glyph-name="J" unicode="J" horiz-adv-x="330" 
d="M217 107q0 -79 -29 -135t-77.5 -85.5t-109.5 -31.5v0v47q72 4 119.5 57t47.5 151v600h49v-603z" />
    <glyph glyph-name="Jcircumflex" unicode="&#x134;" horiz-adv-x="330" 
d="M217 107q0 -79 -29 -135t-77.5 -85.5t-109.5 -31.5v0v47q72 4 119.5 57t47.5 151v600h49v-603zM285 774l-109 122l21 3l-110 -125h-47l145 159h1l146 -159h-47z" />
    <glyph glyph-name="K" unicode="K" horiz-adv-x="655" 
d="M163 390l-2 -35l3 9l351 346h63l-294 -291l327 -419h-62l-301 388l-86 -82l1 -306h-50v710h50v-320z" />
    <glyph glyph-name="uni0136" unicode="&#x136;" horiz-adv-x="655" 
d="M163 390l-2 -35l3 9l351 346h63l-294 -291l327 -419h-62l-301 388l-86 -82l1 -306h-50v710h50v-320zM270 -195l-24 18q27 20 37.5 55t5.5 75h45q3 -26 -2 -54.5t-19.5 -53t-42.5 -40.5z" />
    <glyph glyph-name="L" unicode="L" horiz-adv-x="603" 
d="M113 710h49v-663h389v-47h-438v710z" />
    <glyph glyph-name="uni01C7" unicode="&#x1c7;" horiz-adv-x="933" 
d="M113 710h49v-663h389v-47h-438v710zM820 107q0 -79 -29 -135t-77.5 -85.5t-109.5 -31.5v0v47q72 4 119.5 57t47.5 151v600h49v-603z" />
    <glyph glyph-name="Lacute" unicode="&#x139;" horiz-adv-x="603" 
d="M113 710h49v-663h389v-47h-438v710zM260 884l-106 -133h-34l87 133h53z" />
    <glyph glyph-name="Lcaron" unicode="&#x13d;" horiz-adv-x="589" 
d="M113 710h49v-663h389v-47h-438v710zM323 569l-23 20q21 20 31.5 52t3.5 67l43 7q6 -27 0 -54.5t-20 -51.5t-35 -40v0z" />
    <glyph glyph-name="uni013B" unicode="&#x13b;" horiz-adv-x="603" 
d="M113 710h49v-663h389v-47h-438v710zM274 -195l-24 18q27 20 37.5 55t5.5 75h45q3 -26 -2 -54.5t-19.5 -53t-42.5 -40.5z" />
    <glyph glyph-name="Ldot" unicode="&#x13f;" horiz-adv-x="624" 
d="M113 710h49v-663h389v-47h-438v710zM511 377q0 14 10 24t23 10t23.5 -10t10.5 -24q0 -15 -10.5 -24.5t-23.5 -9.5t-23 9.5t-10 24.5v0z" />
    <glyph glyph-name="uni01C8" unicode="&#x1c8;" horiz-adv-x="827" 
d="M113 710h49v-663h389v-47h-438v710zM675 -188l-30 29q26 26 41.5 65t15.5 88v397h48v-396q0 -63 -18.5 -108.5t-56.5 -74.5zM692 535q0 14 11 23.5t24 9.5q14 0 24 -9.5t10 -23.5q0 -15 -10 -24.5t-24 -9.5q-13 0 -24 10t-11 24z" />
    <glyph glyph-name="Lslash" unicode="&#x141;" horiz-adv-x="589" 
d="M364 431l8 -40l-338 -118l-8 40zM113 710h49v-663h389v-47h-438v710z" />
    <glyph glyph-name="M" unicode="M" horiz-adv-x="906" 
d="M113 0v726h1l350 -497l-21 3l349 494h1v-726h-48v613l4 -24l-296 -417h-2l-298 417l8 22v-611h-48z" />
    <glyph glyph-name="N" unicode="N" horiz-adv-x="822" 
d="M707 -17l-560 631l13 10l1 -624h-48v725h3l560 -636l-13 -4l-1 625h47v-727h-2z" />
    <glyph glyph-name="uni01CA" unicode="&#x1ca;" horiz-adv-x="1152" 
d="M707 -17l-560 631l13 10l1 -624h-48v725h3l560 -636l-13 -4l-1 625h47v-727h-2zM1039 107q0 -79 -29 -135t-77.5 -85.5t-109.5 -31.5v0v47q72 4 119.5 57t47.5 151v600h49v-603z" />
    <glyph glyph-name="Nacute" unicode="&#x143;" horiz-adv-x="822" 
d="M707 -17l-560 631l13 10l1 -624h-48v725h3l560 -636l-13 -4l-1 625h47v-727h-2zM529 879l-106 -133h-34l87 133h53z" />
    <glyph glyph-name="Ncaron" unicode="&#x147;" horiz-adv-x="822" 
d="M707 -17l-560 631l13 10l1 -624h-48v725h3l560 -636l-13 -4l-1 625h47v-727h-2zM305 903l110 -123l-22 -3l111 126h47l-145 -159h-1l-147 159h47z" />
    <glyph glyph-name="uni0145" unicode="&#x145;" horiz-adv-x="822" 
d="M707 -17l-560 631l13 10l1 -624h-48v725h3l560 -636l-13 -4l-1 625h47v-727h-2zM371 -195l-24 18q27 20 37.5 55t5.5 75h45q3 -26 -2 -54.5t-19.5 -53t-42.5 -40.5z" />
    <glyph glyph-name="Eng" unicode="&#x14a;" horiz-adv-x="809" 
d="M700 -17l-559 634l12 7l1 -624h-47v725h2l561 -639l-14 -1l-1 625h47v-718zM702 54v-59q0 -61 -19 -107t-55 -76l-30 29q26 26 41.5 65t15.5 88v95z" />
    <glyph glyph-name="uni019D" unicode="&#x19d;" horiz-adv-x="815" 
d="M700 -17l-559 633l12 8l1 -624h-47v725h2l561 -636l-14 -4l-1 625h47v-718zM154 54v-59q0 -61 -18 -107t-54 -76l-32 29q26 26 41.5 65t15.5 88v95z" />
    <glyph glyph-name="uni01CB" unicode="&#x1cb;" horiz-adv-x="1046" 
d="M707 -17l-560 631l13 10l1 -624h-48v725h3l560 -636l-13 -4l-1 625h47v-727h-2zM894 -188l-30 29q26 26 41.5 65t15.5 88v397h48v-396q0 -63 -18.5 -108.5t-56.5 -74.5zM911 535q0 14 11 23.5t24 9.5q14 0 24 -9.5t10 -23.5q0 -15 -10 -24.5t-24 -9.5q-13 0 -24 10
t-11 24z" />
    <glyph glyph-name="Ntilde" unicode="&#xd1;" horiz-adv-x="822" 
d="M707 -17l-560 631l13 10l1 -624h-48v725h3l560 -636l-13 -4l-1 625h47v-727h-2zM481 776q-30 0 -48.5 14.5t-34.5 31.5q-13 13 -26.5 24.5t-31.5 11.5q-12 0 -23.5 -8.5t-19.5 -27t-9 -50.5l-30 1q-1 39 10.5 66.5t30.5 41.5t43 14q27 0 45 -14.5t33 -30.5q13 -15 27 -27
t33 -12q20 0 33.5 20t15.5 68l30 -1q1 -40 -9.5 -67.5t-28.5 -41t-40 -13.5z" />
    <glyph glyph-name="O" unicode="O" horiz-adv-x="862" 
d="M68 354q0 75 28 140.5t78 116t115.5 79t140.5 28.5t141 -28.5t116 -79t78.5 -116t28.5 -140.5t-28.5 -140.5t-78.5 -115.5t-116 -78t-141 -28t-140.5 27t-115.5 76t-78 115t-28 144zM118 353q0 -65 24 -122t67 -100t99.5 -67.5t120.5 -24.5q66 0 123 24.5t100 67.5
t67.5 100t24.5 123q0 65 -24.5 122.5t-67.5 101t-100 68.5t-122 25q-66 0 -123 -25.5t-99.5 -69.5t-66 -101.5t-23.5 -121.5z" />
    <glyph glyph-name="Oacute" unicode="&#xd3;" horiz-adv-x="862" 
d="M68 354q0 75 28 140.5t78 116t115.5 79t140.5 28.5t141 -28.5t116 -79t78.5 -116t28.5 -140.5t-28.5 -140.5t-78.5 -115.5t-116 -78t-141 -28t-140.5 27t-115.5 76t-78 115t-28 144zM118 353q0 -65 24 -122t67 -100t99.5 -67.5t120.5 -24.5q66 0 123 24.5t100 67.5
t67.5 100t24.5 123q0 65 -24.5 122.5t-67.5 101t-100 68.5t-122 25q-66 0 -123 -25.5t-99.5 -69.5t-66 -101.5t-23.5 -121.5zM554 881l-106 -133h-34l87 133h53z" />
    <glyph glyph-name="Obreve" unicode="&#x14e;" horiz-adv-x="862" 
d="M68 354q0 75 28 140.5t78 116t115.5 79t140.5 28.5t141 -28.5t116 -79t78.5 -116t28.5 -140.5t-28.5 -140.5t-78.5 -115.5t-116 -78t-141 -28t-140.5 27t-115.5 76t-78 115t-28 144zM118 353q0 -65 24 -122t67 -100t99.5 -67.5t120.5 -24.5q66 0 123 24.5t100 67.5
t67.5 100t24.5 123q0 65 -24.5 122.5t-67.5 101t-100 68.5t-122 25q-66 0 -123 -25.5t-99.5 -69.5t-66 -101.5t-23.5 -121.5zM433 759q-37 0 -66.5 20.5t-47 58t-21.5 86.5h34q3 -35 16 -65t35 -47.5t50 -17.5q29 0 50 17.5t33.5 47.5t14.5 65h35q-3 -50 -20.5 -87
t-46.5 -57.5t-66 -20.5z" />
    <glyph glyph-name="Ocircumflex" unicode="&#xd4;" horiz-adv-x="862" 
d="M68 354q0 75 28 140.5t78 116t115.5 79t140.5 28.5t141 -28.5t116 -79t78.5 -116t28.5 -140.5t-28.5 -140.5t-78.5 -115.5t-116 -78t-141 -28t-140.5 27t-115.5 76t-78 115t-28 144zM118 353q0 -65 24 -122t67 -100t99.5 -67.5t120.5 -24.5q66 0 123 24.5t100 67.5
t67.5 100t24.5 123q0 65 -24.5 122.5t-67.5 101t-100 68.5t-122 25q-66 0 -123 -25.5t-99.5 -69.5t-66 -101.5t-23.5 -121.5zM529 771l-109 122l21 3l-110 -125h-47l145 159h1l146 -159h-47z" />
    <glyph glyph-name="uni1ED0" unicode="&#x1ed0;" horiz-adv-x="862" 
d="M68 354q0 75 28 140.5t78 116t115.5 79t140.5 28.5t141 -28.5t116 -79t78.5 -116t28.5 -140.5t-28.5 -140.5t-78.5 -115.5t-116 -78t-141 -28t-140.5 27t-115.5 76t-78 115t-28 144zM118 353q0 -65 24 -122t67 -100t99.5 -67.5t120.5 -24.5q66 0 123 24.5t100 67.5
t67.5 100t24.5 123q0 65 -24.5 122.5t-67.5 101t-100 68.5t-122 25q-66 0 -123 -25.5t-99.5 -69.5t-66 -101.5t-23.5 -121.5zM529 793l-109 122l21 3l-110 -125h-47l145 159h1l146 -159h-47zM656 1015l-106 -133h-34l87 133h53z" />
    <glyph glyph-name="uni1ED8" unicode="&#x1ed8;" horiz-adv-x="862" 
d="M68 354q0 75 28 140.5t78 116t115.5 79t140.5 28.5t141 -28.5t116 -79t78.5 -116t28.5 -140.5t-28.5 -140.5t-78.5 -115.5t-116 -78t-141 -28t-140.5 27t-115.5 76t-78 115t-28 144zM118 353q0 -65 24 -122t67 -100t99.5 -67.5t120.5 -24.5q66 0 123 24.5t100 67.5
t67.5 100t24.5 123q0 65 -24.5 122.5t-67.5 101t-100 68.5t-122 25q-66 0 -123 -25.5t-99.5 -69.5t-66 -101.5t-23.5 -121.5zM396 -87q0 14 11 23.5t24 9.5q14 0 24 -9.5t10 -23.5q0 -15 -10 -24.5t-24 -9.5q-13 0 -24 10t-11 24zM529 771l-109 122l21 3l-110 -125h-47
l145 159h1l146 -159h-47z" />
    <glyph glyph-name="uni1ED2" unicode="&#x1ed2;" horiz-adv-x="862" 
d="M68 354q0 75 28 140.5t78 116t115.5 79t140.5 28.5t141 -28.5t116 -79t78.5 -116t28.5 -140.5t-28.5 -140.5t-78.5 -115.5t-116 -78t-141 -28t-140.5 27t-115.5 76t-78 115t-28 144zM118 353q0 -65 24 -122t67 -100t99.5 -67.5t120.5 -24.5q66 0 123 24.5t100 67.5
t67.5 100t24.5 123q0 65 -24.5 122.5t-67.5 101t-100 68.5t-122 25q-66 0 -123 -25.5t-99.5 -69.5t-66 -101.5t-23.5 -121.5zM524 787l-109 122l21 3l-110 -125h-47l145 159h1l146 -159h-47zM175 1023h52l83 -133h-34z" />
    <glyph glyph-name="uni1ED4" unicode="&#x1ed4;" horiz-adv-x="862" 
d="M68 354q0 75 28 140.5t78 116t115.5 79t140.5 28.5t141 -28.5t116 -79t78.5 -116t28.5 -140.5t-28.5 -140.5t-78.5 -115.5t-116 -78t-141 -28t-140.5 27t-115.5 76t-78 115t-28 144zM118 353q0 -65 24 -122t67 -100t99.5 -67.5t120.5 -24.5q66 0 123 24.5t100 67.5
t67.5 100t24.5 123q0 65 -24.5 122.5t-67.5 101t-100 68.5t-122 25q-66 0 -123 -25.5t-99.5 -69.5t-66 -101.5t-23.5 -121.5zM525 793l-109 122l21 3l-110 -125h-47l145 159h1l146 -159h-47zM547 891q22 18 36 33t14 35q0 17 -10 27t-26 10q-18 0 -29.5 -8.5t-24.5 -26.5
l-21 16q17 27 36.5 39.5t43.5 12.5q19 0 33 -7.5t22.5 -22.5t8.5 -38q0 -30 -19 -51t-46 -41z" />
    <glyph glyph-name="uni1ED6" unicode="&#x1ed6;" horiz-adv-x="862" 
d="M68 354q0 75 28 140.5t78 116t115.5 79t140.5 28.5t141 -28.5t116 -79t78.5 -116t28.5 -140.5t-28.5 -140.5t-78.5 -115.5t-116 -78t-141 -28t-140.5 27t-115.5 76t-78 115t-28 144zM118 353q0 -65 24 -122t67 -100t99.5 -67.5t120.5 -24.5q66 0 123 24.5t100 67.5
t67.5 100t24.5 123q0 65 -24.5 122.5t-67.5 101t-100 68.5t-122 25q-66 0 -123 -25.5t-99.5 -69.5t-66 -101.5t-23.5 -121.5zM527 778l-109 122l21 3l-110 -125h-47l145 159h1l146 -159h-47zM503 958q-30 0 -48.5 14.5t-34.5 31.5q-13 13 -26.5 24.5t-31.5 11.5
q-12 0 -23.5 -8.5t-19.5 -27t-9 -50.5l-30 1q-1 39 10.5 66.5t30.5 41.5t43 14q27 0 45 -14.5t33 -30.5q13 -15 27 -27t33 -12q20 0 33.5 20t15.5 68l30 -1q1 -40 -9.5 -67.5t-28.5 -41t-40 -13.5z" />
    <glyph glyph-name="uni020C" unicode="&#x20c;" horiz-adv-x="862" 
d="M68 354q0 75 28 140.5t78 116t115.5 79t140.5 28.5t141 -28.5t116 -79t78.5 -116t28.5 -140.5t-28.5 -140.5t-78.5 -115.5t-116 -78t-141 -28t-140.5 27t-115.5 76t-78 115t-28 144zM118 353q0 -65 24 -122t67 -100t99.5 -67.5t120.5 -24.5q66 0 123 24.5t100 67.5
t67.5 100t24.5 123q0 65 -24.5 122.5t-67.5 101t-100 68.5t-122 25q-66 0 -123 -25.5t-99.5 -69.5t-66 -101.5t-23.5 -121.5zM266 906h52l83 -133h-34zM380 906h52l83 -133h-34z" />
    <glyph glyph-name="Odieresis" unicode="&#xd6;" horiz-adv-x="862" 
d="M68 354q0 75 28 140.5t78 116t115.5 79t140.5 28.5t141 -28.5t116 -79t78.5 -116t28.5 -140.5t-28.5 -140.5t-78.5 -115.5t-116 -78t-141 -28t-140.5 27t-115.5 76t-78 115t-28 144zM118 353q0 -65 24 -122t67 -100t99.5 -67.5t120.5 -24.5q66 0 123 24.5t100 67.5
t67.5 100t24.5 123q0 65 -24.5 122.5t-67.5 101t-100 68.5t-122 25q-66 0 -123 -25.5t-99.5 -69.5t-66 -101.5t-23.5 -121.5zM309 798q0 14 10 24t23 10t23.5 -10t10.5 -24t-10.5 -24t-23.5 -10t-23 10t-10 24v0zM483 798q0 14 10.5 24t23.5 10q12 0 22.5 -10t10.5 -24
t-10.5 -24t-22.5 -10q-13 0 -23.5 10t-10.5 24v0z" />
    <glyph glyph-name="uni022A" unicode="&#x22a;" horiz-adv-x="862" 
d="M68 354q0 75 28 140.5t78 116t115.5 79t140.5 28.5t141 -28.5t116 -79t78.5 -116t28.5 -140.5t-28.5 -140.5t-78.5 -115.5t-116 -78t-141 -28t-140.5 27t-115.5 76t-78 115t-28 144zM118 353q0 -65 24 -122t67 -100t99.5 -67.5t120.5 -24.5q66 0 123 24.5t100 67.5
t67.5 100t24.5 123q0 65 -24.5 122.5t-67.5 101t-100 68.5t-122 25q-66 0 -123 -25.5t-99.5 -69.5t-66 -101.5t-23.5 -121.5zM309 798q0 14 10 24t23 10t23.5 -10t10.5 -24t-10.5 -24t-23.5 -10t-23 10t-10 24v0zM483 798q0 14 10.5 24t23.5 10q12 0 22.5 -10t10.5 -24
t-10.5 -24t-22.5 -10q-13 0 -23.5 10t-10.5 24v0zM312 917h236v-36h-236v36z" />
    <glyph glyph-name="uni0230" unicode="&#x230;" horiz-adv-x="862" 
d="M68 354q0 75 28 140.5t78 116t115.5 79t140.5 28.5t141 -28.5t116 -79t78.5 -116t28.5 -140.5t-28.5 -140.5t-78.5 -115.5t-116 -78t-141 -28t-140.5 27t-115.5 76t-78 115t-28 144zM118 353q0 -65 24 -122t67 -100t99.5 -67.5t120.5 -24.5q66 0 123 24.5t100 67.5
t67.5 100t24.5 123q0 65 -24.5 122.5t-67.5 101t-100 68.5t-122 25q-66 0 -123 -25.5t-99.5 -69.5t-66 -101.5t-23.5 -121.5zM397 797q0 14 11 23.5t24 9.5q14 0 24 -9.5t10 -23.5q0 -15 -10 -24.5t-24 -9.5q-13 0 -24 10t-11 24zM312 915h236v-36h-236v36z" />
    <glyph glyph-name="uni1ECC" unicode="&#x1ecc;" horiz-adv-x="862" 
d="M68 354q0 75 28 140.5t78 116t115.5 79t140.5 28.5t141 -28.5t116 -79t78.5 -116t28.5 -140.5t-28.5 -140.5t-78.5 -115.5t-116 -78t-141 -28t-140.5 27t-115.5 76t-78 115t-28 144zM118 353q0 -65 24 -122t67 -100t99.5 -67.5t120.5 -24.5q66 0 123 24.5t100 67.5
t67.5 100t24.5 123q0 65 -24.5 122.5t-67.5 101t-100 68.5t-122 25q-66 0 -123 -25.5t-99.5 -69.5t-66 -101.5t-23.5 -121.5zM396 -87q0 14 11 23.5t24 9.5q14 0 24 -9.5t10 -23.5q0 -15 -10 -24.5t-24 -9.5q-13 0 -24 10t-11 24z" />
    <glyph glyph-name="Ograve" unicode="&#xd2;" horiz-adv-x="862" 
d="M68 354q0 75 28 140.5t78 116t115.5 79t140.5 28.5t141 -28.5t116 -79t78.5 -116t28.5 -140.5t-28.5 -140.5t-78.5 -115.5t-116 -78t-141 -28t-140.5 27t-115.5 76t-78 115t-28 144zM118 353q0 -65 24 -122t67 -100t99.5 -67.5t120.5 -24.5q66 0 123 24.5t100 67.5
t67.5 100t24.5 123q0 65 -24.5 122.5t-67.5 101t-100 68.5t-122 25q-66 0 -123 -25.5t-99.5 -69.5t-66 -101.5t-23.5 -121.5zM315 890h52l83 -133h-34z" />
    <glyph glyph-name="uni1ECE" unicode="&#x1ece;" horiz-adv-x="862" 
d="M68 354q0 75 28 140.5t78 116t115.5 79t140.5 28.5t141 -28.5t116 -79t78.5 -116t28.5 -140.5t-28.5 -140.5t-78.5 -115.5t-116 -78t-141 -28t-140.5 27t-115.5 76t-78 115t-28 144zM118 353q0 -65 24 -122t67 -100t99.5 -67.5t120.5 -24.5q66 0 123 24.5t100 67.5
t67.5 100t24.5 123q0 65 -24.5 122.5t-67.5 101t-100 68.5t-122 25q-66 0 -123 -25.5t-99.5 -69.5t-66 -101.5t-23.5 -121.5zM428 764q22 18 36 33t14 35q0 17 -10 27t-26 10q-18 0 -29.5 -8.5t-24.5 -26.5l-21 16q17 27 36.5 39.5t43.5 12.5q19 0 33 -7.5t22.5 -22.5
t8.5 -38q0 -30 -19 -51t-46 -41z" />
    <glyph glyph-name="Ohorn" unicode="&#x1a0;" horiz-adv-x="862" 
d="M68 354q0 75 28 140.5t78 116t115.5 79t140.5 28.5t141 -28.5t116 -79t78.5 -116t28.5 -140.5t-28.5 -140.5t-78.5 -115.5t-116 -78t-141 -28t-140.5 27t-115.5 76t-78 115t-28 144zM118 353q0 -65 24 -122t67 -100t99.5 -67.5t120.5 -24.5q66 0 123 24.5t100 67.5
t67.5 100t24.5 123q0 65 -24.5 122.5t-67.5 101t-100 68.5t-122 25q-66 0 -123 -25.5t-99.5 -69.5t-66 -101.5t-23.5 -121.5zM503 710q48 0 70.5 23t24.5 84h37q-3 -60 -20 -90t-45.5 -39.5t-66.5 -9.5v32z" />
    <glyph glyph-name="uni1EDA" unicode="&#x1eda;" horiz-adv-x="862" 
d="M68 354q0 75 28 140.5t78 116t115.5 79t140.5 28.5t141 -28.5t116 -79t78.5 -116t28.5 -140.5t-28.5 -140.5t-78.5 -115.5t-116 -78t-141 -28t-140.5 27t-115.5 76t-78 115t-28 144zM118 353q0 -65 24 -122t67 -100t99.5 -67.5t120.5 -24.5q66 0 123 24.5t100 67.5
t67.5 100t24.5 123q0 65 -24.5 122.5t-67.5 101t-100 68.5t-122 25q-66 0 -123 -25.5t-99.5 -69.5t-66 -101.5t-23.5 -121.5zM503 710q48 0 70.5 23t24.5 84h37q-3 -60 -20 -90t-45.5 -39.5t-66.5 -9.5v32zM554 881l-106 -133h-34l87 133h53z" />
    <glyph glyph-name="uni1EE2" unicode="&#x1ee2;" horiz-adv-x="862" 
d="M68 354q0 75 28 140.5t78 116t115.5 79t140.5 28.5t141 -28.5t116 -79t78.5 -116t28.5 -140.5t-28.5 -140.5t-78.5 -115.5t-116 -78t-141 -28t-140.5 27t-115.5 76t-78 115t-28 144zM118 353q0 -65 24 -122t67 -100t99.5 -67.5t120.5 -24.5q66 0 123 24.5t100 67.5
t67.5 100t24.5 123q0 65 -24.5 122.5t-67.5 101t-100 68.5t-122 25q-66 0 -123 -25.5t-99.5 -69.5t-66 -101.5t-23.5 -121.5zM503 710q48 0 70.5 23t24.5 84h37q-3 -60 -20 -90t-45.5 -39.5t-66.5 -9.5v32zM396 -87q0 14 11 23.5t24 9.5q14 0 24 -9.5t10 -23.5
q0 -15 -10 -24.5t-24 -9.5q-13 0 -24 10t-11 24z" />
    <glyph glyph-name="uni1EDC" unicode="&#x1edc;" horiz-adv-x="862" 
d="M68 354q0 75 28 140.5t78 116t115.5 79t140.5 28.5t141 -28.5t116 -79t78.5 -116t28.5 -140.5t-28.5 -140.5t-78.5 -115.5t-116 -78t-141 -28t-140.5 27t-115.5 76t-78 115t-28 144zM118 353q0 -65 24 -122t67 -100t99.5 -67.5t120.5 -24.5q66 0 123 24.5t100 67.5
t67.5 100t24.5 123q0 65 -24.5 122.5t-67.5 101t-100 68.5t-122 25q-66 0 -123 -25.5t-99.5 -69.5t-66 -101.5t-23.5 -121.5zM503 710q48 0 70.5 23t24.5 84h37q-3 -60 -20 -90t-45.5 -39.5t-66.5 -9.5v32zM315 890h52l83 -133h-34z" />
    <glyph glyph-name="uni1EDE" unicode="&#x1ede;" horiz-adv-x="862" 
d="M68 354q0 75 28 140.5t78 116t115.5 79t140.5 28.5t141 -28.5t116 -79t78.5 -116t28.5 -140.5t-28.5 -140.5t-78.5 -115.5t-116 -78t-141 -28t-140.5 27t-115.5 76t-78 115t-28 144zM118 353q0 -65 24 -122t67 -100t99.5 -67.5t120.5 -24.5q66 0 123 24.5t100 67.5
t67.5 100t24.5 123q0 65 -24.5 122.5t-67.5 101t-100 68.5t-122 25q-66 0 -123 -25.5t-99.5 -69.5t-66 -101.5t-23.5 -121.5zM503 710q48 0 70.5 23t24.5 84h37q-3 -60 -20 -90t-45.5 -39.5t-66.5 -9.5v32zM428 764q22 18 36 33t14 35q0 17 -10 27t-26 10q-18 0 -29.5 -8.5
t-24.5 -26.5l-21 16q17 27 36.5 39.5t43.5 12.5q19 0 33 -7.5t22.5 -22.5t8.5 -38q0 -30 -19 -51t-46 -41z" />
    <glyph glyph-name="uni1EE0" unicode="&#x1ee0;" horiz-adv-x="862" 
d="M68 354q0 75 28 140.5t78 116t115.5 79t140.5 28.5t141 -28.5t116 -79t78.5 -116t28.5 -140.5t-28.5 -140.5t-78.5 -115.5t-116 -78t-141 -28t-140.5 27t-115.5 76t-78 115t-28 144zM118 353q0 -65 24 -122t67 -100t99.5 -67.5t120.5 -24.5q66 0 123 24.5t100 67.5
t67.5 100t24.5 123q0 65 -24.5 122.5t-67.5 101t-100 68.5t-122 25q-66 0 -123 -25.5t-99.5 -69.5t-66 -101.5t-23.5 -121.5zM503 710q48 0 70.5 23t24.5 84h37q-3 -60 -20 -90t-45.5 -39.5t-66.5 -9.5v32zM506 778q-30 0 -48.5 14.5t-34.5 31.5q-13 13 -26.5 24.5
t-31.5 11.5q-12 0 -23.5 -8.5t-19.5 -27t-9 -50.5l-30 1q-1 39 10.5 66.5t30.5 41.5t43 14q27 0 45 -14.5t33 -30.5q13 -15 27 -27t33 -12q20 0 33.5 20t15.5 68l30 -1q1 -40 -9.5 -67.5t-28.5 -41t-40 -13.5z" />
    <glyph glyph-name="Ohungarumlaut" unicode="&#x150;" horiz-adv-x="862" 
d="M68 354q0 75 28 140.5t78 116t115.5 79t140.5 28.5t141 -28.5t116 -79t78.5 -116t28.5 -140.5t-28.5 -140.5t-78.5 -115.5t-116 -78t-141 -28t-140.5 27t-115.5 76t-78 115t-28 144zM118 353q0 -65 24 -122t67 -100t99.5 -67.5t120.5 -24.5q66 0 123 24.5t100 67.5
t67.5 100t24.5 123q0 65 -24.5 122.5t-67.5 101t-100 68.5t-122 25q-66 0 -123 -25.5t-99.5 -69.5t-66 -101.5t-23.5 -121.5zM494 900l-106 -133h-34l87 133h53zM610 899l-106 -133h-34l87 133h53z" />
    <glyph glyph-name="uni020E" unicode="&#x20e;" horiz-adv-x="862" 
d="M68 354q0 75 28 140.5t78 116t115.5 79t140.5 28.5t141 -28.5t116 -79t78.5 -116t28.5 -140.5t-28.5 -140.5t-78.5 -115.5t-116 -78t-141 -28t-140.5 27t-115.5 76t-78 115t-28 144zM118 353q0 -65 24 -122t67 -100t99.5 -67.5t120.5 -24.5q66 0 123 24.5t100 67.5
t67.5 100t24.5 123q0 65 -24.5 122.5t-67.5 101t-100 68.5t-122 25q-66 0 -123 -25.5t-99.5 -69.5t-66 -101.5t-23.5 -121.5zM428 904q38 0 67 -20.5t47 -57.5t21 -87h-34q-2 36 -15.5 65.5t-35 47t-50.5 17.5q-28 0 -49.5 -17.5t-34 -47t-14.5 -65.5h-35q3 50 20.5 87
t46.5 57.5t66 20.5z" />
    <glyph glyph-name="Omacron" unicode="&#x14c;" horiz-adv-x="862" 
d="M68 354q0 75 28 140.5t78 116t115.5 79t140.5 28.5t141 -28.5t116 -79t78.5 -116t28.5 -140.5t-28.5 -140.5t-78.5 -115.5t-116 -78t-141 -28t-140.5 27t-115.5 76t-78 115t-28 144zM118 353q0 -65 24 -122t67 -100t99.5 -67.5t120.5 -24.5q66 0 123 24.5t100 67.5
t67.5 100t24.5 123q0 65 -24.5 122.5t-67.5 101t-100 68.5t-122 25q-66 0 -123 -25.5t-99.5 -69.5t-66 -101.5t-23.5 -121.5zM312 797h236v-36h-236v36z" />
    <glyph glyph-name="uni01EA" unicode="&#x1ea;" horiz-adv-x="862" 
d="M430 -8q-75 0 -140.5 27t-115.5 76t-78 115t-28 144q0 75 28 140.5t78 116t115.5 79t140.5 28.5t141 -28.5t116 -79t78.5 -116t28.5 -140.5q0 -71 -20.5 -126t-53 -95t-69.5 -68q-33 -26 -66 -45t-60 -36t-43 -38t-16 -51q0 -28 16.5 -42.5t35.5 -14.5q20 0 36 13t28 33
l21 -23q-13 -25 -37 -42t-52 -17q-36 0 -62.5 23t-26.5 63q0 33 16 57t41 41.5t52 28.5l32 6q-26 -13 -64 -21t-72 -8zM431 39q65 0 121.5 24.5t99.5 67.5t67.5 100t24.5 123q0 65 -24.5 122t-67.5 100.5t-100 68.5t-122 25q-66 0 -123 -25.5t-99.5 -69.5t-66 -101.5
t-23.5 -120.5q0 -65 24 -122t67 -100t100 -67.5t122 -24.5z" />
    <glyph glyph-name="Oslash" unicode="&#xd8;" horiz-adv-x="857" 
d="M735 699l-595 -705l-30 28l595 705zM68 354q0 75 28 140.5t78 116t115.5 79t140.5 28.5t141 -28.5t116 -79t78.5 -116t28.5 -140.5t-28.5 -140.5t-78.5 -115.5t-116 -78t-141 -28t-140.5 27t-115.5 76t-78 115t-28 144zM118 353q0 -65 24 -122t67 -100t99.5 -67.5
t120.5 -24.5q66 0 123 24.5t100 67.5t67.5 100t24.5 123q0 65 -24.5 122.5t-67.5 101t-100 68.5t-122 25q-66 0 -123 -25.5t-99.5 -69.5t-66 -101.5t-23.5 -121.5z" />
    <glyph glyph-name="Oslashacute" unicode="&#x1fe;" horiz-adv-x="857" 
d="M735 699l-595 -705l-30 28l595 705zM68 354q0 75 28 140.5t78 116t115.5 79t140.5 28.5t141 -28.5t116 -79t78.5 -116t28.5 -140.5t-28.5 -140.5t-78.5 -115.5t-116 -78t-141 -28t-140.5 27t-115.5 76t-78 115t-28 144zM118 353q0 -65 24 -122t67 -100t99.5 -67.5
t120.5 -24.5q66 0 123 24.5t100 67.5t67.5 100t24.5 123q0 65 -24.5 122.5t-67.5 101t-100 68.5t-122 25q-66 0 -123 -25.5t-99.5 -69.5t-66 -101.5t-23.5 -121.5zM551 879l-106 -133h-34l87 133h53z" />
    <glyph glyph-name="Otilde" unicode="&#xd5;" horiz-adv-x="862" 
d="M68 354q0 75 28 140.5t78 116t115.5 79t140.5 28.5t141 -28.5t116 -79t78.5 -116t28.5 -140.5t-28.5 -140.5t-78.5 -115.5t-116 -78t-141 -28t-140.5 27t-115.5 76t-78 115t-28 144zM118 353q0 -65 24 -122t67 -100t99.5 -67.5t120.5 -24.5q66 0 123 24.5t100 67.5
t67.5 100t24.5 123q0 65 -24.5 122.5t-67.5 101t-100 68.5t-122 25q-66 0 -123 -25.5t-99.5 -69.5t-66 -101.5t-23.5 -121.5zM506 778q-30 0 -48.5 14.5t-34.5 31.5q-13 13 -26.5 24.5t-31.5 11.5q-12 0 -23.5 -8.5t-19.5 -27t-9 -50.5l-30 1q-1 39 10.5 66.5t30.5 41.5
t43 14q27 0 45 -14.5t33 -30.5q13 -15 27 -27t33 -12q20 0 33.5 20t15.5 68l30 -1q1 -40 -9.5 -67.5t-28.5 -41t-40 -13.5z" />
    <glyph glyph-name="uni022C" unicode="&#x22c;" horiz-adv-x="862" 
d="M68 354q0 75 28 140.5t78 116t115.5 79t140.5 28.5t141 -28.5t116 -79t78.5 -116t28.5 -140.5t-28.5 -140.5t-78.5 -115.5t-116 -78t-141 -28t-140.5 27t-115.5 76t-78 115t-28 144zM118 353q0 -65 24 -122t67 -100t99.5 -67.5t120.5 -24.5q66 0 123 24.5t100 67.5
t67.5 100t24.5 123q0 65 -24.5 122.5t-67.5 101t-100 68.5t-122 25q-66 0 -123 -25.5t-99.5 -69.5t-66 -101.5t-23.5 -121.5zM506 778q-30 0 -48.5 14.5t-34.5 31.5q-13 13 -26.5 24.5t-31.5 11.5q-12 0 -23.5 -8.5t-19.5 -27t-9 -50.5l-30 1q-1 39 10.5 66.5t30.5 41.5
t43 14q27 0 45 -14.5t33 -30.5q13 -15 27 -27t33 -12q20 0 33.5 20t15.5 68l30 -1q1 -40 -9.5 -67.5t-28.5 -41t-40 -13.5zM312 992h236v-36h-236v36z" />
    <glyph glyph-name="OE" unicode="&#x152;" horiz-adv-x="1011" 
d="M505 662q-16 4 -33.5 6t-35.5 2q-64 0 -121 -25t-99.5 -68.5t-67 -101t-24.5 -122.5t24.5 -122t67.5 -100t100 -67.5t122 -24.5q32 0 67 8l21 -44q-22 -5 -44.5 -8t-46.5 -3q-74 0 -139.5 28t-115.5 78t-78 115.5t-28 140.5t28 140.5t78 116t115.5 79t140.5 28.5
q24 0 47 -3.5t45 -9.5zM498 710h408v-46h-358v-284h319v-46h-319v-287h372v-47h-422v710z" />
    <glyph glyph-name="P" unicode="P" horiz-adv-x="554" 
d="M277 710q66 0 115.5 -22.5t77 -67t27.5 -111.5q0 -40 -12.5 -77.5t-40 -67.5t-70 -48t-102.5 -18h-110v-298h-49v710h164zM272 345q52 0 86.5 16.5t54 42t28 53.5t8.5 52q0 34 -11 62t-32.5 48.5t-52.5 32t-71 11.5h-120v-318h110z" />
    <glyph glyph-name="Thorn" unicode="&#xde;" horiz-adv-x="554" 
d="M283 556q39 0 77.5 -11.5t69 -35.5t49 -62t18.5 -91q0 -40 -12.5 -77.5t-38.5 -67.5t-68.5 -48t-102.5 -18h-112v-145h-50v704h50v-148h120zM273 192q50 0 83.5 15.5t53.5 41t28.5 54t8.5 53.5q0 44 -21.5 78.5t-60 54.5t-91.5 20h-111v-317h110z" />
    <glyph glyph-name="Q" unicode="Q" horiz-adv-x="882" 
d="M546 47h268v-47h-337zM68 354q0 75 28 140.5t78 116t115.5 79t140.5 28.5t141 -28.5t116 -79t78.5 -116t28.5 -140.5t-28.5 -140.5t-78.5 -115.5t-116 -78t-141 -28t-140.5 27t-115.5 76t-78 115t-28 144zM118 353q0 -65 24 -122t67 -100t99.5 -67.5t120.5 -24.5
q66 0 123 24.5t100 67.5t67.5 100t24.5 123q0 65 -24.5 122t-67.5 100.5t-100 68.5t-122 25q-66 0 -123 -25.5t-99.5 -69.5t-66 -101.5t-23.5 -120.5z" />
    <glyph glyph-name="R" unicode="R" horiz-adv-x="633" 
d="M275 710q40 0 79.5 -11.5t72 -36t52.5 -62.5t20 -91q0 -40 -12 -77.5t-39 -67.5t-70 -48t-106 -18h-110v-298h-49v710h162zM269 345q53 0 88 15t55 39t28.5 52.5t8.5 55.5q0 32 -11.5 60t-33.5 49.5t-53 34t-69 12.5h-120v-318h107zM371 323l197 -323h-57l-198 322z" />
    <glyph glyph-name="Racute" unicode="&#x154;" horiz-adv-x="633" 
d="M275 710q40 0 79.5 -11.5t72 -36t52.5 -62.5t20 -91q0 -40 -12 -77.5t-39 -67.5t-70 -48t-106 -18h-110v-298h-49v710h162zM269 345q53 0 88 15t55 39t28.5 52.5t8.5 55.5q0 32 -11.5 60t-33.5 49.5t-53 34t-69 12.5h-120v-318h107zM371 323l197 -323h-57l-198 322z
M400 884l-106 -133h-34l87 133h53z" />
    <glyph glyph-name="Rcaron" unicode="&#x158;" horiz-adv-x="633" 
d="M275 710q40 0 79.5 -11.5t72 -36t52.5 -62.5t20 -91q0 -40 -12 -77.5t-39 -67.5t-70 -48t-106 -18h-110v-298h-49v710h162zM269 345q53 0 88 15t55 39t28.5 52.5t8.5 55.5q0 32 -11.5 60t-33.5 49.5t-53 34t-69 12.5h-120v-318h107zM371 323l197 -323h-57l-198 322z
M176 908l110 -123l-22 -3l111 126h47l-145 -159h-1l-147 159h47z" />
    <glyph glyph-name="uni0156" unicode="&#x156;" horiz-adv-x="633" 
d="M275 710q40 0 79.5 -11.5t72 -36t52.5 -62.5t20 -91q0 -40 -12 -77.5t-39 -67.5t-70 -48t-106 -18h-110v-298h-49v710h162zM269 345q53 0 88 15t55 39t28.5 52.5t8.5 55.5q0 32 -11.5 60t-33.5 49.5t-53 34t-69 12.5h-120v-318h107zM371 323l197 -323h-57l-198 322z
M246 -195l-24 18q27 20 37.5 55t5.5 75h45q3 -26 -2 -54.5t-19.5 -53t-42.5 -40.5z" />
    <glyph glyph-name="uni0210" unicode="&#x210;" horiz-adv-x="633" 
d="M275 710q40 0 79.5 -11.5t72 -36t52.5 -62.5t20 -91q0 -40 -12 -77.5t-39 -67.5t-70 -48t-106 -18h-110v-298h-49v710h162zM269 345q53 0 88 15t55 39t28.5 52.5t8.5 55.5q0 32 -11.5 60t-33.5 49.5t-53 34t-69 12.5h-120v-318h107zM371 323l197 -323h-57l-198 322z
M112 909h52l83 -133h-34zM226 909h52l83 -133h-34z" />
    <glyph glyph-name="uni0212" unicode="&#x212;" horiz-adv-x="633" 
d="M275 710q40 0 79.5 -11.5t72 -36t52.5 -62.5t20 -91q0 -40 -12 -77.5t-39 -67.5t-70 -48t-106 -18h-110v-298h-49v710h162zM269 345q53 0 88 15t55 39t28.5 52.5t8.5 55.5q0 32 -11.5 60t-33.5 49.5t-53 34t-69 12.5h-120v-318h107zM371 323l197 -323h-57l-198 322z
M274 907q38 0 67 -20.5t47 -57.5t21 -87h-34q-2 36 -15.5 65.5t-35 47t-50.5 17.5q-28 0 -49.5 -17.5t-34 -47t-14.5 -65.5h-35q3 50 20.5 87t46.5 57.5t66 20.5z" />
    <glyph glyph-name="S" unicode="S" horiz-adv-x="581" 
d="M468 630q-31 15 -76 28t-90 13q-70 0 -112 -35t-42 -88q0 -40 24 -66.5t63 -45t83 -35.5q35 -13 69.5 -29t62.5 -39t44.5 -57t16.5 -84q0 -59 -28 -104.5t-78 -70.5t-116 -25q-53 0 -96.5 13t-76 30.5t-51.5 29.5l23 40q22 -16 53.5 -32t68.5 -27t74 -11q43 0 83.5 17
t67 51.5t26.5 87.5q0 51 -25 82.5t-64 51.5t-83 36q-34 13 -68 27.5t-62 35t-44.5 49.5t-16.5 70q0 51 26 89t70.5 59.5t101.5 22.5q50 0 101.5 -13t89.5 -33z" />
    <glyph glyph-name="Sacute" unicode="&#x15a;" horiz-adv-x="581" 
d="M468 630q-31 15 -76 28t-90 13q-70 0 -112 -35t-42 -88q0 -40 24 -66.5t63 -45t83 -35.5q35 -13 69.5 -29t62.5 -39t44.5 -57t16.5 -84q0 -59 -28 -104.5t-78 -70.5t-116 -25q-53 0 -96.5 13t-76 30.5t-51.5 29.5l23 40q22 -16 53.5 -32t68.5 -27t74 -11q43 0 83.5 17
t67 51.5t26.5 87.5q0 51 -25 82.5t-64 51.5t-83 36q-34 13 -68 27.5t-62 35t-44.5 49.5t-16.5 70q0 51 26 89t70.5 59.5t101.5 22.5q50 0 101.5 -13t89.5 -33zM414 893l-106 -133h-34l87 133h53z" />
    <glyph glyph-name="Scaron" unicode="&#x160;" horiz-adv-x="581" 
d="M468 630q-31 15 -76 28t-90 13q-70 0 -112 -35t-42 -88q0 -40 24 -66.5t63 -45t83 -35.5q35 -13 69.5 -29t62.5 -39t44.5 -57t16.5 -84q0 -59 -28 -104.5t-78 -70.5t-116 -25q-53 0 -96.5 13t-76 30.5t-51.5 29.5l23 40q22 -16 53.5 -32t68.5 -27t74 -11q43 0 83.5 17
t67 51.5t26.5 87.5q0 51 -25 82.5t-64 51.5t-83 36q-34 13 -68 27.5t-62 35t-44.5 49.5t-16.5 70q0 51 26 89t70.5 59.5t101.5 22.5q50 0 101.5 -13t89.5 -33zM190 917l110 -123l-22 -3l111 126h47l-145 -159h-1l-147 159h47z" />
    <glyph glyph-name="Scedilla" unicode="&#x15e;" horiz-adv-x="581" 
d="M468 630q-31 15 -76 28t-90 13q-70 0 -112 -35t-42 -88q0 -40 24 -66.5t63 -45t83 -35.5q35 -13 69.5 -29t62.5 -39t44.5 -57t16.5 -84q0 -59 -28 -104.5t-78 -70.5t-116 -25q-53 0 -96.5 13t-76 30.5t-51.5 29.5l23 40q22 -16 53.5 -32t68.5 -27t74 -11q43 0 83.5 17
t67 51.5t26.5 87.5q0 51 -25 82.5t-64 51.5t-83 36q-34 13 -68 27.5t-62 35t-44.5 49.5t-16.5 70q0 51 26 89t70.5 59.5t101.5 22.5q50 0 101.5 -13t89.5 -33zM212 -174q11 -11 29.5 -18.5t43.5 -7.5q35 0 58.5 14.5t23.5 40.5q0 23 -18 40t-58 17q-16 0 -37 -4.5t-33 -9.5
l-15 25l70 78l36 -7l-67 -82l-17 11q11 7 32 11.5t40 4.5q51 1 80 -20.5t29 -62.5q0 -29 -16 -48t-43 -28t-60 -9q-31 0 -55.5 9t-39.5 22z" />
    <glyph glyph-name="Scircumflex" unicode="&#x15c;" horiz-adv-x="581" 
d="M468 630q-31 15 -76 28t-90 13q-70 0 -112 -35t-42 -88q0 -40 24 -66.5t63 -45t83 -35.5q35 -13 69.5 -29t62.5 -39t44.5 -57t16.5 -84q0 -59 -28 -104.5t-78 -70.5t-116 -25q-53 0 -96.5 13t-76 30.5t-51.5 29.5l23 40q22 -16 53.5 -32t68.5 -27t74 -11q43 0 83.5 17
t67 51.5t26.5 87.5q0 51 -25 82.5t-64 51.5t-83 36q-34 13 -68 27.5t-62 35t-44.5 49.5t-16.5 70q0 51 26 89t70.5 59.5t101.5 22.5q50 0 101.5 -13t89.5 -33zM389 783l-109 122l21 3l-110 -125h-47l145 159h1l146 -159h-47z" />
    <glyph glyph-name="uni0218" unicode="&#x218;" horiz-adv-x="581" 
d="M468 630q-31 15 -76 28t-90 13q-70 0 -112 -35t-42 -88q0 -40 24 -66.5t63 -45t83 -35.5q35 -13 69.5 -29t62.5 -39t44.5 -57t16.5 -84q0 -59 -28 -104.5t-78 -70.5t-116 -25q-53 0 -96.5 13t-76 30.5t-51.5 29.5l23 40q22 -16 53.5 -32t68.5 -27t74 -11q43 0 83.5 17
t67 51.5t26.5 87.5q0 51 -25 82.5t-64 51.5t-83 36q-34 13 -68 27.5t-62 35t-44.5 49.5t-16.5 70q0 51 26 89t70.5 59.5t101.5 22.5q50 0 101.5 -13t89.5 -33zM250 -198l-24 18q27 20 37.5 55t5.5 75h45q3 -26 -2 -54.5t-19.5 -53t-42.5 -40.5z" />
    <glyph glyph-name="uni1E9E" unicode="&#x1e9e;" horiz-adv-x="839" 
d="M577 -8q-63 0 -112 16t-84 37l21 40q35 -21 80.5 -35.5t92.5 -14.5q31 0 64 14t56 42t23 69q0 36 -20.5 59t-52 41t-65.5 38q-42 21 -80.5 46.5t-63.5 60t-25 81.5q0 43 18 79.5t55.5 61t95.5 27.5q35 0 52.5 -8.5t30.5 -16.5l-16 -22q-42 39 -101.5 60.5t-119.5 21.5
q-79 0 -138.5 -34.5t-92.5 -107.5t-33 -187v-360h-49v364q0 108 33 190.5t101.5 128.5t172.5 46q60 0 113.5 -16t95.5 -40.5t66 -52.5l-16 -36q-8 7 -32.5 20.5t-60.5 13.5q-34 0 -62.5 -16t-45.5 -43.5t-17 -61.5q0 -40 21.5 -68t55 -49t70.5 -42q29 -16 57.5 -32
t51.5 -35.5t37 -46t14 -63.5q0 -46 -23.5 -84t-66.5 -61.5t-101 -23.5z" />
    <glyph glyph-name="uni018F" unicode="&#x18f;" horiz-adv-x="805" 
d="M375 718q78 0 144 -27.5t115 -77t76 -115t27 -141.5t-28 -142t-78 -115.5t-116 -77.5t-141 -28q-80 0 -143 31.5t-107.5 88.5t-68.5 131l623 241l12 -38l-593 -233l16 19q35 -88 103.5 -142t160.5 -54q64 0 120 25t98.5 68.5t66.5 101t24 122.5q0 63 -23 119.5t-65 100.5
t-99 69.5t-125 25.5q-41 0 -83 -12t-78.5 -33t-63.5 -48l-26 38q32 30 73 53t87.5 36.5t91.5 13.5z" />
    <glyph glyph-name="T" unicode="T" horiz-adv-x="577" 
d="M56 710h465v-47h-209v-663h-49v663h-207v47z" />
    <glyph glyph-name="Tbar" unicode="&#x166;" horiz-adv-x="577" 
d="M56 710h465v-47h-209v-663h-49v663h-207v47zM167 376h241v-45h-241v45z" />
    <glyph glyph-name="Tcaron" unicode="&#x164;" horiz-adv-x="577" 
d="M56 710h465v-47h-209v-663h-49v663h-207v47zM188 903l110 -123l-22 -3l111 126h47l-145 -159h-1l-147 159h47z" />
    <glyph glyph-name="uni0162" unicode="&#x162;" horiz-adv-x="577" 
d="M56 710h465v-47h-209v-663h-49v663h-207v47zM210 -171q11 -11 29.5 -18.5t43.5 -7.5q35 0 58.5 14.5t23.5 40.5q0 23 -18 40t-58 17q-16 0 -37 -4.5t-33 -9.5l-15 25l70 78l36 -7l-67 -82l-17 11q11 7 32 11.5t40 4.5q51 1 80 -20.5t29 -62.5q0 -29 -16 -48t-43 -28
t-60 -9q-31 0 -55.5 9t-39.5 22z" />
    <glyph glyph-name="uni021A" unicode="&#x21a;" horiz-adv-x="577" 
d="M56 710h465v-47h-209v-663h-49v663h-207v47zM248 -195l-24 18q27 20 37.5 55t5.5 75h45q3 -26 -2 -54.5t-19.5 -53t-42.5 -40.5z" />
    <glyph glyph-name="U" unicode="U" horiz-adv-x="707" 
d="M158 240q0 -62 25.5 -107t69.5 -69.5t100 -24.5q57 0 101.5 24.5t70 69.5t25.5 107v470h48v-473q0 -77 -32.5 -132t-88 -84t-124.5 -29v0q-69 0 -124.5 29t-87.5 84t-32 132v473h49v-470z" />
    <glyph glyph-name="Uacute" unicode="&#xda;" horiz-adv-x="707" 
d="M158 240q0 -62 25.5 -107t69.5 -69.5t100 -24.5q57 0 101.5 24.5t70 69.5t25.5 107v470h48v-473q0 -77 -32.5 -132t-88 -84t-124.5 -29v0q-69 0 -124.5 29t-87.5 84t-32 132v473h49v-470zM477 884l-106 -133h-34l87 133h53z" />
    <glyph glyph-name="Ubreve" unicode="&#x16c;" horiz-adv-x="707" 
d="M158 240q0 -62 25.5 -107t69.5 -69.5t100 -24.5q57 0 101.5 24.5t70 69.5t25.5 107v470h48v-473q0 -77 -32.5 -132t-88 -84t-124.5 -29v0q-69 0 -124.5 29t-87.5 84t-32 132v473h49v-470zM356 762q-37 0 -66.5 20.5t-47 58t-21.5 86.5h34q3 -35 16 -65t35 -47.5t50 -17.5
q29 0 50 17.5t33.5 47.5t14.5 65h35q-3 -50 -20.5 -87t-46.5 -57.5t-66 -20.5z" />
    <glyph glyph-name="uni01D3" unicode="&#x1d3;" horiz-adv-x="707" 
d="M158 240q0 -62 25.5 -107t69.5 -69.5t100 -24.5q57 0 101.5 24.5t70 69.5t25.5 107v470h48v-473q0 -77 -32.5 -132t-88 -84t-124.5 -29v0q-69 0 -124.5 29t-87.5 84t-32 132v473h49v-470zM253 908l110 -123l-22 -3l111 126h47l-145 -159h-1l-147 159h47z" />
    <glyph glyph-name="Ucircumflex" unicode="&#xdb;" horiz-adv-x="707" 
d="M158 240q0 -62 25.5 -107t69.5 -69.5t100 -24.5q57 0 101.5 24.5t70 69.5t25.5 107v470h48v-473q0 -77 -32.5 -132t-88 -84t-124.5 -29v0q-69 0 -124.5 29t-87.5 84t-32 132v473h49v-470zM452 774l-109 122l21 3l-110 -125h-47l145 159h1l146 -159h-47z" />
    <glyph glyph-name="uni0214" unicode="&#x214;" horiz-adv-x="707" 
d="M158 240q0 -62 25.5 -107t69.5 -69.5t100 -24.5q57 0 101.5 24.5t70 69.5t25.5 107v470h48v-473q0 -77 -32.5 -132t-88 -84t-124.5 -29v0q-69 0 -124.5 29t-87.5 84t-32 132v473h49v-470zM189 909h52l83 -133h-34zM303 909h52l83 -133h-34z" />
    <glyph glyph-name="Udieresis" unicode="&#xdc;" horiz-adv-x="707" 
d="M158 240q0 -62 25.5 -107t69.5 -69.5t100 -24.5q57 0 101.5 24.5t70 69.5t25.5 107v470h48v-473q0 -77 -32.5 -132t-88 -84t-124.5 -29v0q-69 0 -124.5 29t-87.5 84t-32 132v473h49v-470zM232 801q0 14 10 24t23 10t23.5 -10t10.5 -24t-10.5 -24t-23.5 -10t-23 10t-10 24
v0zM406 801q0 14 10.5 24t23.5 10q12 0 22.5 -10t10.5 -24t-10.5 -24t-22.5 -10q-13 0 -23.5 10t-10.5 24v0z" />
    <glyph glyph-name="uni1EE4" unicode="&#x1ee4;" horiz-adv-x="707" 
d="M158 240q0 -62 25.5 -107t69.5 -69.5t100 -24.5q57 0 101.5 24.5t70 69.5t25.5 107v470h48v-473q0 -77 -32.5 -132t-88 -84t-124.5 -29v0q-69 0 -124.5 29t-87.5 84t-32 132v473h49v-470zM319 -87q0 14 11 23.5t24 9.5q14 0 24 -9.5t10 -23.5q0 -15 -10 -24.5t-24 -9.5
q-13 0 -24 10t-11 24z" />
    <glyph glyph-name="Ugrave" unicode="&#xd9;" horiz-adv-x="707" 
d="M158 240q0 -62 25.5 -107t69.5 -69.5t100 -24.5q57 0 101.5 24.5t70 69.5t25.5 107v470h48v-473q0 -77 -32.5 -132t-88 -84t-124.5 -29v0q-69 0 -124.5 29t-87.5 84t-32 132v473h49v-470zM238 893h52l83 -133h-34z" />
    <glyph glyph-name="uni1EE6" unicode="&#x1ee6;" horiz-adv-x="707" 
d="M158 240q0 -62 25.5 -107t69.5 -69.5t100 -24.5q57 0 101.5 24.5t70 69.5t25.5 107v470h48v-473q0 -77 -32.5 -132t-88 -84t-124.5 -29v0q-69 0 -124.5 29t-87.5 84t-32 132v473h49v-470zM351 767q22 18 36 33t14 35q0 17 -10 27t-26 10q-18 0 -29.5 -8.5t-24.5 -26.5
l-21 16q17 27 36.5 39.5t43.5 12.5q19 0 33 -7.5t22.5 -22.5t8.5 -38q0 -30 -19 -51t-46 -41z" />
    <glyph glyph-name="Uhorn" unicode="&#x1af;" horiz-adv-x="707" 
d="M158 240q0 -62 25.5 -107t69.5 -69.5t100 -24.5q57 0 101.5 24.5t70 69.5t25.5 107v470h48v-473q0 -77 -32.5 -132t-88 -84t-124.5 -29v0q-69 0 -124.5 29t-87.5 84t-32 132v473h49v-470zM583 691q48 0 70.5 23t24.5 84h37q-3 -60 -20 -90t-45.5 -39.5t-66.5 -9.5v32z
" />
    <glyph glyph-name="uni1EE8" unicode="&#x1ee8;" horiz-adv-x="707" 
d="M158 240q0 -62 25.5 -107t69.5 -69.5t100 -24.5q57 0 101.5 24.5t70 69.5t25.5 107v470h48v-473q0 -77 -32.5 -132t-88 -84t-124.5 -29v0q-69 0 -124.5 29t-87.5 84t-32 132v473h49v-470zM583 691q48 0 70.5 23t24.5 84h37q-3 -60 -20 -90t-45.5 -39.5t-66.5 -9.5v32z
M477 884l-106 -133h-34l87 133h53z" />
    <glyph glyph-name="uni1EF0" unicode="&#x1ef0;" horiz-adv-x="707" 
d="M158 240q0 -62 25.5 -107t69.5 -69.5t100 -24.5q57 0 101.5 24.5t70 69.5t25.5 107v470h48v-473q0 -77 -32.5 -132t-88 -84t-124.5 -29v0q-69 0 -124.5 29t-87.5 84t-32 132v473h49v-470zM583 691q48 0 70.5 23t24.5 84h37q-3 -60 -20 -90t-45.5 -39.5t-66.5 -9.5v32z
M319 -87q0 14 11 23.5t24 9.5q14 0 24 -9.5t10 -23.5q0 -15 -10 -24.5t-24 -9.5q-13 0 -24 10t-11 24z" />
    <glyph glyph-name="uni1EEA" unicode="&#x1eea;" horiz-adv-x="707" 
d="M158 240q0 -62 25.5 -107t69.5 -69.5t100 -24.5q57 0 101.5 24.5t70 69.5t25.5 107v470h48v-473q0 -77 -32.5 -132t-88 -84t-124.5 -29v0q-69 0 -124.5 29t-87.5 84t-32 132v473h49v-470zM583 691q48 0 70.5 23t24.5 84h37q-3 -60 -20 -90t-45.5 -39.5t-66.5 -9.5v32z
M238 893h52l83 -133h-34z" />
    <glyph glyph-name="uni1EEC" unicode="&#x1eec;" horiz-adv-x="707" 
d="M158 240q0 -62 25.5 -107t69.5 -69.5t100 -24.5q57 0 101.5 24.5t70 69.5t25.5 107v470h48v-473q0 -77 -32.5 -132t-88 -84t-124.5 -29v0q-69 0 -124.5 29t-87.5 84t-32 132v473h49v-470zM583 691q48 0 70.5 23t24.5 84h37q-3 -60 -20 -90t-45.5 -39.5t-66.5 -9.5v32z
M351 767q22 18 36 33t14 35q0 17 -10 27t-26 10q-18 0 -29.5 -8.5t-24.5 -26.5l-21 16q17 27 36.5 39.5t43.5 12.5q19 0 33 -7.5t22.5 -22.5t8.5 -38q0 -30 -19 -51t-46 -41z" />
    <glyph glyph-name="uni1EEE" unicode="&#x1eee;" horiz-adv-x="707" 
d="M158 240q0 -62 25.5 -107t69.5 -69.5t100 -24.5q57 0 101.5 24.5t70 69.5t25.5 107v470h48v-473q0 -77 -32.5 -132t-88 -84t-124.5 -29v0q-69 0 -124.5 29t-87.5 84t-32 132v473h49v-470zM583 691q48 0 70.5 23t24.5 84h37q-3 -60 -20 -90t-45.5 -39.5t-66.5 -9.5v32z
M429 781q-30 0 -48.5 14.5t-34.5 31.5q-13 13 -26.5 24.5t-31.5 11.5q-12 0 -23.5 -8.5t-19.5 -27t-9 -50.5l-30 1q-1 39 10.5 66.5t30.5 41.5t43 14q27 0 45 -14.5t33 -30.5q13 -15 27 -27t33 -12q20 0 33.5 20t15.5 68l30 -1q1 -40 -9.5 -67.5t-28.5 -41t-40 -13.5z" />
    <glyph glyph-name="Uhungarumlaut" unicode="&#x170;" horiz-adv-x="707" 
d="M158 240q0 -62 25.5 -107t69.5 -69.5t100 -24.5q57 0 101.5 24.5t70 69.5t25.5 107v470h48v-473q0 -77 -32.5 -132t-88 -84t-124.5 -29v0q-69 0 -124.5 29t-87.5 84t-32 132v473h49v-470zM417 903l-106 -133h-34l87 133h53zM533 902l-106 -133h-34l87 133h53z" />
    <glyph glyph-name="uni0216" unicode="&#x216;" horiz-adv-x="707" 
d="M158 240q0 -62 25.5 -107t69.5 -69.5t100 -24.5q57 0 101.5 24.5t70 69.5t25.5 107v470h48v-473q0 -77 -32.5 -132t-88 -84t-124.5 -29v0q-69 0 -124.5 29t-87.5 84t-32 132v473h49v-470zM351 907q38 0 67 -20.5t47 -57.5t21 -87h-34q-2 36 -15.5 65.5t-35 47t-50.5 17.5
q-28 0 -49.5 -17.5t-34 -47t-14.5 -65.5h-35q3 50 20.5 87t46.5 57.5t66 20.5z" />
    <glyph glyph-name="Umacron" unicode="&#x16a;" horiz-adv-x="707" 
d="M158 240q0 -62 25.5 -107t69.5 -69.5t100 -24.5q57 0 101.5 24.5t70 69.5t25.5 107v470h48v-473q0 -77 -32.5 -132t-88 -84t-124.5 -29v0q-69 0 -124.5 29t-87.5 84t-32 132v473h49v-470zM235 800h236v-36h-236v36z" />
    <glyph glyph-name="Uogonek" unicode="&#x172;" horiz-adv-x="707" 
d="M450 -198q-36 0 -62.5 24.5t-26.5 64.5q0 33 19 66t50 54l16 16l2 -18q-42 -17 -95 -17q-71 0 -126 29t-86.5 84t-31.5 132v473h49v-470q0 -62 25.5 -107t69.5 -69.5t100 -24.5q57 0 101.5 24.5t70 69.5t25.5 107v470h48v-475q0 -50 -14 -89t-38 -68t-54 -50
q-41 -31 -65.5 -63.5t-24.5 -70.5q0 -27 16.5 -41.5t35.5 -14.5q20 0 36 13t28 33l22 -23q-13 -25 -37.5 -42t-52.5 -17z" />
    <glyph glyph-name="Uring" unicode="&#x16e;" horiz-adv-x="707" 
d="M158 240q0 -62 25.5 -107t69.5 -69.5t100 -24.5q57 0 101.5 24.5t70 69.5t25.5 107v470h48v-473q0 -77 -32.5 -132t-88 -84t-124.5 -29v0q-69 0 -124.5 29t-87.5 84t-32 132v473h49v-470zM279 846q0 32 21.5 53t54.5 21q32 0 53.5 -21t21.5 -53t-21.5 -53t-53.5 -21
q-33 0 -54.5 20.5t-21.5 53.5zM308 845q0 -19 14 -33t33 -14t32.5 14t13.5 33q0 20 -13.5 33.5t-32.5 13.5t-33 -13.5t-14 -33.5z" />
    <glyph glyph-name="Utilde" unicode="&#x168;" horiz-adv-x="707" 
d="M158 240q0 -62 25.5 -107t69.5 -69.5t100 -24.5q57 0 101.5 24.5t70 69.5t25.5 107v470h48v-473q0 -77 -32.5 -132t-88 -84t-124.5 -29v0q-69 0 -124.5 29t-87.5 84t-32 132v473h49v-470zM429 781q-30 0 -48.5 14.5t-34.5 31.5q-13 13 -26.5 24.5t-31.5 11.5
q-12 0 -23.5 -8.5t-19.5 -27t-9 -50.5l-30 1q-1 39 10.5 66.5t30.5 41.5t43 14q27 0 45 -14.5t33 -30.5q13 -15 27 -27t33 -12q20 0 33.5 20t15.5 68l30 -1q1 -40 -9.5 -67.5t-28.5 -41t-40 -13.5z" />
    <glyph glyph-name="V" unicode="V" horiz-adv-x="702" 
d="M106 710l262 -665l-27 4l256 661h56l-302 -743l-302 743h57z" />
    <glyph glyph-name="W" unicode="W" horiz-adv-x="993" 
d="M49 708h56l235 -642l-11 3l148 400l23 -63l-171 -439zM376 708h49l244 -642l-15 4l238 638h52l-285 -740z" />
    <glyph glyph-name="Wacute" unicode="&#x1e82;" horiz-adv-x="993" 
d="M49 708h56l235 -642l-11 3l148 400l23 -63l-171 -439zM376 708h49l244 -642l-15 4l238 638h52l-285 -740zM620 881l-106 -133h-34l87 133h53z" />
    <glyph glyph-name="Wcircumflex" unicode="&#x174;" horiz-adv-x="993" 
d="M49 708h56l235 -642l-11 3l148 400l23 -63l-171 -439zM376 708h49l244 -642l-15 4l238 638h52l-285 -740zM595 771l-109 122l21 3l-110 -125h-47l145 159h1l146 -159h-47z" />
    <glyph glyph-name="Wdieresis" unicode="&#x1e84;" horiz-adv-x="993" 
d="M49 708h56l235 -642l-11 3l148 400l23 -63l-171 -439zM376 708h49l244 -642l-15 4l238 638h52l-285 -740zM375 798q0 14 10 24t23 10t23.5 -10t10.5 -24t-10.5 -24t-23.5 -10t-23 10t-10 24v0zM549 798q0 14 10.5 24t23.5 10q12 0 22.5 -10t10.5 -24t-10.5 -24t-22.5 -10
q-13 0 -23.5 10t-10.5 24v0z" />
    <glyph glyph-name="Wgrave" unicode="&#x1e80;" horiz-adv-x="993" 
d="M49 708h56l235 -642l-11 3l148 400l23 -63l-171 -439zM376 708h49l244 -642l-15 4l238 638h52l-285 -740zM381 890h52l83 -133h-34z" />
    <glyph glyph-name="X" unicode="X" horiz-adv-x="620" 
d="M53 710h61l462 -710h-62zM43 0l240 375l26 -43l-206 -332h-60zM306 391l199 319h58l-229 -358z" />
    <glyph glyph-name="Y" unicode="Y" horiz-adv-x="661" 
d="M306 253l-265 457h60l239 -416l-17 -1l238 417h59l-265 -457v-253h-49v253z" />
    <glyph glyph-name="Yacute" unicode="&#xdd;" horiz-adv-x="661" 
d="M306 253l-265 457h60l239 -416l-17 -1l238 417h59l-265 -457v-253h-49v253zM459 879l-106 -133h-34l87 133h53z" />
    <glyph glyph-name="Ycircumflex" unicode="&#x176;" horiz-adv-x="661" 
d="M306 253l-265 457h60l239 -416l-17 -1l238 417h59l-265 -457v-253h-49v253zM434 769l-109 122l21 3l-110 -125h-47l145 159h1l146 -159h-47z" />
    <glyph glyph-name="Ydieresis" unicode="&#x178;" horiz-adv-x="661" 
d="M306 253l-265 457h60l239 -416l-17 -1l238 417h59l-265 -457v-253h-49v253zM214 796q0 14 10 24t23 10t23.5 -10t10.5 -24t-10.5 -24t-23.5 -10t-23 10t-10 24v0zM388 796q0 14 10.5 24t23.5 10q12 0 22.5 -10t10.5 -24t-10.5 -24t-22.5 -10q-13 0 -23.5 10t-10.5 24v0z
" />
    <glyph glyph-name="uni1EF4" unicode="&#x1ef4;" horiz-adv-x="661" 
d="M306 253l-265 457h60l239 -416l-17 -1l238 417h59l-265 -457v-253h-49v253zM296 -87q0 14 11 23.5t24 9.5q14 0 24 -9.5t10 -23.5q0 -15 -10 -24.5t-24 -9.5q-13 0 -24 10t-11 24z" />
    <glyph glyph-name="Ygrave" unicode="&#x1ef2;" horiz-adv-x="661" 
d="M306 253l-265 457h60l239 -416l-17 -1l238 417h59l-265 -457v-253h-49v253zM220 888h52l83 -133h-34z" />
    <glyph glyph-name="uni1EF6" unicode="&#x1ef6;" horiz-adv-x="661" 
d="M306 253l-265 457h60l239 -416l-17 -1l238 417h59l-265 -457v-253h-49v253zM333 762q22 18 36 33t14 35q0 17 -10 27t-26 10q-18 0 -29.5 -8.5t-24.5 -26.5l-21 16q17 27 36.5 39.5t43.5 12.5q19 0 33 -7.5t22.5 -22.5t8.5 -38q0 -30 -19 -51t-46 -41z" />
    <glyph glyph-name="uni0232" unicode="&#x232;" horiz-adv-x="661" 
d="M306 253l-265 457h60l239 -416l-17 -1l238 417h59l-265 -457v-253h-49v253zM217 795h236v-36h-236v36z" />
    <glyph glyph-name="uni1EF8" unicode="&#x1ef8;" horiz-adv-x="661" 
d="M306 253l-265 457h60l239 -416l-17 -1l238 417h59l-265 -457v-253h-49v253zM411 776q-30 0 -48.5 14.5t-34.5 31.5q-13 13 -26.5 24.5t-31.5 11.5q-12 0 -23.5 -8.5t-19.5 -27t-9 -50.5l-30 1q-1 39 10.5 66.5t30.5 41.5t43 14q27 0 45 -14.5t33 -30.5q13 -15 27 -27
t33 -12q20 0 33.5 20t15.5 68l30 -1q1 -40 -9.5 -67.5t-28.5 -41t-40 -13.5z" />
    <glyph glyph-name="Z" unicode="Z" horiz-adv-x="703" 
d="M56 0q23 32 51 71t59.5 83.5t65 92t68.5 95.5t68.5 94.5t65 90t59.5 81.5t51 68l9 -13h-401q-18 0 -33 5t-24 16t-9 30v31h47v-12q0 -13 7 -18t24 -5h457l-486 -671l-4 8h514v-47h-589z" />
    <glyph glyph-name="Zacute" unicode="&#x179;" horiz-adv-x="703" 
d="M56 0q23 32 51 71t59.5 83.5t65 92t68.5 95.5t68.5 94.5t65 90t59.5 81.5t51 68l9 -13h-401q-18 0 -33 5t-24 16t-9 30v31h47v-12q0 -13 7 -18t24 -5h457l-486 -671l-4 8h514v-47h-589zM474 879l-106 -133h-34l87 133h53z" />
    <glyph glyph-name="Zcaron" unicode="&#x17d;" horiz-adv-x="703" 
d="M56 0q23 32 51 71t59.5 83.5t65 92t68.5 95.5t68.5 94.5t65 90t59.5 81.5t51 68l9 -13h-401q-18 0 -33 5t-24 16t-9 30v31h47v-12q0 -13 7 -18t24 -5h457l-486 -671l-4 8h514v-47h-589zM250 903l110 -123l-22 -3l111 126h47l-145 -159h-1l-147 159h47z" />
    <glyph glyph-name="Zdotaccent" unicode="&#x17b;" horiz-adv-x="703" 
d="M56 0q23 32 51 71t59.5 83.5t65 92t68.5 95.5t68.5 94.5t65 90t59.5 81.5t51 68l9 -13h-401q-18 0 -33 5t-24 16t-9 30v31h47v-12q0 -13 7 -18t24 -5h457l-486 -671l-4 8h514v-47h-589zM317 795q0 14 11 23.5t24 9.5q14 0 24 -9.5t10 -23.5q0 -15 -10 -24.5t-24 -9.5
q-13 0 -24 10t-11 24z" />
    <glyph glyph-name="a" unicode="a" horiz-adv-x="559" 
d="M251 -8q-56 0 -101.5 25.5t-72 71.5t-26.5 107q0 65 28 111.5t76 71t109 24.5q52 0 98.5 -31t66.5 -78l-7 -14l6 111h42v-391h-47v121l10 -18q-7 -20 -24 -39.5t-41.5 -36t-54 -26t-62.5 -9.5zM261 32q44 0 79.5 18.5t57.5 51.5t25 76v56q-8 37 -31.5 66t-57.5 46t-74 17
q-44 0 -81 -20.5t-59 -57.5t-22 -87q0 -46 22 -83.5t59.5 -60t81.5 -22.5z" />
    <glyph glyph-name="aacute" unicode="&#xe1;" horiz-adv-x="559" 
d="M251 -8q-56 0 -101.5 25.5t-72 71.5t-26.5 107q0 65 28 111.5t76 71t109 24.5q52 0 98.5 -31t66.5 -78l-7 -14l6 111h42v-391h-47v121l10 -18q-7 -20 -24 -39.5t-41.5 -36t-54 -26t-62.5 -9.5zM261 32q44 0 79.5 18.5t57.5 51.5t25 76v56q-8 37 -31.5 66t-57.5 46t-74 17
q-44 0 -81 -20.5t-59 -57.5t-22 -87q0 -46 22 -83.5t59.5 -60t81.5 -22.5zM366 606l-106 -133h-34l87 133h53z" />
    <glyph glyph-name="abreve" unicode="&#x103;" horiz-adv-x="559" 
d="M251 -8q-56 0 -101.5 25.5t-72 71.5t-26.5 107q0 65 28 111.5t76 71t109 24.5q52 0 98.5 -31t66.5 -78l-7 -14l6 111h42v-391h-47v121l10 -18q-7 -20 -24 -39.5t-41.5 -36t-54 -26t-62.5 -9.5zM261 32q44 0 79.5 18.5t57.5 51.5t25 76v56q-8 37 -31.5 66t-57.5 46t-74 17
q-44 0 -81 -20.5t-59 -57.5t-22 -87q0 -46 22 -83.5t59.5 -60t81.5 -22.5zM282 468q-37 0 -66.5 20.5t-47 58t-21.5 86.5h34q3 -35 16 -65t35 -47.5t50 -17.5q29 0 50 17.5t33.5 47.5t14.5 65h35q-3 -50 -20.5 -87t-46.5 -57.5t-66 -20.5z" />
    <glyph glyph-name="uni1EAF" unicode="&#x1eaf;" horiz-adv-x="559" 
d="M251 -8q-56 0 -101.5 25.5t-72 71.5t-26.5 107q0 65 28 111.5t76 71t109 24.5q52 0 98.5 -31t66.5 -78l-7 -14l6 111h42v-391h-47v121l10 -18q-7 -20 -24 -39.5t-41.5 -36t-54 -26t-62.5 -9.5zM261 32q44 0 79.5 18.5t57.5 51.5t25 76v56q-8 37 -31.5 66t-57.5 46t-74 17
q-44 0 -81 -20.5t-59 -57.5t-22 -87q0 -46 22 -83.5t59.5 -60t81.5 -22.5zM282 468q-37 0 -66.5 20.5t-47 58t-21.5 86.5h34q3 -35 16 -65t35 -47.5t50 -17.5q29 0 50 17.5t33.5 47.5t14.5 65h35q-3 -50 -20.5 -87t-46.5 -57.5t-66 -20.5zM354 784l-106 -133h-34l87 133h53z
" />
    <glyph glyph-name="uni1EB7" unicode="&#x1eb7;" horiz-adv-x="559" 
d="M251 -8q-56 0 -101.5 25.5t-72 71.5t-26.5 107q0 65 28 111.5t76 71t109 24.5q52 0 98.5 -31t66.5 -78l-7 -14l6 111h42v-391h-47v121l10 -18q-7 -20 -24 -39.5t-41.5 -36t-54 -26t-62.5 -9.5zM261 32q44 0 79.5 18.5t57.5 51.5t25 76v56q-8 37 -31.5 66t-57.5 46t-74 17
q-44 0 -81 -20.5t-59 -57.5t-22 -87q0 -46 22 -83.5t59.5 -60t81.5 -22.5zM246 -99q0 14 10.5 23t23.5 9q12 0 22 -9t10 -23t-10 -23t-22 -9q-13 0 -23.5 9.5t-10.5 22.5zM282 468q-37 0 -66.5 20.5t-47 58t-21.5 86.5h34q3 -35 16 -65t35 -47.5t50 -17.5q29 0 50 17.5
t33.5 47.5t14.5 65h35q-3 -50 -20.5 -87t-46.5 -57.5t-66 -20.5z" />
    <glyph glyph-name="uni1EB1" unicode="&#x1eb1;" horiz-adv-x="559" 
d="M251 -8q-56 0 -101.5 25.5t-72 71.5t-26.5 107q0 65 28 111.5t76 71t109 24.5q52 0 98.5 -31t66.5 -78l-7 -14l6 111h42v-391h-47v121l10 -18q-7 -20 -24 -39.5t-41.5 -36t-54 -26t-62.5 -9.5zM261 32q44 0 79.5 18.5t57.5 51.5t25 76v56q-8 37 -31.5 66t-57.5 46t-74 17
q-44 0 -81 -20.5t-59 -57.5t-22 -87q0 -46 22 -83.5t59.5 -60t81.5 -22.5zM282 468q-37 0 -66.5 20.5t-47 58t-21.5 86.5h34q3 -35 16 -65t35 -47.5t50 -17.5q29 0 50 17.5t33.5 47.5t14.5 65h35q-3 -50 -20.5 -87t-46.5 -57.5t-66 -20.5zM163 778h52l83 -133h-34z" />
    <glyph glyph-name="uni1EB3" unicode="&#x1eb3;" horiz-adv-x="559" 
d="M251 -8q-56 0 -101.5 25.5t-72 71.5t-26.5 107q0 65 28 111.5t76 71t109 24.5q52 0 98.5 -31t66.5 -78l-7 -14l6 111h42v-391h-47v121l10 -18q-7 -20 -24 -39.5t-41.5 -36t-54 -26t-62.5 -9.5zM261 32q44 0 79.5 18.5t57.5 51.5t25 76v56q-8 37 -31.5 66t-57.5 46t-74 17
q-44 0 -81 -20.5t-59 -57.5t-22 -87q0 -46 22 -83.5t59.5 -60t81.5 -22.5zM282 468q-37 0 -66.5 20.5t-47 58t-21.5 86.5h34q3 -35 16 -65t35 -47.5t50 -17.5q29 0 50 17.5t33.5 47.5t14.5 65h35q-3 -50 -20.5 -87t-46.5 -57.5t-66 -20.5zM271 643q22 18 36 33t14 35
q0 17 -10 27t-26 10q-18 0 -29.5 -8.5t-24.5 -26.5l-21 16q17 27 36.5 39.5t43.5 12.5q19 0 33 -7.5t22.5 -22.5t8.5 -38q0 -30 -19 -51t-46 -41z" />
    <glyph glyph-name="uni1EB5" unicode="&#x1eb5;" horiz-adv-x="559" 
d="M251 -8q-56 0 -101.5 25.5t-72 71.5t-26.5 107q0 65 28 111.5t76 71t109 24.5q52 0 98.5 -31t66.5 -78l-7 -14l6 111h42v-391h-47v121l10 -18q-7 -20 -24 -39.5t-41.5 -36t-54 -26t-62.5 -9.5zM261 32q44 0 79.5 18.5t57.5 51.5t25 76v56q-8 37 -31.5 66t-57.5 46t-74 17
q-44 0 -81 -20.5t-59 -57.5t-22 -87q0 -46 22 -83.5t59.5 -60t81.5 -22.5zM282 468q-37 0 -66.5 20.5t-47 58t-21.5 86.5h34q3 -35 16 -65t35 -47.5t50 -17.5q29 0 50 17.5t33.5 47.5t14.5 65h35q-3 -50 -20.5 -87t-46.5 -57.5t-66 -20.5zM367 671q-30 0 -48.5 14.5
t-34.5 31.5q-13 13 -26.5 24.5t-31.5 11.5q-12 0 -23.5 -8.5t-19.5 -27t-9 -50.5l-30 1q-1 39 10.5 66.5t30.5 41.5t43 14q27 0 45 -14.5t33 -30.5q13 -15 27 -27t33 -12q20 0 33.5 20t15.5 68l30 -1q1 -40 -9.5 -67.5t-28.5 -41t-40 -13.5z" />
    <glyph glyph-name="acircumflex" unicode="&#xe2;" horiz-adv-x="559" 
d="M251 -8q-56 0 -101.5 25.5t-72 71.5t-26.5 107q0 65 28 111.5t76 71t109 24.5q52 0 98.5 -31t66.5 -78l-7 -14l6 111h42v-391h-47v121l10 -18q-7 -20 -24 -39.5t-41.5 -36t-54 -26t-62.5 -9.5zM261 32q44 0 79.5 18.5t57.5 51.5t25 76v56q-8 37 -31.5 66t-57.5 46t-74 17
q-44 0 -81 -20.5t-59 -57.5t-22 -87q0 -46 22 -83.5t59.5 -60t81.5 -22.5zM385 488l-109 122l21 3l-110 -125h-47l145 159h1l146 -159h-47z" />
    <glyph glyph-name="uni1EA5" unicode="&#x1ea5;" horiz-adv-x="559" 
d="M251 -8q-56 0 -101.5 25.5t-72 71.5t-26.5 107q0 65 28 111.5t76 71t109 24.5q52 0 98.5 -31t66.5 -78l-7 -14l6 111h42v-391h-47v121l10 -18q-7 -20 -24 -39.5t-41.5 -36t-54 -26t-62.5 -9.5zM261 32q44 0 79.5 18.5t57.5 51.5t25 76v56q-8 37 -31.5 66t-57.5 46t-74 17
q-44 0 -81 -20.5t-59 -57.5t-22 -87q0 -46 22 -83.5t59.5 -60t81.5 -22.5zM383 478l-109 122l21 3l-110 -125h-47l145 159h1l146 -159h-47zM510 700l-106 -133h-34l87 133h53z" />
    <glyph glyph-name="uni1EAD" unicode="&#x1ead;" horiz-adv-x="559" 
d="M251 -8q-56 0 -101.5 25.5t-72 71.5t-26.5 107q0 65 28 111.5t76 71t109 24.5q52 0 98.5 -31t66.5 -78l-7 -14l6 111h42v-391h-47v121l10 -18q-7 -20 -24 -39.5t-41.5 -36t-54 -26t-62.5 -9.5zM261 32q44 0 79.5 18.5t57.5 51.5t25 76v56q-8 37 -31.5 66t-57.5 46t-74 17
q-44 0 -81 -20.5t-59 -57.5t-22 -87q0 -46 22 -83.5t59.5 -60t81.5 -22.5zM246 -99q0 14 10.5 23t23.5 9q12 0 22 -9t10 -23t-10 -23t-22 -9q-13 0 -23.5 9.5t-10.5 22.5zM385 488l-109 122l21 3l-110 -125h-47l145 159h1l146 -159h-47z" />
    <glyph glyph-name="uni1EA7" unicode="&#x1ea7;" horiz-adv-x="559" 
d="M251 -8q-56 0 -101.5 25.5t-72 71.5t-26.5 107q0 65 28 111.5t76 71t109 24.5q52 0 98.5 -31t66.5 -78l-7 -14l6 111h42v-391h-47v121l10 -18q-7 -20 -24 -39.5t-41.5 -36t-54 -26t-62.5 -9.5zM261 32q44 0 79.5 18.5t57.5 51.5t25 76v56q-8 37 -31.5 66t-57.5 46t-74 17
q-44 0 -81 -20.5t-59 -57.5t-22 -87q0 -46 22 -83.5t59.5 -60t81.5 -22.5zM378 472l-109 122l21 3l-110 -125h-47l145 159h1l146 -159h-47zM29 708h52l83 -133h-34z" />
    <glyph glyph-name="uni1EA9" unicode="&#x1ea9;" horiz-adv-x="559" 
d="M251 -8q-56 0 -101.5 25.5t-72 71.5t-26.5 107q0 65 28 111.5t76 71t109 24.5q52 0 98.5 -31t66.5 -78l-7 -14l6 111h42v-391h-47v121l10 -18q-7 -20 -24 -39.5t-41.5 -36t-54 -26t-62.5 -9.5zM261 32q44 0 79.5 18.5t57.5 51.5t25 76v56q-8 37 -31.5 66t-57.5 46t-74 17
q-44 0 -81 -20.5t-59 -57.5t-22 -87q0 -46 22 -83.5t59.5 -60t81.5 -22.5zM379 478l-109 122l21 3l-110 -125h-47l145 159h1l146 -159h-47zM401 576q22 18 36 33t14 35q0 17 -10 27t-26 10q-18 0 -29.5 -8.5t-24.5 -26.5l-21 16q17 27 36.5 39.5t43.5 12.5q19 0 33 -7.5
t22.5 -22.5t8.5 -38q0 -30 -19 -51t-46 -41z" />
    <glyph glyph-name="uni1EAB" unicode="&#x1eab;" horiz-adv-x="559" 
d="M251 -8q-56 0 -101.5 25.5t-72 71.5t-26.5 107q0 65 28 111.5t76 71t109 24.5q52 0 98.5 -31t66.5 -78l-7 -14l6 111h42v-391h-47v121l10 -18q-7 -20 -24 -39.5t-41.5 -36t-54 -26t-62.5 -9.5zM261 32q44 0 79.5 18.5t57.5 51.5t25 76v56q-8 37 -31.5 66t-57.5 46t-74 17
q-44 0 -81 -20.5t-59 -57.5t-22 -87q0 -46 22 -83.5t59.5 -60t81.5 -22.5zM381 463l-109 122l21 3l-110 -125h-47l145 159h1l146 -159h-47zM357 643q-30 0 -48.5 14.5t-34.5 31.5q-13 13 -26.5 24.5t-31.5 11.5q-12 0 -23.5 -8.5t-19.5 -27t-9 -50.5l-30 1q-1 39 10.5 66.5
t30.5 41.5t43 14q27 0 45 -14.5t33 -30.5q13 -15 27 -27t33 -12q20 0 33.5 20t15.5 68l30 -1q1 -40 -9.5 -67.5t-28.5 -41t-40 -13.5z" />
    <glyph glyph-name="uni0201" unicode="&#x201;" horiz-adv-x="559" 
d="M251 -8q-56 0 -101.5 25.5t-72 71.5t-26.5 107q0 65 28 111.5t76 71t109 24.5q52 0 98.5 -31t66.5 -78l-7 -14l6 111h42v-391h-47v121l10 -18q-7 -20 -24 -39.5t-41.5 -36t-54 -26t-62.5 -9.5zM261 32q44 0 79.5 18.5t57.5 51.5t25 76v56q-8 37 -31.5 66t-57.5 46t-74 17
q-44 0 -81 -20.5t-59 -57.5t-22 -87q0 -46 22 -83.5t59.5 -60t81.5 -22.5zM117 621h52l83 -133h-34zM231 621h52l83 -133h-34z" />
    <glyph glyph-name="adieresis" unicode="&#xe4;" horiz-adv-x="559" 
d="M251 -8q-56 0 -101.5 25.5t-72 71.5t-26.5 107q0 65 28 111.5t76 71t109 24.5q52 0 98.5 -31t66.5 -78l-7 -14l6 111h42v-391h-47v121l10 -18q-7 -20 -24 -39.5t-41.5 -36t-54 -26t-62.5 -9.5zM261 32q44 0 79.5 18.5t57.5 51.5t25 76v56q-8 37 -31.5 66t-57.5 46t-74 17
q-44 0 -81 -20.5t-59 -57.5t-22 -87q0 -46 22 -83.5t59.5 -60t81.5 -22.5zM164 517q0 14 10 24t23 10t23.5 -10t10.5 -24t-10.5 -24t-23.5 -10t-23 10t-10 24v0zM338 517q0 14 10.5 24t23.5 10q12 0 22.5 -10t10.5 -24t-10.5 -24t-22.5 -10q-13 0 -23.5 10t-10.5 24v0z" />
    <glyph glyph-name="uni1EA1" unicode="&#x1ea1;" horiz-adv-x="559" 
d="M251 -8q-56 0 -101.5 25.5t-72 71.5t-26.5 107q0 65 28 111.5t76 71t109 24.5q52 0 98.5 -31t66.5 -78l-7 -14l6 111h42v-391h-47v121l10 -18q-7 -20 -24 -39.5t-41.5 -36t-54 -26t-62.5 -9.5zM261 32q44 0 79.5 18.5t57.5 51.5t25 76v56q-8 37 -31.5 66t-57.5 46t-74 17
q-44 0 -81 -20.5t-59 -57.5t-22 -87q0 -46 22 -83.5t59.5 -60t81.5 -22.5zM246 -99q0 14 10.5 23t23.5 9q12 0 22 -9t10 -23t-10 -23t-22 -9q-13 0 -23.5 9.5t-10.5 22.5z" />
    <glyph glyph-name="agrave" unicode="&#xe0;" horiz-adv-x="559" 
d="M251 -8q-56 0 -101.5 25.5t-72 71.5t-26.5 107q0 65 28 111.5t76 71t109 24.5q52 0 98.5 -31t66.5 -78l-7 -14l6 111h42v-391h-47v121l10 -18q-7 -20 -24 -39.5t-41.5 -36t-54 -26t-62.5 -9.5zM261 32q44 0 79.5 18.5t57.5 51.5t25 76v56q-8 37 -31.5 66t-57.5 46t-74 17
q-44 0 -81 -20.5t-59 -57.5t-22 -87q0 -46 22 -83.5t59.5 -60t81.5 -22.5zM170 621h52l83 -133h-34z" />
    <glyph glyph-name="uni1EA3" unicode="&#x1ea3;" horiz-adv-x="559" 
d="M251 -8q-56 0 -101.5 25.5t-72 71.5t-26.5 107q0 65 28 111.5t76 71t109 24.5q52 0 98.5 -31t66.5 -78l-7 -14l6 111h42v-391h-47v121l10 -18q-7 -20 -24 -39.5t-41.5 -36t-54 -26t-62.5 -9.5zM261 32q44 0 79.5 18.5t57.5 51.5t25 76v56q-8 37 -31.5 66t-57.5 46t-74 17
q-44 0 -81 -20.5t-59 -57.5t-22 -87q0 -46 22 -83.5t59.5 -60t81.5 -22.5zM273 468q22 18 36 33t14 35q0 17 -10 27t-26 10q-18 0 -29.5 -8.5t-24.5 -26.5l-21 16q17 27 36.5 39.5t43.5 12.5q19 0 33 -7.5t22.5 -22.5t8.5 -38q0 -30 -19 -51t-46 -41z" />
    <glyph glyph-name="uni0203" unicode="&#x203;" horiz-adv-x="559" 
d="M251 -8q-56 0 -101.5 25.5t-72 71.5t-26.5 107q0 65 28 111.5t76 71t109 24.5q52 0 98.5 -31t66.5 -78l-7 -14l6 111h42v-391h-47v121l10 -18q-7 -20 -24 -39.5t-41.5 -36t-54 -26t-62.5 -9.5zM261 32q44 0 79.5 18.5t57.5 51.5t25 76v56q-8 37 -31.5 66t-57.5 46t-74 17
q-44 0 -81 -20.5t-59 -57.5t-22 -87q0 -46 22 -83.5t59.5 -60t81.5 -22.5zM288 619q38 0 67 -20.5t47 -57.5t21 -87h-34q-2 36 -15.5 65.5t-35 47t-50.5 17.5q-28 0 -49.5 -17.5t-34 -47t-14.5 -65.5h-35q3 50 20.5 87t46.5 57.5t66 20.5z" />
    <glyph glyph-name="amacron" unicode="&#x101;" horiz-adv-x="559" 
d="M251 -8q-56 0 -101.5 25.5t-72 71.5t-26.5 107q0 65 28 111.5t76 71t109 24.5q52 0 98.5 -31t66.5 -78l-7 -14l6 111h42v-391h-47v121l10 -18q-7 -20 -24 -39.5t-41.5 -36t-54 -26t-62.5 -9.5zM261 32q44 0 79.5 18.5t57.5 51.5t25 76v56q-8 37 -31.5 66t-57.5 46t-74 17
q-44 0 -81 -20.5t-59 -57.5t-22 -87q0 -46 22 -83.5t59.5 -60t81.5 -22.5zM167 527h236v-36h-236v36z" />
    <glyph glyph-name="aogonek" unicode="&#x105;" horiz-adv-x="561" 
d="M251 -8q-55 0 -100.5 25.5t-72 71.5t-26.5 107q0 65 27 111.5t72.5 71t99.5 24.5q42 0 75.5 -14t58.5 -38.5t39 -56.5l5 97h42v-390q-43 -24 -68.5 -50.5t-25.5 -56.5q0 -27 16 -41.5t36 -14.5t36 13t28 33l21 -23q-13 -25 -37.5 -42t-51.5 -17q-36 0 -63 24.5t-27 64.5
q0 36 27 68t65 51l5 -11l-8 -5v125l3 -16q-13 -28 -38.5 -53.5t-60 -41.5t-77.5 -16zM261 32q44 0 80 18.5t58 51.5t25 76v56q-8 37 -31.5 66t-57.5 46t-74 17q-44 0 -81 -20.5t-59 -57.5t-22 -87q0 -46 22 -83.5t59 -60t81 -22.5z" />
    <glyph glyph-name="aring" unicode="&#xe5;" horiz-adv-x="559" 
d="M251 -8q-56 0 -101.5 25.5t-72 71.5t-26.5 107q0 65 28 111.5t76 71t109 24.5q52 0 98.5 -31t66.5 -78l-7 -14l6 111h42v-391h-47v121l10 -18q-7 -20 -24 -39.5t-41.5 -36t-54 -26t-62.5 -9.5zM261 32q44 0 79.5 18.5t57.5 51.5t25 76v56q-8 37 -31.5 66t-57.5 46t-74 17
q-44 0 -81 -20.5t-59 -57.5t-22 -87q0 -46 22 -83.5t59.5 -60t81.5 -22.5zM206 523q0 32 21.5 53t54.5 21q32 0 53.5 -21t21.5 -53t-21.5 -53t-53.5 -21q-33 0 -54.5 20.5t-21.5 53.5zM235 522q0 -19 14 -33t33 -14t32.5 14t13.5 33q0 20 -13.5 33.5t-32.5 13.5t-33 -13.5
t-14 -33.5z" />
    <glyph glyph-name="aringacute" unicode="&#x1fb;" horiz-adv-x="559" 
d="M251 -8q-56 0 -101.5 25.5t-72 71.5t-26.5 107q0 65 28 111.5t76 71t109 24.5q52 0 98.5 -31t66.5 -78l-7 -14l6 111h42v-391h-47v121l10 -18q-7 -20 -24 -39.5t-41.5 -36t-54 -26t-62.5 -9.5zM261 32q44 0 79.5 18.5t57.5 51.5t25 76v56q-8 37 -31.5 66t-57.5 46t-74 17
q-44 0 -81 -20.5t-59 -57.5t-22 -87q0 -46 22 -83.5t59.5 -60t81.5 -22.5zM206 523q0 32 21.5 53t54.5 21q32 0 53.5 -21t21.5 -53t-21.5 -53t-53.5 -21q-33 0 -54.5 20.5t-21.5 53.5zM235 522q0 -19 14 -33t33 -14t32.5 14t13.5 33q0 20 -13.5 33.5t-32.5 13.5t-33 -13.5
t-14 -33.5zM366 806l-106 -133h-34l87 133h53z" />
    <glyph glyph-name="atilde" unicode="&#xe3;" horiz-adv-x="559" 
d="M251 -8q-56 0 -101.5 25.5t-72 71.5t-26.5 107q0 65 28 111.5t76 71t109 24.5q52 0 98.5 -31t66.5 -78l-7 -14l6 111h42v-391h-47v121l10 -18q-7 -20 -24 -39.5t-41.5 -36t-54 -26t-62.5 -9.5zM261 32q44 0 79.5 18.5t57.5 51.5t25 76v56q-8 37 -31.5 66t-57.5 46t-74 17
q-44 0 -81 -20.5t-59 -57.5t-22 -87q0 -46 22 -83.5t59.5 -60t81.5 -22.5zM360 458q-30 0 -48.5 14.5t-34.5 31.5q-13 13 -26.5 24.5t-31.5 11.5q-12 0 -23.5 -8.5t-19.5 -27t-9 -50.5l-30 1q-1 39 10.5 66.5t30.5 41.5t43 14q27 0 45 -14.5t33 -30.5q13 -15 27 -27t33 -12
q20 0 33.5 20t15.5 68l30 -1q1 -40 -9.5 -67.5t-28.5 -41t-40 -13.5z" />
    <glyph glyph-name="ae" unicode="&#xe6;" horiz-adv-x="780" 
d="M204 -11q-54 0 -88 16.5t-49.5 43.5t-15.5 57q0 40 21 66.5t54.5 40.5t70.5 14q51 0 97.5 -21.5t72.5 -59.5l-10 -28q-32 36 -69 55t-81 19q-25 0 -49 -8.5t-39.5 -26.5t-15.5 -48q0 -35 27 -59.5t85 -24.5q19 0 43 5t47 16t38 28v88h29l1 -107q-21 -27 -53 -41
t-63.5 -19.5t-52.5 -5.5zM344 168v95q0 41 -15 62t-38 28.5t-48 7.5q-39 0 -74 -15.5t-68 -50.5l-25 32q31 32 73.5 53.5t98.5 21.5q49 0 80 -15t46.5 -43t15.5 -68v-43zM552 -8q-61 0 -108 27t-73.5 73.5t-26.5 104.5q0 57 28 104t75.5 75t105.5 28q70 0 117.5 -41
t68.5 -107l-342 -132l-14 34l313 122l-10 -14q-17 40 -51.5 69t-84.5 29q-45 0 -81 -22t-57.5 -59t-21.5 -84q0 -44 20.5 -82t57.5 -61t85 -23q32 0 61.5 12t52.5 31l24 -34q-28 -22 -64.5 -36t-74.5 -14z" />
    <glyph glyph-name="aeacute" unicode="&#x1fd;" horiz-adv-x="780" 
d="M204 -11q-54 0 -88 16.5t-49.5 43.5t-15.5 57q0 40 21 66.5t54.5 40.5t70.5 14q51 0 97.5 -21.5t72.5 -59.5l-10 -28q-32 36 -69 55t-81 19q-25 0 -49 -8.5t-39.5 -26.5t-15.5 -48q0 -35 27 -59.5t85 -24.5q19 0 43 5t47 16t38 28v88h29l1 -107q-21 -27 -53 -41
t-63.5 -19.5t-52.5 -5.5zM344 168v95q0 41 -15 62t-38 28.5t-48 7.5q-39 0 -74 -15.5t-68 -50.5l-25 32q31 32 73.5 53.5t98.5 21.5q49 0 80 -15t46.5 -43t15.5 -68v-43zM552 -8q-61 0 -108 27t-73.5 73.5t-26.5 104.5q0 57 28 104t75.5 75t105.5 28q70 0 117.5 -41
t68.5 -107l-342 -132l-14 34l313 122l-10 -14q-17 40 -51.5 69t-84.5 29q-45 0 -81 -22t-57.5 -59t-21.5 -84q0 -44 20.5 -82t57.5 -61t85 -23q32 0 61.5 12t52.5 31l24 -34q-28 -22 -64.5 -36t-74.5 -14zM470 600l-106 -133h-34l87 133h53z" />
    <glyph glyph-name="b" unicode="b" horiz-adv-x="562" 
d="M308 -8q-60 0 -109.5 31t-72.5 78l10 27v-128h-47v760h47v-484l-6 26q23 46 73 73.5t110 27.5q55 0 100 -26.5t71.5 -72.5t26.5 -105q0 -66 -28 -112.5t-74 -70.5t-101 -24zM300 33q50 0 86.5 21.5t56.5 59t20 85.5q0 45 -20.5 82.5t-57 60t-85.5 22.5q-41 0 -75.5 -17
t-57.5 -46t-31 -67v-61q4 -37 26 -69t58 -51.5t80 -19.5z" />
    <glyph glyph-name="c" unicode="c" horiz-adv-x="433" 
d="M391 38q-27 -22 -61 -34t-71 -12q-60 0 -107 26.5t-74 72.5t-27 105t28 105t74.5 72.5t101.5 26.5q41 0 76 -12t61 -34l-25 -32q-21 17 -49 28t-60 11q-44 0 -80.5 -22t-58 -59.5t-21.5 -83.5q0 -45 21.5 -82.5t59 -59.5t83.5 -22q30 0 56 9.5t47 25.5z" />
    <glyph glyph-name="cacute" unicode="&#x107;" horiz-adv-x="433" 
d="M391 38q-27 -22 -61 -34t-71 -12q-60 0 -107 26.5t-74 72.5t-27 105t28 105t74.5 72.5t101.5 26.5q41 0 76 -12t61 -34l-25 -32q-21 17 -49 28t-60 11q-44 0 -80.5 -22t-58 -59.5t-21.5 -83.5q0 -45 21.5 -82.5t59 -59.5t83.5 -22q30 0 56 9.5t47 25.5zM332 603
l-106 -133h-34l87 133h53z" />
    <glyph glyph-name="ccaron" unicode="&#x10d;" horiz-adv-x="433" 
d="M391 38q-27 -22 -61 -34t-71 -12q-60 0 -107 26.5t-74 72.5t-27 105t28 105t74.5 72.5t101.5 26.5q41 0 76 -12t61 -34l-25 -32q-21 17 -49 28t-60 11q-44 0 -80.5 -22t-58 -59.5t-21.5 -83.5q0 -45 21.5 -82.5t59 -59.5t83.5 -22q30 0 56 9.5t47 25.5zM154 604l110 -123
l-22 -3l111 126h47l-145 -159h-1l-147 159h47z" />
    <glyph glyph-name="ccedilla" unicode="&#xe7;" horiz-adv-x="433" 
d="M391 38q-27 -22 -61 -34t-71 -12q-60 0 -107 26.5t-74 72.5t-27 105t28 105t74.5 72.5t101.5 26.5q41 0 76 -12t61 -34l-25 -32q-21 17 -49 28t-60 11q-44 0 -80.5 -22t-58 -59.5t-21.5 -83.5q0 -45 21.5 -82.5t59 -59.5t83.5 -22q30 0 56 9.5t47 25.5zM139 -167
q11 -11 29.5 -18.5t43.5 -7.5q35 0 58.5 14.5t23.5 40.5q0 23 -18 40t-58 17q-16 0 -37 -4.5t-33 -9.5l-15 25l70 78l36 -7l-67 -82l-17 11q11 7 32 11.5t40 4.5q51 1 80 -20.5t29 -62.5q0 -29 -16 -48t-43 -28t-60 -9q-31 0 -55.5 9t-39.5 22z" />
    <glyph glyph-name="ccircumflex" unicode="&#x109;" horiz-adv-x="433" 
d="M391 38q-27 -22 -61 -34t-71 -12q-60 0 -107 26.5t-74 72.5t-27 105t28 105t74.5 72.5t101.5 26.5q41 0 76 -12t61 -34l-25 -32q-21 17 -49 28t-60 11q-44 0 -80.5 -22t-58 -59.5t-21.5 -83.5q0 -45 21.5 -82.5t59 -59.5t83.5 -22q30 0 56 9.5t47 25.5zM351 485l-109 122
l21 3l-110 -125h-47l145 159h1l146 -159h-47z" />
    <glyph glyph-name="cdotaccent" unicode="&#x10b;" horiz-adv-x="433" 
d="M391 38q-27 -22 -61 -34t-71 -12q-60 0 -107 26.5t-74 72.5t-27 105t28 105t74.5 72.5t101.5 26.5q41 0 76 -12t61 -34l-25 -32q-21 17 -49 28t-60 11q-44 0 -80.5 -22t-58 -59.5t-21.5 -83.5q0 -45 21.5 -82.5t59 -59.5t83.5 -22q30 0 56 9.5t47 25.5zM217 538
q0 14 11 23.5t24 9.5q14 0 24 -9.5t10 -23.5q0 -15 -10 -24.5t-24 -9.5q-13 0 -24 10t-11 24z" />
    <glyph glyph-name="d" unicode="d" horiz-adv-x="562" 
d="M249 -8q-55 0 -100 26.5t-71.5 73.5t-26.5 106q0 63 27 109t73.5 71t102.5 25t106.5 -29t73.5 -76l-8 -22v484h47v-760h-48v120l10 -22q-25 -47 -75 -76.5t-111 -29.5zM261 33q45 0 81 19.5t58 53t25 75.5v50q-7 38 -31 68t-58 47.5t-75 17.5q-45 0 -82 -21t-59 -58
t-22 -86q0 -46 22 -83.5t59.5 -60t81.5 -22.5z" />
    <glyph glyph-name="eth" unicode="&#xf0;" horiz-adv-x="519" 
d="M255 -8q-57 0 -103.5 26.5t-73.5 73t-27 106.5q0 57 26.5 104t72 74.5t100.5 27.5q36 0 65.5 -12t53 -32t39.5 -44.5t24 -50.5l-15 -12q-5 63 -30 128t-63.5 126t-86.5 113.5t-99 91.5l32 31q59 -43 113 -104t95.5 -131.5t65.5 -143.5t24 -141q0 -48 -16 -89.5
t-44.5 -73.5t-67.5 -50t-85 -18zM259 32q45 0 81.5 22t58 59.5t21.5 83.5t-21.5 83.5t-58 60t-81.5 22.5q-46 0 -82.5 -23.5t-57.5 -61.5t-21 -81q0 -46 21.5 -83.5t58 -59.5t81.5 -22zM358 682l-194 -125l-18 31l194 123z" />
    <glyph glyph-name="dcaron" unicode="&#x10f;" horiz-adv-x="646" 
d="M249 -8q-55 0 -100 26.5t-71.5 73.5t-26.5 106q0 63 27 109t73.5 71t102.5 25t106.5 -29t73.5 -76l-8 -22v484h47v-760h-48v120l10 -22q-25 -47 -75 -76.5t-111 -29.5zM261 33q45 0 81 19.5t58 53t25 75.5v50q-7 38 -31 68t-58 47.5t-75 17.5q-45 0 -82 -21t-59 -58
t-22 -86q0 -46 22 -83.5t59.5 -60t81.5 -22.5zM580 588l-23 20q21 20 31.5 52t3.5 67l43 7q6 -27 0 -54.5t-20 -51.5t-35 -40v0z" />
    <glyph glyph-name="dcroat" unicode="&#x111;" horiz-adv-x="562" 
d="M249 -8q-55 0 -100 26.5t-71.5 73.5t-26.5 106q0 63 27 109t73.5 71t102.5 25t106.5 -29t73.5 -76l-8 -22v484h47v-760h-48v120l10 -22q-25 -47 -75 -76.5t-111 -29.5zM261 33q45 0 81 19.5t58 53t25 75.5v50q-7 38 -31 68t-58 47.5t-75 17.5q-45 0 -82 -21t-59 -58
t-22 -86q0 -46 22 -83.5t59.5 -60t81.5 -22.5zM325 651h241v-45h-241v45z" />
    <glyph glyph-name="uni01F3" unicode="&#x1f3;" horiz-adv-x="966" 
d="M249 -8q-55 0 -100 26.5t-71.5 73.5t-26.5 106q0 63 27 109t73.5 71t102.5 25t106.5 -29t73.5 -76l-8 -22v484h47v-760h-48v120l10 -22q-25 -47 -75 -76.5t-111 -29.5zM261 33q45 0 81 19.5t58 53t25 75.5v50q-7 38 -31 68t-58 47.5t-75 17.5q-45 0 -82 -21t-59 -58
t-22 -86q0 -46 22 -83.5t59.5 -60t81.5 -22.5zM661 352q-26 0 -43 12.5t-17 44.5v19h37v-12q0 -12 8.5 -18.5t25.5 -6.5h253l-254 -361l-10 10h260v-40h-323l257 365l10 -13h-204z" />
    <glyph glyph-name="uni01C6" unicode="&#x1c6;" horiz-adv-x="966" 
d="M249 -8q-55 0 -100 26.5t-71.5 73.5t-26.5 106q0 63 27 109t73.5 71t102.5 25t106.5 -29t73.5 -76l-8 -22v484h47v-760h-48v120l10 -22q-25 -47 -75 -76.5t-111 -29.5zM261 33q45 0 81 19.5t58 53t25 75.5v50q-7 38 -31 68t-58 47.5t-75 17.5q-45 0 -82 -21t-59 -58
t-22 -86q0 -46 22 -83.5t59.5 -60t81.5 -22.5zM661 352q-26 0 -43 12.5t-17 44.5v19h37v-12q0 -12 8.5 -18.5t25.5 -6.5h253l-254 -361l-10 10h260v-40h-323l257 365l10 -13h-204zM673 601l110 -123l-22 -3l111 126h47l-145 -159h-1l-147 159h47z" />
    <glyph glyph-name="e" unicode="e" horiz-adv-x="487" 
d="M259 -8q-61 0 -108 27t-73.5 73.5t-26.5 104.5q0 57 28 104t75.5 75t105.5 28q70 0 117.5 -41t68.5 -107l-342 -132l-14 34l313 122l-10 -14q-17 40 -51.5 69t-84.5 29q-45 0 -81 -22t-57.5 -59t-21.5 -84q0 -44 20.5 -82t57.5 -61t85 -23q32 0 61.5 12t52.5 31l24 -34
q-28 -22 -64.5 -36t-74.5 -14z" />
    <glyph glyph-name="eacute" unicode="&#xe9;" horiz-adv-x="487" 
d="M259 -8q-61 0 -108 27t-73.5 73.5t-26.5 104.5q0 57 28 104t75.5 75t105.5 28q70 0 117.5 -41t68.5 -107l-342 -132l-14 34l313 122l-10 -14q-17 40 -51.5 69t-84.5 29q-45 0 -81 -22t-57.5 -59t-21.5 -84q0 -44 20.5 -82t57.5 -61t85 -23q32 0 61.5 12t52.5 31l24 -34
q-28 -22 -64.5 -36t-74.5 -14zM328 606l-106 -133h-34l87 133h53z" />
    <glyph glyph-name="ebreve" unicode="&#x115;" horiz-adv-x="487" 
d="M259 -8q-61 0 -108 27t-73.5 73.5t-26.5 104.5q0 57 28 104t75.5 75t105.5 28q70 0 117.5 -41t68.5 -107l-342 -132l-14 34l313 122l-10 -14q-17 40 -51.5 69t-84.5 29q-45 0 -81 -22t-57.5 -59t-21.5 -84q0 -44 20.5 -82t57.5 -61t85 -23q32 0 61.5 12t52.5 31l24 -34
q-28 -22 -64.5 -36t-74.5 -14zM244 468q-37 0 -66.5 20.5t-47 58t-21.5 86.5h34q3 -35 16 -65t35 -47.5t50 -17.5q29 0 50 17.5t33.5 47.5t14.5 65h35q-3 -50 -20.5 -87t-46.5 -57.5t-66 -20.5z" />
    <glyph glyph-name="ecaron" unicode="&#x11b;" horiz-adv-x="487" 
d="M259 -8q-61 0 -108 27t-73.5 73.5t-26.5 104.5q0 57 28 104t75.5 75t105.5 28q70 0 117.5 -41t68.5 -107l-342 -132l-14 34l313 122l-10 -14q-17 40 -51.5 69t-84.5 29q-45 0 -81 -22t-57.5 -59t-21.5 -84q0 -44 20.5 -82t57.5 -61t85 -23q32 0 61.5 12t52.5 31l24 -34
q-28 -22 -64.5 -36t-74.5 -14zM150 607l110 -123l-22 -3l111 126h47l-145 -159h-1l-147 159h47z" />
    <glyph glyph-name="ecircumflex" unicode="&#xea;" horiz-adv-x="487" 
d="M259 -8q-61 0 -108 27t-73.5 73.5t-26.5 104.5q0 57 28 104t75.5 75t105.5 28q70 0 117.5 -41t68.5 -107l-342 -132l-14 34l313 122l-10 -14q-17 40 -51.5 69t-84.5 29q-45 0 -81 -22t-57.5 -59t-21.5 -84q0 -44 20.5 -82t57.5 -61t85 -23q32 0 61.5 12t52.5 31l24 -34
q-28 -22 -64.5 -36t-74.5 -14zM347 488l-109 122l21 3l-110 -125h-47l145 159h1l146 -159h-47z" />
    <glyph glyph-name="uni1EBF" unicode="&#x1ebf;" horiz-adv-x="487" 
d="M259 -8q-61 0 -108 27t-73.5 73.5t-26.5 104.5q0 57 28 104t75.5 75t105.5 28q70 0 117.5 -41t68.5 -107l-342 -132l-14 34l313 122l-10 -14q-17 40 -51.5 69t-84.5 29q-45 0 -81 -22t-57.5 -59t-21.5 -84q0 -44 20.5 -82t57.5 -61t85 -23q32 0 61.5 12t52.5 31l24 -34
q-28 -22 -64.5 -36t-74.5 -14zM345 478l-109 122l21 3l-110 -125h-47l145 159h1l146 -159h-47zM472 700l-106 -133h-34l87 133h53z" />
    <glyph glyph-name="uni1EC7" unicode="&#x1ec7;" horiz-adv-x="487" 
d="M259 -8q-61 0 -108 27t-73.5 73.5t-26.5 104.5q0 57 28 104t75.5 75t105.5 28q70 0 117.5 -41t68.5 -107l-342 -132l-14 34l313 122l-10 -14q-17 40 -51.5 69t-84.5 29q-45 0 -81 -22t-57.5 -59t-21.5 -84q0 -44 20.5 -82t57.5 -61t85 -23q32 0 61.5 12t52.5 31l24 -34
q-28 -22 -64.5 -36t-74.5 -14zM210 -99q0 14 10.5 23t23.5 9q12 0 22 -9t10 -23t-10 -23t-22 -9q-13 0 -23.5 9.5t-10.5 22.5zM347 488l-109 122l21 3l-110 -125h-47l145 159h1l146 -159h-47z" />
    <glyph glyph-name="uni1EC1" unicode="&#x1ec1;" horiz-adv-x="487" 
d="M259 -8q-61 0 -108 27t-73.5 73.5t-26.5 104.5q0 57 28 104t75.5 75t105.5 28q70 0 117.5 -41t68.5 -107l-342 -132l-14 34l313 122l-10 -14q-17 40 -51.5 69t-84.5 29q-45 0 -81 -22t-57.5 -59t-21.5 -84q0 -44 20.5 -82t57.5 -61t85 -23q32 0 61.5 12t52.5 31l24 -34
q-28 -22 -64.5 -36t-74.5 -14zM340 472l-109 122l21 3l-110 -125h-47l145 159h1l146 -159h-47zM-9 708h52l83 -133h-34z" />
    <glyph glyph-name="uni1EC3" unicode="&#x1ec3;" horiz-adv-x="487" 
d="M259 -8q-61 0 -108 27t-73.5 73.5t-26.5 104.5q0 57 28 104t75.5 75t105.5 28q70 0 117.5 -41t68.5 -107l-342 -132l-14 34l313 122l-10 -14q-17 40 -51.5 69t-84.5 29q-45 0 -81 -22t-57.5 -59t-21.5 -84q0 -44 20.5 -82t57.5 -61t85 -23q32 0 61.5 12t52.5 31l24 -34
q-28 -22 -64.5 -36t-74.5 -14zM341 478l-109 122l21 3l-110 -125h-47l145 159h1l146 -159h-47zM363 576q22 18 36 33t14 35q0 17 -10 27t-26 10q-18 0 -29.5 -8.5t-24.5 -26.5l-21 16q17 27 36.5 39.5t43.5 12.5q19 0 33 -7.5t22.5 -22.5t8.5 -38q0 -30 -19 -51t-46 -41z
" />
    <glyph glyph-name="uni1EC5" unicode="&#x1ec5;" horiz-adv-x="487" 
d="M259 -8q-61 0 -108 27t-73.5 73.5t-26.5 104.5q0 57 28 104t75.5 75t105.5 28q70 0 117.5 -41t68.5 -107l-342 -132l-14 34l313 122l-10 -14q-17 40 -51.5 69t-84.5 29q-45 0 -81 -22t-57.5 -59t-21.5 -84q0 -44 20.5 -82t57.5 -61t85 -23q32 0 61.5 12t52.5 31l24 -34
q-28 -22 -64.5 -36t-74.5 -14zM343 463l-109 122l21 3l-110 -125h-47l145 159h1l146 -159h-47zM319 643q-30 0 -48.5 14.5t-34.5 31.5q-13 13 -26.5 24.5t-31.5 11.5q-12 0 -23.5 -8.5t-19.5 -27t-9 -50.5l-30 1q-1 39 10.5 66.5t30.5 41.5t43 14q27 0 45 -14.5t33 -30.5
q13 -15 27 -27t33 -12q20 0 33.5 20t15.5 68l30 -1q1 -40 -9.5 -67.5t-28.5 -41t-40 -13.5z" />
    <glyph glyph-name="uni0205" unicode="&#x205;" horiz-adv-x="487" 
d="M259 -8q-61 0 -108 27t-73.5 73.5t-26.5 104.5q0 57 28 104t75.5 75t105.5 28q70 0 117.5 -41t68.5 -107l-342 -132l-14 34l313 122l-10 -14q-17 40 -51.5 69t-84.5 29q-45 0 -81 -22t-57.5 -59t-21.5 -84q0 -44 20.5 -82t57.5 -61t85 -23q32 0 61.5 12t52.5 31l24 -34
q-28 -22 -64.5 -36t-74.5 -14zM79 621h52l83 -133h-34zM193 621h52l83 -133h-34z" />
    <glyph glyph-name="edieresis" unicode="&#xeb;" horiz-adv-x="487" 
d="M259 -8q-61 0 -108 27t-73.5 73.5t-26.5 104.5q0 57 28 104t75.5 75t105.5 28q70 0 117.5 -41t68.5 -107l-342 -132l-14 34l313 122l-10 -14q-17 40 -51.5 69t-84.5 29q-45 0 -81 -22t-57.5 -59t-21.5 -84q0 -44 20.5 -82t57.5 -61t85 -23q32 0 61.5 12t52.5 31l24 -34
q-28 -22 -64.5 -36t-74.5 -14zM126 517q0 14 10 24t23 10t23.5 -10t10.5 -24t-10.5 -24t-23.5 -10t-23 10t-10 24v0zM300 517q0 14 10.5 24t23.5 10q12 0 22.5 -10t10.5 -24t-10.5 -24t-22.5 -10q-13 0 -23.5 10t-10.5 24v0z" />
    <glyph glyph-name="edotaccent" unicode="&#x117;" horiz-adv-x="487" 
d="M259 -8q-61 0 -108 27t-73.5 73.5t-26.5 104.5q0 57 28 104t75.5 75t105.5 28q70 0 117.5 -41t68.5 -107l-342 -132l-14 34l313 122l-10 -14q-17 40 -51.5 69t-84.5 29q-45 0 -81 -22t-57.5 -59t-21.5 -84q0 -44 20.5 -82t57.5 -61t85 -23q32 0 61.5 12t52.5 31l24 -34
q-28 -22 -64.5 -36t-74.5 -14zM213 541q0 14 11 23.5t24 9.5q14 0 24 -9.5t10 -23.5q0 -15 -10 -24.5t-24 -9.5q-13 0 -24 10t-11 24z" />
    <glyph glyph-name="uni1EB9" unicode="&#x1eb9;" horiz-adv-x="487" 
d="M259 -8q-61 0 -108 27t-73.5 73.5t-26.5 104.5q0 57 28 104t75.5 75t105.5 28q70 0 117.5 -41t68.5 -107l-342 -132l-14 34l313 122l-10 -14q-17 40 -51.5 69t-84.5 29q-45 0 -81 -22t-57.5 -59t-21.5 -84q0 -44 20.5 -82t57.5 -61t85 -23q32 0 61.5 12t52.5 31l24 -34
q-28 -22 -64.5 -36t-74.5 -14zM210 -99q0 14 10.5 23t23.5 9q12 0 22 -9t10 -23t-10 -23t-22 -9q-13 0 -23.5 9.5t-10.5 22.5z" />
    <glyph glyph-name="egrave" unicode="&#xe8;" horiz-adv-x="487" 
d="M259 -8q-61 0 -108 27t-73.5 73.5t-26.5 104.5q0 57 28 104t75.5 75t105.5 28q70 0 117.5 -41t68.5 -107l-342 -132l-14 34l313 122l-10 -14q-17 40 -51.5 69t-84.5 29q-45 0 -81 -22t-57.5 -59t-21.5 -84q0 -44 20.5 -82t57.5 -61t85 -23q32 0 61.5 12t52.5 31l24 -34
q-28 -22 -64.5 -36t-74.5 -14zM132 621h52l83 -133h-34z" />
    <glyph glyph-name="uni1EBB" unicode="&#x1ebb;" horiz-adv-x="487" 
d="M259 -8q-61 0 -108 27t-73.5 73.5t-26.5 104.5q0 57 28 104t75.5 75t105.5 28q70 0 117.5 -41t68.5 -107l-342 -132l-14 34l313 122l-10 -14q-17 40 -51.5 69t-84.5 29q-45 0 -81 -22t-57.5 -59t-21.5 -84q0 -44 20.5 -82t57.5 -61t85 -23q32 0 61.5 12t52.5 31l24 -34
q-28 -22 -64.5 -36t-74.5 -14zM235 468q22 18 36 33t14 35q0 17 -10 27t-26 10q-18 0 -29.5 -8.5t-24.5 -26.5l-21 16q17 27 36.5 39.5t43.5 12.5q19 0 33 -7.5t22.5 -22.5t8.5 -38q0 -30 -19 -51t-46 -41z" />
    <glyph glyph-name="uni0207" unicode="&#x207;" horiz-adv-x="487" 
d="M259 -8q-61 0 -108 27t-73.5 73.5t-26.5 104.5q0 57 28 104t75.5 75t105.5 28q70 0 117.5 -41t68.5 -107l-342 -132l-14 34l313 122l-10 -14q-17 40 -51.5 69t-84.5 29q-45 0 -81 -22t-57.5 -59t-21.5 -84q0 -44 20.5 -82t57.5 -61t85 -23q32 0 61.5 12t52.5 31l24 -34
q-28 -22 -64.5 -36t-74.5 -14zM250 619q38 0 67 -20.5t47 -57.5t21 -87h-34q-2 36 -15.5 65.5t-35 47t-50.5 17.5q-28 0 -49.5 -17.5t-34 -47t-14.5 -65.5h-35q3 50 20.5 87t46.5 57.5t66 20.5z" />
    <glyph glyph-name="emacron" unicode="&#x113;" horiz-adv-x="487" 
d="M259 -8q-61 0 -108 27t-73.5 73.5t-26.5 104.5q0 57 28 104t75.5 75t105.5 28q70 0 117.5 -41t68.5 -107l-342 -132l-14 34l313 122l-10 -14q-17 40 -51.5 69t-84.5 29q-45 0 -81 -22t-57.5 -59t-21.5 -84q0 -44 20.5 -82t57.5 -61t85 -23q32 0 61.5 12t52.5 31l24 -34
q-28 -22 -64.5 -36t-74.5 -14zM129 527h236v-36h-236v36z" />
    <glyph glyph-name="eogonek" unicode="&#x119;" horiz-adv-x="488" 
d="M335 -198q-41 0 -69.5 26.5t-28.5 69.5q0 31 15.5 60t46.5 51l43 5q-8 -7 -22.5 -11.5t-30 -7.5t-29.5 -3q-61 0 -108 27t-73.5 73.5t-26.5 104.5q0 57 28 104t75.5 75t105.5 28q70 0 117.5 -41t68.5 -107l-342 -132l-11 30l312 122l-12 -10q-19 43 -53 70.5t-83 27.5
q-45 0 -81 -22t-57.5 -59t-21.5 -84q0 -45 21.5 -83t58.5 -60.5t83 -22.5q32 0 61.5 12t52.5 31l24 -34q-20 -15 -41 -28t-39 -27.5t-29 -34t-11 -48.5q0 -30 19 -48t41 -18q17 0 30.5 8.5t25.5 24.5l19 -27q-13 -18 -34.5 -30t-44.5 -12z" />
    <glyph glyph-name="uni1EBD" unicode="&#x1ebd;" horiz-adv-x="487" 
d="M259 -8q-61 0 -108 27t-73.5 73.5t-26.5 104.5q0 57 28 104t75.5 75t105.5 28q70 0 117.5 -41t68.5 -107l-342 -132l-14 34l313 122l-10 -14q-17 40 -51.5 69t-84.5 29q-45 0 -81 -22t-57.5 -59t-21.5 -84q0 -44 20.5 -82t57.5 -61t85 -23q32 0 61.5 12t52.5 31l24 -34
q-28 -22 -64.5 -36t-74.5 -14zM322 458q-30 0 -48.5 14.5t-34.5 31.5q-13 13 -26.5 24.5t-31.5 11.5q-12 0 -23.5 -8.5t-19.5 -27t-9 -50.5l-30 1q-1 39 10.5 66.5t30.5 41.5t43 14q27 0 45 -14.5t33 -30.5q13 -15 27 -27t33 -12q20 0 33.5 20t15.5 68l30 -1
q1 -40 -9.5 -67.5t-28.5 -41t-40 -13.5z" />
    <glyph glyph-name="uni0259" unicode="&#x259;" horiz-adv-x="487" 
d="M228 399q61 0 108 -27t73.5 -73.5t26.5 -104.5q0 -57 -28 -104t-75 -75t-106 -28q-70 0 -117.5 41t-68.5 107l342 132l14 -34l-313 -122l10 14q17 -40 51.5 -69t84.5 -29q45 0 81.5 22t57.5 59.5t21 83.5q0 45 -20.5 82.5t-57 60.5t-85.5 23q-32 0 -61.5 -11.5
t-52.5 -31.5l-24 34q29 23 65 36.5t74 13.5z" />
    <glyph glyph-name="f" unicode="f" horiz-adv-x="324" 
d="M115 0v347h-68v43h68v197q0 94 32.5 135.5t96.5 41.5q14 0 30 -3.5t29 -11.5l-20 -34q-7 5 -15.5 7.5t-19.5 2.5q-43 0 -64.5 -30t-21.5 -107v-198h131v-43h-131v-347h-47z" />
    <glyph glyph-name="g" unicode="g" horiz-adv-x="564" 
d="M263 -191q-33 0 -63 7.5t-59 25.5t-60 47l28 32q43 -41 80 -55.5t72 -14.5q61 0 97 19.5t52 52t17 72.5l1 127l11 -12q-20 -52 -71.5 -85t-116.5 -33q-55 0 -100.5 27.5t-72.5 74t-27 103.5q0 61 28 107t76 72.5t106 26.5q54 0 102.5 -28t70.5 -74l-6 -22l5 112h42v-397
q0 -48 -21.5 -90.5t-68 -68.5t-122.5 -26zM98 198q0 -46 22 -83.5t59.5 -60t83.5 -22.5q44 0 80 19.5t59 52.5t26 71v58q-8 38 -31.5 67t-58 46t-75.5 17q-46 0 -83.5 -21t-59.5 -58t-22 -86z" />
    <glyph glyph-name="gbreve" unicode="&#x11f;" horiz-adv-x="564" 
d="M263 -191q-33 0 -63 7.5t-59 25.5t-60 47l28 32q43 -41 80 -55.5t72 -14.5q61 0 97 19.5t52 52t17 72.5l1 127l11 -12q-20 -52 -71.5 -85t-116.5 -33q-55 0 -100.5 27.5t-72.5 74t-27 103.5q0 61 28 107t76 72.5t106 26.5q54 0 102.5 -28t70.5 -74l-6 -22l5 112h42v-397
q0 -48 -21.5 -90.5t-68 -68.5t-122.5 -26zM98 198q0 -46 22 -83.5t59.5 -60t83.5 -22.5q44 0 80 19.5t59 52.5t26 71v58q-8 38 -31.5 67t-58 46t-75.5 17q-46 0 -83.5 -21t-59.5 -58t-22 -86zM279 468q-37 0 -66.5 20.5t-47 58t-21.5 86.5h34q3 -35 16 -65t35 -47.5
t50 -17.5q29 0 50 17.5t33.5 47.5t14.5 65h35q-3 -50 -20.5 -87t-46.5 -57.5t-66 -20.5z" />
    <glyph glyph-name="gcaron" unicode="&#x1e7;" horiz-adv-x="564" 
d="M263 -191q-33 0 -63 7.5t-59 25.5t-60 47l28 32q43 -41 80 -55.5t72 -14.5q61 0 97 19.5t52 52t17 72.5l1 127l11 -12q-20 -52 -71.5 -85t-116.5 -33q-55 0 -100.5 27.5t-72.5 74t-27 103.5q0 61 28 107t76 72.5t106 26.5q54 0 102.5 -28t70.5 -74l-6 -22l5 112h42v-397
q0 -48 -21.5 -90.5t-68 -68.5t-122.5 -26zM98 198q0 -46 22 -83.5t59.5 -60t83.5 -22.5q44 0 80 19.5t59 52.5t26 71v58q-8 38 -31.5 67t-58 46t-75.5 17q-46 0 -83.5 -21t-59.5 -58t-22 -86zM185 607l110 -123l-22 -3l111 126h47l-145 -159h-1l-147 159h47z" />
    <glyph glyph-name="gcircumflex" unicode="&#x11d;" horiz-adv-x="564" 
d="M263 -191q-33 0 -63 7.5t-59 25.5t-60 47l28 32q43 -41 80 -55.5t72 -14.5q61 0 97 19.5t52 52t17 72.5l1 127l11 -12q-20 -52 -71.5 -85t-116.5 -33q-55 0 -100.5 27.5t-72.5 74t-27 103.5q0 61 28 107t76 72.5t106 26.5q54 0 102.5 -28t70.5 -74l-6 -22l5 112h42v-397
q0 -48 -21.5 -90.5t-68 -68.5t-122.5 -26zM98 198q0 -46 22 -83.5t59.5 -60t83.5 -22.5q44 0 80 19.5t59 52.5t26 71v58q-8 38 -31.5 67t-58 46t-75.5 17q-46 0 -83.5 -21t-59.5 -58t-22 -86zM382 488l-109 122l21 3l-110 -125h-47l145 159h1l146 -159h-47z" />
    <glyph glyph-name="uni0123" unicode="&#x123;" horiz-adv-x="537" 
d="M236 507q22 53 43 104.5t43 103.5h40q-19 -52 -38 -103.5t-39 -104.5h-49zM263 -191q-33 0 -63 7.5t-59 25.5t-60 47l28 32q43 -41 80 -55.5t72 -14.5q61 0 97 19.5t52 52t17 72.5l1 127l11 -12q-20 -52 -71.5 -85t-116.5 -33q-55 0 -100.5 27.5t-72.5 74t-27 103.5
q0 61 28 107t76 72.5t106 26.5q54 0 102.5 -28t70.5 -74l-6 -22l5 112h42v-397q0 -48 -21.5 -90.5t-68 -68.5t-122.5 -26zM98 198q0 -46 22 -83.5t59.5 -60t83.5 -22.5q44 0 80 19.5t59 52.5t26 71v58q-8 38 -31.5 67t-58 46t-75.5 17q-46 0 -83.5 -21t-59.5 -58t-22 -86z
" />
    <glyph glyph-name="gdotaccent" unicode="&#x121;" horiz-adv-x="564" 
d="M263 -191q-33 0 -63 7.5t-59 25.5t-60 47l28 32q43 -41 80 -55.5t72 -14.5q61 0 97 19.5t52 52t17 72.5l1 127l11 -12q-20 -52 -71.5 -85t-116.5 -33q-55 0 -100.5 27.5t-72.5 74t-27 103.5q0 61 28 107t76 72.5t106 26.5q54 0 102.5 -28t70.5 -74l-6 -22l5 112h42v-397
q0 -48 -21.5 -90.5t-68 -68.5t-122.5 -26zM98 198q0 -46 22 -83.5t59.5 -60t83.5 -22.5q44 0 80 19.5t59 52.5t26 71v58q-8 38 -31.5 67t-58 46t-75.5 17q-46 0 -83.5 -21t-59.5 -58t-22 -86zM248 541q0 14 11 23.5t24 9.5q14 0 24 -9.5t10 -23.5q0 -15 -10 -24.5t-24 -9.5
q-13 0 -24 10t-11 24z" />
    <glyph glyph-name="h" unicode="h" horiz-adv-x="512" 
d="M89 0v760h46v-473l-3 17q20 41 64.5 69.5t102.5 28.5q55 0 89 -32.5t35 -84.5v-285h-48v272q-1 38 -24 63t-67 26q-39 0 -73 -20t-54.5 -54t-20.5 -77v-210h-47z" />
    <glyph glyph-name="hbar" unicode="&#x127;" horiz-adv-x="512" 
d="M89 0v760h46v-473l-3 17q20 41 64.5 69.5t102.5 28.5q55 0 89 -32.5t35 -84.5v-285h-48v272q-1 38 -24 63t-67 26q-39 0 -73 -20t-54.5 -54t-20.5 -77v-210h-47zM-6 599h241v-45h-241v45z" />
    <glyph glyph-name="hcircumflex" unicode="&#x125;" horiz-adv-x="512" 
d="M89 0v760h46v-473l-3 17q20 41 64.5 69.5t102.5 28.5q55 0 89 -32.5t35 -84.5v-285h-48v272q-1 38 -24 63t-67 26q-39 0 -73 -20t-54.5 -54t-20.5 -77v-210h-47zM205 808l-109 122l21 3l-110 -125h-47l145 159h1l146 -159h-47z" />
    <glyph glyph-name="i" unicode="i" horiz-adv-x="225" 
d="M89 391h47v-391h-47v391zM79 535q0 14 11 23.5t24 9.5q14 0 24 -9.5t10 -23.5q0 -15 -10 -24.5t-24 -9.5q-13 0 -24 10t-11 24z" />
    <glyph glyph-name="dotlessi" unicode="&#x131;" horiz-adv-x="225" 
d="M89 391h47v-391h-47v391z" />
    <glyph glyph-name="iacute" unicode="&#xed;" horiz-adv-x="225" 
d="M89 391h47v-391h-47v391zM194 600l-106 -133h-34l87 133h53z" />
    <glyph glyph-name="ibreve" unicode="&#x12d;" horiz-adv-x="225" 
d="M89 391h47v-391h-47v391zM110 462q-37 0 -66.5 20.5t-47 58t-21.5 86.5h34q3 -35 16 -65t35 -47.5t50 -17.5q29 0 50 17.5t33.5 47.5t14.5 65h35q-3 -50 -20.5 -87t-46.5 -57.5t-66 -20.5z" />
    <glyph glyph-name="icircumflex" unicode="&#xee;" horiz-adv-x="225" 
d="M89 391h47v-391h-47v391zM213 482l-109 122l21 3l-110 -125h-47l145 159h1l146 -159h-47z" />
    <glyph glyph-name="uni0209" unicode="&#x209;" horiz-adv-x="225" 
d="M89 391h47v-391h-47v391zM-55 615h52l83 -133h-34zM59 615h52l83 -133h-34z" />
    <glyph glyph-name="idieresis" unicode="&#xef;" horiz-adv-x="225" 
d="M89 391h47v-391h-47v391zM-8 511q0 14 10 24t23 10t23.5 -10t10.5 -24t-10.5 -24t-23.5 -10t-23 10t-10 24v0zM166 511q0 14 10.5 24t23.5 10q12 0 22.5 -10t10.5 -24t-10.5 -24t-22.5 -10q-13 0 -23.5 10t-10.5 24v0z" />
    <glyph glyph-name="i.loclTRK" horiz-adv-x="225" 
d="M89 391h47v-391h-47v391zM79 535q0 14 11 23.5t24 9.5q14 0 24 -9.5t10 -23.5q0 -15 -10 -24.5t-24 -9.5q-13 0 -24 10t-11 24z" />
    <glyph glyph-name="uni1ECB" unicode="&#x1ecb;" horiz-adv-x="225" 
d="M89 391h47v-391h-47v391zM79 535q0 14 11 23.5t24 9.5q14 0 24 -9.5t10 -23.5q0 -15 -10 -24.5t-24 -9.5q-13 0 -24 10t-11 24zM76 -99q0 14 10.5 23t23.5 9q12 0 22 -9t10 -23t-10 -23t-22 -9q-13 0 -23.5 9.5t-10.5 22.5z" />
    <glyph glyph-name="igrave" unicode="&#xec;" horiz-adv-x="225" 
d="M89 391h47v-391h-47v391zM-2 615h52l83 -133h-34z" />
    <glyph glyph-name="uni1EC9" unicode="&#x1ec9;" horiz-adv-x="225" 
d="M89 391h47v-391h-47v391zM101 462q22 18 36 33t14 35q0 17 -10 27t-26 10q-18 0 -29.5 -8.5t-24.5 -26.5l-21 16q17 27 36.5 39.5t43.5 12.5q19 0 33 -7.5t22.5 -22.5t8.5 -38q0 -30 -19 -51t-46 -41z" />
    <glyph glyph-name="uni020B" unicode="&#x20b;" horiz-adv-x="225" 
d="M89 391h47v-391h-47v391zM116 613q38 0 67 -20.5t47 -57.5t21 -87h-34q-2 36 -15.5 65.5t-35 47t-50.5 17.5q-28 0 -49.5 -17.5t-34 -47t-14.5 -65.5h-35q3 50 20.5 87t46.5 57.5t66 20.5z" />
    <glyph glyph-name="ij" unicode="&#x133;" horiz-adv-x="449" 
d="M89 391h47v-391h-47v391zM79 535q0 14 11 23.5t24 9.5q14 0 24 -9.5t10 -23.5q0 -15 -10 -24.5t-24 -9.5q-13 0 -24 10t-11 24zM297 -188l-30 29q26 26 41.5 65t15.5 88v397h48v-396q0 -63 -18.5 -108.5t-56.5 -74.5zM314 535q0 14 11 23.5t24 9.5q14 0 24 -9.5t10 -23.5
q0 -15 -10 -24.5t-24 -9.5q-13 0 -24 10t-11 24z" />
    <glyph glyph-name="imacron" unicode="&#x12b;" horiz-adv-x="225" 
d="M89 391h47v-391h-47v391zM-5 521h236v-36h-236v36z" />
    <glyph glyph-name="iogonek" unicode="&#x12f;" horiz-adv-x="227" 
d="M90 -198q-36 0 -62.5 24.5t-26.5 64.5q0 37 27.5 69t67.5 51l31 -4l10 -7q-45 -24 -70 -50t-25 -56q0 -27 16.5 -41.5t35.5 -14.5q20 0 36 13t28 33l22 -23q-13 -25 -37.5 -42t-52.5 -17zM89 391h47v-391h-47v391zM78 498q0 14 11 23.5t24 9.5q14 0 24 -9.5t10 -23.5
q0 -15 -10 -24.5t-24 -9.5q-13 0 -24 10t-11 24z" />
    <glyph glyph-name="itilde" unicode="&#x129;" horiz-adv-x="225" 
d="M89 391h47v-391h-47v391zM188 452q-30 0 -48.5 14.5t-34.5 31.5q-13 13 -26.5 24.5t-31.5 11.5q-12 0 -23.5 -8.5t-19.5 -27t-9 -50.5l-30 1q-1 39 10.5 66.5t30.5 41.5t43 14q27 0 45 -14.5t33 -30.5q13 -15 27 -27t33 -12q20 0 33.5 20t15.5 68l30 -1q1 -40 -9.5 -67.5
t-28.5 -41t-40 -13.5z" />
    <glyph glyph-name="j" unicode="j" horiz-adv-x="224" 
d="M72 -188l-30 29q26 26 41.5 65t15.5 88v397h48v-396q0 -63 -18.5 -108.5t-56.5 -74.5zM89 535q0 14 11 23.5t24 9.5q14 0 24 -9.5t10 -23.5q0 -15 -10 -24.5t-24 -9.5q-13 0 -24 10t-11 24z" />
    <glyph glyph-name="uni0237" unicode="&#x237;" horiz-adv-x="224" 
d="M72 -188l-30 29q26 26 41.5 65t15.5 88v397h48v-396q0 -63 -18.5 -108.5t-56.5 -74.5z" />
    <glyph glyph-name="jcircumflex" unicode="&#x135;" horiz-adv-x="224" 
d="M72 -188l-30 29q26 26 41.5 65t15.5 88v397h48v-396q0 -63 -18.5 -108.5t-56.5 -74.5zM223 482l-109 122l21 3l-110 -125h-47l145 159h1l146 -159h-47z" />
    <glyph glyph-name="k" unicode="k" horiz-adv-x="451" 
d="M89 0v760h47v-760h-47zM226 254l182 -254h-55l-160 228zM120 142l-4 47l239 210l29 -25z" />
    <glyph glyph-name="uni0137" unicode="&#x137;" horiz-adv-x="451" 
d="M89 0v760h47v-760h-47zM226 254l182 -254h-55l-160 228zM120 142l-4 47l239 210l29 -25zM185 -190l-24 18q27 20 37.5 55t5.5 75h45q3 -26 -2 -54.5t-19.5 -53t-42.5 -40.5z" />
    <glyph glyph-name="kgreenlandic" unicode="&#x138;" horiz-adv-x="452" 
d="M130 135l-8 43l216 213h58zM136 0h-47v391h47v-391zM202 221l200 -221h-58l-176 197z" />
    <glyph glyph-name="l" unicode="l" horiz-adv-x="225" 
d="M89 760h47v-760h-47v760z" />
    <glyph glyph-name="lacute" unicode="&#x13a;" horiz-adv-x="225" 
d="M89 760h47v-760h-47v760zM241 934l-106 -133h-34l87 133h53z" />
    <glyph glyph-name="lcaron" unicode="&#x13e;" horiz-adv-x="361" 
d="M89 760h47v-760h-47v760zM267 585l-23 20q21 20 31.5 52t3.5 67l43 7q6 -27 0 -54.5t-20 -51.5t-35 -40v0z" />
    <glyph glyph-name="uni013C" unicode="&#x13c;" horiz-adv-x="225" 
d="M89 760h47v-760h-47v760zM72 -190l-24 18q27 20 37.5 55t5.5 75h45q3 -26 -2 -54.5t-19.5 -53t-42.5 -40.5z" />
    <glyph glyph-name="ldot" unicode="&#x140;" horiz-adv-x="291" 
d="M89 760h47v-760h-47v760zM225 296q0 14 10 24t23 10t23.5 -10t10.5 -24q0 -15 -10.5 -24.5t-23.5 -9.5t-23 9.5t-10 24.5v0z" />
    <glyph glyph-name="uni01C9" unicode="&#x1c9;" horiz-adv-x="449" 
d="M89 760h47v-760h-47v760zM297 -188l-30 29q26 26 41.5 65t15.5 88v397h48v-396q0 -63 -18.5 -108.5t-56.5 -74.5zM314 535q0 14 11 23.5t24 9.5q14 0 24 -9.5t10 -23.5q0 -15 -10 -24.5t-24 -9.5q-13 0 -24 10t-11 24z" />
    <glyph glyph-name="lslash" unicode="&#x142;" horiz-adv-x="219" 
d="M211 366v-42l-186 -59v42zM92 760h47v-760h-47v760z" />
    <glyph glyph-name="m" unicode="m" horiz-adv-x="787" 
d="M130 391l5 -109l-7 10q20 51 66.5 80.5t101.5 29.5q33 0 59.5 -12.5t43 -34t19.5 -49.5l-6 -6q21 50 66 76t97 26q56 0 89 -32.5t34 -84.5v-285h-47v275q-1 35 -22 59.5t-64 26.5q-39 0 -72 -20t-53.5 -53t-22.5 -74v-214h-47v275q-1 35 -22.5 59.5t-64.5 26.5
q-40 0 -73.5 -20t-53.5 -54.5t-20 -76.5v-210h-47v391h41z" />
    <glyph glyph-name="n" unicode="n" horiz-adv-x="512" 
d="M130 391l5 -123l-6 24q17 51 64.5 80.5t105.5 29.5q55 0 89 -32.5t35 -84.5v-285h-48v272q-1 38 -24 63t-67 26q-39 0 -73 -19t-54.5 -53t-20.5 -79v-210h-47v391h41z" />
    <glyph glyph-name="nacute" unicode="&#x144;" horiz-adv-x="512" 
d="M130 391l5 -123l-6 24q17 51 64.5 80.5t105.5 29.5q55 0 89 -32.5t35 -84.5v-285h-48v272q-1 38 -24 63t-67 26q-39 0 -73 -19t-54.5 -53t-20.5 -79v-210h-47v391h41zM337 603l-106 -133h-34l87 133h53z" />
    <glyph glyph-name="napostrophe" unicode="&#x149;" horiz-adv-x="512" 
d="M-19 396l-24 18q27 20 37.5 55t5.5 75h45q3 -26 -2 -54.5t-19.5 -53t-42.5 -40.5zM130 391l5 -123l-6 24q17 51 64.5 80.5t105.5 29.5q55 0 89 -32.5t35 -84.5v-285h-48v272q-1 38 -24 63t-67 26q-39 0 -73 -19t-54.5 -53t-20.5 -79v-210h-47v391h41z" />
    <glyph glyph-name="ncaron" unicode="&#x148;" horiz-adv-x="512" 
d="M130 391l5 -123l-6 24q17 51 64.5 80.5t105.5 29.5q55 0 89 -32.5t35 -84.5v-285h-48v272q-1 38 -24 63t-67 26q-39 0 -73 -19t-54.5 -53t-20.5 -79v-210h-47v391h41zM159 604l110 -123l-22 -3l111 126h47l-145 -159h-1l-147 159h47z" />
    <glyph glyph-name="uni0146" unicode="&#x146;" horiz-adv-x="512" 
d="M130 391l5 -123l-6 24q17 51 64.5 80.5t105.5 29.5q55 0 89 -32.5t35 -84.5v-285h-48v272q-1 38 -24 63t-67 26q-39 0 -73 -19t-54.5 -53t-20.5 -79v-210h-47v391h41zM215 -190l-24 18q27 20 37.5 55t5.5 75h45q3 -26 -2 -54.5t-19.5 -53t-42.5 -40.5z" />
    <glyph glyph-name="eng" unicode="&#x14b;" horiz-adv-x="512" 
d="M423 -3q0 -61 -19 -108t-55 -77l-30 29q26 26 41 65t15 88v278q-1 38 -24 63t-67 26q-39 0 -73 -19t-54.5 -53t-20.5 -79v-210h-47v391h41l5 -99q17 51 61.5 80.5t102.5 29.5q55 0 89 -32.5t35 -84.5v-288z" />
    <glyph glyph-name="uni0272" unicode="&#x272;" horiz-adv-x="512" 
d="M63 -188l-30 29q26 26 41.5 65t15.5 88v58h47v-57q0 -63 -21 -108.5t-53 -74.5zM130 391l5 -123l-6 24q17 51 64.5 80.5t105.5 29.5q55 0 89 -32.5t35 -84.5v-285h-48v272q-1 38 -24 63t-67 26q-39 0 -73 -19t-54.5 -53t-20.5 -79v-210h-47v391h41z" />
    <glyph glyph-name="uni01CC" unicode="&#x1cc;" horiz-adv-x="736" 
d="M130 391l5 -123l-6 24q17 51 64.5 80.5t105.5 29.5q55 0 89 -32.5t35 -84.5v-285h-48v272q-1 38 -24 63t-67 26q-39 0 -73 -19t-54.5 -53t-20.5 -79v-210h-47v391h41zM584 -188l-30 29q26 26 41.5 65t15.5 88v397h48v-396q0 -63 -18.5 -108.5t-56.5 -74.5zM601 535
q0 14 11 23.5t24 9.5q14 0 24 -9.5t10 -23.5q0 -15 -10 -24.5t-24 -9.5q-13 0 -24 10t-11 24z" />
    <glyph glyph-name="ntilde" unicode="&#xf1;" horiz-adv-x="512" 
d="M130 391l5 -123l-6 24q17 51 64.5 80.5t105.5 29.5q55 0 89 -32.5t35 -84.5v-285h-48v272q-1 38 -24 63t-67 26q-39 0 -73 -19t-54.5 -53t-20.5 -79v-210h-47v391h41zM331 455q-30 0 -48.5 14.5t-34.5 31.5q-13 13 -26.5 24.5t-31.5 11.5q-12 0 -23.5 -8.5t-19.5 -27
t-9 -50.5l-30 1q-1 39 10.5 66.5t30.5 41.5t43 14q27 0 45 -14.5t33 -30.5q13 -15 27 -27t33 -12q20 0 33.5 20t15.5 68l30 -1q1 -40 -9.5 -67.5t-28.5 -41t-40 -13.5z" />
    <glyph glyph-name="o" unicode="o" horiz-adv-x="519" 
d="M51 198q0 57 27.5 104t75 74.5t106.5 27.5q60 0 107 -27.5t74 -74.5t27 -104t-27 -104t-74.5 -74.5t-106.5 -27.5q-60 0 -107 26.5t-74.5 73t-27.5 106.5zM98 197q0 -46 21.5 -83.5t58 -59.5t81.5 -22t81.5 22t58 59.5t21.5 83.5t-21.5 83.5t-58 60t-81.5 22.5
q-46 0 -82.5 -23.5t-57.5 -61.5t-21 -81z" />
    <glyph glyph-name="oacute" unicode="&#xf3;" horiz-adv-x="519" 
d="M51 198q0 57 27.5 104t75 74.5t106.5 27.5q60 0 107 -27.5t74 -74.5t27 -104t-27 -104t-74.5 -74.5t-106.5 -27.5q-60 0 -107 26.5t-74.5 73t-27.5 106.5zM98 197q0 -46 21.5 -83.5t58 -59.5t81.5 -22t81.5 22t58 59.5t21.5 83.5t-21.5 83.5t-58 60t-81.5 22.5
q-46 0 -82.5 -23.5t-57.5 -61.5t-21 -81zM341 606l-106 -133h-34l87 133h53z" />
    <glyph glyph-name="obreve" unicode="&#x14f;" horiz-adv-x="519" 
d="M51 198q0 57 27.5 104t75 74.5t106.5 27.5q60 0 107 -27.5t74 -74.5t27 -104t-27 -104t-74.5 -74.5t-106.5 -27.5q-60 0 -107 26.5t-74.5 73t-27.5 106.5zM98 197q0 -46 21.5 -83.5t58 -59.5t81.5 -22t81.5 22t58 59.5t21.5 83.5t-21.5 83.5t-58 60t-81.5 22.5
q-46 0 -82.5 -23.5t-57.5 -61.5t-21 -81zM257 468q-37 0 -66.5 20.5t-47 58t-21.5 86.5h34q3 -35 16 -65t35 -47.5t50 -17.5q29 0 50 17.5t33.5 47.5t14.5 65h35q-3 -50 -20.5 -87t-46.5 -57.5t-66 -20.5z" />
    <glyph glyph-name="ocircumflex" unicode="&#xf4;" horiz-adv-x="519" 
d="M51 198q0 57 27.5 104t75 74.5t106.5 27.5q60 0 107 -27.5t74 -74.5t27 -104t-27 -104t-74.5 -74.5t-106.5 -27.5q-60 0 -107 26.5t-74.5 73t-27.5 106.5zM98 197q0 -46 21.5 -83.5t58 -59.5t81.5 -22t81.5 22t58 59.5t21.5 83.5t-21.5 83.5t-58 60t-81.5 22.5
q-46 0 -82.5 -23.5t-57.5 -61.5t-21 -81zM360 488l-109 122l21 3l-110 -125h-47l145 159h1l146 -159h-47z" />
    <glyph glyph-name="uni1ED1" unicode="&#x1ed1;" horiz-adv-x="519" 
d="M51 198q0 57 27.5 104t75 74.5t106.5 27.5q60 0 107 -27.5t74 -74.5t27 -104t-27 -104t-74.5 -74.5t-106.5 -27.5q-60 0 -107 26.5t-74.5 73t-27.5 106.5zM98 197q0 -46 21.5 -83.5t58 -59.5t81.5 -22t81.5 22t58 59.5t21.5 83.5t-21.5 83.5t-58 60t-81.5 22.5
q-46 0 -82.5 -23.5t-57.5 -61.5t-21 -81zM358 478l-109 122l21 3l-110 -125h-47l145 159h1l146 -159h-47zM485 700l-106 -133h-34l87 133h53z" />
    <glyph glyph-name="uni1ED9" unicode="&#x1ed9;" horiz-adv-x="519" 
d="M51 198q0 57 27.5 104t75 74.5t106.5 27.5q60 0 107 -27.5t74 -74.5t27 -104t-27 -104t-74.5 -74.5t-106.5 -27.5q-60 0 -107 26.5t-74.5 73t-27.5 106.5zM98 197q0 -46 21.5 -83.5t58 -59.5t81.5 -22t81.5 22t58 59.5t21.5 83.5t-21.5 83.5t-58 60t-81.5 22.5
q-46 0 -82.5 -23.5t-57.5 -61.5t-21 -81zM226 -99q0 14 10.5 23t23.5 9q12 0 22 -9t10 -23t-10 -23t-22 -9q-13 0 -23.5 9.5t-10.5 22.5zM360 488l-109 122l21 3l-110 -125h-47l145 159h1l146 -159h-47z" />
    <glyph glyph-name="uni1ED3" unicode="&#x1ed3;" horiz-adv-x="519" 
d="M51 198q0 57 27.5 104t75 74.5t106.5 27.5q60 0 107 -27.5t74 -74.5t27 -104t-27 -104t-74.5 -74.5t-106.5 -27.5q-60 0 -107 26.5t-74.5 73t-27.5 106.5zM98 197q0 -46 21.5 -83.5t58 -59.5t81.5 -22t81.5 22t58 59.5t21.5 83.5t-21.5 83.5t-58 60t-81.5 22.5
q-46 0 -82.5 -23.5t-57.5 -61.5t-21 -81zM353 472l-109 122l21 3l-110 -125h-47l145 159h1l146 -159h-47zM4 708h52l83 -133h-34z" />
    <glyph glyph-name="uni1ED5" unicode="&#x1ed5;" horiz-adv-x="519" 
d="M51 198q0 57 27.5 104t75 74.5t106.5 27.5q60 0 107 -27.5t74 -74.5t27 -104t-27 -104t-74.5 -74.5t-106.5 -27.5q-60 0 -107 26.5t-74.5 73t-27.5 106.5zM98 197q0 -46 21.5 -83.5t58 -59.5t81.5 -22t81.5 22t58 59.5t21.5 83.5t-21.5 83.5t-58 60t-81.5 22.5
q-46 0 -82.5 -23.5t-57.5 -61.5t-21 -81zM354 478l-109 122l21 3l-110 -125h-47l145 159h1l146 -159h-47zM376 576q22 18 36 33t14 35q0 17 -10 27t-26 10q-18 0 -29.5 -8.5t-24.5 -26.5l-21 16q17 27 36.5 39.5t43.5 12.5q19 0 33 -7.5t22.5 -22.5t8.5 -38q0 -30 -19 -51
t-46 -41z" />
    <glyph glyph-name="uni1ED7" unicode="&#x1ed7;" horiz-adv-x="519" 
d="M51 198q0 57 27.5 104t75 74.5t106.5 27.5q60 0 107 -27.5t74 -74.5t27 -104t-27 -104t-74.5 -74.5t-106.5 -27.5q-60 0 -107 26.5t-74.5 73t-27.5 106.5zM98 197q0 -46 21.5 -83.5t58 -59.5t81.5 -22t81.5 22t58 59.5t21.5 83.5t-21.5 83.5t-58 60t-81.5 22.5
q-46 0 -82.5 -23.5t-57.5 -61.5t-21 -81zM356 463l-109 122l21 3l-110 -125h-47l145 159h1l146 -159h-47zM332 643q-30 0 -48.5 14.5t-34.5 31.5q-13 13 -26.5 24.5t-31.5 11.5q-12 0 -23.5 -8.5t-19.5 -27t-9 -50.5l-30 1q-1 39 10.5 66.5t30.5 41.5t43 14q27 0 45 -14.5
t33 -30.5q13 -15 27 -27t33 -12q20 0 33.5 20t15.5 68l30 -1q1 -40 -9.5 -67.5t-28.5 -41t-40 -13.5z" />
    <glyph glyph-name="uni020D" unicode="&#x20d;" horiz-adv-x="519" 
d="M51 198q0 57 27.5 104t75 74.5t106.5 27.5q60 0 107 -27.5t74 -74.5t27 -104t-27 -104t-74.5 -74.5t-106.5 -27.5q-60 0 -107 26.5t-74.5 73t-27.5 106.5zM98 197q0 -46 21.5 -83.5t58 -59.5t81.5 -22t81.5 22t58 59.5t21.5 83.5t-21.5 83.5t-58 60t-81.5 22.5
q-46 0 -82.5 -23.5t-57.5 -61.5t-21 -81zM92 621h52l83 -133h-34zM206 621h52l83 -133h-34z" />
    <glyph glyph-name="odieresis" unicode="&#xf6;" horiz-adv-x="519" 
d="M51 198q0 57 27.5 104t75 74.5t106.5 27.5q60 0 107 -27.5t74 -74.5t27 -104t-27 -104t-74.5 -74.5t-106.5 -27.5q-60 0 -107 26.5t-74.5 73t-27.5 106.5zM98 197q0 -46 21.5 -83.5t58 -59.5t81.5 -22t81.5 22t58 59.5t21.5 83.5t-21.5 83.5t-58 60t-81.5 22.5
q-46 0 -82.5 -23.5t-57.5 -61.5t-21 -81zM139 517q0 14 10 24t23 10t23.5 -10t10.5 -24t-10.5 -24t-23.5 -10t-23 10t-10 24v0zM313 517q0 14 10.5 24t23.5 10q12 0 22.5 -10t10.5 -24t-10.5 -24t-22.5 -10q-13 0 -23.5 10t-10.5 24v0z" />
    <glyph glyph-name="uni022B" unicode="&#x22b;" horiz-adv-x="519" 
d="M51 198q0 57 27.5 104t75 74.5t106.5 27.5q60 0 107 -27.5t74 -74.5t27 -104t-27 -104t-74.5 -74.5t-106.5 -27.5q-60 0 -107 26.5t-74.5 73t-27.5 106.5zM98 197q0 -46 21.5 -83.5t58 -59.5t81.5 -22t81.5 22t58 59.5t21.5 83.5t-21.5 83.5t-58 60t-81.5 22.5
q-46 0 -82.5 -23.5t-57.5 -61.5t-21 -81zM139 517q0 14 10 24t23 10t23.5 -10t10.5 -24t-10.5 -24t-23.5 -10t-23 10t-10 24v0zM313 517q0 14 10.5 24t23.5 10q12 0 22.5 -10t10.5 -24t-10.5 -24t-22.5 -10q-13 0 -23.5 10t-10.5 24v0zM142 681h236v-36h-236v36z" />
    <glyph glyph-name="uni0231" unicode="&#x231;" horiz-adv-x="519" 
d="M51 198q0 57 27.5 104t75 74.5t106.5 27.5q60 0 107 -27.5t74 -74.5t27 -104t-27 -104t-74.5 -74.5t-106.5 -27.5q-60 0 -107 26.5t-74.5 73t-27.5 106.5zM98 197q0 -46 21.5 -83.5t58 -59.5t81.5 -22t81.5 22t58 59.5t21.5 83.5t-21.5 83.5t-58 60t-81.5 22.5
q-46 0 -82.5 -23.5t-57.5 -61.5t-21 -81zM226 541q0 14 11 23.5t24 9.5q14 0 24 -9.5t10 -23.5q0 -15 -10 -24.5t-24 -9.5q-13 0 -24 10t-11 24zM142 704h236v-36h-236v36z" />
    <glyph glyph-name="uni1ECD" unicode="&#x1ecd;" horiz-adv-x="519" 
d="M51 198q0 57 27.5 104t75 74.5t106.5 27.5q60 0 107 -27.5t74 -74.5t27 -104t-27 -104t-74.5 -74.5t-106.5 -27.5q-60 0 -107 26.5t-74.5 73t-27.5 106.5zM98 197q0 -46 21.5 -83.5t58 -59.5t81.5 -22t81.5 22t58 59.5t21.5 83.5t-21.5 83.5t-58 60t-81.5 22.5
q-46 0 -82.5 -23.5t-57.5 -61.5t-21 -81zM226 -99q0 14 10.5 23t23.5 9q12 0 22 -9t10 -23t-10 -23t-22 -9q-13 0 -23.5 9.5t-10.5 22.5z" />
    <glyph glyph-name="ograve" unicode="&#xf2;" horiz-adv-x="519" 
d="M51 198q0 57 27.5 104t75 74.5t106.5 27.5q60 0 107 -27.5t74 -74.5t27 -104t-27 -104t-74.5 -74.5t-106.5 -27.5q-60 0 -107 26.5t-74.5 73t-27.5 106.5zM98 197q0 -46 21.5 -83.5t58 -59.5t81.5 -22t81.5 22t58 59.5t21.5 83.5t-21.5 83.5t-58 60t-81.5 22.5
q-46 0 -82.5 -23.5t-57.5 -61.5t-21 -81zM145 621h52l83 -133h-34z" />
    <glyph glyph-name="uni1ECF" unicode="&#x1ecf;" horiz-adv-x="519" 
d="M51 198q0 57 27.5 104t75 74.5t106.5 27.5q60 0 107 -27.5t74 -74.5t27 -104t-27 -104t-74.5 -74.5t-106.5 -27.5q-60 0 -107 26.5t-74.5 73t-27.5 106.5zM98 197q0 -46 21.5 -83.5t58 -59.5t81.5 -22t81.5 22t58 59.5t21.5 83.5t-21.5 83.5t-58 60t-81.5 22.5
q-46 0 -82.5 -23.5t-57.5 -61.5t-21 -81zM248 468q22 18 36 33t14 35q0 17 -10 27t-26 10q-18 0 -29.5 -8.5t-24.5 -26.5l-21 16q17 27 36.5 39.5t43.5 12.5q19 0 33 -7.5t22.5 -22.5t8.5 -38q0 -30 -19 -51t-46 -41z" />
    <glyph glyph-name="ohorn" unicode="&#x1a1;" horiz-adv-x="519" 
d="M51 198q0 57 27.5 104t75 74.5t106.5 27.5q60 0 107 -27.5t74 -74.5t27 -104t-27 -104t-74.5 -74.5t-106.5 -27.5q-60 0 -107 26.5t-74.5 73t-27.5 106.5zM98 197q0 -46 21.5 -83.5t58 -59.5t81.5 -22t81.5 22t58 59.5t21.5 83.5t-21.5 83.5t-58 60t-81.5 22.5
q-46 0 -82.5 -23.5t-57.5 -61.5t-21 -81zM326 391q48 0 72 21.5t26 78.5h38q-3 -56 -21 -84.5t-47.5 -38t-67.5 -9.5v32z" />
    <glyph glyph-name="uni1EDB" unicode="&#x1edb;" horiz-adv-x="519" 
d="M51 198q0 57 27.5 104t75 74.5t106.5 27.5q60 0 107 -27.5t74 -74.5t27 -104t-27 -104t-74.5 -74.5t-106.5 -27.5q-60 0 -107 26.5t-74.5 73t-27.5 106.5zM98 197q0 -46 21.5 -83.5t58 -59.5t81.5 -22t81.5 22t58 59.5t21.5 83.5t-21.5 83.5t-58 60t-81.5 22.5
q-46 0 -82.5 -23.5t-57.5 -61.5t-21 -81zM326 391q48 0 72 21.5t26 78.5h38q-3 -56 -21 -84.5t-47.5 -38t-67.5 -9.5v32zM341 606l-106 -133h-34l87 133h53z" />
    <glyph glyph-name="uni1EE3" unicode="&#x1ee3;" horiz-adv-x="519" 
d="M51 198q0 57 27.5 104t75 74.5t106.5 27.5q60 0 107 -27.5t74 -74.5t27 -104t-27 -104t-74.5 -74.5t-106.5 -27.5q-60 0 -107 26.5t-74.5 73t-27.5 106.5zM98 197q0 -46 21.5 -83.5t58 -59.5t81.5 -22t81.5 22t58 59.5t21.5 83.5t-21.5 83.5t-58 60t-81.5 22.5
q-46 0 -82.5 -23.5t-57.5 -61.5t-21 -81zM326 391q48 0 72 21.5t26 78.5h38q-3 -56 -21 -84.5t-47.5 -38t-67.5 -9.5v32zM226 -99q0 14 10.5 23t23.5 9q12 0 22 -9t10 -23t-10 -23t-22 -9q-13 0 -23.5 9.5t-10.5 22.5z" />
    <glyph glyph-name="uni1EDD" unicode="&#x1edd;" horiz-adv-x="519" 
d="M51 198q0 57 27.5 104t75 74.5t106.5 27.5q60 0 107 -27.5t74 -74.5t27 -104t-27 -104t-74.5 -74.5t-106.5 -27.5q-60 0 -107 26.5t-74.5 73t-27.5 106.5zM98 197q0 -46 21.5 -83.5t58 -59.5t81.5 -22t81.5 22t58 59.5t21.5 83.5t-21.5 83.5t-58 60t-81.5 22.5
q-46 0 -82.5 -23.5t-57.5 -61.5t-21 -81zM326 391q48 0 72 21.5t26 78.5h38q-3 -56 -21 -84.5t-47.5 -38t-67.5 -9.5v32zM145 621h52l83 -133h-34z" />
    <glyph glyph-name="uni1EDF" unicode="&#x1edf;" horiz-adv-x="519" 
d="M51 198q0 57 27.5 104t75 74.5t106.5 27.5q60 0 107 -27.5t74 -74.5t27 -104t-27 -104t-74.5 -74.5t-106.5 -27.5q-60 0 -107 26.5t-74.5 73t-27.5 106.5zM98 197q0 -46 21.5 -83.5t58 -59.5t81.5 -22t81.5 22t58 59.5t21.5 83.5t-21.5 83.5t-58 60t-81.5 22.5
q-46 0 -82.5 -23.5t-57.5 -61.5t-21 -81zM326 391q48 0 72 21.5t26 78.5h38q-3 -56 -21 -84.5t-47.5 -38t-67.5 -9.5v32zM248 468q22 18 36 33t14 35q0 17 -10 27t-26 10q-18 0 -29.5 -8.5t-24.5 -26.5l-21 16q17 27 36.5 39.5t43.5 12.5q19 0 33 -7.5t22.5 -22.5t8.5 -38
q0 -30 -19 -51t-46 -41z" />
    <glyph glyph-name="uni1EE1" unicode="&#x1ee1;" horiz-adv-x="519" 
d="M332 455q-29 0 -46.5 14t-32.5 30q-12 13 -25 23.5t-31 10.5q-11 0 -22 -8t-18.5 -25.5t-8.5 -47.5h-29q0 38 10.5 64t29 39.5t40.5 13.5q26 0 43 -14t32 -30q13 -14 26 -25t31 -11q19 0 32 19t14 64h29q1 -39 -8.5 -65t-27 -39t-38.5 -13zM51 198q0 57 27.5 104t75 74.5
t106.5 27.5q60 0 107 -27.5t74 -74.5t27 -104t-27 -104t-74.5 -74.5t-106.5 -27.5q-60 0 -107 26.5t-74.5 73t-27.5 106.5zM98 197q0 -46 21.5 -83.5t58 -59.5t81.5 -22t81.5 22t58 59.5t21.5 83.5t-21.5 83.5t-58 60t-81.5 22.5q-46 0 -82.5 -23.5t-57.5 -61.5t-21 -81z
M326 391q48 0 72 21.5t26 78.5h38q-3 -56 -21 -84.5t-47.5 -38t-67.5 -9.5v32z" />
    <glyph glyph-name="ohungarumlaut" unicode="&#x151;" horiz-adv-x="519" 
d="M51 198q0 57 27.5 104t75 74.5t106.5 27.5q60 0 107 -27.5t74 -74.5t27 -104t-27 -104t-74.5 -74.5t-106.5 -27.5q-60 0 -107 26.5t-74.5 73t-27.5 106.5zM98 197q0 -46 21.5 -83.5t58 -59.5t81.5 -22t81.5 22t58 59.5t21.5 83.5t-21.5 83.5t-58 60t-81.5 22.5
q-46 0 -82.5 -23.5t-57.5 -61.5t-21 -81zM321 621l-106 -133h-34l87 133h53zM437 620l-106 -133h-34l87 133h53z" />
    <glyph glyph-name="uni020F" unicode="&#x20f;" horiz-adv-x="519" 
d="M51 198q0 57 27.5 104t75 74.5t106.5 27.5q60 0 107 -27.5t74 -74.5t27 -104t-27 -104t-74.5 -74.5t-106.5 -27.5q-60 0 -107 26.5t-74.5 73t-27.5 106.5zM98 197q0 -46 21.5 -83.5t58 -59.5t81.5 -22t81.5 22t58 59.5t21.5 83.5t-21.5 83.5t-58 60t-81.5 22.5
q-46 0 -82.5 -23.5t-57.5 -61.5t-21 -81zM263 619q38 0 67 -20.5t47 -57.5t21 -87h-34q-2 36 -15.5 65.5t-35 47t-50.5 17.5q-28 0 -49.5 -17.5t-34 -47t-14.5 -65.5h-35q3 50 20.5 87t46.5 57.5t66 20.5z" />
    <glyph glyph-name="omacron" unicode="&#x14d;" horiz-adv-x="519" 
d="M51 198q0 57 27.5 104t75 74.5t106.5 27.5q60 0 107 -27.5t74 -74.5t27 -104t-27 -104t-74.5 -74.5t-106.5 -27.5q-60 0 -107 26.5t-74.5 73t-27.5 106.5zM98 197q0 -46 21.5 -83.5t58 -59.5t81.5 -22t81.5 22t58 59.5t21.5 83.5t-21.5 83.5t-58 60t-81.5 22.5
q-46 0 -82.5 -23.5t-57.5 -61.5t-21 -81zM142 527h236v-36h-236v36z" />
    <glyph glyph-name="uni01EB" unicode="&#x1eb;" horiz-adv-x="519" 
d="M350 -198q-24 0 -44 12.5t-32.5 34.5t-12.5 52q0 48 27.5 80t67.5 56l43 11q-28 -26 -62 -41t-78 -15q-59 0 -106 26.5t-74.5 73t-27.5 106.5q0 57 27.5 104t75 74.5t106.5 27.5q60 0 107 -27.5t74 -74.5t27 -104q0 -44 -19 -85.5t-54 -72.5q-37 -33 -65 -65t-28 -71
q0 -31 16.5 -48.5t35.5 -17.5q20 0 36 13t28 33l22 -23q-13 -25 -37.5 -42t-52.5 -17zM259 32q45 0 81.5 22t58 59.5t21.5 83.5t-21.5 83.5t-58 60t-81.5 22.5q-46 0 -82.5 -23.5t-57.5 -61.5t-21 -81q0 -46 21.5 -83.5t58 -59.5t81.5 -22z" />
    <glyph glyph-name="oslash" unicode="&#xf8;" horiz-adv-x="496" 
d="M430 382l-334 -392l-24 24l333 390zM51 198q0 57 27.5 104t75 74.5t106.5 27.5q60 0 107 -27.5t74 -74.5t27 -104t-27 -104t-74.5 -74.5t-106.5 -27.5q-60 0 -107 26.5t-74.5 73t-27.5 106.5zM98 197q0 -46 21.5 -83.5t58 -59.5t81.5 -22t81.5 22t58 59.5t21.5 83.5
t-21.5 83.5t-58 60t-81.5 22.5q-46 0 -82.5 -23.5t-57.5 -61.5t-21 -81z" />
    <glyph glyph-name="oslashacute" unicode="&#x1ff;" horiz-adv-x="496" 
d="M430 382l-334 -392l-24 24l333 390zM51 198q0 57 27.5 104t75 74.5t106.5 27.5q60 0 107 -27.5t74 -74.5t27 -104t-27 -104t-74.5 -74.5t-106.5 -27.5q-60 0 -107 26.5t-74.5 73t-27.5 106.5zM98 197q0 -46 21.5 -83.5t58 -59.5t81.5 -22t81.5 22t58 59.5t21.5 83.5
t-21.5 83.5t-58 60t-81.5 22.5q-46 0 -82.5 -23.5t-57.5 -61.5t-21 -81zM329 600l-106 -133h-34l87 133h53z" />
    <glyph glyph-name="otilde" unicode="&#xf5;" horiz-adv-x="519" 
d="M51 198q0 57 27.5 104t75 74.5t106.5 27.5q60 0 107 -27.5t74 -74.5t27 -104t-27 -104t-74.5 -74.5t-106.5 -27.5q-60 0 -107 26.5t-74.5 73t-27.5 106.5zM98 197q0 -46 21.5 -83.5t58 -59.5t81.5 -22t81.5 22t58 59.5t21.5 83.5t-21.5 83.5t-58 60t-81.5 22.5
q-46 0 -82.5 -23.5t-57.5 -61.5t-21 -81zM335 458q-30 0 -48.5 14.5t-34.5 31.5q-13 13 -26.5 24.5t-31.5 11.5q-12 0 -23.5 -8.5t-19.5 -27t-9 -50.5l-30 1q-1 39 10.5 66.5t30.5 41.5t43 14q27 0 45 -14.5t33 -30.5q13 -15 27 -27t33 -12q20 0 33.5 20t15.5 68l30 -1
q1 -40 -9.5 -67.5t-28.5 -41t-40 -13.5z" />
    <glyph glyph-name="uni022D" unicode="&#x22d;" horiz-adv-x="519" 
d="M51 198q0 57 27.5 104t75 74.5t106.5 27.5q60 0 107 -27.5t74 -74.5t27 -104t-27 -104t-74.5 -74.5t-106.5 -27.5q-60 0 -107 26.5t-74.5 73t-27.5 106.5zM98 197q0 -46 21.5 -83.5t58 -59.5t81.5 -22t81.5 22t58 59.5t21.5 83.5t-21.5 83.5t-58 60t-81.5 22.5
q-46 0 -82.5 -23.5t-57.5 -61.5t-21 -81zM335 458q-30 0 -48.5 14.5t-34.5 31.5q-13 13 -26.5 24.5t-31.5 11.5q-12 0 -23.5 -8.5t-19.5 -27t-9 -50.5l-30 1q-1 39 10.5 66.5t30.5 41.5t43 14q27 0 45 -14.5t33 -30.5q13 -15 27 -27t33 -12q20 0 33.5 20t15.5 68l30 -1
q1 -40 -9.5 -67.5t-28.5 -41t-40 -13.5zM145 695h236v-36h-236v36z" />
    <glyph glyph-name="oe" unicode="&#x153;" horiz-adv-x="743" 
d="M391 38q-27 -22 -61 -34t-71 -12q-60 0 -107 26.5t-74 72.5t-27 105t28 105t74.5 72.5t101.5 26.5q41 0 76 -12t61 -34l-25 -32q-21 17 -49 28t-60 11q-44 0 -80.5 -22t-58 -59.5t-21.5 -83.5q0 -45 21.5 -82.5t59 -59.5t83.5 -22q30 0 56 9.5t47 25.5zM515 -8
q-61 0 -108 27t-73.5 73.5t-26.5 104.5q0 57 28 104t75.5 75t105.5 28q70 0 117.5 -41t68.5 -107l-342 -132l-14 34l313 122l-10 -14q-17 40 -51.5 69t-84.5 29q-45 0 -81 -22t-57.5 -59t-21.5 -84q0 -44 20.5 -82t57.5 -61t85 -23q32 0 61.5 12t52.5 31l24 -34
q-28 -22 -64.5 -36t-74.5 -14z" />
    <glyph glyph-name="p" unicode="p" horiz-adv-x="562" 
d="M305 -8q-56 0 -105 29.5t-72 76.5l8 17v-303h-47v582h42l5 -128l-9 29q26 47 76 77.5t109 30.5q56 0 101 -27t71.5 -73.5t26.5 -106.5q0 -59 -27.5 -105.5t-74 -72.5t-104.5 -26zM297 31q46 0 83.5 22t60 59.5t22.5 83.5q0 47 -22 84.5t-58.5 59.5t-82.5 22
q-44 0 -80 -20t-58 -54t-26 -77v-32q3 -41 25.5 -75t58 -53.5t77.5 -19.5z" />
    <glyph glyph-name="thorn" unicode="&#xfe;" horiz-adv-x="544" 
d="M298 -8q-37 0 -73.5 14.5t-63.5 39.5t-38 57l6 26v-317h-47v948h48v-489l-12 14q14 34 43 60.5t67 42t78 15.5q56 0 100.5 -27t71 -73.5t26.5 -106.5t-27.5 -106t-74 -72t-104.5 -26zM291 32q46 0 83.5 22t60 59t22.5 83q0 48 -22.5 85.5t-59.5 59t-81 21.5
q-45 0 -81 -20t-58 -54t-25 -77v-37q4 -40 26.5 -72.5t57.5 -51t77 -18.5z" />
    <glyph glyph-name="q" unicode="q" horiz-adv-x="562" 
d="M248 -8q-54 0 -99 26.5t-71.5 72.5t-26.5 105q0 60 27.5 107t75 73.5t106.5 26.5q55 0 104 -30.5t72 -78.5l-11 -28v128h48v-582h-47v315l6 -33q-22 -46 -72.5 -74t-111.5 -28zM261 31q44 0 79.5 19.5t58.5 52.5t26 74v34q-3 43 -25 77t-58 54t-81 20q-44 0 -81.5 -22
t-59.5 -59.5t-22 -84.5q0 -46 22 -83.5t59.5 -59.5t81.5 -22z" />
    <glyph glyph-name="r" unicode="r" horiz-adv-x="342" 
d="M130 391l5 -120l-6 15q13 36 41 62t62.5 40t66.5 14l-2 -46q-45 0 -81.5 -20t-58 -53.5t-21.5 -75.5v-207h-47v391h41z" />
    <glyph glyph-name="racute" unicode="&#x155;" horiz-adv-x="342" 
d="M130 391l5 -120l-6 15q13 36 41 62t62.5 40t66.5 14l-2 -46q-45 0 -81.5 -20t-58 -53.5t-21.5 -75.5v-207h-47v391h41zM249 600l-106 -133h-34l87 133h53z" />
    <glyph glyph-name="rcaron" unicode="&#x159;" horiz-adv-x="342" 
d="M130 391l5 -120l-6 15q13 36 41 62t62.5 40t66.5 14l-2 -46q-45 0 -81.5 -20t-58 -53.5t-21.5 -75.5v-207h-47v391h41zM71 601l110 -123l-22 -3l111 126h47l-145 -159h-1l-147 159h47z" />
    <glyph glyph-name="uni0157" unicode="&#x157;" horiz-adv-x="342" 
d="M130 391l5 -120l-6 15q13 36 41 62t62.5 40t66.5 14l-2 -46q-45 0 -81.5 -20t-58 -53.5t-21.5 -75.5v-207h-47v391h41zM110 -190l-24 18q27 20 37.5 55t5.5 75h45q3 -26 -2 -54.5t-19.5 -53t-42.5 -40.5z" />
    <glyph glyph-name="uni0211" unicode="&#x211;" horiz-adv-x="342" 
d="M130 391l5 -120l-6 15q13 36 41 62t62.5 40t66.5 14l-2 -46q-45 0 -81.5 -20t-58 -53.5t-21.5 -75.5v-207h-47v391h41zM0 615h52l83 -133h-34zM114 615h52l83 -133h-34z" />
    <glyph glyph-name="uni0213" unicode="&#x213;" horiz-adv-x="342" 
d="M130 391l5 -120l-6 15q13 36 41 62t62.5 40t66.5 14l-2 -46q-45 0 -81.5 -20t-58 -53.5t-21.5 -75.5v-207h-47v391h41zM171 613q38 0 67 -20.5t47 -57.5t21 -87h-34q-2 36 -15.5 65.5t-35 47t-50.5 17.5q-28 0 -49.5 -17.5t-34 -47t-14.5 -65.5h-35q3 50 20.5 87
t46.5 57.5t66 20.5z" />
    <glyph glyph-name="s" unicode="s" horiz-adv-x="368" 
d="M181 -8q-34 0 -71 12.5t-60 40.5l22 31q20 -21 47.5 -33.5t58.5 -12.5q23 0 43.5 6.5t33.5 22.5t13 43q0 28 -15.5 43t-39 24.5t-49.5 17.5q-43 14 -70.5 38t-27.5 68q0 32 15.5 56t42.5 37.5t61 13.5q31 0 61.5 -10t55.5 -34l-21 -33q-16 22 -42.5 30t-46.5 9
q-17 0 -35.5 -7t-31 -20.5t-12.5 -35.5q0 -23 13 -37.5t33.5 -23.5t42.5 -17q29 -9 54.5 -21.5t42 -33t16.5 -54.5t-15 -61.5t-44.5 -43t-74.5 -15.5z" />
    <glyph glyph-name="sacute" unicode="&#x15b;" horiz-adv-x="368" 
d="M181 -8q-34 0 -71 12.5t-60 40.5l22 31q20 -21 47.5 -33.5t58.5 -12.5q23 0 43.5 6.5t33.5 22.5t13 43q0 28 -15.5 43t-39 24.5t-49.5 17.5q-43 14 -70.5 38t-27.5 68q0 32 15.5 56t42.5 37.5t61 13.5q31 0 61.5 -10t55.5 -34l-21 -33q-16 22 -42.5 30t-46.5 9
q-17 0 -35.5 -7t-31 -20.5t-12.5 -35.5q0 -23 13 -37.5t33.5 -23.5t42.5 -17q29 -9 54.5 -21.5t42 -33t16.5 -54.5t-15 -61.5t-44.5 -43t-74.5 -15.5zM266 603l-106 -133h-34l87 133h53z" />
    <glyph glyph-name="scaron" unicode="&#x161;" horiz-adv-x="368" 
d="M181 -8q-34 0 -71 12.5t-60 40.5l22 31q20 -21 47.5 -33.5t58.5 -12.5q23 0 43.5 6.5t33.5 22.5t13 43q0 28 -15.5 43t-39 24.5t-49.5 17.5q-43 14 -70.5 38t-27.5 68q0 32 15.5 56t42.5 37.5t61 13.5q31 0 61.5 -10t55.5 -34l-21 -33q-16 22 -42.5 30t-46.5 9
q-17 0 -35.5 -7t-31 -20.5t-12.5 -35.5q0 -23 13 -37.5t33.5 -23.5t42.5 -17q29 -9 54.5 -21.5t42 -33t16.5 -54.5t-15 -61.5t-44.5 -43t-74.5 -15.5zM88 604l110 -123l-22 -3l111 126h47l-145 -159h-1l-147 159h47z" />
    <glyph glyph-name="scedilla" unicode="&#x15f;" horiz-adv-x="368" 
d="M181 -8q-34 0 -71 12.5t-60 40.5l22 31q20 -21 47.5 -33.5t58.5 -12.5q23 0 43.5 6.5t33.5 22.5t13 43q0 28 -15.5 43t-39 24.5t-49.5 17.5q-43 14 -70.5 38t-27.5 68q0 32 15.5 56t42.5 37.5t61 13.5q31 0 61.5 -10t55.5 -34l-21 -33q-16 22 -42.5 30t-46.5 9
q-17 0 -35.5 -7t-31 -20.5t-12.5 -35.5q0 -23 13 -37.5t33.5 -23.5t42.5 -17q29 -9 54.5 -21.5t42 -33t16.5 -54.5t-15 -61.5t-44.5 -43t-74.5 -15.5zM105 -170q11 -11 29.5 -18.5t43.5 -7.5q35 0 58.5 14.5t23.5 40.5q0 23 -18 40t-58 17q-16 0 -37 -4.5t-33 -9.5l-15 25
l70 78l36 -7l-67 -82l-17 11q11 7 32 11.5t40 4.5q51 1 80 -20.5t29 -62.5q0 -29 -16 -48t-43 -28t-60 -9q-31 0 -55.5 9t-39.5 22z" />
    <glyph glyph-name="scircumflex" unicode="&#x15d;" horiz-adv-x="368" 
d="M181 -8q-34 0 -71 12.5t-60 40.5l22 31q20 -21 47.5 -33.5t58.5 -12.5q23 0 43.5 6.5t33.5 22.5t13 43q0 28 -15.5 43t-39 24.5t-49.5 17.5q-43 14 -70.5 38t-27.5 68q0 32 15.5 56t42.5 37.5t61 13.5q31 0 61.5 -10t55.5 -34l-21 -33q-16 22 -42.5 30t-46.5 9
q-17 0 -35.5 -7t-31 -20.5t-12.5 -35.5q0 -23 13 -37.5t33.5 -23.5t42.5 -17q29 -9 54.5 -21.5t42 -33t16.5 -54.5t-15 -61.5t-44.5 -43t-74.5 -15.5zM285 485l-109 122l21 3l-110 -125h-47l145 159h1l146 -159h-47z" />
    <glyph glyph-name="uni0219" unicode="&#x219;" horiz-adv-x="368" 
d="M181 -8q-34 0 -71 12.5t-60 40.5l22 31q20 -21 47.5 -33.5t58.5 -12.5q23 0 43.5 6.5t33.5 22.5t13 43q0 28 -15.5 43t-39 24.5t-49.5 17.5q-43 14 -70.5 38t-27.5 68q0 32 15.5 56t42.5 37.5t61 13.5q31 0 61.5 -10t55.5 -34l-21 -33q-16 22 -42.5 30t-46.5 9
q-17 0 -35.5 -7t-31 -20.5t-12.5 -35.5q0 -23 13 -37.5t33.5 -23.5t42.5 -17q29 -9 54.5 -21.5t42 -33t16.5 -54.5t-15 -61.5t-44.5 -43t-74.5 -15.5zM142 -193l-24 18q27 20 37.5 55t5.5 75h45q3 -26 -2 -54.5t-19.5 -53t-42.5 -40.5z" />
    <glyph glyph-name="germandbls" unicode="&#xdf;" horiz-adv-x="577" 
d="M112 437q0 71 23 120.5t65 76t99 27.5q57 0 94 -20.5t55.5 -52t18.5 -66.5q0 -47 -22.5 -80.5t-62.5 -50.5q41 -11 73 -38t50.5 -66.5t18.5 -90.5q0 -60 -27 -106.5t-72.5 -72.5t-102.5 -26q-34 0 -61.5 10t-47.5 23l19 30q19 -13 40.5 -19t44.5 -6q46 0 82 23t57 61.5
t21 84.5q0 48 -21 86t-57 60.5t-82 21.5h-5v44q45 0 76 27t31 73q0 29 -13 54.5t-39 41t-66 15.5q-72 0 -106.5 -52.5t-34.5 -141.5v-427h-48v359h-65v40h65v38z" />
    <glyph glyph-name="t" unicode="t" horiz-adv-x="325" 
d="M128 563h48v-177h121v-38h-121v-348h-48v348h-83v38h83v177z" />
    <glyph glyph-name="tbar" unicode="&#x167;" horiz-adv-x="325" 
d="M128 563h48v-177h121v-38h-121v-348h-48v348h-83v38h83v177zM40 222h241v-45h-241v45z" />
    <glyph glyph-name="tcaron" unicode="&#x165;" horiz-adv-x="325" 
d="M128 563h48v-177h121v-38h-121v-348h-48v348h-83v38h83v177zM245 469l-24 18q27 20 37.5 55t5.5 75h45q3 -26 -2 -54.5t-19.5 -53t-42.5 -40.5z" />
    <glyph glyph-name="uni0163" unicode="&#x163;" horiz-adv-x="325" 
d="M128 563h48v-177h121v-38h-121v-348h-48v348h-83v38h83v177zM71 -167q11 -11 29.5 -18.5t43.5 -7.5q35 0 58.5 14.5t23.5 40.5q0 23 -18 40t-58 17q-16 0 -37 -4.5t-33 -9.5l-15 25l70 78l36 -7l-67 -82l-17 11q11 7 32 11.5t40 4.5q51 1 80 -20.5t29 -62.5
q0 -29 -16 -48t-43 -28t-60 -9q-31 0 -55.5 9t-39.5 22z" />
    <glyph glyph-name="uni021B" unicode="&#x21b;" horiz-adv-x="325" 
d="M128 563h48v-177h121v-38h-121v-348h-48v348h-83v38h83v177zM108 -190l-24 18q27 20 37.5 55t5.5 75h45q3 -26 -2 -54.5t-19.5 -53t-42.5 -40.5z" />
    <glyph glyph-name="u" unicode="u" horiz-adv-x="509" 
d="M212 -11q-55 0 -88 32.5t-35 84.5v285h47v-271q2 -38 24.5 -63t67.5 -27q38 0 71 20t53.5 54.5t20.5 78.5v208h47v-391h-42l-5 123l7 -27q-10 -30 -35.5 -54.5t-60 -38.5t-72.5 -14z" />
    <glyph glyph-name="uacute" unicode="&#xfa;" horiz-adv-x="509" 
d="M212 -11q-55 0 -88 32.5t-35 84.5v285h47v-271q2 -38 24.5 -63t67.5 -27q38 0 71 20t53.5 54.5t20.5 78.5v208h47v-391h-42l-5 123l7 -27q-10 -30 -35.5 -54.5t-60 -38.5t-72.5 -14zM336 606l-106 -133h-34l87 133h53z" />
    <glyph glyph-name="ubreve" unicode="&#x16d;" horiz-adv-x="509" 
d="M212 -11q-55 0 -88 32.5t-35 84.5v285h47v-271q2 -38 24.5 -63t67.5 -27q38 0 71 20t53.5 54.5t20.5 78.5v208h47v-391h-42l-5 123l7 -27q-10 -30 -35.5 -54.5t-60 -38.5t-72.5 -14zM252 468q-37 0 -66.5 20.5t-47 58t-21.5 86.5h34q3 -35 16 -65t35 -47.5t50 -17.5
q29 0 50 17.5t33.5 47.5t14.5 65h35q-3 -50 -20.5 -87t-46.5 -57.5t-66 -20.5z" />
    <glyph glyph-name="ucircumflex" unicode="&#xfb;" horiz-adv-x="509" 
d="M212 -11q-55 0 -88 32.5t-35 84.5v285h47v-271q2 -38 24.5 -63t67.5 -27q38 0 71 20t53.5 54.5t20.5 78.5v208h47v-391h-42l-5 123l7 -27q-10 -30 -35.5 -54.5t-60 -38.5t-72.5 -14zM355 488l-109 122l21 3l-110 -125h-47l145 159h1l146 -159h-47z" />
    <glyph glyph-name="uni0215" unicode="&#x215;" horiz-adv-x="509" 
d="M212 -11q-55 0 -88 32.5t-35 84.5v285h47v-271q2 -38 24.5 -63t67.5 -27q38 0 71 20t53.5 54.5t20.5 78.5v208h47v-391h-42l-5 123l7 -27q-10 -30 -35.5 -54.5t-60 -38.5t-72.5 -14zM87 621h52l83 -133h-34zM201 621h52l83 -133h-34z" />
    <glyph glyph-name="udieresis" unicode="&#xfc;" horiz-adv-x="509" 
d="M212 -11q-55 0 -88 32.5t-35 84.5v285h47v-271q2 -38 24.5 -63t67.5 -27q38 0 71 20t53.5 54.5t20.5 78.5v208h47v-391h-42l-5 123l7 -27q-10 -30 -35.5 -54.5t-60 -38.5t-72.5 -14zM134 517q0 14 10 24t23 10t23.5 -10t10.5 -24t-10.5 -24t-23.5 -10t-23 10t-10 24v0z
M308 517q0 14 10.5 24t23.5 10q12 0 22.5 -10t10.5 -24t-10.5 -24t-22.5 -10q-13 0 -23.5 10t-10.5 24v0z" />
    <glyph glyph-name="uni1EE5" unicode="&#x1ee5;" horiz-adv-x="509" 
d="M212 -11q-55 0 -88 32.5t-35 84.5v285h47v-271q2 -38 24.5 -63t67.5 -27q38 0 71 20t53.5 54.5t20.5 78.5v208h47v-391h-42l-5 123l7 -27q-10 -30 -35.5 -54.5t-60 -38.5t-72.5 -14zM221 -99q0 14 10.5 23t23.5 9q12 0 22 -9t10 -23t-10 -23t-22 -9q-13 0 -23.5 9.5
t-10.5 22.5z" />
    <glyph glyph-name="ugrave" unicode="&#xf9;" horiz-adv-x="509" 
d="M212 -11q-55 0 -88 32.5t-35 84.5v285h47v-271q2 -38 24.5 -63t67.5 -27q38 0 71 20t53.5 54.5t20.5 78.5v208h47v-391h-42l-5 123l7 -27q-10 -30 -35.5 -54.5t-60 -38.5t-72.5 -14zM140 621h52l83 -133h-34z" />
    <glyph glyph-name="uni1EE7" unicode="&#x1ee7;" horiz-adv-x="509" 
d="M212 -11q-55 0 -88 32.5t-35 84.5v285h47v-271q2 -38 24.5 -63t67.5 -27q38 0 71 20t53.5 54.5t20.5 78.5v208h47v-391h-42l-5 123l7 -27q-10 -30 -35.5 -54.5t-60 -38.5t-72.5 -14zM243 468q22 18 36 33t14 35q0 17 -10 27t-26 10q-18 0 -29.5 -8.5t-24.5 -26.5l-21 16
q17 27 36.5 39.5t43.5 12.5q19 0 33 -7.5t22.5 -22.5t8.5 -38q0 -30 -19 -51t-46 -41z" />
    <glyph glyph-name="uhorn" unicode="&#x1b0;" horiz-adv-x="533" 
d="M212 -11q-55 0 -88 32.5t-35 84.5v285h47v-271q2 -38 24.5 -63t67.5 -27q38 0 71 20t53.5 54.5t20.5 78.5v208h47v-391h-42l-5 123l7 -27q-10 -30 -35.5 -54.5t-60 -38.5t-72.5 -14zM392 391q48 0 72 21.5t26 78.5h38q-3 -56 -21 -84.5t-47.5 -38t-67.5 -9.5v32z" />
    <glyph glyph-name="uni1EE9" unicode="&#x1ee9;" horiz-adv-x="533" 
d="M212 -11q-55 0 -88 32.5t-35 84.5v285h47v-271q2 -38 24.5 -63t67.5 -27q38 0 71 20t53.5 54.5t20.5 78.5v208h47v-391h-42l-5 123l7 -27q-10 -30 -35.5 -54.5t-60 -38.5t-72.5 -14zM392 391q48 0 72 21.5t26 78.5h38q-3 -56 -21 -84.5t-47.5 -38t-67.5 -9.5v32zM336 606
l-106 -133h-34l87 133h53z" />
    <glyph glyph-name="uni1EF1" unicode="&#x1ef1;" horiz-adv-x="533" 
d="M212 -11q-55 0 -88 32.5t-35 84.5v285h47v-271q2 -38 24.5 -63t67.5 -27q38 0 71 20t53.5 54.5t20.5 78.5v208h47v-391h-42l-5 123l7 -27q-10 -30 -35.5 -54.5t-60 -38.5t-72.5 -14zM392 391q48 0 72 21.5t26 78.5h38q-3 -56 -21 -84.5t-47.5 -38t-67.5 -9.5v32zM221 -99
q0 14 10.5 23t23.5 9q12 0 22 -9t10 -23t-10 -23t-22 -9q-13 0 -23.5 9.5t-10.5 22.5z" />
    <glyph glyph-name="uni1EEB" unicode="&#x1eeb;" horiz-adv-x="533" 
d="M212 -11q-55 0 -88 32.5t-35 84.5v285h47v-271q2 -38 24.5 -63t67.5 -27q38 0 71 20t53.5 54.5t20.5 78.5v208h47v-391h-42l-5 123l7 -27q-10 -30 -35.5 -54.5t-60 -38.5t-72.5 -14zM392 391q48 0 72 21.5t26 78.5h38q-3 -56 -21 -84.5t-47.5 -38t-67.5 -9.5v32zM140 621
h52l83 -133h-34z" />
    <glyph glyph-name="uni1EED" unicode="&#x1eed;" horiz-adv-x="533" 
d="M212 -11q-55 0 -88 32.5t-35 84.5v285h47v-271q2 -38 24.5 -63t67.5 -27q38 0 71 20t53.5 54.5t20.5 78.5v208h47v-391h-42l-5 123l7 -27q-10 -30 -35.5 -54.5t-60 -38.5t-72.5 -14zM392 391q48 0 72 21.5t26 78.5h38q-3 -56 -21 -84.5t-47.5 -38t-67.5 -9.5v32zM243 468
q22 18 36 33t14 35q0 17 -10 27t-26 10q-18 0 -29.5 -8.5t-24.5 -26.5l-21 16q17 27 36.5 39.5t43.5 12.5q19 0 33 -7.5t22.5 -22.5t8.5 -38q0 -30 -19 -51t-46 -41z" />
    <glyph glyph-name="uni1EEF" unicode="&#x1eef;" horiz-adv-x="533" 
d="M212 -11q-55 0 -88 32.5t-35 84.5v285h47v-271q2 -38 24.5 -63t67.5 -27q38 0 71 20t53.5 54.5t20.5 78.5v208h47v-391h-42l-5 123l7 -27q-10 -30 -35.5 -54.5t-60 -38.5t-72.5 -14zM392 391q48 0 72 21.5t26 78.5h38q-3 -56 -21 -84.5t-47.5 -38t-67.5 -9.5v32zM330 458
q-30 0 -48.5 14.5t-34.5 31.5q-13 13 -26.5 24.5t-31.5 11.5q-12 0 -23.5 -8.5t-19.5 -27t-9 -50.5l-30 1q-1 39 10.5 66.5t30.5 41.5t43 14q27 0 45 -14.5t33 -30.5q13 -15 27 -27t33 -12q20 0 33.5 20t15.5 68l30 -1q1 -40 -9.5 -67.5t-28.5 -41t-40 -13.5z" />
    <glyph glyph-name="uhungarumlaut" unicode="&#x171;" horiz-adv-x="509" 
d="M212 -11q-55 0 -88 32.5t-35 84.5v285h47v-271q2 -38 24.5 -63t67.5 -27q38 0 71 20t53.5 54.5t20.5 78.5v208h47v-391h-42l-5 123l7 -27q-10 -30 -35.5 -54.5t-60 -38.5t-72.5 -14zM316 621l-106 -133h-34l87 133h53zM432 620l-106 -133h-34l87 133h53z" />
    <glyph glyph-name="uni0217" unicode="&#x217;" horiz-adv-x="509" 
d="M212 -11q-55 0 -88 32.5t-35 84.5v285h47v-271q2 -38 24.5 -63t67.5 -27q38 0 71 20t53.5 54.5t20.5 78.5v208h47v-391h-42l-5 123l7 -27q-10 -30 -35.5 -54.5t-60 -38.5t-72.5 -14zM258 619q38 0 67 -20.5t47 -57.5t21 -87h-34q-2 36 -15.5 65.5t-35 47t-50.5 17.5
q-28 0 -49.5 -17.5t-34 -47t-14.5 -65.5h-35q3 50 20.5 87t46.5 57.5t66 20.5z" />
    <glyph glyph-name="umacron" unicode="&#x16b;" horiz-adv-x="509" 
d="M212 -11q-55 0 -88 32.5t-35 84.5v285h47v-271q2 -38 24.5 -63t67.5 -27q38 0 71 20t53.5 54.5t20.5 78.5v208h47v-391h-42l-5 123l7 -27q-10 -30 -35.5 -54.5t-60 -38.5t-72.5 -14zM137 527h236v-36h-236v36z" />
    <glyph glyph-name="uogonek" unicode="&#x173;" horiz-adv-x="511" 
d="M381 -198q-36 0 -62.5 24.5t-26.5 64.5q0 35 25.5 67.5t62.5 51.5l24 -1l17 -9q-41 -23 -64.5 -50t-23.5 -56q0 -27 16.5 -41.5t36.5 -14.5t35.5 13t27.5 33l22 -23q-13 -25 -37.5 -42t-52.5 -17zM212 -11q-55 0 -88 32.5t-35 84.5v285h47v-271q2 -38 24.5 -63t67.5 -27
q38 0 71 20t53.5 54.5t20.5 78.5v208h47v-391h-42l-5 123l7 -27q-10 -30 -35.5 -54.5t-60 -38.5t-72.5 -14z" />
    <glyph glyph-name="uring" unicode="&#x16f;" horiz-adv-x="509" 
d="M212 -11q-55 0 -88 32.5t-35 84.5v285h47v-271q2 -38 24.5 -63t67.5 -27q38 0 71 20t53.5 54.5t20.5 78.5v208h47v-391h-42l-5 123l7 -27q-10 -30 -35.5 -54.5t-60 -38.5t-72.5 -14zM176 523q0 32 21.5 53t54.5 21q32 0 53.5 -21t21.5 -53t-21.5 -53t-53.5 -21
q-33 0 -54.5 20.5t-21.5 53.5zM205 522q0 -19 14 -33t33 -14t32.5 14t13.5 33q0 20 -13.5 33.5t-32.5 13.5t-33 -13.5t-14 -33.5z" />
    <glyph glyph-name="utilde" unicode="&#x169;" horiz-adv-x="509" 
d="M212 -11q-55 0 -88 32.5t-35 84.5v285h47v-271q2 -38 24.5 -63t67.5 -27q38 0 71 20t53.5 54.5t20.5 78.5v208h47v-391h-42l-5 123l7 -27q-10 -30 -35.5 -54.5t-60 -38.5t-72.5 -14zM330 458q-30 0 -48.5 14.5t-34.5 31.5q-13 13 -26.5 24.5t-31.5 11.5q-12 0 -23.5 -8.5
t-19.5 -27t-9 -50.5l-30 1q-1 39 10.5 66.5t30.5 41.5t43 14q27 0 45 -14.5t33 -30.5q13 -15 27 -27t33 -12q20 0 33.5 20t15.5 68l30 -1q1 -40 -9.5 -67.5t-28.5 -41t-40 -13.5z" />
    <glyph glyph-name="v" unicode="v" horiz-adv-x="454" 
d="M226 -15l-198 406h55l163 -355l-29 1l157 354h52l-194 -406h-6z" />
    <glyph glyph-name="w" unicode="w" horiz-adv-x="665" 
d="M309 391l148 -333l-11 -1l143 334h48l-184 -415l-126 278l-115 -278l-184 415h47l151 -340l-17 5l100 242l-43 93h43z" />
    <glyph glyph-name="wacute" unicode="&#x1e83;" horiz-adv-x="665" 
d="M309 391l148 -333l-11 -1l143 334h48l-184 -415l-126 278l-115 -278l-184 415h47l151 -340l-17 5l100 242l-43 93h43zM413 600l-106 -133h-34l87 133h53z" />
    <glyph glyph-name="wcircumflex" unicode="&#x175;" horiz-adv-x="665" 
d="M309 391l148 -333l-11 -1l143 334h48l-184 -415l-126 278l-115 -278l-184 415h47l151 -340l-17 5l100 242l-43 93h43zM432 482l-109 122l21 3l-110 -125h-47l145 159h1l146 -159h-47z" />
    <glyph glyph-name="wdieresis" unicode="&#x1e85;" horiz-adv-x="665" 
d="M309 391l148 -333l-11 -1l143 334h48l-184 -415l-126 278l-115 -278l-184 415h47l151 -340l-17 5l100 242l-43 93h43zM211 511q0 14 10 24t23 10t23.5 -10t10.5 -24t-10.5 -24t-23.5 -10t-23 10t-10 24v0zM385 511q0 14 10.5 24t23.5 10q12 0 22.5 -10t10.5 -24
t-10.5 -24t-22.5 -10q-13 0 -23.5 10t-10.5 24v0z" />
    <glyph glyph-name="wgrave" unicode="&#x1e81;" horiz-adv-x="665" 
d="M309 391l148 -333l-11 -1l143 334h48l-184 -415l-126 278l-115 -278l-184 415h47l151 -340l-17 5l100 242l-43 93h43zM217 615h52l83 -133h-34z" />
    <glyph glyph-name="x" unicode="x" horiz-adv-x="405" 
d="M204 222l116 169h49l-145 -204zM377 0h-56l-293 391h59zM203 168l-120 -168h-50l144 199z" />
    <glyph glyph-name="y" unicode="y" horiz-adv-x="454" 
d="M125 -188l255 579h46l-252 -579h-49zM213 -4l-185 395h53l169 -370z" />
    <glyph glyph-name="yacute" unicode="&#xfd;" horiz-adv-x="454" 
d="M125 -188l255 579h46l-252 -579h-49zM213 -4l-185 395h53l169 -370zM311 600l-106 -133h-34l87 133h53z" />
    <glyph glyph-name="ycircumflex" unicode="&#x177;" horiz-adv-x="454" 
d="M125 -188l255 579h46l-252 -579h-49zM213 -4l-185 395h53l169 -370zM330 482l-109 122l21 3l-110 -125h-47l145 159h1l146 -159h-47z" />
    <glyph glyph-name="ydieresis" unicode="&#xff;" horiz-adv-x="454" 
d="M125 -188l255 579h46l-252 -579h-49zM213 -4l-185 395h53l169 -370zM109 511q0 14 10 24t23 10t23.5 -10t10.5 -24t-10.5 -24t-23.5 -10t-23 10t-10 24v0zM283 511q0 14 10.5 24t23.5 10q12 0 22.5 -10t10.5 -24t-10.5 -24t-22.5 -10q-13 0 -23.5 10t-10.5 24v0z" />
    <glyph glyph-name="uni1EF5" unicode="&#x1ef5;" horiz-adv-x="454" 
d="M125 -188l255 579h46l-252 -579h-49zM213 -4l-185 395h53l169 -370zM319 -102q0 14 10.5 23t23.5 9q12 0 22 -9t10 -23t-10 -23t-22 -9q-13 0 -23.5 9.5t-10.5 22.5z" />
    <glyph glyph-name="ygrave" unicode="&#x1ef3;" horiz-adv-x="454" 
d="M125 -188l255 579h46l-252 -579h-49zM213 -4l-185 395h53l169 -370zM115 615h52l83 -133h-34z" />
    <glyph glyph-name="uni1EF7" unicode="&#x1ef7;" horiz-adv-x="454" 
d="M125 -188l255 579h46l-252 -579h-49zM213 -4l-185 395h53l169 -370zM218 462q22 18 36 33t14 35q0 17 -10 27t-26 10q-18 0 -29.5 -8.5t-24.5 -26.5l-21 16q17 27 36.5 39.5t43.5 12.5q19 0 33 -7.5t22.5 -22.5t8.5 -38q0 -30 -19 -51t-46 -41z" />
    <glyph glyph-name="uni0233" unicode="&#x233;" horiz-adv-x="454" 
d="M125 -188l255 579h46l-252 -579h-49zM213 -4l-185 395h53l169 -370zM112 521h236v-36h-236v36z" />
    <glyph glyph-name="uni1EF9" unicode="&#x1ef9;" horiz-adv-x="454" 
d="M125 -188l255 579h46l-252 -579h-49zM213 -4l-185 395h53l169 -370zM305 452q-30 0 -48.5 14.5t-34.5 31.5q-13 13 -26.5 24.5t-31.5 11.5q-12 0 -23.5 -8.5t-19.5 -27t-9 -50.5l-30 1q-1 39 10.5 66.5t30.5 41.5t43 14q27 0 45 -14.5t33 -30.5q13 -15 27 -27t33 -12
q20 0 33.5 20t15.5 68l30 -1q1 -40 -9.5 -67.5t-28.5 -41t-40 -13.5z" />
    <glyph glyph-name="z" unicode="z" horiz-adv-x="404" 
d="M99 352q-26 0 -43 12.5t-17 44.5v19h37v-12q0 -12 8.5 -18.5t25.5 -6.5h253l-254 -361l-10 10h260v-40h-323l257 365l10 -13h-204z" />
    <glyph glyph-name="zacute" unicode="&#x17a;" horiz-adv-x="404" 
d="M99 352q-26 0 -43 12.5t-17 44.5v19h37v-12q0 -12 8.5 -18.5t25.5 -6.5h253l-254 -361l-10 10h260v-40h-323l257 365l10 -13h-204zM289 600l-106 -133h-34l87 133h53z" />
    <glyph glyph-name="zcaron" unicode="&#x17e;" horiz-adv-x="404" 
d="M99 352q-26 0 -43 12.5t-17 44.5v19h37v-12q0 -12 8.5 -18.5t25.5 -6.5h253l-254 -361l-10 10h260v-40h-323l257 365l10 -13h-204zM111 601l110 -123l-22 -3l111 126h47l-145 -159h-1l-147 159h47z" />
    <glyph glyph-name="zdotaccent" unicode="&#x17c;" horiz-adv-x="404" 
d="M99 352q-26 0 -43 12.5t-17 44.5v19h37v-12q0 -12 8.5 -18.5t25.5 -6.5h253l-254 -361l-10 10h260v-40h-323l257 365l10 -13h-204zM174 535q0 14 11 23.5t24 9.5q14 0 24 -9.5t10 -23.5q0 -15 -10 -24.5t-24 -9.5q-13 0 -24 10t-11 24z" />
    <glyph glyph-name="f_f_ij" horiz-adv-x="1097" 
d="M115 0v347h-68v43h68v197q0 94 32.5 135.5t96.5 41.5q14 0 30 -3.5t29 -11.5l-20 -34q-7 5 -15.5 7.5t-19.5 2.5q-43 0 -64.5 -30t-21.5 -107v-198h131v-43h-131v-347h-47zM439 0v347h-68v43h68v197q0 94 32.5 135.5t96.5 41.5q14 0 30 -3.5t29 -11.5l-20 -34
q-7 5 -15.5 7.5t-19.5 2.5q-43 0 -64.5 -30t-21.5 -107v-198h131v-43h-131v-347h-47zM737 391h47v-391h-47v391zM727 535q0 14 11 23.5t24 9.5q14 0 24 -9.5t10 -23.5q0 -15 -10 -24.5t-24 -9.5q-13 0 -24 10t-11 24zM945 -188l-30 29q26 26 41.5 65t15.5 88v397h48v-396
q0 -63 -18.5 -108.5t-56.5 -74.5zM962 535q0 14 11 23.5t24 9.5q14 0 24 -9.5t10 -23.5q0 -15 -10 -24.5t-24 -9.5q-13 0 -24 10t-11 24z" />
    <glyph glyph-name="f_ij" horiz-adv-x="773" 
d="M115 0v347h-68v43h68v197q0 94 32.5 135.5t96.5 41.5q14 0 30 -3.5t29 -11.5l-20 -34q-7 5 -15.5 7.5t-19.5 2.5q-43 0 -64.5 -30t-21.5 -107v-198h131v-43h-131v-347h-47zM413 391h47v-391h-47v391zM403 535q0 14 11 23.5t24 9.5q14 0 24 -9.5t10 -23.5q0 -15 -10 -24.5
t-24 -9.5q-13 0 -24 10t-11 24zM621 -188l-30 29q26 26 41.5 65t15.5 88v397h48v-396q0 -63 -18.5 -108.5t-56.5 -74.5zM638 535q0 14 11 23.5t24 9.5q14 0 24 -9.5t10 -23.5q0 -15 -10 -24.5t-24 -9.5q-13 0 -24 10t-11 24z" />
    <glyph glyph-name="ordfeminine" unicode="&#xaa;" horiz-adv-x="410" 
d="M180 417q-39 0 -70.5 18.5t-50.5 51.5t-19 77q0 47 19 80t51 50.5t69 17.5q43 0 77.5 -19t49.5 -53l-7 -16l5 81h34v-283h-38v86l10 -12q-8 -20 -27.5 -38t-45.5 -29.5t-57 -11.5zM189 449q30 0 54.5 13.5t40 36.5t16.5 53v37q-8 38 -39 64.5t-72 26.5q-46 0 -78.5 -31
t-32.5 -84q0 -32 15 -58.5t40.5 -42t55.5 -15.5z" />
    <glyph glyph-name="ordmasculine" unicode="&#xba;" horiz-adv-x="380" 
d="M40 560q0 42 20 75.5t54 53.5t76 20q43 0 77 -20t54 -53.5t20 -75.5q0 -41 -20 -74.5t-54 -53t-77 -19.5q-42 0 -76 19t-54 52t-20 76zM79 560q0 -31 15 -57t40 -41t56 -15t56.5 15t40.5 41t15 57q0 32 -15 58t-40.5 41.5t-56.5 15.5q-32 0 -57 -16t-39.5 -42.5
t-14.5 -56.5z" />
    <glyph glyph-name="uni0394" unicode="&#x394;" horiz-adv-x="742" 
d="M51 0l315 741h5l320 -741h-640zM627 12l-277 672h41l-284 -672l-15 34h560z" />
    <glyph glyph-name="uni03BC" unicode="&#x3bc;" horiz-adv-x="509" 
d="M212 -11q-55 0 -88 32.5t-35 84.5v285h47v-271q2 -38 24.5 -63t67.5 -27q38 0 71 20t53.5 54.5t20.5 78.5v208h47v-391h-42l-5 123l7 -27q-10 -30 -35.5 -54.5t-60 -38.5t-72.5 -14zM89 365h44v-598h-44v598z" />
    <glyph glyph-name="pi" unicode="&#x3c0;" horiz-adv-x="320" 
d="M6 333h307v-43h-44v-290h-43v290h-124v-290h-43v290h-53v43z" />
    <glyph glyph-name="zero" unicode="0" horiz-adv-x="619" 
d="M310 -5q-65 0 -116 25.5t-86 71.5t-53.5 106.5t-18.5 129.5q0 71 18 131.5t53 105.5t86 69.5t117 24.5q65 0 115.5 -25.5t85.5 -71t53.5 -105.5t18.5 -129q0 -70 -18.5 -130.5t-53.5 -106t-85.5 -71t-115.5 -25.5zM309 42q66 0 116.5 34.5t79 99t28.5 152.5
q0 87 -28.5 151t-79 99t-116.5 34q-66 1 -116 -34t-78 -99t-29 -152q1 -87 29 -151.5t78 -99t116 -34.5z" />
    <glyph glyph-name="one" unicode="1" horiz-adv-x="315" 
d="M56 653h146v-653h-49v606h-97v47z" />
    <glyph glyph-name="two" unicode="2" horiz-adv-x="507" 
d="M53 0q64 62 123.5 122.5t106.5 118t74.5 111.5t27.5 105q0 44 -13.5 74t-35 48.5t-47 27t-49.5 8.5q-43 0 -71 -14.5t-44.5 -37.5t-23.5 -48.5t-7 -48.5q0 -35 10 -63t29 -48l-30 -27q-18 16 -31 37.5t-19.5 47.5t-6.5 52q0 54 23 98.5t68 71t109 26.5q57 0 99.5 -26.5
t66 -72t23.5 -101.5q0 -55 -26 -109t-68.5 -107t-92 -105t-96.5 -103l-19 10h338v-47h-418z" />
    <glyph glyph-name="three" unicode="3" horiz-adv-x="520" 
d="M418 653l-202 -278l-37 11q17 10 37 14.5t42 4.5q39 2 74 -8.5t62.5 -34t43 -59.5t15.5 -86q0 -68 -30 -118.5t-81.5 -78.5t-116.5 -28q-46 0 -88 18.5t-71 49.5l25 40q22 -26 58 -43.5t75 -17.5q52 0 92.5 22.5t63.5 63.5t23 94q0 70 -43 110t-115 40q-28 0 -52 -6
t-41 -14l-4 3l194 264l18 -9h-272v46h330z" />
    <glyph glyph-name="four" unicode="4" horiz-adv-x="518" 
d="M15 173v1l380 487h1v-449h92v-39h-92v-173h-49v173h-332zM353 542l-261 -334l-16 4h271v359z" />
    <glyph glyph-name="five" unicode="5" horiz-adv-x="527" 
d="M247 -8q-46 0 -87 16.5t-70 44.5l28 35q23 -24 56 -37.5t68 -13.5q51 0 88 22.5t57 60t20 82.5q0 47 -16 84.5t-50 59.5t-88 22q-38 0 -70 -11t-58 -28h-1v324h298v-46h-255v-229l-8 11q20 10 49 15.5t56 5.5q65 0 108 -28t64 -75t21 -104q0 -58 -26 -106t-73.5 -76.5
t-110.5 -28.5z" />
    <glyph glyph-name="six" unicode="6" horiz-adv-x="529" 
d="M262 -8q-60 0 -109.5 29t-78.5 80t-29 117q0 71 28.5 132t75.5 114t103.5 98t112.5 84l32 -37q-83 -49 -142 -101.5t-94.5 -104.5t-47.5 -100l-13 3q28 49 73 74.5t103 25.5q54 0 99.5 -27.5t73.5 -73.5t28 -104q0 -60 -29.5 -107.5t-78.5 -74.5t-107 -27zM260 36
q46 0 84 21.5t60.5 59t22.5 84.5t-22.5 83.5t-60.5 58t-84 21.5t-83.5 -20.5t-60 -55t-22.5 -78.5v-11q0 -44 22.5 -81.5t60 -59.5t83.5 -22z" />
    <glyph glyph-name="seven" unicode="7" horiz-adv-x="476" 
d="M435 653l-280 -653h-56l269 618l20 -11h-366v46h413z" />
    <glyph glyph-name="eight" unicode="8" horiz-adv-x="514" 
d="M41 200q0 49 19.5 87.5t51.5 65.5t70 39q-37 16 -60.5 47.5t-23.5 73.5q0 43 19.5 76t55 52.5t82.5 19.5q46 0 81 -19.5t54.5 -52.5t19.5 -75q0 -43 -23 -74t-59 -48q39 -12 72 -39t53 -65.5t20 -87.5q0 -56 -29.5 -103.5t-78.5 -76t-110 -28.5q-60 0 -108.5 28.5t-77 76
t-28.5 103.5v0zM90 202q0 -45 22 -83.5t59.5 -61.5t82.5 -23q47 0 85.5 23t61.5 61.5t23 83.5q0 46 -22.5 83t-60.5 60t-85 23q-45 0 -83 -22.5t-60.5 -60t-22.5 -83.5v0zM145 508q0 -42 32.5 -70.5t78.5 -28.5q45 0 76 28.5t31 70.5q0 50 -31 81t-76 31q-46 0 -78.5 -31
t-32.5 -81v0z" />
    <glyph glyph-name="nine" unicode="9" horiz-adv-x="529" 
d="M246 224q-54 0 -99.5 27.5t-73.5 74t-28 103.5q0 61 29.5 108t78.5 74t107 27q61 0 110 -26t78 -73.5t29 -112.5q0 -74 -30 -136.5t-78.5 -115.5t-106.5 -98t-115 -85l-33 38q87 52 148 104t97 100t47 87l20 3q-33 -49 -74 -74t-106 -25zM262 267q74 0 120 41t46 114v15
q-2 46 -25 81t-59.5 55t-81.5 20q-46 0 -84 -21.5t-60.5 -58.5t-22.5 -84q0 -46 22.5 -83t60.5 -58t84 -21z" />
    <glyph glyph-name="zero.zero" horiz-adv-x="619" 
d="M310 -5q-65 0 -116 25.5t-86 71.5t-53.5 106.5t-18.5 129.5q0 71 18 131.5t53 105.5t86 69.5t117 24.5q65 0 115.5 -25.5t85.5 -71t53.5 -105.5t18.5 -129q0 -70 -18.5 -130.5t-53.5 -106t-85.5 -71t-115.5 -25.5zM309 42q66 0 116.5 34.5t79 99t28.5 152.5
q0 87 -28.5 151t-79 99t-116.5 34q-66 1 -116 -34t-78 -99t-29 -152q1 -87 29 -151.5t78 -99t116 -34.5zM275 327q0 14 10 24t23 10t23.5 -10t10.5 -24q0 -15 -10.5 -24.5t-23.5 -9.5t-23 9.5t-10 24.5v0z" />
    <glyph glyph-name="uni00B9" unicode="&#xb9;" horiz-adv-x="258" 
d="M65 658h96v-330h-45v287h-51v43z" />
    <glyph glyph-name="uni00B2" unicode="&#xb2;" horiz-adv-x="399" 
d="M91 648q14 21 41.5 35.5t59.5 14.5q50 -1 80.5 -28.5t30.5 -80.5q0 -33 -17.5 -64.5t-44.5 -61t-57 -57t-56 -52.5l2 32h188v-40h-228v22q29 25 57.5 51.5t53 53.5t39 54t14.5 52q0 43 -20.5 60.5t-52.5 17.5q-25 0 -43.5 -11t-29.5 -27z" />
    <glyph glyph-name="uni00B3" unicode="&#xb3;" horiz-adv-x="404" 
d="M167 345q-35 0 -59.5 14t-38.5 29l16 28q11 -12 30.5 -25t47.5 -12q38 1 59.5 25.5t21.5 60.5t-22.5 54.5t-53.5 18.5q-21 0 -33.5 -3.5t-24.5 -8.5l-3 5l103 140l13 -12h-143v36h184l-106 -154l-33 5q11 8 26.5 13.5t32.5 5.5q25 1 49 -11.5t39.5 -35.5t15.5 -54
q0 -34 -15 -61t-42 -42.5t-64 -15.5z" />
    <glyph glyph-name="uni2074" unicode="&#x2074;" horiz-adv-x="364" 
d="M290 463v-30h-248l-1 15l183 219h26v-339h-42v287l11 -4l-139 -164l-8 16h218z" />
    <glyph glyph-name="fraction" unicode="&#x2044;" horiz-adv-x="546" 
d="M471 672l-407 -672h-46l407 672h46z" />
    <glyph glyph-name="onehalf" unicode="&#xbd;" horiz-adv-x="824" 
d="M72 664h96v-330h-45v287h-51v43zM511 299q14 21 41.5 35.5t59.5 14.5q50 -1 80.5 -28.5t30.5 -80.5q0 -33 -17.5 -64.5t-44.5 -61t-57 -57t-56 -52.5l2 32h188v-40h-228v22q29 25 57.5 51.5t53 53.5t39 54t14.5 52q0 43 -20.5 60.5t-52.5 17.5q-25 0 -43.5 -11t-29.5 -27
zM588 672l-407 -672h-46l407 672h46z" />
    <glyph glyph-name="onequarter" unicode="&#xbc;" horiz-adv-x="762" 
d="M582 671l-407 -671h-46l407 671h46zM72 658h96v-330h-45v287h-51v43zM713 135v-30h-248l-1 15l183 219h26v-339h-42v287l11 -4l-139 -164l-8 16h218z" />
    <glyph glyph-name="threequarters" unicode="&#xbe;" horiz-adv-x="743" 
d="M148 345q-35 0 -59.5 14t-38.5 29l16 28q11 -12 30.5 -25t47.5 -12q38 1 59.5 25.5t21.5 60.5t-22.5 54.5t-53.5 18.5q-21 0 -33.5 -3.5t-24.5 -8.5l-3 5l103 140l13 -12h-143v36h184l-106 -154l-33 5q11 8 26.5 13.5t32.5 5.5q25 1 49 -11.5t39.5 -35.5t15.5 -54
q0 -34 -15 -61t-42 -42.5t-64 -15.5zM590 672l-407 -672h-46l407 672h46zM686 135v-30h-248l-1 15l183 219h26v-339h-42v287l11 -4l-139 -164l-8 16h218z" />
    <glyph glyph-name="asterisk" unicode="*" horiz-adv-x="335" 
d="M150 546l-48 -28t-49 -28q-4 8 -8.5 16t-9.5 15q25 14 49.5 28t48.5 27q-24 14 -48.5 29t-48.5 29q3 7 7 13.5t8 13.5q25 -14 49.5 -28.5t49.5 -28.5v116h36q-1 -29 -1 -58t-1 -58q25 14 50.5 28.5t50.5 27.5q3 -7 7 -13.5t8 -13.5q-25 -14 -49.5 -29t-50.5 -29v0
q25 -14 49.5 -28.5t49.5 -28.5q-4 -7 -8.5 -14.5t-9.5 -15.5q-24 14 -48.5 29t-49.5 29q0 -28 -0.5 -55.5t-0.5 -56.5h-32v112z" />
    <glyph glyph-name="backslash" unicode="\" horiz-adv-x="349" 
d="M58 740q70 -190 139.5 -379.5t139.5 -379.5h-48q-70 190 -139.5 379.5t-139.5 379.5h48z" />
    <glyph glyph-name="periodcentered" unicode="&#xb7;" horiz-adv-x="166" 
d="M53 283q0 14 10 24t23 10t23.5 -10t10.5 -24q0 -15 -10.5 -24.5t-23.5 -9.5t-23 9.5t-10 24.5v0z" />
    <glyph glyph-name="bullet" unicode="&#x2022;" horiz-adv-x="481" 
d="M149 302q0 26 12.5 46.5t33 33t45.5 12.5q26 0 47 -12.5t33.5 -33t12.5 -46.5q0 -25 -12.5 -46t-33.5 -33.5t-47 -12.5q-25 0 -45.5 12.5t-33 33.5t-12.5 46v0z" />
    <glyph glyph-name="colon" unicode=":" horiz-adv-x="176" 
d="M52 293q0 14 10.5 24t23.5 10q12 0 22.5 -10t10.5 -24q0 -15 -10.5 -24.5t-22.5 -9.5q-13 0 -23.5 9.5t-10.5 24.5v0zM52 34q0 14 10.5 24t23.5 10q12 0 22.5 -10t10.5 -24q0 -15 -10.5 -24.5t-22.5 -9.5q-13 0 -23.5 9.5t-10.5 24.5v0z" />
    <glyph glyph-name="comma" unicode="," horiz-adv-x="201" 
d="M143 87q-22 -52 -43 -103.5t-43 -104.5h-40q20 53 39 104.5t38 103.5h49z" />
    <glyph glyph-name="ellipsis" unicode="&#x2026;" horiz-adv-x="504" 
d="M53 34q0 14 10 24t23 10t23.5 -10t10.5 -24q0 -15 -10.5 -24.5t-23.5 -9.5t-23 9.5t-10 24.5v0zM222 34q0 14 10.5 24t23.5 10q12 0 22.5 -10t10.5 -24q0 -15 -10.5 -24.5t-22.5 -9.5q-13 0 -23.5 9.5t-10.5 24.5v0zM391 34q0 14 10.5 24t23.5 10t23 -10t10 -24
q0 -15 -10 -24.5t-23 -9.5t-23.5 9.5t-10.5 24.5v0z" />
    <glyph glyph-name="exclam" unicode="!" horiz-adv-x="201" 
d="M78 754h43v-579h-43v579zM101 22q-16 0 -27 10t-11 26q0 14 11 24.5t27 10.5t26.5 -10.5t10.5 -24.5q0 -16 -10.5 -26t-26.5 -10z" />
    <glyph glyph-name="exclamdown" unicode="&#xa1;" horiz-adv-x="201" 
d="M78 -211h43v579h-43v-579zM101 521q-16 0 -27 -10t-11 -26q0 -14 11 -24.5t27 -10.5t26.5 10.5t10.5 24.5q0 16 -10.5 26t-26.5 10z" />
    <glyph glyph-name="numbersign" unicode="#" horiz-adv-x="574" 
d="M231 646q-7 -52 -13 -104.5t-13 -105.5h142q6 53 12.5 105.5t12.5 104.5h44q-7 -52 -13 -104.5t-13 -105.5h122q-1 -10 -1.5 -20.5t-1.5 -21.5h-124q-4 -35 -8 -70.5t-8 -70.5h121q-1 -10 -2 -21l-2 -22h-123q-6 -52 -12 -104.5t-12 -105.5h-44q6 53 12 105.5t12 104.5
h-141q-6 -52 -12 -104.5t-12 -105.5h-44q6 53 12 105.5t12 104.5h-107q2 11 3 22t2 21h108q5 35 9 70.5t8 70.5h-107q2 11 3 21.5t2 20.5h107q6 53 12.5 105.5t12.5 104.5h44zM200 394q-4 -35 -8 -70.5t-9 -70.5h142q5 35 8.5 70.5t7.5 70.5h-141z" />
    <glyph glyph-name="period" unicode="." horiz-adv-x="165" 
d="M53 34q0 14 10 24t23 10t23.5 -10t10.5 -24q0 -15 -10.5 -24.5t-23.5 -9.5t-23 9.5t-10 24.5v0z" />
    <glyph glyph-name="question" unicode="?" horiz-adv-x="455" 
d="M191 173v73q0 48 14 73.5t36 41.5t46 35q36 27 60 59.5t24 84.5q0 44 -20.5 78.5t-55 54t-76.5 19.5q-37 0 -68 -15t-53 -41t-33 -59l-40 17q9 26 26.5 51t42.5 45.5t57.5 33t71.5 12.5q56 0 100.5 -24.5t70.5 -68t26 -100.5q0 -40 -12.5 -71t-34 -55.5t-49.5 -46.5
q-24 -19 -43.5 -33.5t-31 -36.5t-11.5 -64v-63h-47zM217 22q-16 0 -27 10t-11 26q0 14 11 24.5t27 10.5t26.5 -10.5t10.5 -24.5q0 -16 -10.5 -26t-26.5 -10z" />
    <glyph glyph-name="questiondown" unicode="&#xbf;" horiz-adv-x="421" 
d="M263 366v-73q0 -48 -14 -73.5t-35.5 -41.5t-46.5 -35q-36 -27 -60 -59t-24 -85q0 -44 20.5 -78.5t55.5 -54t76 -19.5q37 0 68 15t53 41t33 59l40 -17q-9 -26 -26.5 -51t-42.5 -45.5t-57.5 -33t-71.5 -12.5q-55 0 -100 24.5t-71 68t-26 100.5q0 41 12.5 71.5t34.5 55.5
t49 46q24 19 43.5 33.5t31 36.5t11.5 64v63h47zM237 517q16 0 27 -10t11 -26q0 -14 -11 -24.5t-27 -10.5t-26.5 10.5t-10.5 24.5q0 16 10.5 26t26.5 10z" />
    <glyph glyph-name="quotedbl" unicode="&#x22;" horiz-adv-x="312" 
d="M109 724q-1 -63 -2 -125t-2 -125h-42v250h46zM243 724q-1 -63 -2 -125t-2 -125h-42v250h46z" />
    <glyph glyph-name="quotesingle" unicode="'" horiz-adv-x="154" 
d="M103 724q-1 -63 -2 -125t-2 -125h-42v250h46z" />
    <glyph glyph-name="semicolon" unicode=";" horiz-adv-x="202" 
d="M78 286q0 13 10.5 23t23.5 10t23 -10t10 -24q0 -15 -9.5 -24.5t-23.5 -9.5q-13 0 -23.5 10t-10.5 25v0zM128 87q-22 -52 -43 -103.5t-43 -104.5h-40q20 53 39 104.5t38 103.5h49z" />
    <glyph glyph-name="slash" unicode="/" horiz-adv-x="348" 
d="M340 740q-70 -190 -139.5 -379.5t-139.5 -379.5h-44q71 190 140.5 379.5t139.5 379.5h43z" />
    <glyph glyph-name="underscore" unicode="_" horiz-adv-x="603" 
d="M101 42h402v-42h-402v42z" />
    <glyph glyph-name="periodcentered.loclCAT.case" horiz-adv-x="166" 
d="M53 366q0 14 10 24t23 10t23.5 -10t10.5 -24q0 -15 -10.5 -24.5t-23.5 -9.5t-23 9.5t-10 24.5v0z" />
    <glyph glyph-name="periodcentered.loclCAT" horiz-adv-x="166" 
d="M53 283q0 14 10 24t23 10t23.5 -10t10.5 -24q0 -15 -10.5 -24.5t-23.5 -9.5t-23 9.5t-10 24.5v0z" />
    <glyph glyph-name="braceleft" unicode="{" horiz-adv-x="306" 
d="M212 707q-20 0 -31.5 -10t-16 -33.5t-4.5 -64.5v-137q0 -56 -10 -88t-25 -48t-31 -25q16 -10 31 -26.5t25 -47t10 -83.5v-142q0 -41 4.5 -65t16 -34t31.5 -10h52v-42h-49q-22 0 -41 2t-33 14t-22 42t-8 87v151q0 28 -7 57.5t-24.5 50.5t-48.5 22v0v48q31 2 48.5 22.5
t24.5 50.5t7 58v175q0 46 9 71t23.5 35t33.5 11.5t38 1.5h49v-43h-52z" />
    <glyph glyph-name="braceright" unicode="}" horiz-adv-x="341" 
d="M130 -107q21 0 32 10t15.5 34t4.5 65v164q0 43 11.5 70t27 42t27.5 22q-15 10 -30.5 26t-25.5 47t-10 84v142q0 42 -4.5 65.5t-15.5 33t-32 9.5h-52v43h48q20 0 38.5 -1.5t33.5 -11.5t24 -34.5t9 -71.5v-151q0 -18 2 -44t9 -51t23.5 -42.5t44.5 -18.5v0v-49
q-28 -1 -44.5 -18.5t-23.5 -42.5t-9 -51t-2 -44v-150q0 -46 -9 -71t-24 -34.5t-33.5 -11t-38.5 -1.5h-48v42h52z" />
    <glyph glyph-name="bracketleft" unicode="[" horiz-adv-x="351" 
d="M113 750h182v-45h-131v-810h131v-45h-182v900z" />
    <glyph glyph-name="bracketright" unicode="]" horiz-adv-x="351" 
d="M238 -150h-182v45h132v811h-132v44h182v-900z" />
    <glyph glyph-name="parenleft" unicode="(" horiz-adv-x="398" 
d="M128 293q0 101 24 188t62 156t80 113l32 -30q-38 -44 -72.5 -108t-55.5 -144.5t-21 -174.5t21 -174.5t55.5 -144t72.5 -107.5l-32 -31q-42 44 -80 113t-62 156.5t-24 187.5v0z" />
    <glyph glyph-name="parenright" unicode=")" horiz-adv-x="402" 
d="M293 293q0 -100 -24 -187.5t-61.5 -156.5t-79.5 -113l-33 31q39 44 73 107.5t55 144t21 174.5t-21 174.5t-55 144t-73 107.5l33 31q42 -44 79.5 -113t61.5 -156t24 -188v0z" />
    <glyph glyph-name="emdash" unicode="&#x2014;" horiz-adv-x="704" 
d="M100 218h504v-43h-504v43z" />
    <glyph glyph-name="endash" unicode="&#x2013;" horiz-adv-x="512" 
d="M101 218h302v-43h-302v43z" />
    <glyph glyph-name="hyphen" unicode="-" horiz-adv-x="302" 
d="M53 222h185v-42h-185v42z" />
    <glyph glyph-name="uni00AD" unicode="&#xad;" horiz-adv-x="600" 
d="M53 222h185v-42h-185v42z" />
    <glyph glyph-name="guillemotleft" unicode="&#xab;" horiz-adv-x="603" 
d="M90 240q11 10 26 24t33 30t37.5 32.5t37.5 32.5t33.5 30t25.5 24v-46q-13 -13 -30 -29.5t-35 -33.5t-34.5 -33.5t-29.5 -30.5q13 -13 29.5 -30t34.5 -34t35 -33.5t30 -30.5v-45zM282 240q11 10 26 24t33 30t37.5 32.5t37.5 32.5t33.5 30t25.5 24v-46q-13 -13 -30 -29.5
t-35 -33.5t-34.5 -33.5t-29.5 -30.5q13 -13 29.5 -30t34.5 -34t35 -33.5t30 -30.5v-45z" />
    <glyph glyph-name="guillemotright" unicode="&#xbb;" horiz-adv-x="603" 
d="M492 240q-10 10 -25.5 24t-33.5 30t-37.5 32.5t-37.5 32.5t-33 30t-26 24v-46q13 -13 30 -29.5t35 -33.5t34.5 -33.5t29.5 -30.5q-13 -13 -29.5 -30t-34.5 -34t-35 -33.5t-30 -30.5v-45zM300 240q-10 10 -25.5 24t-33.5 30t-37.5 32.5t-37.5 32.5t-33 30t-26 24v-46
q13 -13 30 -29.5t35 -33.5t34.5 -33.5t29.5 -30.5q-13 -13 -29.5 -30t-34.5 -34t-35 -33.5t-30 -30.5v-45z" />
    <glyph glyph-name="guilsinglleft" unicode="&#x2039;" horiz-adv-x="383" 
d="M90 240q11 10 26 24t33 30t37.5 32.5t37.5 32.5t33.5 30t25.5 24v-46q-13 -13 -30 -29.5t-35 -33.5t-34.5 -33.5t-29.5 -30.5q13 -13 29.5 -30t34.5 -34t35 -33.5t30 -30.5v-45z" />
    <glyph glyph-name="guilsinglright" unicode="&#x203a;" horiz-adv-x="381" 
d="M300 240q-10 10 -25.5 24t-33.5 30t-37.5 32.5t-37.5 32.5t-33 30t-26 24v-46q13 -13 30 -29.5t35 -33.5t34.5 -33.5t29.5 -30.5q-13 -13 -29.5 -30t-34.5 -34t-35 -33.5t-30 -30.5v-45z" />
    <glyph glyph-name="quotedblbase" unicode="&#x201e;" horiz-adv-x="271" 
d="M72 -105l-23 20q21 20 31.5 52t3.5 67l43 7q6 -27 0 -54.5t-20 -51.5t-35 -40v0zM165 -105l-23 20q21 20 31.5 52t3.5 67l43 7q6 -27 0 -54.5t-20 -51.5t-35 -40v0z" />
    <glyph glyph-name="quotedblleft" unicode="&#x201c;" horiz-adv-x="255" 
d="M224 720l24 -21q-22 -27 -32 -57.5t-4 -60.5l-42 -7q-6 30 -0.5 56.5t20 49.5t34.5 40zM114 720l24 -21q-22 -27 -32 -57.5t-4 -60.5l-42 -7q-6 30 -0.5 56.5t20 49.5t34.5 40z" />
    <glyph glyph-name="quotedblright" unicode="&#x201d;" horiz-adv-x="247" 
d="M72 569l-23 20q21 20 31.5 52t3.5 67l43 7q6 -27 0 -54.5t-20 -51.5t-35 -40v0zM165 569l-23 20q21 20 31.5 52t3.5 67l43 7q6 -27 0 -54.5t-20 -51.5t-35 -40v0z" />
    <glyph glyph-name="quoteleft" unicode="&#x2018;" horiz-adv-x="171" 
d="M104 720l24 -21q-22 -27 -32 -57.5t-4 -60.5l-42 -7q-6 30 -0.5 56.5t20 49.5t34.5 40z" />
    <glyph glyph-name="quoteright" unicode="&#x2019;" horiz-adv-x="173" 
d="M72 569l-23 20q21 20 31.5 52t3.5 67l43 7q6 -27 0 -54.5t-20 -51.5t-35 -40v0z" />
    <glyph glyph-name="quotesinglbase" unicode="&#x201a;" horiz-adv-x="173" 
d="M72 -97l-23 20q21 20 31.5 52t3.5 67l43 7q6 -27 0 -54.5t-20 -51.5t-35 -40v0z" />
    <glyph glyph-name="space" unicode=" " horiz-adv-x="307" 
 />
    <glyph glyph-name="uni00A0" unicode="&#xa0;" horiz-adv-x="307" 
 />
    <glyph glyph-name="CR" unicode="&#xd;" horiz-adv-x="307" 
 />
    <glyph glyph-name="uni20B5" unicode="&#x20b5;" horiz-adv-x="692" 
d="M623 47q-23 -14 -53 -27t-66 -20.5t-78 -7.5q-81 0 -147 28.5t-113 78t-72.5 114t-25.5 137.5q0 78 27 145t76 117t114 78t141 28q56 0 105 -15t89 -39l-21 -45q-35 22 -79 37t-93 15q-63 0 -119 -24.5t-98.5 -68t-66.5 -101.5t-24 -125q0 -64 21.5 -121t62 -100
t97.5 -67.5t127 -24.5q52 0 95.5 14.5t77.5 36.5zM382 801h44v-937h-44v937z" />
    <glyph glyph-name="cent" unicode="&#xa2;" horiz-adv-x="433" 
d="M235 456h33v-524h-33v524zM391 38q-27 -22 -61 -34t-71 -12q-60 0 -107 26.5t-74 72.5t-27 105t28 105t74.5 72.5t101.5 26.5q41 0 76 -12t61 -34l-25 -32q-21 17 -49 28t-60 11q-44 0 -80.5 -22t-58 -59.5t-21.5 -83.5q0 -45 21.5 -82.5t59 -59.5t83.5 -22q30 0 56 9.5
t47 25.5z" />
    <glyph glyph-name="colonmonetary" unicode="&#x20a1;" horiz-adv-x="692" 
d="M513 756l-292 -791h-43l291 791h44zM647 758l-291 -792h-44l292 792h43zM623 47q-23 -14 -53 -27t-66 -20.5t-78 -7.5q-81 0 -147 28.5t-113 78t-72.5 114t-25.5 137.5q0 78 27 145t76 117t114 78t141 28q56 0 105 -15t89 -39l-21 -45q-35 22 -79 37t-93 15
q-63 0 -119 -24.5t-98.5 -68t-66.5 -101.5t-24 -125q0 -64 21.5 -121t62 -100t97.5 -67.5t127 -24.5q52 0 95.5 14.5t77.5 36.5z" />
    <glyph glyph-name="currency" unicode="&#xa4;" horiz-adv-x="502" 
d="M359 445q30 -36 30 -84q0 -25 -9 -47.5t-23 -40.5l36 -36l-23 -23l-18 18l-19 19q-36 -30 -85 -30q-23 0 -45 8t-39 21v0l-37 -37l-23 23l36 36q-14 18 -22.5 41t-8.5 48v0q0 24 8 45.5t21 39.5q-9 8 -17 16.5t-17 17.5l23 23l34 -34q18 14 40 23t47 9q26 0 48 -9t40 -24
v0l34 34l23 -23zM141 361q0 -30 14.5 -54.5t39.5 -39t54 -14.5q30 0 54 14.5t38.5 39t14.5 54.5t-14.5 54.5t-38.5 39t-53 14.5q-30 0 -55 -14.5t-39.5 -39t-14.5 -54.5v0z" />
    <glyph glyph-name="dollar" unicode="$" horiz-adv-x="567" 
d="M288 -68v441v18v384h33v-383v-23v-437h-33zM468 630q-31 15 -76 28t-90 13q-70 0 -112 -35t-42 -88q0 -40 24 -66.5t63 -45t83 -35.5q35 -13 69.5 -29t62.5 -39t44.5 -57t16.5 -84q0 -59 -28 -104.5t-78 -70.5t-116 -25q-53 0 -96.5 13t-76 30.5t-51.5 29.5l23 40
q22 -16 53.5 -32t68.5 -27t74 -11q43 0 83.5 17t67 51.5t26.5 87.5q0 51 -25 82.5t-64 51.5t-83 36q-34 13 -68 27.5t-62 35t-44.5 49.5t-16.5 70q0 51 26 89t70.5 59.5t101.5 22.5q50 0 101.5 -13t89.5 -33z" />
    <glyph glyph-name="dong" unicode="&#x20ab;" horiz-adv-x="609" 
d="M331 687h222v-35h-222v35zM90 35h466v-35h-466v35zM282 116q-55 0 -99.5 26.5t-70.5 73.5t-26 106q0 63 27 109t73 71t101 25q56 0 106 -30t72 -77l-9 -20v375h47v-651h-47v119l9 -22q-23 -47 -73 -76t-110 -29zM295 157q44 0 79 19t57 52.5t25 76.5v50q-7 38 -30.5 68
t-57 47.5t-73.5 17.5q-45 0 -81.5 -21t-58 -58t-21.5 -86q0 -46 21.5 -83.5t58 -60t81.5 -22.5z" />
    <glyph glyph-name="Euro" unicode="&#x20ac;" horiz-adv-x="732" 
d="M68 422h344v-41h-344v41zM69 302h343v-40h-343v40zM664 47q-23 -14 -53 -27t-66 -20.5t-78 -7.5q-81 0 -147 28.5t-113 78t-72.5 114t-25.5 137.5q0 78 27 145t76 117t114 78t141 28q56 0 105 -15t89 -39l-21 -45q-35 22 -79 37t-93 15q-63 0 -119 -24.5t-98.5 -68
t-66.5 -101.5t-24 -125q0 -64 21.5 -121t62 -100t97.5 -67.5t127 -24.5q52 0 95.5 14.5t77.5 36.5z" />
    <glyph glyph-name="florin" unicode="&#x192;" horiz-adv-x="303" 
d="M96 517q0 79 28 132.5t75.5 81t107.5 29.5v-47q-47 -1 -84 -25t-58 -67t-21 -102v-129h131v-46h-131v-271q0 -79 -26.5 -132.5t-74 -81t-110.5 -30.5v47q48 1 84.5 25t57.5 67t21 103v273h-68v46h68v127z" />
    <glyph glyph-name="franc" unicode="&#x20a3;" horiz-adv-x="597" 
d="M113 710h398v-47h-349v-293h309v-46h-309v-324h-49v710zM36 180h236v-36h-236v36z" />
    <glyph glyph-name="uni20B2" unicode="&#x20b2;" horiz-adv-x="741" 
d="M649 50q-18 -12 -43.5 -22.5t-54.5 -18.5t-59.5 -12.5t-57.5 -4.5q-84 0 -151.5 27.5t-115.5 76t-73.5 113t-25.5 139.5q0 81 28.5 149t78.5 117.5t116 76.5t140 27q56 0 105.5 -14t89.5 -38l-18 -44q-23 14 -52 24.5t-59.5 16.5t-60.5 6q-68 0 -126 -24t-101 -67
t-67 -101t-24 -126q0 -66 22.5 -122.5t64 -99t99.5 -66t129 -23.5q42 0 88 10t79 29v197h-160v47h209v-273zM380 795h44v-937h-44v937z" />
    <glyph glyph-name="uni20AD" unicode="&#x20ad;" horiz-adv-x="659" 
d="M35 427h507v-47h-507v47zM168 390l-2 -35l3 9l351 346h63l-294 -291l327 -419h-62l-301 388l-86 -82l1 -306h-50v710h50v-320z" />
    <glyph glyph-name="lira" unicode="&#x20a4;" horiz-adv-x="601" 
d="M319 371v-45h-250v45h250zM319 245v-44h-250v44h250zM136 516q0 47 22.5 79.5t63 49t93.5 16.5q69 0 109 -25.5t62 -68.5l-35 -24q-10 17 -21 30t-25.5 22t-36 14t-52.5 5q-50 0 -79 -14.5t-41 -39.5t-12 -56v-343v-23q0 -7 -0.5 -19t-3 -26t-6.5 -26.5t-12 -19.5v0h226
q50 0 72 10.5t22 38.5v51h44v-49q0 -19 -3.5 -37t-15.5 -31.5t-37 -21.5t-68 -8h-363v47h44q23 0 34.5 11t15 39t3.5 80v339z" />
    <glyph glyph-name="uni20BA" unicode="&#x20ba;" horiz-adv-x="634" 
d="M563 316q2 -10 2.5 -21.5t0.5 -22.5q0 -76 -27.5 -128t-75.5 -83.5t-110.5 -46t-133.5 -14.5h-49v710h49v-689l-4 26q62 0 116.5 11.5t95.5 37t64.5 69.5t23.5 108q0 8 -0.5 16t-1.5 15zM436 392l19 -31l-375 -209l-19 31zM404 519l19 -31l-374 -207l-19 31z" />
    <glyph glyph-name="uni20BC" unicode="&#x20bc;" horiz-adv-x="715" 
d="M337 831h43v-831h-43v831zM553 464q0 62 -25.5 107t-69.5 69.5t-100 24.5t-100.5 -24.5t-70 -69.5t-25.5 -107v-470h-49v472q0 78 32.5 133t88.5 84t124 29v0q70 0 125 -29t87 -84t32 -133v-472h-49v470z" />
    <glyph glyph-name="uni20A6" unicode="&#x20a6;" horiz-adv-x="822" 
d="M421 369h380v-35h-380v35zM415 334h-400v35h400v-35zM707 -17l-560 640l15 1l1 -624h-50v725h3l560 -645l-15 5l-1 625h49v-727h-2z" />
    <glyph glyph-name="peseta" unicode="&#x20a7;" horiz-adv-x="572" 
d="M476 520h84v-36h-84v36zM126 484h-89v36h89v-36zM277 710q66 0 115.5 -22.5t77 -67t27.5 -111.5q0 -40 -12.5 -77.5t-40 -67.5t-70 -48t-102.5 -18h-110v-298h-49v710h164zM272 345q52 0 86.5 16.5t54 42t28 53.5t8.5 52q0 34 -11 62t-32.5 48.5t-52.5 32t-71 11.5h-120
v-318h110z" />
    <glyph glyph-name="uni20B1" unicode="&#x20b1;" horiz-adv-x="567" 
d="M449 588h119v-36h-119v36zM454 457h114v-36h-114v36zM137 421h-122v36h122v-36zM137 552h-122v36h122v-36zM277 710q66 0 115.5 -22.5t77 -67t27.5 -111.5q0 -40 -12.5 -77.5t-40 -67.5t-70 -48t-102.5 -18h-110v-298h-49v710h164zM272 345q52 0 86.5 16.5t54 42t28 53.5
t8.5 52q0 34 -11 62t-32.5 48.5t-52.5 32t-71 11.5h-120v-318h110z" />
    <glyph glyph-name="uni20BD" unicode="&#x20bd;" horiz-adv-x="554" 
d="M15 182h261v-44h-261v44zM15 342h164v-44h-164v44zM277 710q66 0 115.5 -22.5t77 -67t27.5 -111.5q0 -40 -12.5 -77.5t-40 -67.5t-70 -48t-102.5 -18h-110v-298h-49v710h164zM272 345q52 0 86.5 16.5t54 42t28 53.5t8.5 52q0 34 -11 62t-32.5 48.5t-52.5 32t-71 11.5
h-120v-318h110z" />
    <glyph glyph-name="uni20B9" unicode="&#x20b9;" horiz-adv-x="586" 
d="M132 298v47h88q53 0 88 15t55 39t28 52.5t8 55.5q0 32 -11.5 60t-33.5 49.5t-52.5 34t-68.5 12.5h-101v47h390v-47h-231l-65 34q40 0 79.5 -9.5t72 -31.5t52 -58t19.5 -89q0 -40 -12 -77.5t-38.5 -67.5t-69.5 -48t-106 -18h-91zM462 0l-198 322l58 1l196 -323h-56z
M130 478v41h403v-41h-403z" />
    <glyph glyph-name="sterling" unicode="&#xa3;" horiz-adv-x="593" 
d="M316 350v-48h-246v48h246zM135 516q0 47 22.5 79.5t63 49t94.5 16.5q68 0 108 -25.5t62 -68.5l-35 -24q-13 22 -28.5 38t-40 24.5t-66.5 8.5q-50 0 -79 -14.5t-41 -39.5t-12 -56v-343v-23q0 -9 -1.5 -27t-6 -36t-14.5 -28h-9h236q50 0 72 10.5t22 38.5v51h43v-49
q0 -19 -3.5 -37t-15.5 -31.5t-37 -21.5t-68 -8h-363v47h45q23 0 34 11t14.5 39t3.5 80v339z" />
    <glyph glyph-name="uni20A9" unicode="&#x20a9;" horiz-adv-x="993" 
d="M65 429h893v-36h-893v36zM49 708h56l235 -642l-11 3l148 400l23 -63l-171 -439zM376 708h49l244 -642l-15 4l238 638h52l-285 -740z" />
    <glyph glyph-name="yen" unicode="&#xa5;" horiz-adv-x="661" 
d="M156 287h347v-40h-347v40zM157 131h345v-41h-345v41zM306 297l-265 413h60l239 -372l-17 -2l238 374h59l-265 -413v-297h-49v297z" />
    <glyph glyph-name="uni2219" unicode="&#x2219;" horiz-adv-x="192" 
d="M96 237q-24 0 -41 17t-17 41q0 25 17 41.5t41 16.5t41 -17t17 -41t-17 -41t-41 -17z" />
    <glyph glyph-name="uni2215" unicode="&#x2215;" horiz-adv-x="348" 
d="M339 740q-70 -190 -139.5 -379.5t-139.5 -379.5h-44q71 190 140.5 379.5t139.5 379.5h43z" />
    <glyph glyph-name="plus" unicode="+" horiz-adv-x="546" 
d="M246 413h43v-159h159v-42h-159v-161h-43v161h-159v42h159v159z" />
    <glyph glyph-name="minus" unicode="&#x2212;" horiz-adv-x="753" 
d="M85 219h362v-42h-362v42z" />
    <glyph glyph-name="multiply" unicode="&#xd7;" horiz-adv-x="507" 
d="M269 184q28 28 55.5 55t55.5 55q8 -8 17 -17.5t18 -18.5q-28 -27 -55.5 -54.5t-54.5 -55.5l55.5 -55.5t55.5 -56.5l-37 -36l-55.5 55.5t-56.5 55.5q-27 -28 -54.5 -55.5t-55.5 -54.5q-9 8 -18 17t-17 18q28 28 55 55.5t55 55.5l-111 111l36 37z" />
    <glyph glyph-name="divide" unicode="&#xf7;" horiz-adv-x="503" 
d="M219 364q0 14 9.5 24t23.5 10q13 0 23.5 -10t10.5 -24t-10.5 -23.5t-23.5 -9.5t-23 10t-10 23v0zM219 97q0 14 9.5 24t23.5 10q13 0 23.5 -10t10.5 -24q0 -15 -10.5 -24.5t-23.5 -9.5t-23 9.5t-10 24.5v0zM68 252h362v-43h-362v43z" />
    <glyph glyph-name="equal" unicode="=" horiz-adv-x="712" 
d="M101 372h508v-42h-508v42zM101 177h508v-42h-508v42z" />
    <glyph glyph-name="notequal" unicode="&#x2260;" horiz-adv-x="712" 
d="M564 506q-40 -47 -83 -98.5t-87.5 -104.5t-89.5 -106t-88 -104.5t-83 -98.5l-25 22q40 47 83 98.5t88 104.5t89.5 106.5t88 105t83.5 98.5zM101 372h508v-42h-508v42zM101 177h508v-42h-508v42z" />
    <glyph glyph-name="greater" unicode="&#x3e;" horiz-adv-x="625" 
d="M106 37l350 202l-350 202v52l440 -254l-440 -254v0v52z" />
    <glyph glyph-name="less" unicode="&#x3c;" horiz-adv-x="647" 
d="M532 441l-349 -202l349 -202v-52l-439 254l439 254v-52z" />
    <glyph glyph-name="greaterequal" unicode="&#x2265;" horiz-adv-x="555" 
d="M66 727l440 -254l-440 -254v52l355 200l-355 204v52zM65 124h378v-43h-378v43z" />
    <glyph glyph-name="lessequal" unicode="&#x2264;" horiz-adv-x="555" 
d="M463 219l-440 254l440 254v-52l-349 -203l349 -201v0v-52zM62 124h373v-43h-373v43z" />
    <glyph glyph-name="plusminus" unicode="&#xb1;" horiz-adv-x="527" 
d="M246 574h43v-159h159v-43h-159v-160h-43v160h-159v43h159v159zM87 159h361v-43h-361v43z" />
    <glyph glyph-name="approxequal" unicode="&#x2248;" horiz-adv-x="479" 
d="M255 139q-31 0 -50.5 15.5t-36.5 32.5q-13 14 -27 26t-34 12q-12 0 -24.5 -8.5t-20.5 -28.5t-9 -53l-32 1q0 41 11.5 69.5t32 43.5t44.5 15q29 0 47.5 -15.5t34.5 -32.5q14 -16 29 -28t34 -12q14 0 25 9t18 29.5t8 53.5l32 -1q1 -42 -10 -70.5t-29.5 -43t-42.5 -14.5z
M256 304q-31 0 -50.5 15.5t-36.5 32.5q-13 14 -27 26t-34 12q-12 0 -24.5 -8.5t-20.5 -28.5t-9 -53l-32 1q0 41 11.5 69.5t32 43.5t44.5 15q29 0 47.5 -15.5t34.5 -32.5q14 -16 29 -28t34 -12q14 0 25 9t18 29.5t8 53.5l32 -1q1 -42 -10 -70.5t-29.5 -43t-42.5 -14.5z" />
    <glyph glyph-name="asciitilde" unicode="~" horiz-adv-x="402" 
d="M277 449q-31 0 -50.5 15.5t-36.5 32.5q-13 14 -27 26t-34 12q-12 0 -24.5 -8.5t-20.5 -28.5t-9 -53l-32 1q0 41 11.5 69.5t32 43.5t44.5 15q29 0 47.5 -15.5t34.5 -32.5q14 -16 29 -28t34 -12q14 0 25 9t18 29.5t8 53.5l32 -1q1 -42 -10 -70.5t-29.5 -43t-42.5 -14.5z
" />
    <glyph glyph-name="logicalnot" unicode="&#xac;" horiz-adv-x="535" 
d="M87 264h362v-131h-49v84h-313v47z" />
    <glyph glyph-name="infinity" unicode="&#x221e;" horiz-adv-x="442" 
d="M235 303q0 -22 -14.5 -38.5t-37.5 -26t-49 -9.5q-29 0 -48.5 11t-29 28.5t-9.5 34.5t9.5 34t29 28.5t48.5 11.5q26 0 49 -9.5t37.5 -26t14.5 -38.5v0zM206 303q0 22 14.5 38.5t38 26t49.5 9.5q29 0 47 -11.5t27 -28.5t9 -34t-8.5 -34t-27 -28.5t-48.5 -11.5
q-25 0 -48.5 9.5t-38 26.5t-14.5 38v0zM206 302q0 20 -23 32.5t-49 12.5q-28 0 -41.5 -14.5t-13.5 -29.5t13 -30t42 -15q26 0 49 12.5t23 31.5v0zM235 302q0 -19 23.5 -31.5t48.5 -12.5q29 0 42 15t13 30t-13 29.5t-42 14.5q-25 0 -48.5 -12.5t-23.5 -32.5v0z" />
    <glyph glyph-name="integral" unicode="&#x222b;" horiz-adv-x="336" 
d="M206 707q-20 0 -31.5 -9.5t-16 -33t-4.5 -65.5v-609q0 -54 -7.5 -83t-21 -40.5t-32 -13.5t-39.5 -2h-48v42h51q21 0 32.5 10t16 34t4.5 65v629v0q0 46 8 71t22.5 35t32.5 11.5t37 1.5h48v-43h-52z" />
    <glyph glyph-name="uni2126" unicode="&#x2126;" horiz-adv-x="833" 
d="M492 42q45 18 83 50.5t61.5 82.5t23.5 117q0 60 -15.5 108.5t-44.5 82.5t-70.5 52.5t-93.5 18.5q-53 0 -95 -18t-71.5 -52t-45.5 -81.5t-16 -105.5q0 -69 25 -119.5t65 -83.5t84 -52v-25q-33 12 -65 28t-59.5 38.5t-48.5 53.5t-33 71.5t-12 93.5q0 57 17 109.5t50.5 94.5
t84.5 66t119 24q73 0 124.5 -27t83.5 -71t46.5 -97.5t13.5 -107.5q-1 -52 -13 -91.5t-32.5 -70t-47 -52t-56.5 -37t-62 -26.5v26zM162 42h220v-42h-220v42zM492 42h209v-42h-209v42z" />
    <glyph glyph-name="uni2206" unicode="&#x2206;" horiz-adv-x="502" 
d="M236 733l159 -458h-34l-125 366l-124 -366h-35l159 458v0zM104 304h268v-29h-268v29z" />
    <glyph glyph-name="product" unicode="&#x220f;" horiz-adv-x="609" 
d="M202 754h223v-815h-43v773h-137v-773h-43v815z" />
    <glyph glyph-name="summation" unicode="&#x2211;" horiz-adv-x="512" 
d="M79 754h358l-20 -42h-280l103 -368l-103 -369h280l20 -42h-358l115 411z" />
    <glyph glyph-name="radical" unicode="&#x221a;" horiz-adv-x="536" 
d="M461 605h34l-259 -568l-137 300h-86l1 29h107l115 -247z" />
    <glyph glyph-name="uni00B5" unicode="&#xb5;" horiz-adv-x="509" 
d="M212 -11q-47 0 -78 25t-40 65l42 -1v-279h-47v310v282h47v-271q2 -38 24.5 -63t67.5 -27q38 0 71 20t53.5 54.5t20.5 78.5v208h47v-391h-42l-5 125l5 -28q-10 -30 -35 -54.5t-59 -39t-72 -14.5z" />
    <glyph glyph-name="percent" unicode="%" horiz-adv-x="750" 
d="M214 240q-37 0 -65 18.5t-43.5 52.5t-15.5 81t15.5 81t43.5 52.5t65 18.5q36 0 63.5 -18.5t43.5 -52.5t16 -81t-16 -81.5t-43.5 -52.5t-63.5 -18zM133 391q0 -55 22.5 -85.5t58.5 -30.5q35 0 57.5 30.5t22.5 85.5q0 56 -22.5 86.5t-57.5 30.5q-36 0 -58.5 -29t-22.5 -88z
M547 -4q-37 0 -64.5 18.5t-43 52.5t-15.5 81t15.5 81t43 52.5t64.5 18.5t64.5 -18.5t43.5 -52.5t16 -81t-16 -81.5t-44 -52.5t-64 -18zM466 147q0 -55 23 -85.5t58 -30.5t58 30.5t23 85.5q0 56 -23 86.5t-58 30.5t-58 -29t-23 -88zM578 546l-348 -547l-48 1l347 546h49z" />
    <glyph glyph-name="perthousand" unicode="&#x2030;" horiz-adv-x="1041" 
d="M214 240q-37 0 -65 18.5t-43.5 52.5t-15.5 81t15.5 81t43.5 52.5t65 18.5q36 0 63.5 -18.5t43.5 -52.5t16 -81t-16 -81.5t-43.5 -52.5t-63.5 -18zM133 391q0 -55 22.5 -85.5t58.5 -30.5q35 0 57.5 30.5t22.5 85.5q0 56 -22.5 86.5t-57.5 30.5q-36 0 -58.5 -29t-22.5 -88z
M547 -4q-37 0 -64.5 18.5t-43 52.5t-15.5 81t15.5 81t43 52.5t64.5 18.5t64.5 -18.5t43.5 -52.5t16 -81t-16 -81.5t-44 -52.5t-64 -18zM466 147q0 -55 23 -85.5t58 -30.5t58 30.5t23 85.5q0 56 -23 86.5t-58 30.5t-58 -29t-23 -88zM578 546l-348 -547l-48 1l347 546h49z
M842 -4q-36 0 -64 18.5t-43.5 52.5t-15.5 81t15.5 81t43.5 52.5t64 18.5q37 0 64.5 -18.5t43.5 -52.5t16 -81t-16 -81.5t-44 -52.5t-64 -18zM761 147q0 -55 23 -85.5t58 -30.5t58 30.5t23 85.5q0 56 -23 86.5t-58 30.5t-58 -29t-23 -88z" />
    <glyph glyph-name="lozenge" unicode="&#x25ca;" horiz-adv-x="453" 
d="M236 733l159 -348l-159 -348l-159 348zM236 652l-124 -267l124 -266l125 266z" />
    <glyph glyph-name="at" unicode="@" horiz-adv-x="993" 
d="M414 -212q-82 0 -149 23.5t-115 69t-73.5 111.5t-25.5 152q0 55 18 118t56.5 124.5t100 112t148 81t200.5 30.5q83 0 150.5 -25.5t116.5 -71.5t75 -107.5t26 -133.5q0 -55 -17 -106t-46.5 -90t-69.5 -62t-87 -23q-38 0 -61.5 18t-31.5 51.5t1 78.5l9 -25
q-17 -32 -47.5 -60t-68.5 -45t-78 -17q-54 0 -96 23t-65 64t-22 94q0 62 29.5 114.5t80.5 84t114 31.5q44 0 77 -14t55.5 -38.5t32.5 -56.5l19 97h43l-38 -274q-2 -20 1 -39t16 -31.5t39 -12.5q32 0 62 19.5t53 53t36.5 76t13.5 89.5q0 84 -41 151.5t-114.5 107.5t-173.5 40
q-106 0 -184.5 -29.5t-133.5 -78t-89 -105.5t-49.5 -112.5t-15.5 -98.5q0 -78 22.5 -137.5t65 -100.5t103 -61.5t135.5 -20.5q61 0 118.5 19.5t107.5 50.5l21 -30q-37 -25 -79 -43t-86 -27t-89 -9zM461 32q38 0 74.5 18.5t63.5 51.5t36 76l7 56q-2 37 -22.5 66t-53.5 46
t-75 17q-48 0 -88.5 -25t-65.5 -67t-25 -93q0 -41 18.5 -74.5t52.5 -52.5t78 -19z" />
    <glyph glyph-name="ampersand" unicode="&#x26;" horiz-adv-x="711" 
d="M630 0h-12.5h-19.5h-17.5h-7.5l-369 481q-8 14 -17.5 31.5t-15.5 38t-6 44.5q0 45 21 80.5t58.5 56t85.5 20.5q47 0 86.5 -17.5t66.5 -39.5l-24 -33q-30 22 -60.5 35t-61.5 13q-53 0 -87.5 -32.5t-34.5 -82.5q0 -23 7.5 -44t15 -34t8.5 -15zM302 361q-32 0 -64.5 -12.5
t-59 -34.5t-42.5 -52.5t-16 -67.5q0 -47 25 -82.5t67 -55.5t92 -20q43 0 79.5 14t63.5 37t39 50l31 -32q-26 -48 -84 -80.5t-134 -32.5q-67 0 -119 27t-82 72.5t-30 101.5q0 44 19.5 81.5t52.5 65.5t74 44t85 17zM585 401h48l-111 -289l-35 27z" />
    <glyph glyph-name="paragraph" unicode="&#xb6;" horiz-adv-x="516" 
d="M202 425q-45 0 -82.5 22t-59.5 59.5t-22 82.5q0 46 22 83.5t59.5 59.5t82.5 22h207v-754h-43v712h-121v-712h-43v425z" />
    <glyph glyph-name="section" unicode="&#xa7;" horiz-adv-x="564" 
d="M357 135l-15 17q39 -8 71 -25t51.5 -45.5t19.5 -71.5q0 -46 -28 -84.5t-76.5 -61t-110.5 -22.5q-52 0 -95 12.5t-74.5 30t-49.5 30.5l24 40q24 -17 54.5 -33t65.5 -26t71 -10q43 0 81.5 14.5t63 41.5t24.5 65t-23.5 60.5t-61 35.5t-79.5 23q-35 10 -69.5 22t-62.5 30
t-45 45t-17 67q0 47 25.5 81.5t67 53.5t89.5 19l-5 -16q-43 13 -76.5 32t-52.5 48t-19 70q0 29 13.5 55.5t39 47.5t61.5 33.5t81 12.5q44 0 94 -13t87 -35l-21 -36q-31 18 -72 29.5t-83 12.5q-47 0 -80.5 -15t-51.5 -38.5t-18 -50.5q0 -36 22 -58t59.5 -36t85.5 -26
q35 -9 69 -21t62 -30t44.5 -45.5t16.5 -68.5q0 -60 -43 -103.5t-114 -57.5zM466 289q0 39 -24.5 63.5t-63.5 40t-84 26.5q-78 1 -123.5 -33.5t-46.5 -86.5q0 -42 24 -66.5t67.5 -40t100.5 -30.5q33 3 67.5 18t58.5 42.5t24 66.5z" />
    <glyph glyph-name="copyright" unicode="&#xa9;" horiz-adv-x="814" 
d="M521 222q-19 -15 -46.5 -26t-60.5 -11q-49 1 -87.5 24.5t-60 63t-21.5 85.5q0 50 23 89.5t62.5 62.5t87.5 23q17 0 34 -3t33.5 -9t29.5 -16l-19 -36q-16 12 -35 17t-40 5q-34 0 -63 -17.5t-47 -47.5t-18 -68q0 -36 16.5 -65.5t45 -47t65.5 -17.5q22 0 42 7t37 20zM407 68
q-61 0 -113.5 21.5t-92.5 60.5t-62.5 91.5t-22.5 114.5q0 63 22.5 115.5t62.5 91.5t92.5 60.5t113.5 21.5t113.5 -21.5t92.5 -60.5t62.5 -91.5t22.5 -115.5q0 -62 -21 -114.5t-60 -91.5t-92 -60.5t-118 -21.5zM406 108q69 0 125.5 32.5t90 88.5t33.5 126q0 73 -33.5 129
t-90 88.5t-125.5 32.5q-68 0 -124.5 -32.5t-90 -88.5t-33.5 -129q0 -71 30 -127t85.5 -88t132.5 -32z" />
    <glyph glyph-name="registered" unicode="&#xae;" horiz-adv-x="406" 
d="M203 376q-46 0 -84 21.5t-60.5 59t-22.5 84.5q0 48 22.5 85.5t60.5 58.5t84 21q47 0 84.5 -21t60 -58.5t22.5 -85.5q0 -47 -22.5 -84.5t-60 -59t-84.5 -21.5zM202 406q38 0 69 17.5t49 48.5t18 69q0 39 -18 69.5t-49 48.5t-69 18q-37 0 -67.5 -18t-48.5 -48.5t-18 -69.5
q0 -38 18 -69t48.5 -48.5t67.5 -17.5zM143 636h61q25 0 43 -13t18 -42q0 -25 -15 -41.5t-47 -16.5h-30v-70h-30v183zM197 548q20 0 28 9t8 23q0 17 -10.5 24t-22.5 7h-26v-63h23zM230 531l40 -78h-34l-37 77z" />
    <glyph glyph-name="trademark" unicode="&#x2122;" horiz-adv-x="568" 
d="M471 663l16 -7l-107 -145l-107 145l15 6v-214h-31v270l126 -161h-6l127 161v-270h-33v215zM47 707h163v-30h-65v-229h-34v229h-64v30z" />
    <glyph glyph-name="degree" unicode="&#xb0;" horiz-adv-x="283" 
d="M51 562q0 25 11.5 45t31.5 31.5t45 11.5q24 0 43.5 -11.5t31 -31.5t11.5 -45q0 -24 -11.5 -43.5t-31 -31t-43.5 -11.5q-25 0 -45 11.5t-31.5 31t-11.5 43.5v0zM139 506q23 0 40 16.5t17 40.5q0 23 -17 39.5t-40 16.5q-24 0 -40.5 -16.5t-16.5 -39.5q0 -24 16.5 -40.5
t40.5 -16.5v0z" />
    <glyph glyph-name="bar" unicode="|" horiz-adv-x="242" 
d="M96 704h44v-937h-44v937z" />
    <glyph glyph-name="brokenbar" unicode="&#xa6;" horiz-adv-x="216" 
d="M89 704h43v-352h-43v352zM89 118h43v-352h-43v352z" />
    <glyph glyph-name="dagger" unicode="&#x2020;" horiz-adv-x="300" 
d="M47 450h205v-43h-205v43zM128 588h44v-542h-44v542z" />
    <glyph glyph-name="daggerdbl" unicode="&#x2021;" horiz-adv-x="309" 
d="M44 297h220v-43h-220v43zM55 450h205v-43h-205v43zM136 588h43v-542h-43v542z" />
    <glyph glyph-name="uni2116" unicode="&#x2116;" horiz-adv-x="1282" 
d="M843 235h376v-42h-376v42zM707 -17l-560 631l13 10l1 -624h-48v725h3l560 -636l-13 -4l-1 625h47v-727h-2zM814 505q0 57 27.5 104t75 74.5t106.5 27.5q60 0 107 -27.5t74 -74.5t27 -104t-27 -104t-74.5 -74.5t-107.5 -27.5q-59 0 -106 26.5t-74.5 73t-27.5 106.5z
M861 504q0 -46 21.5 -83.5t58 -59.5t81.5 -22t81.5 22t58 59.5t21.5 83.5t-21.5 83.5t-58 60t-81.5 22.5q-46 0 -82.5 -23.5t-57.5 -61.5t-21 -81z" />
    <glyph glyph-name="asciicircum" unicode="^" horiz-adv-x="472" 
d="M320 482q-13 19 -28 40.5t-30.5 43.5t-28.5 41q-13 -19 -28 -41t-30 -43.5t-28 -40.5h-34q30 45 60 90.5t60 90.5v0q30 -45 60.5 -90.5t60.5 -90.5h-34z" />
    <glyph glyph-name="uni0308" unicode="&#x308;" 
d="M79 511q0 14 10 24t23 10t23.5 -10t10.5 -24t-10.5 -24t-23.5 -10t-23 10t-10 24v0zM253 511q0 14 10.5 24t23.5 10q12 0 22.5 -10t10.5 -24t-10.5 -24t-22.5 -10q-13 0 -23.5 10t-10.5 24v0z" />
    <glyph glyph-name="uni0307" unicode="&#x307;" 
d="M61 530q0 14 11 23.5t24 9.5q14 0 24 -9.5t10 -23.5q0 -15 -10 -24.5t-24 -9.5q-13 0 -24 10t-11 24z" />
    <glyph glyph-name="gravecomb" unicode="&#x300;" 
d="M-2 615h52l83 -133h-34z" />
    <glyph glyph-name="acutecomb" unicode="&#x301;" 
d="M194 615l-106 -133h-34l87 133h53z" />
    <glyph glyph-name="uni030B" unicode="&#x30b;" 
d="M187 615l-106 -133h-34l87 133h53zM303 614l-106 -133h-34l87 133h53z" />
    <glyph glyph-name="uni0302" unicode="&#x302;" 
d="M323 504l-109 122l21 3l-110 -125h-47l145 159h1l146 -159h-47z" />
    <glyph glyph-name="uni030C" unicode="&#x30c;" 
d="M114 641l110 -123l-22 -3l111 126h47l-145 -159h-1l-147 159h47z" />
    <glyph glyph-name="uni0306" unicode="&#x306;" 
d="M185 492q-37 0 -66.5 20.5t-47 58t-21.5 86.5h34q3 -35 16 -65t35 -47.5t50 -17.5q29 0 50 17.5t33.5 47.5t14.5 65h35q-3 -50 -20.5 -87t-46.5 -57.5t-66 -20.5z" />
    <glyph glyph-name="uni030A" unicode="&#x30a;" 
d="M137 495q0 32 21.5 53t54.5 21q32 0 53.5 -21t21.5 -53t-21.5 -53t-53.5 -21q-33 0 -54.5 20.5t-21.5 53.5zM166 494q0 -19 14 -33t33 -14t32.5 14t13.5 33q0 20 -13.5 33.5t-32.5 13.5t-33 -13.5t-14 -33.5z" />
    <glyph glyph-name="tildecomb" unicode="&#x303;" 
d="M280 452q-30 0 -48.5 14.5t-34.5 31.5q-13 13 -26.5 24.5t-31.5 11.5q-12 0 -23.5 -8.5t-19.5 -27t-9 -50.5l-30 1q-1 39 10.5 66.5t30.5 41.5t43 14q27 0 45 -14.5t33 -30.5q13 -15 27 -27t33 -12q20 0 33.5 20t15.5 68l30 -1q1 -40 -9.5 -67.5t-28.5 -41t-40 -13.5z
" />
    <glyph glyph-name="uni0304" unicode="&#x304;" 
d="M69 519h236v-36h-236v36z" />
    <glyph glyph-name="hookabovecomb" unicode="&#x309;" 
d="M138 556q22 18 36 33t14 35q0 17 -10 27t-26 10q-18 0 -29.5 -8.5t-24.5 -26.5l-21 16q17 27 36.5 39.5t43.5 12.5q19 0 33 -7.5t22.5 -22.5t8.5 -38q0 -30 -19 -51t-46 -41z" />
    <glyph glyph-name="uni030F" unicode="&#x30f;" 
d="M31 615h52l83 -133h-34zM145 615h52l83 -133h-34z" />
    <glyph glyph-name="uni0311" unicode="&#x311;" 
d="M183 665q38 0 67 -20.5t47 -57.5t21 -87h-34q-2 36 -15.5 65.5t-35 47t-50.5 17.5q-28 0 -49.5 -17.5t-34 -47t-14.5 -65.5h-35q3 50 20.5 87t46.5 57.5t66 20.5z" />
    <glyph glyph-name="uni0312" unicode="&#x312;" 
d="M121 642l24 -18q-27 -20 -37.5 -54.5t-5.5 -75.5h-45q-3 27 2 55t20 53t42 40z" />
    <glyph glyph-name="uni031B" unicode="&#x31b;" 
d="M82 710q48 0 72 21.5t26 78.5h38q-3 -56 -21 -84.5t-47.5 -38t-67.5 -9.5v32z" />
    <glyph glyph-name="dotbelowcomb" unicode="&#x323;" 
d="M64 -99q0 14 10.5 23t23.5 9q12 0 22 -9t10 -23t-10 -23t-22 -9q-13 0 -23.5 9.5t-10.5 22.5z" />
    <glyph glyph-name="uni0324" unicode="&#x324;" 
d="M79 -94q0 14 10 24t23 10t23.5 -10t10.5 -24t-10.5 -24t-23.5 -10t-23 10t-10 24v0zM253 -94q0 14 10.5 24t23.5 10q12 0 22.5 -10t10.5 -24t-10.5 -24t-22.5 -10q-13 0 -23.5 10t-10.5 24v0z" />
    <glyph glyph-name="uni0326" unicode="&#x326;" 
d="M80 -190l-24 18q27 20 37.5 55t5.5 75h45q3 -26 -2 -54.5t-19.5 -53t-42.5 -40.5z" />
    <glyph glyph-name="uni0327" unicode="&#x327;" 
d="M117 -171q11 -11 29.5 -18.5t43.5 -7.5q35 0 58.5 14.5t23.5 40.5q0 23 -18 40t-58 17q-16 0 -37 -4.5t-33 -9.5l-15 25l70 78l36 -7l-67 -82l-17 11q11 7 32 11.5t40 4.5q51 1 80 -20.5t29 -62.5q0 -29 -16 -48t-43 -28t-60 -9q-31 0 -55.5 9t-39.5 22z" />
    <glyph glyph-name="uni0328" unicode="&#x328;" 
d="M162 -198q-36 0 -62.5 24.5t-26.5 64.5q0 37 27.5 69t67.5 51l47 -11q-47 -25 -74 -51t-27 -55q0 -27 16.5 -41.5t35.5 -14.5q20 0 36 13t28 33l22 -23q-13 -25 -37.5 -42t-52.5 -17z" />
    <glyph glyph-name="uni032E" unicode="&#x32e;" 
d="M185 -203q-37 0 -66.5 20.5t-47 58t-21.5 86.5h34q3 -35 16 -65t35 -47.5t50 -17.5q29 0 50 17.5t33.5 47.5t14.5 65h35q-3 -50 -20.5 -87t-46.5 -57.5t-66 -20.5z" />
    <glyph glyph-name="uni0331" unicode="&#x331;" 
d="M69 -79h236v-36h-236v36z" />
    <glyph glyph-name="uni0335" unicode="&#x335;" 
d="M75 299h241v-45h-241v45z" />
    <glyph glyph-name="uni0308.case" 
d="M79 651q0 14 10 24t23 10t23.5 -10t10.5 -24t-10.5 -24t-23.5 -10t-23 10t-10 24v0zM253 651q0 14 10.5 24t23.5 10q12 0 22.5 -10t10.5 -24t-10.5 -24t-22.5 -10q-13 0 -23.5 10t-10.5 24v0z" />
    <glyph glyph-name="uni0307.case" 
d="M56 651q0 14 11 23.5t24 9.5q14 0 24 -9.5t10 -23.5q0 -15 -10 -24.5t-24 -9.5q-13 0 -24 10t-11 24z" />
    <glyph glyph-name="gravecomb.case" 
d="M-2 693h52l83 -133h-34z" />
    <glyph glyph-name="acutecomb.case" 
d="M174 640l-106 -133h-34l87 133h53z" />
    <glyph glyph-name="uni030B.case" 
d="M187 615l-106 -133h-34l87 133h53zM303 614l-106 -133h-34l87 133h53z" />
    <glyph glyph-name="uni0302.case" 
d="M323 504l-109 122l21 3l-110 -125h-47l145 159h1l146 -159h-47z" />
    <glyph glyph-name="uni030C.case" 
d="M123 641l110 -123l-22 -3l111 126h47l-145 -159h-1l-147 159h47z" />
    <glyph glyph-name="uni0306.case" 
d="M185 492q-37 0 -66.5 20.5t-47 58t-21.5 86.5h34q3 -35 16 -65t35 -47.5t50 -17.5q29 0 50 17.5t33.5 47.5t14.5 65h35q-3 -50 -20.5 -87t-46.5 -57.5t-66 -20.5z" />
    <glyph glyph-name="uni030A.case" 
d="M130 554q0 32 21.5 53t54.5 21q32 0 53.5 -21t21.5 -53t-21.5 -53t-53.5 -21q-33 0 -54.5 20.5t-21.5 53.5zM159 553q0 -19 14 -33t33 -14t32.5 14t13.5 33q0 20 -13.5 33.5t-32.5 13.5t-33 -13.5t-14 -33.5z" />
    <glyph glyph-name="tildecomb.case" 
d="M284 644q-30 0 -48.5 14.5t-34.5 31.5q-13 13 -26.5 24.5t-31.5 11.5q-12 0 -23.5 -8.5t-19.5 -27t-9 -50.5l-30 1q-1 39 10.5 66.5t30.5 41.5t43 14q27 0 45 -14.5t33 -30.5q13 -15 27 -27t33 -12q20 0 33.5 20t15.5 68l30 -1q1 -40 -9.5 -67.5t-28.5 -41t-40 -13.5z
" />
    <glyph glyph-name="uni0304.case" 
d="M76 552h236v-36h-236v36z" />
    <glyph glyph-name="hookabovecomb.case" 
d="M138 556q22 18 36 33t14 35q0 17 -10 27t-26 10q-18 0 -29.5 -8.5t-24.5 -26.5l-21 16q17 27 36.5 39.5t43.5 12.5q19 0 33 -7.5t22.5 -22.5t8.5 -38q0 -30 -19 -51t-46 -41z" />
    <glyph glyph-name="uni030F.case" 
d="M31 615h52l83 -133h-34zM145 615h52l83 -133h-34z" />
    <glyph glyph-name="uni0311.case" 
d="M249 643q38 0 67 -20.5t47 -57.5t21 -87h-34q-2 36 -15.5 65.5t-35 47t-50.5 17.5q-28 0 -49.5 -17.5t-34 -47t-14.5 -65.5h-35q3 50 20.5 87t46.5 57.5t66 20.5z" />
    <glyph glyph-name="uni031B.case" 
d="M50 502q48 0 70.5 23t24.5 84h37q-3 -60 -20 -90t-45.5 -39.5t-66.5 -9.5v32z" />
    <glyph glyph-name="dotbelowcomb.case" 
d="M61 -87q0 14 11 23.5t24 9.5q14 0 24 -9.5t10 -23.5q0 -15 -10 -24.5t-24 -9.5q-13 0 -24 10t-11 24z" />
    <glyph glyph-name="uni0324.case" 
d="M79 -91q0 14 10 24t23 10t23.5 -10t10.5 -24t-10.5 -24t-23.5 -10t-23 10t-10 24v0zM253 -91q0 14 10.5 24t23.5 10q12 0 22.5 -10t10.5 -24t-10.5 -24t-22.5 -10q-13 0 -23.5 10t-10.5 24v0z" />
    <glyph glyph-name="uni0326.case" 
d="M80 -190l-24 18q27 20 37.5 55t5.5 75h45q3 -26 -2 -54.5t-19.5 -53t-42.5 -40.5z" />
    <glyph glyph-name="uni0327.case" 
d="M117 -171q11 -11 29.5 -18.5t43.5 -7.5q35 0 58.5 14.5t23.5 40.5q0 23 -18 40t-58 17q-16 0 -37 -4.5t-33 -9.5l-15 25l70 78l36 -7l-67 -82l-17 11q11 7 32 11.5t40 4.5q51 1 80 -20.5t29 -62.5q0 -29 -16 -48t-43 -28t-60 -9q-31 0 -55.5 9t-39.5 22z" />
    <glyph glyph-name="uni0328.case" 
d="M162 -198q-36 0 -62.5 24.5t-26.5 64.5q0 37 27.5 69t67.5 51l47 -11q-47 -25 -74 -51t-27 -55q0 -27 16.5 -41.5t35.5 -14.5q20 0 36 13t28 33l22 -23q-13 -25 -37.5 -42t-52.5 -17z" />
    <glyph glyph-name="uni032E.case" 
d="M185 -199q-37 0 -66.5 20.5t-47 58t-21.5 86.5h34q3 -35 16 -65t35 -47.5t50 -17.5q29 0 50 17.5t33.5 47.5t14.5 65h35q-3 -50 -20.5 -87t-46.5 -57.5t-66 -20.5z" />
    <glyph glyph-name="uni0331.case" 
d="M69 -95h236v-36h-236v36z" />
    <glyph glyph-name="uni02BC" unicode="&#x2bc;" horiz-adv-x="201" 
d="M143 604q-22 -52 -43 -103.5t-43 -104.5h-40q20 53 39 104.5t38 103.5h49z" />
    <glyph glyph-name="uni02C9" unicode="&#x2c9;" horiz-adv-x="380" 
d="M69 548h236v-36h-236v36z" />
    <glyph glyph-name="acute" unicode="&#xb4;" horiz-adv-x="235" 
d="M188 615l-106 -133h-34l87 133h53z" />
    <glyph glyph-name="breve" unicode="&#x2d8;" horiz-adv-x="368" 
d="M185 492q-37 0 -66.5 20.5t-47 58t-21.5 86.5h34q3 -35 16 -65t35 -47.5t50 -17.5q29 0 50 17.5t33.5 47.5t14.5 65h35q-3 -50 -20.5 -87t-46.5 -57.5t-66 -20.5z" />
    <glyph glyph-name="caron" unicode="&#x2c7;" horiz-adv-x="434" 
d="M123 641l110 -123l-22 -3l111 126h47l-145 -159h-1l-147 159h47z" />
    <glyph glyph-name="cedilla" unicode="&#xb8;" horiz-adv-x="431" 
d="M131 -171q11 -11 29.5 -18.5t43.5 -7.5q35 0 58.5 14.5t23.5 40.5q0 23 -18 40t-58 17q-16 0 -37 -4.5t-33 -9.5l-15 25l70 78l36 -7l-67 -82l-17 11q11 7 32 11.5t40 4.5q51 1 80 -20.5t29 -62.5q0 -29 -16 -48t-43 -28t-60 -9q-31 0 -55.5 9t-39.5 22z" />
    <glyph glyph-name="circumflex" unicode="&#x2c6;" horiz-adv-x="438" 
d="M323 504l-109 122l21 3l-110 -125h-47l145 159h1l146 -159h-47z" />
    <glyph glyph-name="dieresis" unicode="&#xa8;" horiz-adv-x="389" 
d="M74 511q0 14 10 24t23 10t23.5 -10t10.5 -24t-10.5 -24t-23.5 -10t-23 10t-10 24v0zM248 511q0 14 10.5 24t23.5 10q12 0 22.5 -10t10.5 -24t-10.5 -24t-22.5 -10q-13 0 -23.5 10t-10.5 24v0z" />
    <glyph glyph-name="dotaccent" unicode="&#x2d9;" horiz-adv-x="199" 
d="M61 530q0 14 11 23.5t24 9.5q14 0 24 -9.5t10 -23.5q0 -15 -10 -24.5t-24 -9.5q-13 0 -24 10t-11 24z" />
    <glyph glyph-name="grave" unicode="`" horiz-adv-x="231" 
d="M-2 615h52l83 -133h-34z" />
    <glyph glyph-name="hungarumlaut" unicode="&#x2dd;" horiz-adv-x="352" 
d="M188 615l-106 -133h-34l87 133h53zM304 614l-106 -133h-34l87 133h53z" />
    <glyph glyph-name="macron" unicode="&#xaf;" horiz-adv-x="387" 
d="M76 519h236v-36h-236v36z" />
    <glyph glyph-name="ogonek" unicode="&#x2db;" horiz-adv-x="297" 
d="M156 -198q-36 0 -62.5 24.5t-26.5 64.5q0 37 27.5 69t67.5 51l47 -11q-47 -25 -74 -51t-27 -55q0 -27 16.5 -41.5t35.5 -14.5q20 0 36 13t28 33l22 -23q-13 -25 -37.5 -42t-52.5 -17z" />
    <glyph glyph-name="ring" unicode="&#x2da;" horiz-adv-x="388" 
d="M130 495q0 32 21.5 53t54.5 21q32 0 53.5 -21t21.5 -53t-21.5 -53t-53.5 -21q-33 0 -54.5 20.5t-21.5 53.5zM159 494q0 -19 14 -33t33 -14t32.5 14t13.5 33q0 20 -13.5 33.5t-32.5 13.5t-33 -13.5t-14 -33.5z" />
    <glyph glyph-name="tilde" unicode="&#x2dc;" horiz-adv-x="411" 
d="M282 450q-31 0 -50.5 15.5t-36.5 32.5q-13 14 -27 26t-34 12q-12 0 -24.5 -8.5t-20.5 -28.5t-9 -53l-32 1q0 41 11.5 69.5t32 43.5t44.5 15q29 0 47.5 -15.5t34.5 -32.5q14 -16 29 -28t34 -12q14 0 25 9t18 29.5t8 53.5l32 -1q1 -42 -10 -70.5t-29.5 -43t-42.5 -14.5z
" />
    <glyph glyph-name="uni03060301" 
d="M185 492q-37 0 -66.5 20.5t-47 58t-21.5 86.5h34q3 -35 16 -65t35 -47.5t50 -17.5q29 0 50 17.5t33.5 47.5t14.5 65h35q-3 -50 -20.5 -87t-46.5 -57.5t-66 -20.5zM257 808l-106 -133h-34l87 133h53z" />
    </font>
</defs>
</svg>
