<?xml version="1.0" standalone="no"?>
<!DOCTYPE svg PUBLIC "-//W3C//DTD SVG 1.1//EN" "http://www.w3.org/Graphics/SVG/1.1/DTD/svg11.dtd" >
<svg xmlns="http://www.w3.org/2000/svg" xmlns:xlink="http://www.w3.org/1999/xlink" version="1.1">
<metadata>
Created by FontForge 20201107 at Wed Aug  4 17:12:24 2021
 By Unknown
Copyright 2010 The Josefin Sans Project Authors (https://github.com/ThomasJockin/JosefinSansFont-master), with Reserved Font Name "Josefin Sans".
</metadata>
<defs>
<font id="JosefinSans-Italic" horiz-adv-x="546" >
  <font-face 
    font-family="Josefin Sans"
    font-weight="400"
    font-style="italic"
    font-stretch="normal"
    units-per-em="1000"
    panose-1="0 0 0 0 0 0 0 0 0 0"
    ascent="750"
    descent="-250"
    x-height="414"
    cap-height="723"
    bbox="-99 -310 1441 1186.07"
    underline-thickness="50"
    underline-position="-125"
    slope="-7"
    unicode-range="U+000D-FB02"
  />
<missing-glyph horiz-adv-x="300" 
 />
    <glyph glyph-name="fi" unicode="fi" horiz-adv-x="580" 
d="M88 0l40 331h-71l11 83h70l21 175q11 90 58 138t126 48q21 0 45.5 -6t42.5 -20l-48 -67q-8 9 -18 12.5t-22 3.5q-36 0 -59.5 -25t-30.5 -85l-22 -174h119l-10 -83h-119l-40 -331h-93zM422 414h94l-51 -414h-94zM429 553q1 23 18 39t42 15q19 0 36.5 -12t16.5 -37
q-1 -23 -18 -39t-42 -16q-19 1 -36 13t-17 37z" />
    <glyph glyph-name="fl" unicode="fl" horiz-adv-x="589" 
d="M88 0l40 331h-71l11 83h70l21 175q11 90 58 138t126 48q21 0 45.5 -6t42.5 -20l-48 -67q-8 9 -18 12.5t-22 3.5q-36 0 -59.5 -25t-30.5 -85l-22 -174h119l-10 -83h-119l-40 -331h-93zM483 774h94l-95 -774h-93z" />
    <glyph glyph-name=".notdef" horiz-adv-x="300" 
 />
    <glyph glyph-name="A" unicode="A" horiz-adv-x="701" 
d="M99 0h-95l408 753h6l223 -753h-111l-164 598l75 45zM223 274h269l22 -84h-329z" />
    <glyph glyph-name="Agrave" unicode="&#xc0;" horiz-adv-x="701" 
d="M99 0h-95l408 753h6l223 -753h-111l-164 598l75 45zM223 274h269l22 -84h-329zM385 943l66 -134h-59l-110 134h103z" />
    <glyph glyph-name="Aacute" unicode="&#xc1;" horiz-adv-x="701" 
d="M99 0h-95l408 753h6l223 -753h-111l-164 598l75 45zM223 274h269l22 -84h-329zM580 943l-133 -134h-59l89 134h103z" />
    <glyph glyph-name="Acircumflex" unicode="&#xc2;" horiz-adv-x="701" 
d="M99 0h-95l408 753h6l223 -753h-111l-164 598l75 45zM223 274h269l22 -84h-329zM500 809l-76 106l26 7l-104 -113h-85l183 183v0l141 -183h-85z" />
    <glyph glyph-name="Atilde" unicode="&#xc3;" horiz-adv-x="701" 
d="M99 0h-95l408 753h6l223 -753h-111l-164 598l75 45zM223 274h269l22 -84h-329zM498 774q-36 2 -58 20t-39 37q-12 13 -23.5 24t-28.5 12q-14 1 -26 -8.5t-19.5 -28.5t-10.5 -45l-59 5q3 44 20 78.5t45 53.5t64 17q29 -1 48.5 -18.5t35.5 -36.5q14 -16 27 -28t30 -13
q15 -1 25.5 9t16.5 30t9 46l58 -5q0 -47 -16.5 -81t-42.5 -51.5t-56 -16.5z" />
    <glyph glyph-name="Adieresis" unicode="&#xc4;" horiz-adv-x="701" 
d="M99 0h-95l408 753h6l223 -753h-111l-164 598l75 45zM223 274h269l22 -84h-329zM285 857q2 23 20 37.5t38 13.5q19 -1 33.5 -17t11.5 -39q-2 -24 -19.5 -37.5t-36.5 -12.5q-20 1 -35 16.5t-12 38.5v0zM471 857q3 23 20.5 37.5t37.5 13.5q19 -1 33.5 -17.5t12.5 -38.5
q-3 -24 -21 -37.5t-36 -12.5q-20 1 -34.5 16t-12.5 39v0z" />
    <glyph glyph-name="Aring" unicode="&#xc5;" horiz-adv-x="701" 
d="M99 0h-95l408 753h6l223 -753h-111l-164 598l75 45zM223 274h269l22 -84h-329zM339 857q4 42 33 65t70 21q40 -2 64 -27t20 -64q-3 -42 -32.5 -65.5t-69.5 -21.5t-64 27.5t-21 64.5zM390 853q-1 -19 9.5 -31t29.5 -13t32 11t15 32q1 21 -9.5 33t-28.5 12
q-19 1 -32.5 -10.5t-15.5 -33.5z" />
    <glyph glyph-name="Amacron" unicode="&#x100;" horiz-adv-x="701" 
d="M99 0h-95l408 753h6l223 -753h-111l-164 598l75 45zM223 274h269l22 -84h-329zM313 861h233l-6 -53h-234z" />
    <glyph glyph-name="Abreve" unicode="&#x102;" horiz-adv-x="701" 
d="M99 0h-95l408 753h6l223 -753h-111l-164 598l75 45zM223 274h269l22 -84h-329zM419 791q-25 1 -49 11.5t-42.5 31.5t-29 55t-10.5 83h63q0 -42 11 -67.5t28.5 -37t36.5 -13.5q26 0 45 14t32 41.5t20 62.5h64q-11 -62 -34.5 -103t-57.5 -60.5t-77 -17.5z" />
    <glyph glyph-name="Aogonek" unicode="&#x104;" horiz-adv-x="701" 
d="M99 0h-95l408 753h6l223 -753h-111l-164 598l75 45zM223 274h269l22 -84h-329zM548 -211q-45 3 -76 31t-31 73q0 21 10.5 45t32.5 45t56 33l101 -16q-54 -21 -86.5 -43t-34.5 -51q-2 -26 12 -38t33 -13q20 -1 37.5 11t33.5 34l30 -49q-20 -28 -53 -45.5t-65 -16.5z" />
    <glyph glyph-name="Aringacute" unicode="&#x1fa;" horiz-adv-x="701" 
d="M99 0h-95l408 753h6l223 -753h-111l-164 598l75 45zM223 274h269l22 -84h-329zM339 857q4 42 33 65t70 21q40 -2 64 -27t20 -64q-3 -42 -32.5 -65.5t-69.5 -21.5t-64 27.5t-21 64.5zM390 853q-1 -19 9.5 -31t29.5 -13t32 11t15 32q1 21 -9.5 33t-28.5 12
q-19 1 -32.5 -10.5t-15.5 -33.5zM606 1148l-133 -134h-59l89 134h103z" />
    <glyph glyph-name="uni0200" unicode="&#x200;" horiz-adv-x="701" 
d="M99 0h-95l408 753h6l223 -753h-111l-164 598l75 45zM223 274h269l22 -84h-329zM333 943l66 -134h-59l-110 134h103zM467 943l66 -134h-59l-110 134h103z" />
    <glyph glyph-name="uni0202" unicode="&#x202;" horiz-adv-x="701" 
d="M99 0h-95l408 753h6l223 -753h-111l-164 598l75 45zM223 274h269l22 -84h-329zM443 957q25 -1 49 -11.5t42.5 -31.5t29 -55t10.5 -84h-63q1 43 -10.5 68.5t-28.5 37.5t-37 12q-26 2 -45 -13t-31.5 -41.5t-20.5 -63.5h-64q11 63 34.5 104t58 60.5t76.5 17.5z" />
    <glyph glyph-name="uni1EA0" unicode="&#x1ea0;" horiz-adv-x="701" 
d="M99 0h-95l408 753h6l223 -753h-111l-164 598l75 45zM223 274h269l22 -84h-329zM254 -100q0 23 17 39t42 16q19 0 36.5 -12t16.5 -37q-1 -23 -18 -39t-42 -16q-19 0 -36 12.5t-16 36.5z" />
    <glyph glyph-name="uni1EA2" unicode="&#x1ea2;" horiz-adv-x="701" 
d="M99 0h-95l408 753h6l223 -753h-111l-164 598l75 45zM223 274h269l22 -84h-329zM401 812q21 14 35.5 26.5t17.5 30.5q2 18 -5 29t-27 12q-15 0 -26 -7t-22 -21l-32 24q19 29 44 42.5t52 12.5q37 0 55 -21.5t16 -52.5q-1 -26 -22 -52.5t-68 -49.5z" />
    <glyph glyph-name="uni1EA4" unicode="&#x1ea4;" horiz-adv-x="701" 
d="M99 0h-95l408 753h6l223 -753h-111l-164 598l75 45zM223 274h269l22 -84h-329zM469 809l-76 106l26 7l-104 -113h-85l183 183v0l141 -183h-85zM689 1078l-133 -134h-59l89 134h103z" />
    <glyph glyph-name="uni1EA6" unicode="&#x1ea6;" horiz-adv-x="701" 
d="M99 0h-95l408 753h6l223 -753h-111l-164 598l75 45zM223 274h269l22 -84h-329zM498 786l-76 106l26 7l-104 -113h-85l183 183v0l141 -183h-85zM269 1030l66 -134h-59l-110 134h103z" />
    <glyph glyph-name="uni1EA8" unicode="&#x1ea8;" horiz-adv-x="701" 
d="M99 0h-95l408 753h6l223 -753h-111l-164 598l75 45zM223 274h269l22 -84h-329zM490 786l-76 106l26 7l-104 -113h-85l183 183v0l141 -183h-85zM549 918q21 14 35.5 26.5t17.5 30.5q2 18 -5 29t-27 12q-15 0 -26 -7t-22 -21l-32 24q19 29 44 42.5t52 12.5q37 0 55 -21.5
t16 -52.5q-1 -26 -22 -52.5t-68 -49.5z" />
    <glyph glyph-name="uni1EAA" unicode="&#x1eaa;" horiz-adv-x="701" 
d="M99 0h-95l408 753h6l223 -753h-111l-164 598l75 45zM223 274h269l22 -84h-329zM525 1000q-33 2 -51.5 17.5t-34.5 32.5q-10 12 -21 22t-26 11q-12 1 -22.5 -8t-17.5 -25.5t-10 -40.5l-50 5q2 38 17 68.5t40 47t55 14.5q27 -1 44 -16.5t31 -32.5q12 -14 23.5 -25t27.5 -11
q19 -2 30.5 18.5t15.5 56.5l50 -4q-1 -41 -15 -71t-37 -45.5t-49 -13.5zM503 783l-76 106l26 7l-104 -113h-85l183 183v0l141 -183h-85z" />
    <glyph glyph-name="uni1EAC" unicode="&#x1eac;" horiz-adv-x="701" 
d="M99 0h-95l408 753h6l223 -753h-111l-164 598l75 45zM223 274h269l22 -84h-329zM254 -100q0 23 17 39t42 16q19 0 36.5 -12t16.5 -37q-1 -23 -18 -39t-42 -16q-19 0 -36 12.5t-16 36.5zM500 809l-76 106l26 7l-104 -113h-85l183 183v0l141 -183h-85z" />
    <glyph glyph-name="uni1EAE" unicode="&#x1eae;" horiz-adv-x="701" 
d="M99 0h-95l408 753h6l223 -753h-111l-164 598l75 45zM223 274h269l22 -84h-329zM422 806q-25 1 -49 11.5t-42.5 31.5t-29 55t-10.5 83h63q0 -42 11 -67.5t28.5 -37t36.5 -13.5q26 0 45 14t32 41.5t20 62.5h64q-11 -62 -34.5 -103t-57.5 -60.5t-77 -17.5zM609 1175
l-133 -134h-59l89 134h103z" />
    <glyph glyph-name="uni1EB0" unicode="&#x1eb0;" horiz-adv-x="701" 
d="M99 0h-95l408 753h6l223 -753h-111l-164 598l75 45zM223 274h269l22 -84h-329zM418 806q-25 1 -49 11.5t-42.5 31.5t-29 55t-10.5 83h63q0 -42 11 -67.5t28.5 -37t36.5 -13.5q26 0 45 14t32 41.5t20 62.5h64q-11 -62 -34.5 -103t-57.5 -60.5t-77 -17.5zM410 1142l66 -134
h-59l-110 134h103z" />
    <glyph glyph-name="uni1EB2" unicode="&#x1eb2;" horiz-adv-x="701" 
d="M99 0h-95l408 753h6l223 -753h-111l-164 598l75 45zM223 274h269l22 -84h-329zM419 791q-25 1 -49 11.5t-42.5 31.5t-29 55t-10.5 83h63q0 -42 11 -67.5t28.5 -37t36.5 -13.5q26 0 45 14t32 41.5t20 62.5h64q-11 -62 -34.5 -103t-57.5 -60.5t-77 -17.5zM427 1037
q21 14 35.5 26.5t17.5 30.5q2 18 -5 29t-27 12q-15 0 -26 -7t-22 -21l-32 24q19 29 44 42.5t52 12.5q37 0 55 -21.5t16 -52.5q-1 -26 -22 -52.5t-68 -49.5z" />
    <glyph glyph-name="uni1EB4" unicode="&#x1eb4;" horiz-adv-x="701" 
d="M99 0h-95l408 753h6l223 -753h-111l-164 598l75 45zM223 274h269l22 -84h-329zM510 1026q-32 2 -51 17.5t-34 33.5q-11 12 -21.5 22t-25.5 10q-12 1 -23 -7.5t-18 -25.5t-10 -41l-50 5q3 38 18 68.5t39.5 47t54.5 14.5q27 -1 44 -16t31 -32q12 -14 23.5 -25.5t27.5 -11.5
q20 -2 31 19t15 57l50 -4q-1 -42 -15 -72t-37 -45t-49 -14zM409 806q-25 1 -49 11.5t-42.5 31.5t-29 55t-10.5 83h63q0 -42 11 -67.5t28.5 -37t36.5 -13.5q26 0 45 14t32 41.5t20 62.5h63q-11 -62 -34.5 -103t-57 -60.5t-76.5 -17.5z" />
    <glyph glyph-name="uni1EB6" unicode="&#x1eb6;" horiz-adv-x="701" 
d="M99 0h-95l408 753h6l223 -753h-111l-164 598l75 45zM223 274h269l22 -84h-329zM254 -100q0 23 17 39t42 16q19 0 36.5 -12t16.5 -37q-1 -23 -18 -39t-42 -16q-19 0 -36 12.5t-16 36.5zM419 791q-25 1 -49 11.5t-42.5 31.5t-29 55t-10.5 83h63q0 -42 11 -67.5t28.5 -37
t36.5 -13.5q26 0 45 14t32 41.5t20 62.5h64q-11 -62 -34.5 -103t-57.5 -60.5t-77 -17.5z" />
    <glyph glyph-name="B" unicode="B" horiz-adv-x="614" 
d="M351 723q99 0 154 -36.5t55 -121.5q0 -39 -12 -81t-41 -74.5t-81 -44.5l-3 4q34 -6 63.5 -25t48 -50t18.5 -77q0 -56 -20.5 -97.5t-55.5 -67.5t-81 -39t-97 -13h-222l89 723h185zM332 406q37 0 62 13.5t39 34.5t20 44t6 41q0 49 -30.5 71.5t-86.5 22.5h-88l-28 -227h106z
M302 90q50 0 84 17t51.5 46.5t17.5 67.5q0 37 -20 59.5t-51 32t-64 9.5h-104l-28 -232h114z" />
    <glyph glyph-name="C" unicode="C" horiz-adv-x="698" 
d="M617 37q-17 -9 -46 -21t-66.5 -20t-80.5 -8q-63 0 -124.5 20t-111.5 61t-80 104.5t-30 150.5q0 57 13.5 114t42 109t73 92t107.5 63.5t145 23.5q73 0 130 -22t95 -50l-50 -87q-28 23 -71 43t-96 23q-72 2 -126 -22t-90 -66.5t-54 -97.5t-18 -116q0 -55 18 -101t51 -79
t79 -51.5t101 -18.5q37 0 66.5 8t52.5 18.5t40 18.5z" />
    <glyph glyph-name="Ccedilla" unicode="&#xc7;" horiz-adv-x="698" 
d="M617 37q-17 -9 -46 -21t-66.5 -20t-80.5 -8q-63 0 -124.5 20t-111.5 61t-80 104.5t-30 150.5q0 57 13.5 114t42 109t73 92t107.5 63.5t145 23.5q73 0 130 -22t95 -50l-50 -87q-28 23 -71 43t-96 23q-72 2 -126 -22t-90 -66.5t-54 -97.5t-18 -116q0 -55 18 -101t51 -79
t79 -51.5t101 -18.5q37 0 66.5 8t52.5 18.5t40 18.5zM327 -150q9 -12 25 -20.5t38 -10.5q26 -1 48 9.5t25 32.5q3 17 -9.5 32t-49.5 17q-16 1 -34 -2t-32 -7l-11 47l71 54l71 -4l-77 -78l-19 25q12 3 28 5t31 2q53 -2 84 -26.5t26 -68.5q-4 -33 -26 -53t-54.5 -29t-68.5 -7
q-37 3 -61.5 15.5t-38.5 28.5z" />
    <glyph glyph-name="Cacute" unicode="&#x106;" horiz-adv-x="698" 
d="M617 37q-17 -9 -46 -21t-66.5 -20t-80.5 -8q-63 0 -124.5 20t-111.5 61t-80 104.5t-30 150.5q0 57 13.5 114t42 109t73 92t107.5 63.5t145 23.5q73 0 130 -22t95 -50l-50 -87q-28 23 -71 43t-96 23q-72 2 -126 -22t-90 -66.5t-54 -97.5t-18 -116q0 -55 18 -101t51 -79
t79 -51.5t101 -18.5q37 0 66.5 8t52.5 18.5t40 18.5zM620 923l-133 -134h-59l89 134h103z" />
    <glyph glyph-name="Ccircumflex" unicode="&#x108;" horiz-adv-x="698" 
d="M617 37q-17 -9 -46 -21t-66.5 -20t-80.5 -8q-63 0 -124.5 20t-111.5 61t-80 104.5t-30 150.5q0 57 13.5 114t42 109t73 92t107.5 63.5t145 23.5q73 0 130 -22t95 -50l-50 -87q-28 23 -71 43t-96 23q-72 2 -126 -22t-90 -66.5t-54 -97.5t-18 -116q0 -55 18 -101t51 -79
t79 -51.5t101 -18.5q37 0 66.5 8t52.5 18.5t40 18.5zM540 789l-76 106l26 7l-104 -113h-85l183 183v0l141 -183h-85z" />
    <glyph glyph-name="Cdotaccent" unicode="&#x10a;" horiz-adv-x="698" 
d="M617 37q-17 -9 -46 -21t-66.5 -20t-80.5 -8q-63 0 -124.5 20t-111.5 61t-80 104.5t-30 150.5q0 57 13.5 114t42 109t73 92t107.5 63.5t145 23.5q73 0 130 -22t95 -50l-50 -87q-28 23 -71 43t-96 23q-72 2 -126 -22t-90 -66.5t-54 -97.5t-18 -116q0 -55 18 -101t51 -79
t79 -51.5t101 -18.5q37 0 66.5 8t52.5 18.5t40 18.5zM416 856q0 23 17 39t42 16q19 0 36.5 -12t16.5 -37q-1 -23 -18 -39t-42 -16q-19 0 -36 12.5t-16 36.5z" />
    <glyph glyph-name="Ccaron" unicode="&#x10c;" horiz-adv-x="698" 
d="M617 37q-17 -9 -46 -21t-66.5 -20t-80.5 -8q-63 0 -124.5 20t-111.5 61t-80 104.5t-30 150.5q0 57 13.5 114t42 109t73 92t107.5 63.5t145 23.5q73 0 130 -22t95 -50l-50 -87q-28 23 -71 43t-96 23q-72 2 -126 -22t-90 -66.5t-54 -97.5t-18 -116q0 -55 18 -101t51 -79
t79 -51.5t101 -18.5q37 0 66.5 8t52.5 18.5t40 18.5zM410 957l76 -106l-25 -6l104 112h85l-183 -183h-1l-141 183h85z" />
    <glyph glyph-name="D" unicode="D" horiz-adv-x="752" 
d="M77 0l89 723h211q101 0 168 -30.5t105 -81t52 -114t9 -130.5q-6 -86 -39 -154.5t-87 -115.5t-122 -72t-144 -25h-242zM185 93h132q60 0 112.5 18t92 53t63.5 87.5t28 121.5q5 67 -12 115.5t-51 80t-78.5 46.5t-95.5 15h-126z" />
    <glyph glyph-name="Dcaron" unicode="&#x10e;" horiz-adv-x="752" 
d="M77 0l89 723h211q101 0 168 -30.5t105 -81t52 -114t9 -130.5q-6 -86 -39 -154.5t-87 -115.5t-122 -72t-144 -25h-242zM185 93h132q60 0 112.5 18t92 53t63.5 87.5t28 121.5q5 67 -12 115.5t-51 80t-78.5 46.5t-95.5 15h-126zM354 940l76 -106l-25 -6l104 112h85
l-183 -183h-1l-141 183h85z" />
    <glyph glyph-name="E" unicode="E" horiz-adv-x="653" 
d="M166 723h469l-11 -90h-370l-27 -225h330l-12 -91h-330l-27 -224h384l-11 -93h-484z" />
    <glyph glyph-name="Egrave" unicode="&#xc8;" horiz-adv-x="653" 
d="M166 723h469l-11 -90h-370l-27 -225h330l-12 -91h-330l-27 -224h384l-11 -93h-484zM361 924l66 -134h-59l-110 134h103z" />
    <glyph glyph-name="Eacute" unicode="&#xc9;" horiz-adv-x="653" 
d="M166 723h469l-11 -90h-370l-27 -225h330l-12 -91h-330l-27 -224h384l-11 -93h-484zM555 924l-133 -134h-59l89 134h103z" />
    <glyph glyph-name="Ecircumflex" unicode="&#xca;" horiz-adv-x="653" 
d="M166 723h469l-11 -90h-370l-27 -225h330l-12 -91h-330l-27 -224h384l-11 -93h-484zM476 790l-76 106l26 7l-104 -113h-85l183 183v0l141 -183h-85z" />
    <glyph glyph-name="Edieresis" unicode="&#xcb;" horiz-adv-x="653" 
d="M166 723h469l-11 -90h-370l-27 -225h330l-12 -91h-330l-27 -224h384l-11 -93h-484zM260 838q2 23 20 37.5t38 13.5q19 -1 33.5 -17t11.5 -39q-2 -24 -19.5 -37.5t-36.5 -12.5q-20 1 -35 16.5t-12 38.5v0zM446 838q3 23 20.5 37.5t37.5 13.5q19 -1 33.5 -17.5t12.5 -38.5
q-3 -24 -21 -37.5t-36 -12.5q-20 1 -34.5 16t-12.5 39v0z" />
    <glyph glyph-name="Emacron" unicode="&#x112;" horiz-adv-x="653" 
d="M166 723h469l-11 -90h-370l-27 -225h330l-12 -91h-330l-27 -224h384l-11 -93h-484zM288 842h233l-6 -53h-234z" />
    <glyph glyph-name="Ebreve" unicode="&#x114;" horiz-adv-x="653" 
d="M166 723h469l-11 -90h-370l-27 -225h330l-12 -91h-330l-27 -224h384l-11 -93h-484zM395 772q-25 1 -49 11.5t-42.5 31.5t-29 55t-10.5 83h63q0 -42 11 -67.5t28.5 -37t36.5 -13.5q26 0 45 14t32 41.5t20 62.5h64q-11 -62 -34.5 -103t-57.5 -60.5t-77 -17.5z" />
    <glyph glyph-name="Edotaccent" unicode="&#x116;" horiz-adv-x="653" 
d="M166 723h469l-11 -90h-370l-27 -225h330l-12 -91h-330l-27 -224h384l-11 -93h-484zM352 858q0 23 17 39t42 16q19 0 36.5 -12t16.5 -37q-1 -23 -18 -39t-42 -16q-19 0 -36 12.5t-16 36.5z" />
    <glyph glyph-name="Eogonek" unicode="&#x118;" horiz-adv-x="653" 
d="M166 723h469l-11 -90h-370l-27 -225h330l-12 -91h-330l-27 -224h384l-11 -93h-484zM467 -211q-45 3 -76 31t-31 73q0 21 10.5 45t32.5 45t56 33l101 -16q-54 -21 -86.5 -43t-34.5 -51q-2 -26 12 -38t33 -13q20 -1 37.5 11t33.5 34l30 -49q-20 -28 -53 -45.5t-65 -16.5z
" />
    <glyph glyph-name="Ecaron" unicode="&#x11a;" horiz-adv-x="653" 
d="M166 723h469l-11 -90h-370l-27 -225h330l-12 -91h-330l-27 -224h384l-11 -93h-484zM346 959l76 -106l-25 -6l104 112h85l-183 -183h-1l-141 183h85z" />
    <glyph glyph-name="uni0204" unicode="&#x204;" horiz-adv-x="653" 
d="M166 723h469l-11 -90h-370l-27 -225h330l-12 -91h-330l-27 -224h384l-11 -93h-484zM308 924l66 -134h-59l-110 134h103zM442 924l66 -134h-59l-110 134h103z" />
    <glyph glyph-name="uni0206" unicode="&#x206;" horiz-adv-x="653" 
d="M166 723h469l-11 -90h-370l-27 -225h330l-12 -91h-330l-27 -224h384l-11 -93h-484zM418 938q25 -1 49 -11.5t42.5 -31.5t29 -55t10.5 -84h-63q1 43 -10.5 68.5t-28.5 37.5t-37 12q-26 2 -45 -13t-31.5 -41.5t-20.5 -63.5h-64q11 63 34.5 104t58 60.5t76.5 17.5z" />
    <glyph glyph-name="uni1EB8" unicode="&#x1eb8;" horiz-adv-x="653" 
d="M166 723h469l-11 -90h-370l-27 -225h330l-12 -91h-330l-27 -224h384l-11 -93h-484zM256 -100q0 23 17 39t42 16q19 0 36.5 -12t16.5 -37q-1 -23 -18 -39t-42 -16q-19 0 -36 12.5t-16 36.5z" />
    <glyph glyph-name="uni1EBA" unicode="&#x1eba;" horiz-adv-x="653" 
d="M166 723h469l-11 -90h-370l-27 -225h330l-12 -91h-330l-27 -224h384l-11 -93h-484zM377 793q21 14 35.5 26.5t17.5 30.5q2 18 -5 29t-27 12q-15 0 -26 -7t-22 -21l-32 24q19 29 44 42.5t52 12.5q37 0 55 -21.5t16 -52.5q-1 -26 -22 -52.5t-68 -49.5z" />
    <glyph glyph-name="uni1EBC" unicode="&#x1ebc;" horiz-adv-x="653" 
d="M166 723h469l-11 -90h-370l-27 -225h330l-12 -91h-330l-27 -224h384l-11 -93h-484zM474 755q-36 2 -58 20t-39 37q-12 13 -23.5 24t-28.5 12q-14 1 -26 -8.5t-19.5 -28.5t-10.5 -45l-59 5q3 44 20 78.5t45 53.5t64 17q29 -1 48.5 -18.5t35.5 -36.5q14 -16 27 -28t30 -13
q15 -1 25.5 9t16.5 30t9 46l58 -5q0 -47 -16.5 -81t-42.5 -51.5t-56 -16.5z" />
    <glyph glyph-name="uni1EBE" unicode="&#x1ebe;" horiz-adv-x="653" 
d="M166 723h469l-11 -90h-370l-27 -225h330l-12 -91h-330l-27 -224h384l-11 -93h-484zM445 790l-76 106l26 7l-104 -113h-85l183 183v0l141 -183h-85zM664 1059l-133 -134h-59l89 134h103z" />
    <glyph glyph-name="uni1EC0" unicode="&#x1ec0;" horiz-adv-x="653" 
d="M166 723h469l-11 -90h-370l-27 -225h330l-12 -91h-330l-27 -224h384l-11 -93h-484zM474 767l-76 106l26 7l-104 -113h-85l183 183v0l141 -183h-85zM244 1011l66 -134h-59l-110 134h103z" />
    <glyph glyph-name="uni1EC2" unicode="&#x1ec2;" horiz-adv-x="653" 
d="M166 723h469l-11 -90h-370l-27 -225h330l-12 -91h-330l-27 -224h384l-11 -93h-484zM465 767l-76 106l26 7l-104 -113h-85l183 183v0l141 -183h-85zM524 899q21 14 35.5 26.5t17.5 30.5q2 18 -5 29t-27 12q-15 0 -26 -7t-22 -21l-32 24q19 29 44 42.5t52 12.5
q37 0 55 -21.5t16 -52.5q-1 -26 -22 -52.5t-68 -49.5z" />
    <glyph glyph-name="uni1EC4" unicode="&#x1ec4;" horiz-adv-x="653" 
d="M166 723h469l-11 -90h-370l-27 -225h330l-12 -91h-330l-27 -224h384l-11 -93h-484zM501 981q-33 2 -51.5 17.5t-34.5 32.5q-10 12 -21 22t-26 11q-12 1 -22.5 -8t-17.5 -25.5t-10 -40.5l-50 5q2 38 17 68.5t40 47t55 14.5q27 -1 44 -16.5t31 -32.5q12 -14 23.5 -25
t27.5 -11q19 -2 30.5 18.5t15.5 56.5l50 -4q-1 -41 -15 -71t-37 -45.5t-49 -13.5zM479 764l-76 106l26 7l-104 -113h-85l183 183v0l141 -183h-85z" />
    <glyph glyph-name="uni1EC6" unicode="&#x1ec6;" horiz-adv-x="653" 
d="M166 723h469l-11 -90h-370l-27 -225h330l-12 -91h-330l-27 -224h384l-11 -93h-484zM256 -100q0 23 17 39t42 16q19 0 36.5 -12t16.5 -37q-1 -23 -18 -39t-42 -16q-19 0 -36 12.5t-16 36.5zM476 790l-76 106l26 7l-104 -113h-85l183 183v0l141 -183h-85z" />
    <glyph glyph-name="F" unicode="F" horiz-adv-x="589" 
d="M166 723h428l-12 -92h-328l-28 -232h288l-12 -92h-288l-37 -307h-100z" />
    <glyph glyph-name="G" unicode="G" horiz-adv-x="759" 
d="M655 45q-21 -15 -59 -28t-82 -21t-84 -7q-37 1 -77 9.5t-80 26t-75.5 44.5t-63 65t-43 86.5t-14.5 108.5q2 53 17 108.5t45.5 107.5t77 92.5t110.5 64.5t147 23q60 -1 120 -17.5t108 -48.5l-43 -87q-38 26 -88.5 41.5t-98.5 14.5q-65 0 -114 -18.5t-83 -49.5t-55 -69.5
t-31 -79.5t-11 -79q-1 -50 14.5 -89.5t42.5 -68.5t60.5 -48t70.5 -29.5t71 -11.5q33 -2 67.5 3.5t59.5 17.5l18 152h-144l12 92h242z" />
    <glyph glyph-name="Gcircumflex" unicode="&#x11c;" horiz-adv-x="759" 
d="M655 45q-21 -15 -59 -28t-82 -21t-84 -7q-37 1 -77 9.5t-80 26t-75.5 44.5t-63 65t-43 86.5t-14.5 108.5q2 53 17 108.5t45.5 107.5t77 92.5t110.5 64.5t147 23q60 -1 120 -17.5t108 -48.5l-43 -87q-38 26 -88.5 41.5t-98.5 14.5q-65 0 -114 -18.5t-83 -49.5t-55 -69.5
t-31 -79.5t-11 -79q-1 -50 14.5 -89.5t42.5 -68.5t60.5 -48t70.5 -29.5t71 -11.5q33 -2 67.5 3.5t59.5 17.5l18 152h-144l12 92h242zM554 797l-76 106l26 7l-104 -113h-85l183 183v0l141 -183h-85z" />
    <glyph glyph-name="Gbreve" unicode="&#x11e;" horiz-adv-x="759" 
d="M655 45q-21 -15 -59 -28t-82 -21t-84 -7q-37 1 -77 9.5t-80 26t-75.5 44.5t-63 65t-43 86.5t-14.5 108.5q2 53 17 108.5t45.5 107.5t77 92.5t110.5 64.5t147 23q60 -1 120 -17.5t108 -48.5l-43 -87q-38 26 -88.5 41.5t-98.5 14.5q-65 0 -114 -18.5t-83 -49.5t-55 -69.5
t-31 -79.5t-11 -79q-1 -50 14.5 -89.5t42.5 -68.5t60.5 -48t70.5 -29.5t71 -11.5q33 -2 67.5 3.5t59.5 17.5l18 152h-144l12 92h242zM473 778q-25 1 -49 11.5t-42.5 31.5t-29 55t-10.5 83h63q0 -42 11 -67.5t28.5 -37t36.5 -13.5q26 0 45 14t32 41.5t20 62.5h64
q-11 -62 -34.5 -103t-57.5 -60.5t-77 -17.5z" />
    <glyph glyph-name="Gdotaccent" unicode="&#x120;" horiz-adv-x="759" 
d="M655 45q-21 -15 -59 -28t-82 -21t-84 -7q-37 1 -77 9.5t-80 26t-75.5 44.5t-63 65t-43 86.5t-14.5 108.5q2 53 17 108.5t45.5 107.5t77 92.5t110.5 64.5t147 23q60 -1 120 -17.5t108 -48.5l-43 -87q-38 26 -88.5 41.5t-98.5 14.5q-65 0 -114 -18.5t-83 -49.5t-55 -69.5
t-31 -79.5t-11 -79q-1 -50 14.5 -89.5t42.5 -68.5t60.5 -48t70.5 -29.5t71 -11.5q33 -2 67.5 3.5t59.5 17.5l18 152h-144l12 92h242zM431 864q0 23 17 39t42 16q19 0 36.5 -12t16.5 -37q-1 -23 -18 -39t-42 -16q-19 0 -36 12.5t-16 36.5z" />
    <glyph glyph-name="uni0122" unicode="&#x122;" horiz-adv-x="759" 
d="M655 45q-21 -15 -59 -28t-82 -21t-84 -7q-37 1 -77 9.5t-80 26t-75.5 44.5t-63 65t-43 86.5t-14.5 108.5q2 53 17 108.5t45.5 107.5t77 92.5t110.5 64.5t147 23q60 -1 120 -17.5t108 -48.5l-43 -87q-38 26 -88.5 41.5t-98.5 14.5q-65 0 -114 -18.5t-83 -49.5t-55 -69.5
t-31 -79.5t-11 -79q-1 -50 14.5 -89.5t42.5 -68.5t60.5 -48t70.5 -29.5t71 -11.5q33 -2 67.5 3.5t59.5 17.5l18 152h-144l12 92h242zM346 -209l-47 33q25 20 36.5 57t7.5 75l82 -1q4 -27 -4 -58.5t-27 -60t-48 -45.5z" />
    <glyph glyph-name="Gcaron" unicode="&#x1e6;" horiz-adv-x="759" 
d="M655 45q-21 -15 -59 -28t-82 -21t-84 -7q-37 1 -77 9.5t-80 26t-75.5 44.5t-63 65t-43 86.5t-14.5 108.5q2 53 17 108.5t45.5 107.5t77 92.5t110.5 64.5t147 23q60 -1 120 -17.5t108 -48.5l-43 -87q-38 26 -88.5 41.5t-98.5 14.5q-65 0 -114 -18.5t-83 -49.5t-55 -69.5
t-31 -79.5t-11 -79q-1 -50 14.5 -89.5t42.5 -68.5t60.5 -48t70.5 -29.5t71 -11.5q33 -2 67.5 3.5t59.5 17.5l18 152h-144l12 92h242zM424 965l76 -106l-25 -6l104 112h85l-183 -183h-1l-141 183h85z" />
    <glyph glyph-name="H" unicode="H" horiz-adv-x="781" 
d="M737 723l-88 -723h-100l40 317h-373l-39 -317h-100l89 723h99l-38 -312h373l38 312h99z" />
    <glyph glyph-name="Hcircumflex" unicode="&#x124;" horiz-adv-x="781" 
d="M737 723l-88 -723h-100l40 317h-373l-39 -317h-100l89 723h99l-38 -312h373l38 312h99zM530 797l-76 106l26 7l-104 -113h-85l183 183v0l141 -183h-85z" />
    <glyph glyph-name="I" unicode="I" horiz-adv-x="309" 
d="M166 723h99l-88 -723h-100z" />
    <glyph glyph-name="Igrave" unicode="&#xcc;" horiz-adv-x="309" 
d="M166 723h99l-88 -723h-100zM184 924l66 -134h-59l-110 134h103z" />
    <glyph glyph-name="Iacute" unicode="&#xcd;" horiz-adv-x="309" 
d="M166 723h99l-88 -723h-100zM379 924l-133 -134h-59l89 134h103z" />
    <glyph glyph-name="Icircumflex" unicode="&#xce;" horiz-adv-x="309" 
d="M166 723h99l-88 -723h-100zM299 790l-76 106l26 7l-104 -113h-85l183 183v0l141 -183h-85z" />
    <glyph glyph-name="Idieresis" unicode="&#xcf;" horiz-adv-x="309" 
d="M166 723h99l-88 -723h-100zM84 838q2 23 20 37.5t38 13.5q19 -1 33.5 -17t11.5 -39q-2 -24 -19.5 -37.5t-36.5 -12.5q-20 1 -35 16.5t-12 38.5v0zM270 838q3 23 20.5 37.5t37.5 13.5q19 -1 33.5 -17.5t12.5 -38.5q-3 -24 -21 -37.5t-36 -12.5q-20 1 -34.5 16t-12.5 39v0z
" />
    <glyph glyph-name="Itilde" unicode="&#x128;" horiz-adv-x="309" 
d="M166 723h99l-88 -723h-100zM297 755q-36 2 -58 20t-39 37q-12 13 -23.5 24t-28.5 12q-14 1 -26 -8.5t-19.5 -28.5t-10.5 -45l-59 5q3 44 20 78.5t45 53.5t64 17q29 -1 48.5 -18.5t35.5 -36.5q14 -16 27 -28t30 -13q15 -1 25.5 9t16.5 30t9 46l58 -5q0 -47 -16.5 -81
t-42.5 -51.5t-56 -16.5z" />
    <glyph glyph-name="Imacron" unicode="&#x12a;" horiz-adv-x="309" 
d="M166 723h99l-88 -723h-100zM112 842h233l-6 -53h-234z" />
    <glyph glyph-name="Ibreve" unicode="&#x12c;" horiz-adv-x="309" 
d="M166 723h99l-88 -723h-100zM218 772q-25 1 -49 11.5t-42.5 31.5t-29 55t-10.5 83h63q0 -42 11 -67.5t28.5 -37t36.5 -13.5q26 0 45 14t32 41.5t20 62.5h64q-11 -62 -34.5 -103t-57.5 -60.5t-77 -17.5z" />
    <glyph glyph-name="Iogonek" unicode="&#x12e;" horiz-adv-x="302" 
d="M89 -214q-44 3 -75.5 31t-31.5 73q0 22 11 47t34 48t57 36l-7 -21l89 723h99l-88 -723q-51 -21 -82.5 -44t-33.5 -53q-2 -26 12 -38t33 -13q20 -1 37.5 11t33.5 33l30 -48q-20 -28 -53 -46t-65 -16z" />
    <glyph glyph-name="Idotaccent" unicode="&#x130;" horiz-adv-x="309" 
d="M166 723h99l-88 -723h-100zM175 858q0 23 17 39t42 16q19 0 36.5 -12t16.5 -37q-1 -23 -18 -39t-42 -16q-19 0 -36 12.5t-16 36.5z" />
    <glyph glyph-name="uni0208" unicode="&#x208;" horiz-adv-x="309" 
d="M166 723h99l-88 -723h-100zM132 924l66 -134h-59l-110 134h103zM266 924l66 -134h-59l-110 134h103z" />
    <glyph glyph-name="uni020A" unicode="&#x20a;" horiz-adv-x="309" 
d="M166 723h99l-88 -723h-100zM242 938q25 -1 49 -11.5t42.5 -31.5t29 -55t10.5 -84h-63q1 43 -10.5 68.5t-28.5 37.5t-37 12q-26 2 -45 -13t-31.5 -41.5t-20.5 -63.5h-64q11 63 34.5 104t58 60.5t76.5 17.5z" />
    <glyph glyph-name="uni1EC8" unicode="&#x1ec8;" horiz-adv-x="309" 
d="M166 723h99l-88 -723h-100zM200 793q21 14 35.5 26.5t17.5 30.5q2 18 -5 29t-27 12q-15 0 -26 -7t-22 -21l-32 24q19 29 44 42.5t52 12.5q37 0 55 -21.5t16 -52.5q-1 -26 -22 -52.5t-68 -49.5z" />
    <glyph glyph-name="uni1ECA" unicode="&#x1eca;" horiz-adv-x="309" 
d="M166 723h99l-88 -723h-100zM47 -100q0 23 17 39t42 16q19 0 36.5 -12t16.5 -37q-1 -23 -18 -39t-42 -16q-19 0 -36 12.5t-16 36.5z" />
    <glyph glyph-name="J" unicode="J" horiz-adv-x="368" 
d="M251 131q-10 -88 -51 -150t-103 -94.5t-137 -35.5v0l11 94q47 3 85.5 23.5t65 61.5t33.5 104l72 589h97z" />
    <glyph glyph-name="Jcircumflex" unicode="&#x134;" horiz-adv-x="368" 
d="M251 131q-10 -88 -51 -150t-103 -94.5t-137 -35.5v0l11 94q47 3 85.5 23.5t65 61.5t33.5 104l72 589h97zM356 794l-76 106l26 7l-104 -113h-85l183 183v0l141 -183h-85z" />
    <glyph glyph-name="K" unicode="K" horiz-adv-x="678" 
d="M227 432l-7 -36l15 18l334 309h125l-337 -310l265 -413h-122l-222 351l-68 -59l-35 -292h-98l89 723h97z" />
    <glyph glyph-name="uni0136" unicode="&#x136;" horiz-adv-x="678" 
d="M227 432l-7 -36l15 18l334 309h125l-337 -310l265 -413h-122l-222 351l-68 -59l-35 -292h-98l89 723h97zM271 -209l-47 33q25 20 36.5 57t7.5 75l82 -1q4 -27 -4 -58.5t-27 -60t-48 -45.5z" />
    <glyph glyph-name="L" unicode="L" horiz-adv-x="608" 
d="M166 723h96l-77 -630h368l-12 -93h-464z" />
    <glyph glyph-name="Lacute" unicode="&#x139;" horiz-adv-x="608" 
d="M166 723h96l-77 -630h368l-12 -93h-464zM376 941l-133 -134h-59l89 134h103z" />
    <glyph glyph-name="uni013B" unicode="&#x13b;" horiz-adv-x="608" 
d="M166 723h96l-77 -630h368l-12 -93h-464zM257 -209l-47 33q25 20 36.5 57t7.5 75l82 -1q4 -27 -4 -58.5t-27 -60t-48 -45.5z" />
    <glyph glyph-name="Lcaron" unicode="&#x13d;" horiz-adv-x="608" 
d="M166 723h96l-77 -630h368l-12 -93h-464zM554 557l-47 33q25 20 36.5 57t7.5 75l82 -1q4 -27 -4 -58.5t-27 -60t-48 -45.5z" />
    <glyph glyph-name="M" unicode="M" horiz-adv-x="928" 
d="M170 0h-93l92 746h1l313 -538l-41 8l444 530h1l-92 -746h-96l65 526v-49l-320 -386h-2l-230 386l22 45z" />
    <glyph glyph-name="N" unicode="N" horiz-adv-x="838" 
d="M703 -23h-3l-489 569l26 -9l-64 -537h-96l91 745h4l483 -571l-21 7l64 542h96z" />
    <glyph glyph-name="Ntilde" unicode="&#xd1;" horiz-adv-x="838" 
d="M703 -23h-3l-489 569l26 -9l-64 -537h-96l91 745h4l483 -571l-21 7l64 542h96zM556 736q-36 2 -58 20t-39 37q-12 13 -23.5 24t-28.5 12q-14 1 -26 -8.5t-19.5 -28.5t-10.5 -45l-59 5q3 44 20 78.5t45 53.5t64 17q29 -1 48.5 -18.5t35.5 -36.5q14 -16 27 -28t30 -13
q15 -1 25.5 9t16.5 30t9 46l58 -5q0 -47 -16.5 -81t-42.5 -51.5t-56 -16.5z" />
    <glyph glyph-name="Nacute" unicode="&#x143;" horiz-adv-x="838" 
d="M703 -23h-3l-489 569l26 -9l-64 -537h-96l91 745h4l483 -571l-21 7l64 542h96zM637 905l-133 -134h-59l89 134h103z" />
    <glyph glyph-name="uni0145" unicode="&#x145;" horiz-adv-x="838" 
d="M703 -23h-3l-489 569l26 -9l-64 -537h-96l91 745h4l483 -571l-21 7l64 542h96zM358 -209l-47 33q25 20 36.5 57t7.5 75l82 -1q4 -27 -4 -58.5t-27 -60t-48 -45.5z" />
    <glyph glyph-name="Ncaron" unicode="&#x147;" horiz-adv-x="838" 
d="M703 -23h-3l-489 569l26 -9l-64 -537h-96l91 745h4l483 -571l-21 7l64 542h96zM428 940l76 -106l-25 -6l104 112h85l-183 -183h-1l-141 183h85z" />
    <glyph glyph-name="O" unicode="O" horiz-adv-x="859" 
d="M425 -7q-66 0 -128 22t-111.5 65t-78.5 107t-29 148q0 66 25 135.5t74 128t123 95t171 36.5q66 0 128.5 -22t111.5 -65t78 -107.5t29 -148.5q0 -66 -25 -135.5t-74 -128t-122.5 -94.5t-171.5 -36zM427 86q75 0 130 27.5t90.5 71.5t53 96t17.5 101q0 52 -18.5 97.5
t-52.5 81t-79.5 56t-100.5 20.5q-75 0 -129.5 -27.5t-90 -71.5t-52.5 -96t-17 -102q0 -51 18 -97t51.5 -81t79 -55.5t100.5 -20.5z" />
    <glyph glyph-name="Ograve" unicode="&#xd2;" horiz-adv-x="859" 
d="M425 -7q-66 0 -128 22t-111.5 65t-78.5 107t-29 148q0 66 25 135.5t74 128t123 95t171 36.5q66 0 128.5 -22t111.5 -65t78 -107.5t29 -148.5q0 -66 -25 -135.5t-74 -128t-122.5 -94.5t-171.5 -36zM427 86q75 0 130 27.5t90.5 71.5t53 96t17.5 101q0 52 -18.5 97.5
t-52.5 81t-79.5 56t-100.5 20.5q-75 0 -129.5 -27.5t-90 -71.5t-52.5 -96t-17 -102q0 -51 18 -97t51.5 -81t79 -55.5t100.5 -20.5zM447 924l66 -134h-59l-110 134h103z" />
    <glyph glyph-name="Oacute" unicode="&#xd3;" horiz-adv-x="859" 
d="M425 -7q-66 0 -128 22t-111.5 65t-78.5 107t-29 148q0 66 25 135.5t74 128t123 95t171 36.5q66 0 128.5 -22t111.5 -65t78 -107.5t29 -148.5q0 -66 -25 -135.5t-74 -128t-122.5 -94.5t-171.5 -36zM427 86q75 0 130 27.5t90.5 71.5t53 96t17.5 101q0 52 -18.5 97.5
t-52.5 81t-79.5 56t-100.5 20.5q-75 0 -129.5 -27.5t-90 -71.5t-52.5 -96t-17 -102q0 -51 18 -97t51.5 -81t79 -55.5t100.5 -20.5zM642 924l-133 -134h-59l89 134h103z" />
    <glyph glyph-name="Ocircumflex" unicode="&#xd4;" horiz-adv-x="859" 
d="M425 -7q-66 0 -128 22t-111.5 65t-78.5 107t-29 148q0 66 25 135.5t74 128t123 95t171 36.5q66 0 128.5 -22t111.5 -65t78 -107.5t29 -148.5q0 -66 -25 -135.5t-74 -128t-122.5 -94.5t-171.5 -36zM427 86q75 0 130 27.5t90.5 71.5t53 96t17.5 101q0 52 -18.5 97.5
t-52.5 81t-79.5 56t-100.5 20.5q-75 0 -129.5 -27.5t-90 -71.5t-52.5 -96t-17 -102q0 -51 18 -97t51.5 -81t79 -55.5t100.5 -20.5zM562 790l-76 106l26 7l-104 -113h-85l183 183v0l141 -183h-85z" />
    <glyph glyph-name="Otilde" unicode="&#xd5;" horiz-adv-x="859" 
d="M425 -7q-66 0 -128 22t-111.5 65t-78.5 107t-29 148q0 66 25 135.5t74 128t123 95t171 36.5q66 0 128.5 -22t111.5 -65t78 -107.5t29 -148.5q0 -66 -25 -135.5t-74 -128t-122.5 -94.5t-171.5 -36zM427 86q75 0 130 27.5t90.5 71.5t53 96t17.5 101q0 52 -18.5 97.5
t-52.5 81t-79.5 56t-100.5 20.5q-75 0 -129.5 -27.5t-90 -71.5t-52.5 -96t-17 -102q0 -51 18 -97t51.5 -81t79 -55.5t100.5 -20.5zM560 755q-36 2 -58 20t-39 37q-12 13 -23.5 24t-28.5 12q-14 1 -26 -8.5t-19.5 -28.5t-10.5 -45l-59 5q3 44 20 78.5t45 53.5t64 17
q29 -1 48.5 -18.5t35.5 -36.5q14 -16 27 -28t30 -13q15 -1 25.5 9t16.5 30t9 46l58 -5q0 -47 -16.5 -81t-42.5 -51.5t-56 -16.5z" />
    <glyph glyph-name="Odieresis" unicode="&#xd6;" horiz-adv-x="859" 
d="M425 -7q-66 0 -128 22t-111.5 65t-78.5 107t-29 148q0 66 25 135.5t74 128t123 95t171 36.5q66 0 128.5 -22t111.5 -65t78 -107.5t29 -148.5q0 -66 -25 -135.5t-74 -128t-122.5 -94.5t-171.5 -36zM427 86q75 0 130 27.5t90.5 71.5t53 96t17.5 101q0 52 -18.5 97.5
t-52.5 81t-79.5 56t-100.5 20.5q-75 0 -129.5 -27.5t-90 -71.5t-52.5 -96t-17 -102q0 -51 18 -97t51.5 -81t79 -55.5t100.5 -20.5zM347 838q2 23 20 37.5t38 13.5q19 -1 33.5 -17t11.5 -39q-2 -24 -19.5 -37.5t-36.5 -12.5q-20 1 -35 16.5t-12 38.5v0zM533 838
q3 23 20.5 37.5t37.5 13.5q19 -1 33.5 -17.5t12.5 -38.5q-3 -24 -21 -37.5t-36 -12.5q-20 1 -34.5 16t-12.5 39v0z" />
    <glyph glyph-name="Omacron" unicode="&#x14c;" horiz-adv-x="859" 
d="M425 -7q-66 0 -128 22t-111.5 65t-78.5 107t-29 148q0 66 25 135.5t74 128t123 95t171 36.5q66 0 128.5 -22t111.5 -65t78 -107.5t29 -148.5q0 -66 -25 -135.5t-74 -128t-122.5 -94.5t-171.5 -36zM427 86q75 0 130 27.5t90.5 71.5t53 96t17.5 101q0 52 -18.5 97.5
t-52.5 81t-79.5 56t-100.5 20.5q-75 0 -129.5 -27.5t-90 -71.5t-52.5 -96t-17 -102q0 -51 18 -97t51.5 -81t79 -55.5t100.5 -20.5zM375 842h233l-6 -53h-234z" />
    <glyph glyph-name="Obreve" unicode="&#x14e;" horiz-adv-x="859" 
d="M425 -7q-66 0 -128 22t-111.5 65t-78.5 107t-29 148q0 66 25 135.5t74 128t123 95t171 36.5q66 0 128.5 -22t111.5 -65t78 -107.5t29 -148.5q0 -66 -25 -135.5t-74 -128t-122.5 -94.5t-171.5 -36zM427 86q75 0 130 27.5t90.5 71.5t53 96t17.5 101q0 52 -18.5 97.5
t-52.5 81t-79.5 56t-100.5 20.5q-75 0 -129.5 -27.5t-90 -71.5t-52.5 -96t-17 -102q0 -51 18 -97t51.5 -81t79 -55.5t100.5 -20.5zM481 772q-25 1 -49 11.5t-42.5 31.5t-29 55t-10.5 83h63q0 -42 11 -67.5t28.5 -37t36.5 -13.5q26 0 45 14t32 41.5t20 62.5h64
q-11 -62 -34.5 -103t-57.5 -60.5t-77 -17.5z" />
    <glyph glyph-name="Ohungarumlaut" unicode="&#x150;" horiz-adv-x="859" 
d="M425 -7q-66 0 -128 22t-111.5 65t-78.5 107t-29 148q0 66 25 135.5t74 128t123 95t171 36.5q66 0 128.5 -22t111.5 -65t78 -107.5t29 -148.5q0 -66 -25 -135.5t-74 -128t-122.5 -94.5t-171.5 -36zM427 86q75 0 130 27.5t90.5 71.5t53 96t17.5 101q0 52 -18.5 97.5
t-52.5 81t-79.5 56t-100.5 20.5q-75 0 -129.5 -27.5t-90 -71.5t-52.5 -96t-17 -102q0 -51 18 -97t51.5 -81t79 -55.5t100.5 -20.5zM535 924q-33 -33 -66.5 -67t-66.5 -67h-59q26 33 53 67t54 67h85zM715 924q-33 -33 -66.5 -67t-66.5 -67h-60q27 33 54 67t54 67h85z" />
    <glyph glyph-name="Ohorn" unicode="&#x1a0;" horiz-adv-x="859" 
d="M425 -7q-66 0 -128 22t-111.5 65t-78.5 107t-29 148q0 66 25 135.5t74 128t123 95t171 36.5q66 0 128.5 -22t111.5 -65t78 -107.5t29 -148.5q0 -66 -25 -135.5t-74 -128t-122.5 -94.5t-171.5 -36zM427 86q75 0 130 27.5t90.5 71.5t53 96t17.5 101q0 52 -18.5 97.5
t-52.5 81t-79.5 56t-100.5 20.5q-75 0 -129.5 -27.5t-90 -71.5t-52.5 -96t-17 -102q0 -51 18 -97t51.5 -81t79 -55.5t100.5 -20.5zM719 616q41 -3 66 17t37 69h69q-14 -61 -40 -93t-61 -42.5t-78 -7.5z" />
    <glyph glyph-name="uni01EA" unicode="&#x1ea;" horiz-adv-x="859" 
d="M561 21q-31 -13 -63.5 -20.5t-72.5 -7.5q-66 0 -128 22t-111.5 65t-78.5 107t-29 148q0 66 25 135.5t74 128t123 95t171 36.5q66 0 128.5 -22t111.5 -65t78 -107.5t29 -148.5q0 -53 -17 -109.5t-50.5 -108.5t-83 -92.5t-113.5 -60.5q-42 -22 -66 -49t-27 -60
q-2 -28 12.5 -41t32.5 -14q20 -1 38 11t34 33l30 -48q-21 -28 -54 -45.5t-64 -16.5q-45 3 -76 31t-31 73q0 21 10.5 45t32.5 46t56 34zM427 86q75 0 130 27.5t90.5 71.5t53 96t17.5 101q0 52 -18.5 97.5t-52.5 81t-79.5 56t-100.5 20.5q-75 0 -129.5 -27.5t-90 -71.5
t-52.5 -96t-17 -102q0 -51 18 -97t51.5 -81t79 -55.5t100.5 -20.5z" />
    <glyph glyph-name="uni020C" unicode="&#x20c;" horiz-adv-x="859" 
d="M425 -7q-66 0 -128 22t-111.5 65t-78.5 107t-29 148q0 66 25 135.5t74 128t123 95t171 36.5q66 0 128.5 -22t111.5 -65t78 -107.5t29 -148.5q0 -66 -25 -135.5t-74 -128t-122.5 -94.5t-171.5 -36zM427 86q75 0 130 27.5t90.5 71.5t53 96t17.5 101q0 52 -18.5 97.5
t-52.5 81t-79.5 56t-100.5 20.5q-75 0 -129.5 -27.5t-90 -71.5t-52.5 -96t-17 -102q0 -51 18 -97t51.5 -81t79 -55.5t100.5 -20.5zM394 924l66 -134h-59l-110 134h103zM529 924l66 -134h-59l-110 134h103z" />
    <glyph glyph-name="uni020E" unicode="&#x20e;" horiz-adv-x="859" 
d="M425 -7q-66 0 -128 22t-111.5 65t-78.5 107t-29 148q0 66 25 135.5t74 128t123 95t171 36.5q66 0 128.5 -22t111.5 -65t78 -107.5t29 -148.5q0 -66 -25 -135.5t-74 -128t-122.5 -94.5t-171.5 -36zM427 86q75 0 130 27.5t90.5 71.5t53 96t17.5 101q0 52 -18.5 97.5
t-52.5 81t-79.5 56t-100.5 20.5q-75 0 -129.5 -27.5t-90 -71.5t-52.5 -96t-17 -102q0 -51 18 -97t51.5 -81t79 -55.5t100.5 -20.5zM504 938q25 -1 49 -11.5t42.5 -31.5t29 -55t10.5 -84h-63q1 43 -10.5 68.5t-28.5 37.5t-37 12q-26 2 -45 -13t-31.5 -41.5t-20.5 -63.5h-64
q11 63 34.5 104t58 60.5t76.5 17.5z" />
    <glyph glyph-name="uni022A" unicode="&#x22a;" horiz-adv-x="859" 
d="M425 -7q-66 0 -128 22t-111.5 65t-78.5 107t-29 148q0 66 25 135.5t74 128t123 95t171 36.5q66 0 128.5 -22t111.5 -65t78 -107.5t29 -148.5q0 -66 -25 -135.5t-74 -128t-122.5 -94.5t-171.5 -36zM427 86q75 0 130 27.5t90.5 71.5t53 96t17.5 101q0 52 -18.5 97.5
t-52.5 81t-79.5 56t-100.5 20.5q-75 0 -129.5 -27.5t-90 -71.5t-52.5 -96t-17 -102q0 -51 18 -97t51.5 -81t79 -55.5t100.5 -20.5zM347 838q2 23 20 37.5t38 13.5q19 -1 33.5 -17t11.5 -39q-2 -24 -19.5 -37.5t-36.5 -12.5q-20 1 -35 16.5t-12 38.5v0zM533 838
q3 23 20.5 37.5t37.5 13.5q19 -1 33.5 -17.5t12.5 -38.5q-3 -24 -21 -37.5t-36 -12.5q-20 1 -34.5 16t-12.5 39v0zM395 1008h233l-6 -53h-234z" />
    <glyph glyph-name="uni022C" unicode="&#x22c;" horiz-adv-x="859" 
d="M425 -7q-66 0 -128 22t-111.5 65t-78.5 107t-29 148q0 66 25 135.5t74 128t123 95t171 36.5q66 0 128.5 -22t111.5 -65t78 -107.5t29 -148.5q0 -66 -25 -135.5t-74 -128t-122.5 -94.5t-171.5 -36zM427 86q75 0 130 27.5t90.5 71.5t53 96t17.5 101q0 52 -18.5 97.5
t-52.5 81t-79.5 56t-100.5 20.5q-75 0 -129.5 -27.5t-90 -71.5t-52.5 -96t-17 -102q0 -51 18 -97t51.5 -81t79 -55.5t100.5 -20.5zM560 755q-36 2 -58 20t-39 37q-12 13 -23.5 24t-28.5 12q-14 1 -26 -8.5t-19.5 -28.5t-10.5 -45l-59 5q3 44 20 78.5t45 53.5t64 17
q29 -1 48.5 -18.5t35.5 -36.5q14 -16 27 -28t30 -13q15 -1 25.5 9t16.5 30t9 46l58 -5q0 -47 -16.5 -81t-42.5 -51.5t-56 -16.5zM407 1024h233l-6 -53h-234z" />
    <glyph glyph-name="uni0230" unicode="&#x230;" horiz-adv-x="859" 
d="M425 -7q-66 0 -128 22t-111.5 65t-78.5 107t-29 148q0 66 25 135.5t74 128t123 95t171 36.5q66 0 128.5 -22t111.5 -65t78 -107.5t29 -148.5q0 -66 -25 -135.5t-74 -128t-122.5 -94.5t-171.5 -36zM427 86q75 0 130 27.5t90.5 71.5t53 96t17.5 101q0 52 -18.5 97.5
t-52.5 81t-79.5 56t-100.5 20.5q-75 0 -129.5 -27.5t-90 -71.5t-52.5 -96t-17 -102q0 -51 18 -97t51.5 -81t79 -55.5t100.5 -20.5zM438 858q0 23 17 39t42 16q19 0 36.5 -12t16.5 -37q-1 -23 -18 -39t-42 -16q-19 0 -36 12.5t-16 36.5zM400 1040h233l-6 -53h-234z" />
    <glyph glyph-name="uni1ECC" unicode="&#x1ecc;" horiz-adv-x="859" 
d="M425 -7q-66 0 -128 22t-111.5 65t-78.5 107t-29 148q0 66 25 135.5t74 128t123 95t171 36.5q66 0 128.5 -22t111.5 -65t78 -107.5t29 -148.5q0 -66 -25 -135.5t-74 -128t-122.5 -94.5t-171.5 -36zM427 86q75 0 130 27.5t90.5 71.5t53 96t17.5 101q0 52 -18.5 97.5
t-52.5 81t-79.5 56t-100.5 20.5q-75 0 -129.5 -27.5t-90 -71.5t-52.5 -96t-17 -102q0 -51 18 -97t51.5 -81t79 -55.5t100.5 -20.5zM366 -100q0 23 17 39t42 16q19 0 36.5 -12t16.5 -37q-1 -23 -18 -39t-42 -16q-19 0 -36 12.5t-16 36.5z" />
    <glyph glyph-name="uni1ECE" unicode="&#x1ece;" horiz-adv-x="859" 
d="M425 -7q-66 0 -128 22t-111.5 65t-78.5 107t-29 148q0 66 25 135.5t74 128t123 95t171 36.5q66 0 128.5 -22t111.5 -65t78 -107.5t29 -148.5q0 -66 -25 -135.5t-74 -128t-122.5 -94.5t-171.5 -36zM427 86q75 0 130 27.5t90.5 71.5t53 96t17.5 101q0 52 -18.5 97.5
t-52.5 81t-79.5 56t-100.5 20.5q-75 0 -129.5 -27.5t-90 -71.5t-52.5 -96t-17 -102q0 -51 18 -97t51.5 -81t79 -55.5t100.5 -20.5zM463 793q21 14 35.5 26.5t17.5 30.5q2 18 -5 29t-27 12q-15 0 -26 -7t-22 -21l-32 24q19 29 44 42.5t52 12.5q37 0 55 -21.5t16 -52.5
q-1 -26 -22 -52.5t-68 -49.5z" />
    <glyph glyph-name="uni1ED0" unicode="&#x1ed0;" horiz-adv-x="859" 
d="M425 -7q-66 0 -128 22t-111.5 65t-78.5 107t-29 148q0 66 25 135.5t74 128t123 95t171 36.5q66 0 128.5 -22t111.5 -65t78 -107.5t29 -148.5q0 -66 -25 -135.5t-74 -128t-122.5 -94.5t-171.5 -36zM427 86q75 0 130 27.5t90.5 71.5t53 96t17.5 101q0 52 -18.5 97.5
t-52.5 81t-79.5 56t-100.5 20.5q-75 0 -129.5 -27.5t-90 -71.5t-52.5 -96t-17 -102q0 -51 18 -97t51.5 -81t79 -55.5t100.5 -20.5zM531 790l-76 106l26 7l-104 -113h-85l183 183v0l141 -183h-85zM750 1059l-133 -134h-59l89 134h103z" />
    <glyph glyph-name="uni1ED2" unicode="&#x1ed2;" horiz-adv-x="859" 
d="M425 -7q-66 0 -128 22t-111.5 65t-78.5 107t-29 148q0 66 25 135.5t74 128t123 95t171 36.5q66 0 128.5 -22t111.5 -65t78 -107.5t29 -148.5q0 -66 -25 -135.5t-74 -128t-122.5 -94.5t-171.5 -36zM427 86q75 0 130 27.5t90.5 71.5t53 96t17.5 101q0 52 -18.5 97.5
t-52.5 81t-79.5 56t-100.5 20.5q-75 0 -129.5 -27.5t-90 -71.5t-52.5 -96t-17 -102q0 -51 18 -97t51.5 -81t79 -55.5t100.5 -20.5zM560 767l-76 106l26 7l-104 -113h-85l183 183v0l141 -183h-85zM330 1011l66 -134h-59l-110 134h103z" />
    <glyph glyph-name="uni1ED4" unicode="&#x1ed4;" horiz-adv-x="859" 
d="M425 -7q-66 0 -128 22t-111.5 65t-78.5 107t-29 148q0 66 25 135.5t74 128t123 95t171 36.5q66 0 128.5 -22t111.5 -65t78 -107.5t29 -148.5q0 -66 -25 -135.5t-74 -128t-122.5 -94.5t-171.5 -36zM427 86q75 0 130 27.5t90.5 71.5t53 96t17.5 101q0 52 -18.5 97.5
t-52.5 81t-79.5 56t-100.5 20.5q-75 0 -129.5 -27.5t-90 -71.5t-52.5 -96t-17 -102q0 -51 18 -97t51.5 -81t79 -55.5t100.5 -20.5zM552 767l-76 106l26 7l-104 -113h-85l183 183v0l141 -183h-85zM610 899q21 14 35.5 26.5t17.5 30.5q2 18 -5 29t-27 12q-15 0 -26 -7t-22 -21
l-32 24q19 29 44 42.5t52 12.5q37 0 55 -21.5t16 -52.5q-1 -26 -22 -52.5t-68 -49.5z" />
    <glyph glyph-name="uni1ED6" unicode="&#x1ed6;" horiz-adv-x="859" 
d="M425 -7q-66 0 -128 22t-111.5 65t-78.5 107t-29 148q0 66 25 135.5t74 128t123 95t171 36.5q66 0 128.5 -22t111.5 -65t78 -107.5t29 -148.5q0 -66 -25 -135.5t-74 -128t-122.5 -94.5t-171.5 -36zM427 86q75 0 130 27.5t90.5 71.5t53 96t17.5 101q0 52 -18.5 97.5
t-52.5 81t-79.5 56t-100.5 20.5q-75 0 -129.5 -27.5t-90 -71.5t-52.5 -96t-17 -102q0 -51 18 -97t51.5 -81t79 -55.5t100.5 -20.5zM587 981q-33 2 -51.5 17.5t-34.5 32.5q-10 12 -21 22t-26 11q-12 1 -22.5 -8t-17.5 -25.5t-10 -40.5l-50 5q2 38 17 68.5t40 47t55 14.5
q27 -1 44 -16.5t31 -32.5q12 -14 23.5 -25t27.5 -11q19 -2 30.5 18.5t15.5 56.5l50 -4q-1 -41 -15 -71t-37 -45.5t-49 -13.5zM565 764l-76 106l26 7l-104 -113h-85l183 183v0l141 -183h-85z" />
    <glyph glyph-name="uni1ED8" unicode="&#x1ed8;" horiz-adv-x="859" 
d="M425 -7q-66 0 -128 22t-111.5 65t-78.5 107t-29 148q0 66 25 135.5t74 128t123 95t171 36.5q66 0 128.5 -22t111.5 -65t78 -107.5t29 -148.5q0 -66 -25 -135.5t-74 -128t-122.5 -94.5t-171.5 -36zM427 86q75 0 130 27.5t90.5 71.5t53 96t17.5 101q0 52 -18.5 97.5
t-52.5 81t-79.5 56t-100.5 20.5q-75 0 -129.5 -27.5t-90 -71.5t-52.5 -96t-17 -102q0 -51 18 -97t51.5 -81t79 -55.5t100.5 -20.5zM366 -100q0 23 17 39t42 16q19 0 36.5 -12t16.5 -37q-1 -23 -18 -39t-42 -16q-19 0 -36 12.5t-16 36.5zM562 790l-76 106l26 7l-104 -113h-85
l183 183v0l141 -183h-85z" />
    <glyph glyph-name="uni1EDA" unicode="&#x1eda;" horiz-adv-x="859" 
d="M425 -7q-66 0 -128 22t-111.5 65t-78.5 107t-29 148q0 66 25 135.5t74 128t123 95t171 36.5q66 0 128.5 -22t111.5 -65t78 -107.5t29 -148.5q0 -66 -25 -135.5t-74 -128t-122.5 -94.5t-171.5 -36zM427 86q75 0 130 27.5t90.5 71.5t53 96t17.5 101q0 52 -18.5 97.5
t-52.5 81t-79.5 56t-100.5 20.5q-75 0 -129.5 -27.5t-90 -71.5t-52.5 -96t-17 -102q0 -51 18 -97t51.5 -81t79 -55.5t100.5 -20.5zM719 616q41 -3 66 17t37 69h69q-14 -61 -40 -93t-61 -42.5t-78 -7.5zM642 924l-133 -134h-59l89 134h103z" />
    <glyph glyph-name="uni1EDC" unicode="&#x1edc;" horiz-adv-x="859" 
d="M425 -7q-66 0 -128 22t-111.5 65t-78.5 107t-29 148q0 66 25 135.5t74 128t123 95t171 36.5q66 0 128.5 -22t111.5 -65t78 -107.5t29 -148.5q0 -66 -25 -135.5t-74 -128t-122.5 -94.5t-171.5 -36zM427 86q75 0 130 27.5t90.5 71.5t53 96t17.5 101q0 52 -18.5 97.5
t-52.5 81t-79.5 56t-100.5 20.5q-75 0 -129.5 -27.5t-90 -71.5t-52.5 -96t-17 -102q0 -51 18 -97t51.5 -81t79 -55.5t100.5 -20.5zM719 616q41 -3 66 17t37 69h69q-14 -61 -40 -93t-61 -42.5t-78 -7.5zM447 924l66 -134h-59l-110 134h103z" />
    <glyph glyph-name="uni1EDE" unicode="&#x1ede;" horiz-adv-x="859" 
d="M425 -7q-66 0 -128 22t-111.5 65t-78.5 107t-29 148q0 66 25 135.5t74 128t123 95t171 36.5q66 0 128.5 -22t111.5 -65t78 -107.5t29 -148.5q0 -66 -25 -135.5t-74 -128t-122.5 -94.5t-171.5 -36zM427 86q75 0 130 27.5t90.5 71.5t53 96t17.5 101q0 52 -18.5 97.5
t-52.5 81t-79.5 56t-100.5 20.5q-75 0 -129.5 -27.5t-90 -71.5t-52.5 -96t-17 -102q0 -51 18 -97t51.5 -81t79 -55.5t100.5 -20.5zM719 616q41 -3 66 17t37 69h69q-14 -61 -40 -93t-61 -42.5t-78 -7.5zM463 793q21 14 35.5 26.5t17.5 30.5q2 18 -5 29t-27 12q-15 0 -26 -7
t-22 -21l-32 24q19 29 44 42.5t52 12.5q37 0 55 -21.5t16 -52.5q-1 -26 -22 -52.5t-68 -49.5z" />
    <glyph glyph-name="uni1EE0" unicode="&#x1ee0;" horiz-adv-x="859" 
d="M425 -7q-66 0 -128 22t-111.5 65t-78.5 107t-29 148q0 66 25 135.5t74 128t123 95t171 36.5q66 0 128.5 -22t111.5 -65t78 -107.5t29 -148.5q0 -66 -25 -135.5t-74 -128t-122.5 -94.5t-171.5 -36zM427 86q75 0 130 27.5t90.5 71.5t53 96t17.5 101q0 52 -18.5 97.5
t-52.5 81t-79.5 56t-100.5 20.5q-75 0 -129.5 -27.5t-90 -71.5t-52.5 -96t-17 -102q0 -51 18 -97t51.5 -81t79 -55.5t100.5 -20.5zM719 616q41 -3 66 17t37 69h69q-14 -61 -40 -93t-61 -42.5t-78 -7.5zM560 755q-36 2 -58 20t-39 37q-12 13 -23.5 24t-28.5 12
q-14 1 -26 -8.5t-19.5 -28.5t-10.5 -45l-59 5q3 44 20 78.5t45 53.5t64 17q29 -1 48.5 -18.5t35.5 -36.5q14 -16 27 -28t30 -13q15 -1 25.5 9t16.5 30t9 46l58 -5q0 -47 -16.5 -81t-42.5 -51.5t-56 -16.5z" />
    <glyph glyph-name="uni1EE2" unicode="&#x1ee2;" horiz-adv-x="859" 
d="M425 -7q-66 0 -128 22t-111.5 65t-78.5 107t-29 148q0 66 25 135.5t74 128t123 95t171 36.5q66 0 128.5 -22t111.5 -65t78 -107.5t29 -148.5q0 -66 -25 -135.5t-74 -128t-122.5 -94.5t-171.5 -36zM427 86q75 0 130 27.5t90.5 71.5t53 96t17.5 101q0 52 -18.5 97.5
t-52.5 81t-79.5 56t-100.5 20.5q-75 0 -129.5 -27.5t-90 -71.5t-52.5 -96t-17 -102q0 -51 18 -97t51.5 -81t79 -55.5t100.5 -20.5zM719 616q41 -3 66 17t37 69h69q-14 -61 -40 -93t-61 -42.5t-78 -7.5zM366 -100q0 23 17 39t42 16q19 0 36.5 -12t16.5 -37q-1 -23 -18 -39
t-42 -16q-19 0 -36 12.5t-16 36.5z" />
    <glyph glyph-name="P" unicode="P" horiz-adv-x="584" 
d="M358 723q49 0 90.5 -13t72 -38t47.5 -61.5t17 -84.5q0 -45 -15 -90.5t-47.5 -84t-84.5 -62t-125 -23.5h-104l-32 -266h-100l89 723h192zM322 359q46 0 77 16t49.5 40.5t27 50.5t8.5 46q0 28 -13 55t-41 44.5t-74 17.5h-102l-33 -270h101z" />
    <glyph glyph-name="Q" unicode="Q" horiz-adv-x="942" 
d="M635 71l248 24l-12 -95h-371zM468 -7q-66 0 -128.5 22t-111.5 65t-78 107t-29 148q0 66 24.5 135.5t73.5 128t123 95t172 36.5q66 0 128 -22t111.5 -65t78 -107.5t28.5 -148.5q0 -66 -24.5 -135.5t-73.5 -128t-122.5 -94.5t-171.5 -36zM469 86q75 0 130 27.5t91 71.5
t53.5 96t17.5 101q0 52 -19 97.5t-52.5 81t-79.5 56t-100 20.5q-76 0 -130.5 -27.5t-90 -71.5t-52.5 -96t-17 -102q0 -51 18.5 -97t51.5 -81t78.5 -55.5t100.5 -20.5z" />
    <glyph glyph-name="R" unicode="R" horiz-adv-x="660" 
d="M358 723q54 0 98.5 -14.5t76 -43t45.5 -70t8 -96.5q-6 -43 -23.5 -84t-50.5 -74.5t-82 -54t-117 -20.5h-107l-33 -266h-96l89 723h192zM323 359q57 0 91.5 22t51 54t20.5 60q3 22 -2.5 45.5t-19 43.5t-39 33t-63.5 13h-112l-32 -271h105zM434 304l153 -304h-113l-155 301
z" />
    <glyph glyph-name="Racute" unicode="&#x154;" horiz-adv-x="660" 
d="M358 723q54 0 98.5 -14.5t76 -43t45.5 -70t8 -96.5q-6 -43 -23.5 -84t-50.5 -74.5t-82 -54t-117 -20.5h-107l-33 -266h-96l89 723h192zM323 359q57 0 91.5 22t51 54t20.5 60q3 22 -2.5 45.5t-19 43.5t-39 33t-63.5 13h-112l-32 -271h105zM434 304l153 -304h-113l-155 301
zM527 924l-133 -134h-59l89 134h103z" />
    <glyph glyph-name="uni0156" unicode="&#x156;" horiz-adv-x="660" 
d="M358 723q54 0 98.5 -14.5t76 -43t45.5 -70t8 -96.5q-6 -43 -23.5 -84t-50.5 -74.5t-82 -54t-117 -20.5h-107l-33 -266h-96l89 723h192zM323 359q57 0 91.5 22t51 54t20.5 60q3 22 -2.5 45.5t-19 43.5t-39 33t-63.5 13h-112l-32 -271h105zM434 304l153 -304h-113l-155 301
zM274 -209l-47 33q25 20 36.5 57t7.5 75l82 -1q4 -27 -4 -58.5t-27 -60t-48 -45.5z" />
    <glyph glyph-name="Rcaron" unicode="&#x158;" horiz-adv-x="660" 
d="M358 723q54 0 98.5 -14.5t76 -43t45.5 -70t8 -96.5q-6 -43 -23.5 -84t-50.5 -74.5t-82 -54t-117 -20.5h-107l-33 -266h-96l89 723h192zM323 359q57 0 91.5 22t51 54t20.5 60q3 22 -2.5 45.5t-19 43.5t-39 33t-63.5 13h-112l-32 -271h105zM434 304l153 -304h-113l-155 301
zM318 959l76 -106l-25 -6l104 112h85l-183 -183h-1l-141 183h85z" />
    <glyph glyph-name="uni0210" unicode="&#x210;" horiz-adv-x="660" 
d="M358 723q54 0 98.5 -14.5t76 -43t45.5 -70t8 -96.5q-6 -43 -23.5 -84t-50.5 -74.5t-82 -54t-117 -20.5h-107l-33 -266h-96l89 723h192zM323 359q57 0 91.5 22t51 54t20.5 60q3 22 -2.5 45.5t-19 43.5t-39 33t-63.5 13h-112l-32 -271h105zM434 304l153 -304h-113l-155 301
zM280 924l66 -134h-59l-110 134h103zM414 924l66 -134h-59l-110 134h103z" />
    <glyph glyph-name="uni0212" unicode="&#x212;" horiz-adv-x="660" 
d="M358 723q54 0 98.5 -14.5t76 -43t45.5 -70t8 -96.5q-6 -43 -23.5 -84t-50.5 -74.5t-82 -54t-117 -20.5h-107l-33 -266h-96l89 723h192zM323 359q57 0 91.5 22t51 54t20.5 60q3 22 -2.5 45.5t-19 43.5t-39 33t-63.5 13h-112l-32 -271h105zM434 304l153 -304h-113l-155 301
zM390 938q25 -1 49 -11.5t42.5 -31.5t29 -55t10.5 -84h-63q1 43 -10.5 68.5t-28.5 37.5t-37 12q-26 2 -45 -13t-31.5 -41.5t-20.5 -63.5h-64q11 63 34.5 104t58 60.5t76.5 17.5z" />
    <glyph glyph-name="S" unicode="S" horiz-adv-x="565" 
d="M516 581q-35 22 -79 39t-87 18q-35 1 -59.5 -7.5t-41 -22.5t-24.5 -32t-9 -35q-2 -31 17.5 -55t52.5 -42.5t69 -35.5q42 -19 80.5 -44.5t61.5 -65.5t17 -104q-3 -37 -20.5 -74t-49 -66t-78 -46t-108.5 -15q-47 2 -89.5 14.5t-79 32t-65.5 44.5l52 73q22 -20 52 -37.5
t64.5 -28t67.5 -12.5q43 0 76.5 14.5t54 42t23.5 63.5q2 32 -15.5 56.5t-46 43t-62.5 33.5q-31 14 -63.5 32t-59.5 41t-41.5 56t-9.5 77q5 58 36 100t81.5 64t113.5 22q47 -2 86 -12.5t71 -25.5t58 -33z" />
    <glyph glyph-name="Sacute" unicode="&#x15a;" horiz-adv-x="565" 
d="M516 581q-35 22 -79 39t-87 18q-35 1 -59.5 -7.5t-41 -22.5t-24.5 -32t-9 -35q-2 -31 17.5 -55t52.5 -42.5t69 -35.5q42 -19 80.5 -44.5t61.5 -65.5t17 -104q-3 -37 -20.5 -74t-49 -66t-78 -46t-108.5 -15q-47 2 -89.5 14.5t-79 32t-65.5 44.5l52 73q22 -20 52 -37.5
t64.5 -28t67.5 -12.5q43 0 76.5 14.5t54 42t23.5 63.5q2 32 -15.5 56.5t-46 43t-62.5 33.5q-31 14 -63.5 32t-59.5 41t-41.5 56t-9.5 77q5 58 36 100t81.5 64t113.5 22q47 -2 86 -12.5t71 -25.5t58 -33zM497 905l-133 -134h-59l89 134h103z" />
    <glyph glyph-name="Scircumflex" unicode="&#x15c;" horiz-adv-x="565" 
d="M516 581q-35 22 -79 39t-87 18q-35 1 -59.5 -7.5t-41 -22.5t-24.5 -32t-9 -35q-2 -31 17.5 -55t52.5 -42.5t69 -35.5q42 -19 80.5 -44.5t61.5 -65.5t17 -104q-3 -37 -20.5 -74t-49 -66t-78 -46t-108.5 -15q-47 2 -89.5 14.5t-79 32t-65.5 44.5l52 73q22 -20 52 -37.5
t64.5 -28t67.5 -12.5q43 0 76.5 14.5t54 42t23.5 63.5q2 32 -15.5 56.5t-46 43t-62.5 33.5q-31 14 -63.5 32t-59.5 41t-41.5 56t-9.5 77q5 58 36 100t81.5 64t113.5 22q47 -2 86 -12.5t71 -25.5t58 -33zM418 771l-76 106l26 7l-104 -113h-85l183 183v0l141 -183h-85z" />
    <glyph glyph-name="Scedilla" unicode="&#x15e;" horiz-adv-x="565" 
d="M516 581q-35 22 -79 39t-87 18q-35 1 -59.5 -7.5t-41 -22.5t-24.5 -32t-9 -35q-2 -31 17.5 -55t52.5 -42.5t69 -35.5q42 -19 80.5 -44.5t61.5 -65.5t17 -104q-3 -37 -20.5 -74t-49 -66t-78 -46t-108.5 -15q-47 2 -89.5 14.5t-79 32t-65.5 44.5l52 73q22 -20 52 -37.5
t64.5 -28t67.5 -12.5q43 0 76.5 14.5t54 42t23.5 63.5q2 32 -15.5 56.5t-46 43t-62.5 33.5q-31 14 -63.5 32t-59.5 41t-41.5 56t-9.5 77q5 58 36 100t81.5 64t113.5 22q47 -2 86 -12.5t71 -25.5t58 -33zM172 -148q9 -12 25 -20.5t38 -10.5q26 -1 48 9.5t25 32.5
q3 17 -9.5 32t-49.5 17q-16 1 -34 -2t-32 -7l-11 47l71 54l71 -4l-77 -78l-19 25q12 3 28 5t31 2q53 -2 84 -26.5t26 -68.5q-4 -33 -26 -53t-54.5 -29t-68.5 -7q-37 3 -61.5 15.5t-38.5 28.5z" />
    <glyph glyph-name="Scaron" unicode="&#x160;" horiz-adv-x="565" 
d="M516 581q-35 22 -79 39t-87 18q-35 1 -59.5 -7.5t-41 -22.5t-24.5 -32t-9 -35q-2 -31 17.5 -55t52.5 -42.5t69 -35.5q42 -19 80.5 -44.5t61.5 -65.5t17 -104q-3 -37 -20.5 -74t-49 -66t-78 -46t-108.5 -15q-47 2 -89.5 14.5t-79 32t-65.5 44.5l52 73q22 -20 52 -37.5
t64.5 -28t67.5 -12.5q43 0 76.5 14.5t54 42t23.5 63.5q2 32 -15.5 56.5t-46 43t-62.5 33.5q-31 14 -63.5 32t-59.5 41t-41.5 56t-9.5 77q5 58 36 100t81.5 64t113.5 22q47 -2 86 -12.5t71 -25.5t58 -33zM288 940l76 -106l-25 -6l104 112h85l-183 -183h-1l-141 183h85z" />
    <glyph glyph-name="uni0218" unicode="&#x218;" horiz-adv-x="565" 
d="M516 581q-35 22 -79 39t-87 18q-35 1 -59.5 -7.5t-41 -22.5t-24.5 -32t-9 -35q-2 -31 17.5 -55t52.5 -42.5t69 -35.5q42 -19 80.5 -44.5t61.5 -65.5t17 -104q-3 -37 -20.5 -74t-49 -66t-78 -46t-108.5 -15q-47 2 -89.5 14.5t-79 32t-65.5 44.5l52 73q22 -20 52 -37.5
t64.5 -28t67.5 -12.5q43 0 76.5 14.5t54 42t23.5 63.5q2 32 -15.5 56.5t-46 43t-62.5 33.5q-31 14 -63.5 32t-59.5 41t-41.5 56t-9.5 77q5 58 36 100t81.5 64t113.5 22q47 -2 86 -12.5t71 -25.5t58 -33zM232 -209l-47 33q25 20 36.5 57t7.5 75l82 -1q4 -27 -4 -58.5t-27 -60
t-48 -45.5z" />
    <glyph glyph-name="T" unicode="T" horiz-adv-x="581" 
d="M112 723h480l-12 -95h-192l-77 -628h-100l77 628h-188z" />
    <glyph glyph-name="uni0162" unicode="&#x162;" horiz-adv-x="581" 
d="M112 723h480l-12 -95h-192l-77 -628h-100l77 628h-188zM158 -148q9 -12 25 -20.5t38 -10.5q26 -1 48 9.5t25 32.5q3 17 -9.5 32t-49.5 17q-16 1 -34 -2t-32 -7l-11 47l71 54l71 -4l-77 -78l-19 25q12 3 28 5t31 2q53 -2 84 -26.5t26 -68.5q-4 -33 -26 -53t-54.5 -29
t-68.5 -7q-37 3 -61.5 15.5t-38.5 28.5z" />
    <glyph glyph-name="Tcaron" unicode="&#x164;" horiz-adv-x="581" 
d="M112 723h480l-12 -95h-192l-77 -628h-100l77 628h-188zM305 940l76 -106l-25 -6l104 112h85l-183 -183h-1l-141 183h85z" />
    <glyph glyph-name="uni021A" unicode="&#x21a;" horiz-adv-x="581" 
d="M112 723h480l-12 -95h-192l-77 -628h-100l77 628h-188zM218 -209l-47 33q25 20 36.5 57t7.5 75l82 -1q4 -27 -4 -58.5t-27 -60t-48 -45.5z" />
    <glyph glyph-name="U" unicode="U" horiz-adv-x="752" 
d="M208 256q-6 -49 11.5 -87.5t53.5 -60.5t85 -22q51 0 92.5 22t68 60.5t32.5 87.5l57 467h99l-57 -470q-10 -79 -52 -138t-107 -91t-145 -32v0q-75 0 -132.5 32t-86 91t-19.5 138l58 470h99z" />
    <glyph glyph-name="Ugrave" unicode="&#xd9;" horiz-adv-x="752" 
d="M208 256q-6 -49 11.5 -87.5t53.5 -60.5t85 -22q51 0 92.5 22t68 60.5t32.5 87.5l57 467h99l-57 -470q-10 -79 -52 -138t-107 -91t-145 -32v0q-75 0 -132.5 32t-86 91t-19.5 138l58 470h99zM409 924l66 -134h-59l-110 134h103z" />
    <glyph glyph-name="Uacute" unicode="&#xda;" horiz-adv-x="752" 
d="M208 256q-6 -49 11.5 -87.5t53.5 -60.5t85 -22q51 0 92.5 22t68 60.5t32.5 87.5l57 467h99l-57 -470q-10 -79 -52 -138t-107 -91t-145 -32v0q-75 0 -132.5 32t-86 91t-19.5 138l58 470h99zM604 924l-133 -134h-59l89 134h103z" />
    <glyph glyph-name="Ucircumflex" unicode="&#xdb;" horiz-adv-x="752" 
d="M208 256q-6 -49 11.5 -87.5t53.5 -60.5t85 -22q51 0 92.5 22t68 60.5t32.5 87.5l57 467h99l-57 -470q-10 -79 -52 -138t-107 -91t-145 -32v0q-75 0 -132.5 32t-86 91t-19.5 138l58 470h99zM524 790l-76 106l26 7l-104 -113h-85l183 183v0l141 -183h-85z" />
    <glyph glyph-name="Udieresis" unicode="&#xdc;" horiz-adv-x="752" 
d="M208 256q-6 -49 11.5 -87.5t53.5 -60.5t85 -22q51 0 92.5 22t68 60.5t32.5 87.5l57 467h99l-57 -470q-10 -79 -52 -138t-107 -91t-145 -32v0q-75 0 -132.5 32t-86 91t-19.5 138l58 470h99zM309 838q2 23 20 37.5t38 13.5q19 -1 33.5 -17t11.5 -39q-2 -24 -19.5 -37.5
t-36.5 -12.5q-20 1 -35 16.5t-12 38.5v0zM495 838q3 23 20.5 37.5t37.5 13.5q19 -1 33.5 -17.5t12.5 -38.5q-3 -24 -21 -37.5t-36 -12.5q-20 1 -34.5 16t-12.5 39v0z" />
    <glyph glyph-name="Utilde" unicode="&#x168;" horiz-adv-x="752" 
d="M208 256q-6 -49 11.5 -87.5t53.5 -60.5t85 -22q51 0 92.5 22t68 60.5t32.5 87.5l57 467h99l-57 -470q-10 -79 -52 -138t-107 -91t-145 -32v0q-75 0 -132.5 32t-86 91t-19.5 138l58 470h99zM522 755q-36 2 -58 20t-39 37q-12 13 -23.5 24t-28.5 12q-14 1 -26 -8.5
t-19.5 -28.5t-10.5 -45l-59 5q3 44 20 78.5t45 53.5t64 17q29 -1 48.5 -18.5t35.5 -36.5q14 -16 27 -28t30 -13q15 -1 25.5 9t16.5 30t9 46l58 -5q0 -47 -16.5 -81t-42.5 -51.5t-56 -16.5z" />
    <glyph glyph-name="Umacron" unicode="&#x16a;" horiz-adv-x="752" 
d="M208 256q-6 -49 11.5 -87.5t53.5 -60.5t85 -22q51 0 92.5 22t68 60.5t32.5 87.5l57 467h99l-57 -470q-10 -79 -52 -138t-107 -91t-145 -32v0q-75 0 -132.5 32t-86 91t-19.5 138l58 470h99zM337 842h233l-6 -53h-234z" />
    <glyph glyph-name="Ubreve" unicode="&#x16c;" horiz-adv-x="752" 
d="M208 256q-6 -49 11.5 -87.5t53.5 -60.5t85 -22q51 0 92.5 22t68 60.5t32.5 87.5l57 467h99l-57 -470q-10 -79 -52 -138t-107 -91t-145 -32v0q-75 0 -132.5 32t-86 91t-19.5 138l58 470h99zM443 772q-25 1 -49 11.5t-42.5 31.5t-29 55t-10.5 83h63q0 -42 11 -67.5
t28.5 -37t36.5 -13.5q26 0 45 14t32 41.5t20 62.5h64q-11 -62 -34.5 -103t-57.5 -60.5t-77 -17.5z" />
    <glyph glyph-name="Uring" unicode="&#x16e;" horiz-adv-x="752" 
d="M208 256q-6 -49 11.5 -87.5t53.5 -60.5t85 -22q51 0 92.5 22t68 60.5t32.5 87.5l57 467h99l-57 -470q-10 -79 -52 -138t-107 -91t-145 -32v0q-75 0 -132.5 32t-86 91t-19.5 138l58 470h99zM363 838q4 42 33 65t70 21q40 -2 64 -27t20 -64q-3 -42 -32.5 -65.5t-69.5 -21.5
t-64 27.5t-21 64.5zM414 834q-1 -19 9.5 -31t29.5 -13t32 11t15 32q1 21 -9.5 33t-28.5 12q-19 1 -32.5 -10.5t-15.5 -33.5z" />
    <glyph glyph-name="Uhungarumlaut" unicode="&#x170;" horiz-adv-x="752" 
d="M208 256q-6 -49 11.5 -87.5t53.5 -60.5t85 -22q51 0 92.5 22t68 60.5t32.5 87.5l57 467h99l-57 -470q-10 -79 -52 -138t-107 -91t-145 -32v0q-75 0 -132.5 32t-86 91t-19.5 138l58 470h99zM498 924q-33 -33 -66.5 -67t-66.5 -67h-59q26 33 53 67t54 67h85zM678 924
q-33 -33 -66.5 -67t-66.5 -67h-60q27 33 54 67t54 67h85z" />
    <glyph glyph-name="Uogonek" unicode="&#x172;" horiz-adv-x="751" 
d="M346 -8q-78 0 -135 32.5t-84.5 91t-18.5 137.5l58 470h99l-57 -467q-6 -49 11.5 -87.5t53.5 -60.5t85 -22q51 0 92.5 22t68 60.5t32.5 87.5l57 467h99l-57 -470q-7 -58 -33.5 -105t-66.5 -81.5t-87 -54.5q-41 -17 -60.5 -45t-19.5 -59q0 -21 13.5 -36.5t31.5 -15.5
q20 -1 38 11t34 33l30 -48q-21 -28 -54 -45t-64 -17q-35 0 -59 14.5t-36 39.5t-12 54q0 42 27 76t78 56l45 -17q-28 -10 -51 -15.5t-58 -5.5z" />
    <glyph glyph-name="Uhorn" unicode="&#x1af;" horiz-adv-x="813" 
d="M208 256q-6 -49 11.5 -87.5t53.5 -60.5t85 -22q51 0 92.5 22t68 60.5t32.5 87.5l57 467h99l-57 -470q-10 -79 -52 -138t-107 -91t-145 -32v0q-75 0 -132.5 32t-86 91t-19.5 138l58 470h99zM693 637q41 -3 66 17t37 69h69q-14 -61 -40 -93t-61 -42.5t-78 -7.5z" />
    <glyph glyph-name="uni01D3" unicode="&#x1d3;" horiz-adv-x="752" 
d="M208 256q-6 -49 11.5 -87.5t53.5 -60.5t85 -22q51 0 92.5 22t68 60.5t32.5 87.5l57 467h99l-57 -470q-10 -79 -52 -138t-107 -91t-145 -32v0q-75 0 -132.5 32t-86 91t-19.5 138l58 470h99zM394 959l76 -106l-25 -6l104 112h85l-183 -183h-1l-141 183h85z" />
    <glyph glyph-name="uni0214" unicode="&#x214;" horiz-adv-x="752" 
d="M208 256q-6 -49 11.5 -87.5t53.5 -60.5t85 -22q51 0 92.5 22t68 60.5t32.5 87.5l57 467h99l-57 -470q-10 -79 -52 -138t-107 -91t-145 -32v0q-75 0 -132.5 32t-86 91t-19.5 138l58 470h99zM357 924l66 -134h-59l-110 134h103zM491 924l66 -134h-59l-110 134h103z" />
    <glyph glyph-name="uni0216" unicode="&#x216;" horiz-adv-x="752" 
d="M208 256q-6 -49 11.5 -87.5t53.5 -60.5t85 -22q51 0 92.5 22t68 60.5t32.5 87.5l57 467h99l-57 -470q-10 -79 -52 -138t-107 -91t-145 -32v0q-75 0 -132.5 32t-86 91t-19.5 138l58 470h99zM467 938q25 -1 49 -11.5t42.5 -31.5t29 -55t10.5 -84h-63q1 43 -10.5 68.5
t-28.5 37.5t-37 12q-26 2 -45 -13t-31.5 -41.5t-20.5 -63.5h-64q11 63 34.5 104t58 60.5t76.5 17.5z" />
    <glyph glyph-name="uni1EE4" unicode="&#x1ee4;" horiz-adv-x="752" 
d="M208 256q-6 -49 11.5 -87.5t53.5 -60.5t85 -22q51 0 92.5 22t68 60.5t32.5 87.5l57 467h99l-57 -470q-10 -79 -52 -138t-107 -91t-145 -32v0q-75 0 -132.5 32t-86 91t-19.5 138l58 470h99zM270 -100q0 23 17 39t42 16q19 0 36.5 -12t16.5 -37q-1 -23 -18 -39t-42 -16
q-19 0 -36 12.5t-16 36.5z" />
    <glyph glyph-name="uni1EE6" unicode="&#x1ee6;" horiz-adv-x="752" 
d="M208 256q-6 -49 11.5 -87.5t53.5 -60.5t85 -22q51 0 92.5 22t68 60.5t32.5 87.5l57 467h99l-57 -470q-10 -79 -52 -138t-107 -91t-145 -32v0q-75 0 -132.5 32t-86 91t-19.5 138l58 470h99zM425 793q21 14 35.5 26.5t17.5 30.5q2 18 -5 29t-27 12q-15 0 -26 -7t-22 -21
l-32 24q19 29 44 42.5t52 12.5q37 0 55 -21.5t16 -52.5q-1 -26 -22 -52.5t-68 -49.5z" />
    <glyph glyph-name="uni1EE8" unicode="&#x1ee8;" horiz-adv-x="813" 
d="M208 256q-6 -49 11.5 -87.5t53.5 -60.5t85 -22q51 0 92.5 22t68 60.5t32.5 87.5l57 467h99l-57 -470q-10 -79 -52 -138t-107 -91t-145 -32v0q-75 0 -132.5 32t-86 91t-19.5 138l58 470h99zM693 637q41 -3 66 17t37 69h69q-14 -61 -40 -93t-61 -42.5t-78 -7.5zM604 924
l-133 -134h-59l89 134h103z" />
    <glyph glyph-name="uni1EEA" unicode="&#x1eea;" horiz-adv-x="813" 
d="M208 256q-6 -49 11.5 -87.5t53.5 -60.5t85 -22q51 0 92.5 22t68 60.5t32.5 87.5l57 467h99l-57 -470q-10 -79 -52 -138t-107 -91t-145 -32v0q-75 0 -132.5 32t-86 91t-19.5 138l58 470h99zM693 637q41 -3 66 17t37 69h69q-14 -61 -40 -93t-61 -42.5t-78 -7.5zM409 924
l66 -134h-59l-110 134h103z" />
    <glyph glyph-name="uni1EEC" unicode="&#x1eec;" horiz-adv-x="813" 
d="M208 256q-6 -49 11.5 -87.5t53.5 -60.5t85 -22q51 0 92.5 22t68 60.5t32.5 87.5l57 467h99l-57 -470q-10 -79 -52 -138t-107 -91t-145 -32v0q-75 0 -132.5 32t-86 91t-19.5 138l58 470h99zM693 637q41 -3 66 17t37 69h69q-14 -61 -40 -93t-61 -42.5t-78 -7.5zM425 793
q21 14 35.5 26.5t17.5 30.5q2 18 -5 29t-27 12q-15 0 -26 -7t-22 -21l-32 24q19 29 44 42.5t52 12.5q37 0 55 -21.5t16 -52.5q-1 -26 -22 -52.5t-68 -49.5z" />
    <glyph glyph-name="uni1EEE" unicode="&#x1eee;" horiz-adv-x="813" 
d="M208 256q-6 -49 11.5 -87.5t53.5 -60.5t85 -22q51 0 92.5 22t68 60.5t32.5 87.5l57 467h99l-57 -470q-10 -79 -52 -138t-107 -91t-145 -32v0q-75 0 -132.5 32t-86 91t-19.5 138l58 470h99zM693 637q41 -3 66 17t37 69h69q-14 -61 -40 -93t-61 -42.5t-78 -7.5zM522 755
q-36 2 -58 20t-39 37q-12 13 -23.5 24t-28.5 12q-14 1 -26 -8.5t-19.5 -28.5t-10.5 -45l-59 5q3 44 20 78.5t45 53.5t64 17q29 -1 48.5 -18.5t35.5 -36.5q14 -16 27 -28t30 -13q15 -1 25.5 9t16.5 30t9 46l58 -5q0 -47 -16.5 -81t-42.5 -51.5t-56 -16.5z" />
    <glyph glyph-name="uni1EF0" unicode="&#x1ef0;" horiz-adv-x="813" 
d="M208 256q-6 -49 11.5 -87.5t53.5 -60.5t85 -22q51 0 92.5 22t68 60.5t32.5 87.5l57 467h99l-57 -470q-10 -79 -52 -138t-107 -91t-145 -32v0q-75 0 -132.5 32t-86 91t-19.5 138l58 470h99zM693 637q41 -3 66 17t37 69h69q-14 -61 -40 -93t-61 -42.5t-78 -7.5zM270 -100
q0 23 17 39t42 16q19 0 36.5 -12t16.5 -37q-1 -23 -18 -39t-42 -16q-19 0 -36 12.5t-16 36.5z" />
    <glyph glyph-name="V" unicode="V" horiz-adv-x="719" 
d="M329 -29l-225 752h115l166 -593l-55 10l298 583h114l-409 -752h-4z" />
    <glyph glyph-name="W" unicode="W" horiz-adv-x="1008" 
d="M104 719h112l128 -550l-16 6l188 369l30 -131l-247 -446zM452 719h96l146 -543l-20 4l253 539h103l-376 -751z" />
    <glyph glyph-name="Wcircumflex" unicode="&#x174;" horiz-adv-x="1008" 
d="M104 719h112l128 -550l-16 6l188 369l30 -131l-247 -446zM452 719h96l146 -543l-20 4l253 539h103l-376 -751zM675 794l-76 106l26 7l-104 -113h-85l183 183v0l141 -183h-85z" />
    <glyph glyph-name="Wgrave" unicode="&#x1e80;" horiz-adv-x="1008" 
d="M104 719h112l128 -550l-16 6l188 369l30 -131l-247 -446zM452 719h96l146 -543l-20 4l253 539h103l-376 -751zM560 928l66 -134h-59l-110 134h103z" />
    <glyph glyph-name="Wacute" unicode="&#x1e82;" horiz-adv-x="1008" 
d="M104 719h112l128 -550l-16 6l188 369l30 -131l-247 -446zM452 719h96l146 -543l-20 4l253 539h103l-376 -751zM755 928l-133 -134h-59l89 134h103z" />
    <glyph glyph-name="Wdieresis" unicode="&#x1e84;" horiz-adv-x="1008" 
d="M104 719h112l128 -550l-16 6l188 369l30 -131l-247 -446zM452 719h96l146 -543l-20 4l253 539h103l-376 -751zM460 842q2 23 20 37.5t38 13.5q19 -1 33.5 -17t11.5 -39q-2 -24 -19.5 -37.5t-36.5 -12.5q-20 1 -35 16.5t-12 38.5v0zM646 842q3 23 20.5 37.5t37.5 13.5
q19 -1 33.5 -17.5t12.5 -38.5q-3 -24 -21 -37.5t-36 -12.5q-20 1 -34.5 16t-12.5 39v0z" />
    <glyph glyph-name="X" unicode="X" horiz-adv-x="644" 
d="M96 723h122l383 -723h-124zM-2 0l298 393l36 -94l-215 -299h-119zM351 428l210 295h118l-286 -376z" />
    <glyph glyph-name="Y" unicode="Y" horiz-adv-x="691" 
d="M300 241l-208 482h118l166 -399l-30 -2l262 401h119l-330 -482l-29 -241h-97z" />
    <glyph glyph-name="Yacute" unicode="&#xdd;" horiz-adv-x="691" 
d="M300 241l-208 482h118l166 -399l-30 -2l262 401h119l-330 -482l-29 -241h-97zM568 928l-133 -134h-59l89 134h103z" />
    <glyph glyph-name="Ycircumflex" unicode="&#x176;" horiz-adv-x="691" 
d="M300 241l-208 482h118l166 -399l-30 -2l262 401h119l-330 -482l-29 -241h-97zM488 794l-76 106l26 7l-104 -113h-85l183 183v0l141 -183h-85z" />
    <glyph glyph-name="Ydieresis" unicode="&#x178;" horiz-adv-x="691" 
d="M300 241l-208 482h118l166 -399l-30 -2l262 401h119l-330 -482l-29 -241h-97zM273 842q2 23 20 37.5t38 13.5q19 -1 33.5 -17t11.5 -39q-2 -24 -19.5 -37.5t-36.5 -12.5q-20 1 -35 16.5t-12 38.5v0zM459 842q3 23 20.5 37.5t37.5 13.5q19 -1 33.5 -17.5t12.5 -38.5
q-3 -24 -21 -37.5t-36 -12.5q-20 1 -34.5 16t-12.5 39v0z" />
    <glyph glyph-name="uni0232" unicode="&#x232;" horiz-adv-x="691" 
d="M300 241l-208 482h118l166 -399l-30 -2l262 401h119l-330 -482l-29 -241h-97zM301 846h233l-6 -53h-234z" />
    <glyph glyph-name="Ygrave" unicode="&#x1ef2;" horiz-adv-x="691" 
d="M300 241l-208 482h118l166 -399l-30 -2l262 401h119l-330 -482l-29 -241h-97zM373 928l66 -134h-59l-110 134h103z" />
    <glyph glyph-name="uni1EF4" unicode="&#x1ef4;" horiz-adv-x="691" 
d="M300 241l-208 482h118l166 -399l-30 -2l262 401h119l-330 -482l-29 -241h-97zM235 -100q0 23 17 39t42 16q19 0 36.5 -12t16.5 -37q-1 -23 -18 -39t-42 -16q-19 0 -36 12.5t-16 36.5z" />
    <glyph glyph-name="uni1EF6" unicode="&#x1ef6;" horiz-adv-x="691" 
d="M300 241l-208 482h118l166 -399l-30 -2l262 401h119l-330 -482l-29 -241h-97zM389 797q21 14 35.5 26.5t17.5 30.5q2 18 -5 29t-27 12q-15 0 -26 -7t-22 -21l-32 24q19 29 44 42.5t52 12.5q37 0 55 -21.5t16 -52.5q-1 -26 -22 -52.5t-68 -49.5z" />
    <glyph glyph-name="uni1EF8" unicode="&#x1ef8;" horiz-adv-x="691" 
d="M300 241l-208 482h118l166 -399l-30 -2l262 401h119l-330 -482l-29 -241h-97zM486 759q-36 2 -58 20t-39 37q-12 13 -23.5 24t-28.5 12q-14 1 -26 -8.5t-19.5 -28.5t-10.5 -45l-59 5q3 44 20 78.5t45 53.5t64 17q29 -1 48.5 -18.5t35.5 -36.5q14 -16 27 -28t30 -13
q15 -1 25.5 9t16.5 30t9 46l58 -5q0 -47 -16.5 -81t-42.5 -51.5t-56 -16.5z" />
    <glyph glyph-name="Z" unicode="Z" horiz-adv-x="658" 
d="M5 0l519 656l13 -26h-333q-20 0 -38 7t-28 21t-8 33l8 68h90l-1 -13q-1 -12 5 -17.5t23 -5.5h434l-511 -642l-9 12h454l-11 -93h-607z" />
    <glyph glyph-name="Zacute" unicode="&#x179;" horiz-adv-x="658" 
d="M5 0l519 656l13 -26h-333q-20 0 -38 7t-28 21t-8 33l8 68h90l-1 -13q-1 -12 5 -17.5t23 -5.5h434l-511 -642l-9 12h454l-11 -93h-607zM582 928l-133 -134h-59l89 134h103z" />
    <glyph glyph-name="Zdotaccent" unicode="&#x17b;" horiz-adv-x="658" 
d="M5 0l519 656l13 -26h-333q-20 0 -38 7t-28 21t-8 33l8 68h90l-1 -13q-1 -12 5 -17.5t23 -5.5h434l-511 -642l-9 12h454l-11 -93h-607zM378 862q0 23 17 39t42 16q19 0 36.5 -12t16.5 -37q-1 -23 -18 -39t-42 -16q-19 0 -36 12.5t-16 36.5z" />
    <glyph glyph-name="Zcaron" unicode="&#x17d;" horiz-adv-x="658" 
d="M5 0l519 656l13 -26h-333q-20 0 -38 7t-28 21t-8 33l8 68h90l-1 -13q-1 -12 5 -17.5t23 -5.5h434l-511 -642l-9 12h454l-11 -93h-607zM372 963l76 -106l-25 -6l104 112h85l-183 -183h-1l-141 183h85z" />
    <glyph glyph-name="AE" unicode="&#xc6;" horiz-adv-x="952" 
d="M540 723h395l-12 -94h-298l-27 -221h258l-12 -93h-257l-27 -222h312l-12 -93h-409zM541 615q-4 -9 -8.5 -22t-6.5 -16l-428 -577h-111l553 723zM237 256h260l-10 -77h-288z" />
    <glyph glyph-name="AEacute" unicode="&#x1fc;" horiz-adv-x="952" 
d="M540 723h395l-12 -94h-298l-27 -221h258l-12 -93h-257l-27 -222h312l-12 -93h-409zM541 615q-4 -9 -8.5 -22t-6.5 -16l-428 -577h-111l553 723zM237 256h260l-10 -77h-288zM854 928l-133 -134h-59l89 134h103z" />
    <glyph glyph-name="Eth" unicode="&#xd0;" horiz-adv-x="752" 
d="M77 0l89 723h211q101 0 168 -30.5t105 -81t52 -114t9 -130.5q-6 -86 -39 -154.5t-87 -115.5t-122 -72t-144 -25h-242zM185 93h132q60 0 112.5 18t92 53t63.5 87.5t28 121.5q5 67 -12 115.5t-51 80t-78.5 46.5t-95.5 15h-126zM47 397h258l-12 -93h-258z" />
    <glyph glyph-name="Oslash" unicode="&#xd8;" horiz-adv-x="850" 
d="M834 687l-686 -701l-42 42l686 702zM425 -7q-66 0 -128 22t-111.5 65t-78.5 107t-29 148q0 66 25 135.5t74 128t123 95t171 36.5q66 0 128.5 -22t111.5 -65t78 -107.5t29 -148.5q0 -66 -25 -135.5t-74 -128t-122.5 -94.5t-171.5 -36zM427 86q75 0 130 27.5t90.5 71.5
t53 96t17.5 101q0 52 -18.5 97.5t-52.5 81t-79.5 56t-100.5 20.5q-75 0 -129.5 -27.5t-90 -71.5t-52.5 -96t-17 -102q0 -51 18 -97t51.5 -81t79 -55.5t100.5 -20.5z" />
    <glyph glyph-name="Oslashacute" unicode="&#x1fe;" horiz-adv-x="850" 
d="M834 687l-686 -701l-42 42l686 702zM425 -7q-66 0 -128 22t-111.5 65t-78.5 107t-29 148q0 66 25 135.5t74 128t123 95t171 36.5q66 0 128.5 -22t111.5 -65t78 -107.5t29 -148.5q0 -66 -25 -135.5t-74 -128t-122.5 -94.5t-171.5 -36zM427 86q75 0 130 27.5t90.5 71.5
t53 96t17.5 101q0 52 -18.5 97.5t-52.5 81t-79.5 56t-100.5 20.5q-75 0 -129.5 -27.5t-90 -71.5t-52.5 -96t-17 -102q0 -51 18 -97t51.5 -81t79 -55.5t100.5 -20.5zM654 928l-133 -134h-59l89 134h103z" />
    <glyph glyph-name="Thorn" unicode="&#xde;" horiz-adv-x="583" 
d="M341 586q49 0 90.5 -13t72.5 -38t47.5 -61.5t16.5 -84.5q0 -45 -15 -90.5t-47.5 -84t-84.5 -62t-125 -23.5h-104l-16 -129h-99l87 709h100l-15 -123h92zM305 223q46 0 77 16t50 40t27 50t8 46q0 28 -13 55t-41 45t-74 18h-102l-33 -270h101z" />
    <glyph glyph-name="Dcroat" unicode="&#x110;" horiz-adv-x="752" 
d="M77 0l89 723h211q101 0 168 -30.5t105 -81t52 -114t9 -130.5q-6 -86 -39 -154.5t-87 -115.5t-122 -72t-144 -25h-242zM185 93h132q60 0 112.5 18t92 53t63.5 87.5t28 121.5q5 67 -12 115.5t-51 80t-78.5 46.5t-95.5 15h-126zM47 397h258l-12 -93h-258z" />
    <glyph glyph-name="Hbar" unicode="&#x126;" horiz-adv-x="939" 
d="M147 569h729l-7 -54h-728zM808 723l-89 -723h-99l39 317h-373l-39 -317h-99l88 723h100l-39 -312h373l38 312h100z" />
    <glyph glyph-name="IJ" unicode="&#x132;" horiz-adv-x="677" 
d="M166 723h99l-88 -723h-100zM560 131q-10 -88 -51 -150t-103 -94.5t-137 -35.5v0l11 94q47 3 85.5 23.5t65 61.5t33.5 104l72 589h97z" />
    <glyph glyph-name="Ldot" unicode="&#x13f;" horiz-adv-x="600" 
d="M166 723h96l-77 -630h368l-12 -93h-464zM539 348q0 25 19.5 42t40.5 17q17 0 31 -14t14 -34q0 -17 -9 -30t-22.5 -20.5t-27.5 -7.5q-18 0 -32 13t-14 34v0z" />
    <glyph glyph-name="Lslash" unicode="&#x141;" horiz-adv-x="607" 
d="M458 448l-11 -81l-399 -122l11 81zM166 723h96l-77 -630h368l-12 -93h-464z" />
    <glyph glyph-name="Eng" unicode="&#x14a;" horiz-adv-x="806" 
d="M569 -199l-47 57q32 23 52.5 59t24.5 84l13 106l71 -126l-486 568l27 -12l-63 -537h-98l92 745h4l483 -574l-23 10l64 542h97l-89 -726q-8 -66 -37.5 -116t-84.5 -80z" />
    <glyph glyph-name="OE" unicode="&#x152;" horiz-adv-x="1009" 
d="M568 628q-14 3 -28.5 5t-29.5 2q-64 0 -119.5 -23.5t-97.5 -65t-65 -96.5t-23 -118q0 -52 17.5 -96.5t50 -78t76 -52.5t95.5 -19q15 0 30 2t31 5l17 -90q-22 -5 -45 -8t-47 -3q-70 0 -129.5 25.5t-103.5 70.5t-68 105.5t-24 129.5q0 84 32.5 157.5t90 130t132.5 88.5
t161 32q24 0 47 -3.5t45 -9.5zM573 723h439l-11 -90h-340l-28 -225h300l-11 -91h-299l-28 -224h354l-11 -93h-454z" />
    <glyph glyph-name="Tbar" unicode="&#x166;" horiz-adv-x="581" 
d="M112 723h480l-12 -95h-192l-77 -628h-100l77 628h-188zM178 397h258l-12 -93h-258z" />
    <glyph glyph-name="uni018F" unicode="&#x18f;" horiz-adv-x="800" 
d="M434 730q43 0 88.5 -13t87.5 -38.5t76 -66t54 -95.5t20 -127q0 -49 -14.5 -103t-44.5 -105t-76.5 -92.5t-109.5 -66.5t-144 -25q-23 0 -58.5 5.5t-75.5 23t-77 51.5t-63.5 90.5t-35.5 140.5l619 176l12 -72l-556 -164l34 29q12 -50 33 -86t49 -59t59.5 -35t63.5 -13
q57 -2 102.5 16.5t79.5 51t56 73t33 82t11 78.5q0 56 -15.5 97.5t-41.5 70.5t-58 47t-65 26.5t-63 8.5q-53 1 -109.5 -21t-92.5 -55l-39 80q31 27 75 47t93 32t93 11z" />
    <glyph glyph-name="uni019D" unicode="&#x19d;" horiz-adv-x="798" 
d="M660 -23l-488 568l26 -8l-64 -537h-97l92 745h4l483 -569l-22 5l65 542h96l-89 -725zM140 42l-6 -45q-8 -66 -38 -115.5t-83 -80.5l-53 57q31 24 51 59.5t26 83.5l16 125z" />
    <glyph glyph-name="uni01C4" unicode="&#x1c4;" horiz-adv-x="1411" 
d="M77 0l89 723h211q101 0 168 -30.5t105 -81t52 -114t9 -130.5q-6 -86 -39 -154.5t-87 -115.5t-122 -72t-144 -25h-242zM185 93h132q60 0 112.5 18t92 53t63.5 87.5t28 121.5q5 67 -12 115.5t-51 80t-78.5 46.5t-95.5 15h-126zM757 0l519 656l13 -26h-333q-20 0 -38 7
t-28 21t-8 33l8 68h90l-1 -13q-1 -12 5 -17.5t23 -5.5h434l-511 -642l-9 12h454l-11 -93h-607zM1125 963l76 -106l-25 -6l104 112h85l-183 -183h-1l-141 183h85z" />
    <glyph glyph-name="uni01C7" unicode="&#x1c7;" horiz-adv-x="976" 
d="M166 723h96l-77 -630h368l-12 -93h-464zM859 131q-10 -88 -51 -150t-103 -94.5t-137 -35.5v0l11 94q47 3 85.5 23.5t65 61.5t33.5 104l72 589h97z" />
    <glyph glyph-name="uni01CA" unicode="&#x1ca;" horiz-adv-x="1206" 
d="M703 -23h-3l-489 569l26 -9l-64 -537h-96l91 745h4l483 -571l-21 7l64 542h96zM1089 131q-10 -88 -51 -150t-103 -94.5t-137 -35.5v0l11 94q47 3 85.5 23.5t65 61.5t33.5 104l72 589h97z" />
    <glyph glyph-name="uni1E9E" unicode="&#x1e9e;" horiz-adv-x="826" 
d="M544 -8q-64 0 -119 17.5t-97 48.5l52 76q33 -24 78.5 -40.5t88.5 -16.5q26 0 54.5 11t50.5 34t26 59q4 29 -10.5 49t-39.5 36.5t-53 33.5q-35 20 -69.5 46t-55 63t-14.5 87t30.5 88.5t66.5 62t98 26.5q28 0 44 -7t27 -17l-36 -47q-35 39 -85.5 58.5t-105.5 19.5
q-66 0 -118.5 -30.5t-87.5 -95t-47 -166.5l-48 -388h-97l48 392q14 108 55.5 190.5t114.5 128.5t180 46q57 0 109.5 -15t93.5 -38.5t61 -50.5l-36 -71q-7 6 -23.5 15.5t-42.5 9.5t-48 -12.5t-36.5 -33.5t-18.5 -48q-4 -33 11.5 -56t41.5 -41t53 -36q27 -16 53.5 -33t48 -39
t32 -52.5t4.5 -73.5q-5 -51 -35.5 -94t-81.5 -69.5t-117 -26.5z" />
    <glyph glyph-name="uni0394" unicode="&#x394;" horiz-adv-x="738" 
d="M4 0l427 753h5l242 -753h-674zM561 46l-184 593l80 -11l-333 -591l-47 56h540z" />
    <glyph glyph-name="uni2126" unicode="&#x2126;" horiz-adv-x="833" 
d="M502 81q44 19 78 55t54 85t24 104q3 42 -4.5 78.5t-27 64t-51 43.5t-76.5 16q-52 0 -90.5 -19.5t-64.5 -52t-41 -70.5t-20 -76q-7 -57 6 -102.5t40.5 -76.5t62.5 -49l-5 -40q-31 10 -64 25t-62 41t-46.5 68t-17.5 105q0 79 23.5 140t66 103t98.5 63.5t121 21.5
q68 0 116 -22.5t77.5 -61.5t40 -91.5t2.5 -112.5q-7 -60 -26.5 -104.5t-46.5 -75t-57.5 -50.5t-60 -32.5t-55.5 -19.5zM165 81h227l-10 -81h-227zM502 81h217l-11 -81h-216z" />
    <glyph glyph-name="uni00B5" unicode="&#xb5;" 
d="M186 -16q-53 0 -83 31t-30 80l79 51l-43 -347h-77l37 310l37 305h93l-33 -273q-2 -34 13 -55t52 -22q35 0 65.5 20.5t51.5 56t26 80.5l24 193h93l-51 -414h-84l4 85q-16 -28 -42 -51t-60 -36.5t-72 -13.5z" />
    <glyph glyph-name="a" unicode="a" horiz-adv-x="589" 
d="M224 -8q-46 0 -87.5 24.5t-67 69.5t-25.5 107q0 42 15.5 83.5t45 76.5t72 56.5t98.5 21.5q45 0 76 -13t52 -33.5t33 -46.5l-9 -18l21 94h85l-50 -414h-93l13 105l7 -24q-6 -9 -21 -24.5t-38.5 -30.5t-55 -24.5t-71.5 -9.5zM275 67q30 0 57 12.5t47.5 35t31.5 54.5l9 81
q-4 31 -21.5 54t-45.5 36.5t-62 13.5q-41 0 -69.5 -15t-46.5 -38.5t-26 -49t-8 -47.5q0 -40 17 -71t47.5 -48.5t69.5 -17.5z" />
    <glyph glyph-name="agrave" unicode="&#xe0;" horiz-adv-x="589" 
d="M224 -8q-46 0 -87.5 24.5t-67 69.5t-25.5 107q0 42 15.5 83.5t45 76.5t72 56.5t98.5 21.5q45 0 76 -13t52 -33.5t33 -46.5l-9 -18l21 94h85l-50 -414h-93l13 105l7 -24q-6 -9 -21 -24.5t-38.5 -30.5t-55 -24.5t-71.5 -9.5zM275 67q30 0 57 12.5t47.5 35t31.5 54.5l9 81
q-4 31 -21.5 54t-45.5 36.5t-62 13.5q-41 0 -69.5 -15t-46.5 -38.5t-26 -49t-8 -47.5q0 -40 17 -71t47.5 -48.5t69.5 -17.5zM293 640l66 -134h-59l-110 134h103z" />
    <glyph glyph-name="aacute" unicode="&#xe1;" horiz-adv-x="589" 
d="M224 -8q-46 0 -87.5 24.5t-67 69.5t-25.5 107q0 42 15.5 83.5t45 76.5t72 56.5t98.5 21.5q45 0 76 -13t52 -33.5t33 -46.5l-9 -18l21 94h85l-50 -414h-93l13 105l7 -24q-6 -9 -21 -24.5t-38.5 -30.5t-55 -24.5t-71.5 -9.5zM275 67q30 0 57 12.5t47.5 35t31.5 54.5l9 81
q-4 31 -21.5 54t-45.5 36.5t-62 13.5q-41 0 -69.5 -15t-46.5 -38.5t-26 -49t-8 -47.5q0 -40 17 -71t47.5 -48.5t69.5 -17.5zM488 640l-133 -134h-59l89 134h103z" />
    <glyph glyph-name="acircumflex" unicode="&#xe2;" horiz-adv-x="589" 
d="M224 -8q-46 0 -87.5 24.5t-67 69.5t-25.5 107q0 42 15.5 83.5t45 76.5t72 56.5t98.5 21.5q45 0 76 -13t52 -33.5t33 -46.5l-9 -18l21 94h85l-50 -414h-93l13 105l7 -24q-6 -9 -21 -24.5t-38.5 -30.5t-55 -24.5t-71.5 -9.5zM275 67q30 0 57 12.5t47.5 35t31.5 54.5l9 81
q-4 31 -21.5 54t-45.5 36.5t-62 13.5q-41 0 -69.5 -15t-46.5 -38.5t-26 -49t-8 -47.5q0 -40 17 -71t47.5 -48.5t69.5 -17.5zM408 506l-76 106l26 7l-104 -113h-85l183 183v0l141 -183h-85z" />
    <glyph glyph-name="atilde" unicode="&#xe3;" horiz-adv-x="589" 
d="M224 -8q-46 0 -87.5 24.5t-67 69.5t-25.5 107q0 42 15.5 83.5t45 76.5t72 56.5t98.5 21.5q45 0 76 -13t52 -33.5t33 -46.5l-9 -18l21 94h85l-50 -414h-93l13 105l7 -24q-6 -9 -21 -24.5t-38.5 -30.5t-55 -24.5t-71.5 -9.5zM275 67q30 0 57 12.5t47.5 35t31.5 54.5l9 81
q-4 31 -21.5 54t-45.5 36.5t-62 13.5q-41 0 -69.5 -15t-46.5 -38.5t-26 -49t-8 -47.5q0 -40 17 -71t47.5 -48.5t69.5 -17.5zM406 471q-36 2 -58 20t-39 37q-12 13 -23.5 24t-28.5 12q-14 1 -26 -8.5t-19.5 -28.5t-10.5 -45l-59 5q3 44 20 78.5t45 53.5t64 17
q29 -1 48.5 -18.5t35.5 -36.5q14 -16 27 -28t30 -13q15 -1 25.5 9t16.5 30t9 46l58 -5q0 -47 -16.5 -81t-42.5 -51.5t-56 -16.5z" />
    <glyph glyph-name="adieresis" unicode="&#xe4;" horiz-adv-x="589" 
d="M224 -8q-46 0 -87.5 24.5t-67 69.5t-25.5 107q0 42 15.5 83.5t45 76.5t72 56.5t98.5 21.5q45 0 76 -13t52 -33.5t33 -46.5l-9 -18l21 94h85l-50 -414h-93l13 105l7 -24q-6 -9 -21 -24.5t-38.5 -30.5t-55 -24.5t-71.5 -9.5zM275 67q30 0 57 12.5t47.5 35t31.5 54.5l9 81
q-4 31 -21.5 54t-45.5 36.5t-62 13.5q-41 0 -69.5 -15t-46.5 -38.5t-26 -49t-8 -47.5q0 -40 17 -71t47.5 -48.5t69.5 -17.5zM193 554q2 23 20 37.5t38 13.5q19 -1 33.5 -17t11.5 -39q-2 -24 -19.5 -37.5t-36.5 -12.5q-20 1 -35 16.5t-12 38.5v0zM379 554q3 23 20.5 37.5
t37.5 13.5q19 -1 33.5 -17.5t12.5 -38.5q-3 -24 -21 -37.5t-36 -12.5q-20 1 -34.5 16t-12.5 39v0z" />
    <glyph glyph-name="aring" unicode="&#xe5;" horiz-adv-x="589" 
d="M224 -8q-46 0 -87.5 24.5t-67 69.5t-25.5 107q0 42 15.5 83.5t45 76.5t72 56.5t98.5 21.5q45 0 76 -13t52 -33.5t33 -46.5l-9 -18l21 94h85l-50 -414h-93l13 105l7 -24q-6 -9 -21 -24.5t-38.5 -30.5t-55 -24.5t-71.5 -9.5zM275 67q30 0 57 12.5t47.5 35t31.5 54.5l9 81
q-4 31 -21.5 54t-45.5 36.5t-62 13.5q-41 0 -69.5 -15t-46.5 -38.5t-26 -49t-8 -47.5q0 -40 17 -71t47.5 -48.5t69.5 -17.5zM247 554q4 42 33 65t70 21q40 -2 64 -27t20 -64q-3 -42 -32.5 -65.5t-69.5 -21.5t-64 27.5t-21 64.5zM298 550q-1 -19 9.5 -31t29.5 -13t32 11
t15 32q1 21 -9.5 33t-28.5 12q-19 1 -32.5 -10.5t-15.5 -33.5z" />
    <glyph glyph-name="amacron" unicode="&#x101;" horiz-adv-x="589" 
d="M224 -8q-46 0 -87.5 24.5t-67 69.5t-25.5 107q0 42 15.5 83.5t45 76.5t72 56.5t98.5 21.5q45 0 76 -13t52 -33.5t33 -46.5l-9 -18l21 94h85l-50 -414h-93l13 105l7 -24q-6 -9 -21 -24.5t-38.5 -30.5t-55 -24.5t-71.5 -9.5zM275 67q30 0 57 12.5t47.5 35t31.5 54.5l9 81
q-4 31 -21.5 54t-45.5 36.5t-62 13.5q-41 0 -69.5 -15t-46.5 -38.5t-26 -49t-8 -47.5q0 -40 17 -71t47.5 -48.5t69.5 -17.5zM221 558h233l-6 -53h-234z" />
    <glyph glyph-name="abreve" unicode="&#x103;" horiz-adv-x="589" 
d="M224 -8q-46 0 -87.5 24.5t-67 69.5t-25.5 107q0 42 15.5 83.5t45 76.5t72 56.5t98.5 21.5q45 0 76 -13t52 -33.5t33 -46.5l-9 -18l21 94h85l-50 -414h-93l13 105l7 -24q-6 -9 -21 -24.5t-38.5 -30.5t-55 -24.5t-71.5 -9.5zM275 67q30 0 57 12.5t47.5 35t31.5 54.5l9 81
q-4 31 -21.5 54t-45.5 36.5t-62 13.5q-41 0 -69.5 -15t-46.5 -38.5t-26 -49t-8 -47.5q0 -40 17 -71t47.5 -48.5t69.5 -17.5zM327 488q-25 1 -49 11.5t-42.5 31.5t-29 55t-10.5 83h63q0 -42 11 -67.5t28.5 -37t36.5 -13.5q26 0 45 14t32 41.5t20 62.5h64q-11 -62 -34.5 -103
t-57.5 -60.5t-77 -17.5z" />
    <glyph glyph-name="aogonek" unicode="&#x105;" horiz-adv-x="589" 
d="M224 -8q-46 0 -87.5 24.5t-67 69.5t-25.5 107q0 42 15.5 83.5t45 76.5t72 56.5t98.5 21.5q45 0 76 -13t52 -33.5t33 -46.5l-9 -18l21 94h85l-50 -414h-93l13 105l7 -24q-6 -9 -21 -24.5t-38.5 -30.5t-55 -24.5t-71.5 -9.5zM275 67q30 0 57 12.5t47.5 35t31.5 54.5l9 81
q-4 31 -21.5 54t-45.5 36.5t-62 13.5q-41 0 -69.5 -15t-46.5 -38.5t-26 -49t-8 -47.5q0 -40 17 -71t47.5 -48.5t69.5 -17.5zM415 -214q-45 3 -76 31t-31 73q0 21 10.5 45t32.5 45t56 33l101 -16q-54 -21 -86.5 -43t-34.5 -51q-2 -26 12 -38t33 -13q20 -1 37.5 11t33.5 34
l30 -49q-20 -28 -53 -45.5t-65 -16.5z" />
    <glyph glyph-name="aringacute" unicode="&#x1fb;" horiz-adv-x="589" 
d="M224 -8q-46 0 -87.5 24.5t-67 69.5t-25.5 107q0 42 15.5 83.5t45 76.5t72 56.5t98.5 21.5q45 0 76 -13t52 -33.5t33 -46.5l-9 -18l21 94h85l-50 -414h-93l13 105l7 -24q-6 -9 -21 -24.5t-38.5 -30.5t-55 -24.5t-71.5 -9.5zM275 67q30 0 57 12.5t47.5 35t31.5 54.5l9 81
q-4 31 -21.5 54t-45.5 36.5t-62 13.5q-41 0 -69.5 -15t-46.5 -38.5t-26 -49t-8 -47.5q0 -40 17 -71t47.5 -48.5t69.5 -17.5zM247 554q4 42 33 65t70 21q40 -2 64 -27t20 -64q-3 -42 -32.5 -65.5t-69.5 -21.5t-64 27.5t-21 64.5zM298 550q-1 -19 9.5 -31t29.5 -13t32 11
t15 32q1 21 -9.5 33t-28.5 12q-19 1 -32.5 -10.5t-15.5 -33.5zM513 845l-133 -134h-59l89 134h103z" />
    <glyph glyph-name="uni0201" unicode="&#x201;" horiz-adv-x="589" 
d="M224 -8q-46 0 -87.5 24.5t-67 69.5t-25.5 107q0 42 15.5 83.5t45 76.5t72 56.5t98.5 21.5q45 0 76 -13t52 -33.5t33 -46.5l-9 -18l21 94h85l-50 -414h-93l13 105l7 -24q-6 -9 -21 -24.5t-38.5 -30.5t-55 -24.5t-71.5 -9.5zM275 67q30 0 57 12.5t47.5 35t31.5 54.5l9 81
q-4 31 -21.5 54t-45.5 36.5t-62 13.5q-41 0 -69.5 -15t-46.5 -38.5t-26 -49t-8 -47.5q0 -40 17 -71t47.5 -48.5t69.5 -17.5zM240 640l66 -134h-59l-110 134h103zM375 640l66 -134h-59l-110 134h103z" />
    <glyph glyph-name="uni0203" unicode="&#x203;" horiz-adv-x="589" 
d="M224 -8q-46 0 -87.5 24.5t-67 69.5t-25.5 107q0 42 15.5 83.5t45 76.5t72 56.5t98.5 21.5q45 0 76 -13t52 -33.5t33 -46.5l-9 -18l21 94h85l-50 -414h-93l13 105l7 -24q-6 -9 -21 -24.5t-38.5 -30.5t-55 -24.5t-71.5 -9.5zM275 67q30 0 57 12.5t47.5 35t31.5 54.5l9 81
q-4 31 -21.5 54t-45.5 36.5t-62 13.5q-41 0 -69.5 -15t-46.5 -38.5t-26 -49t-8 -47.5q0 -40 17 -71t47.5 -48.5t69.5 -17.5zM351 654q25 -1 49 -11.5t42.5 -31.5t29 -55t10.5 -84h-63q1 43 -10.5 68.5t-28.5 37.5t-37 12q-26 2 -45 -13t-31.5 -41.5t-20.5 -63.5h-64
q11 63 34.5 104t58 60.5t76.5 17.5z" />
    <glyph glyph-name="uni1EA1" unicode="&#x1ea1;" horiz-adv-x="589" 
d="M224 -8q-46 0 -87.5 24.5t-67 69.5t-25.5 107q0 42 15.5 83.5t45 76.5t72 56.5t98.5 21.5q45 0 76 -13t52 -33.5t33 -46.5l-9 -18l21 94h85l-50 -414h-93l13 105l7 -24q-6 -9 -21 -24.5t-38.5 -30.5t-55 -24.5t-71.5 -9.5zM275 67q30 0 57 12.5t47.5 35t31.5 54.5l9 81
q-4 31 -21.5 54t-45.5 36.5t-62 13.5q-41 0 -69.5 -15t-46.5 -38.5t-26 -49t-8 -47.5q0 -40 17 -71t47.5 -48.5t69.5 -17.5zM189 -113q0 23 17 39t42 16q19 0 36.5 -12t16.5 -37q-1 -23 -18 -39t-42 -16q-19 0 -36 12.5t-16 36.5z" />
    <glyph glyph-name="uni1EA3" unicode="&#x1ea3;" horiz-adv-x="589" 
d="M224 -8q-46 0 -87.5 24.5t-67 69.5t-25.5 107q0 42 15.5 83.5t45 76.5t72 56.5t98.5 21.5q45 0 76 -13t52 -33.5t33 -46.5l-9 -18l21 94h85l-50 -414h-93l13 105l7 -24q-6 -9 -21 -24.5t-38.5 -30.5t-55 -24.5t-71.5 -9.5zM275 67q30 0 57 12.5t47.5 35t31.5 54.5l9 81
q-4 31 -21.5 54t-45.5 36.5t-62 13.5q-41 0 -69.5 -15t-46.5 -38.5t-26 -49t-8 -47.5q0 -40 17 -71t47.5 -48.5t69.5 -17.5zM309 509q21 14 35.5 26.5t17.5 30.5q2 18 -5 29t-27 12q-15 0 -26 -7t-22 -21l-32 24q19 29 44 42.5t52 12.5q37 0 55 -21.5t16 -52.5
q-1 -26 -22 -52.5t-68 -49.5z" />
    <glyph glyph-name="uni1EA5" unicode="&#x1ea5;" horiz-adv-x="589" 
d="M224 -8q-46 0 -87.5 24.5t-67 69.5t-25.5 107q0 42 15.5 83.5t45 76.5t72 56.5t98.5 21.5q45 0 76 -13t52 -33.5t33 -46.5l-9 -18l21 94h85l-50 -414h-93l13 105l7 -24q-6 -9 -21 -24.5t-38.5 -30.5t-55 -24.5t-71.5 -9.5zM275 67q30 0 57 12.5t47.5 35t31.5 54.5l9 81
q-4 31 -21.5 54t-45.5 36.5t-62 13.5q-41 0 -69.5 -15t-46.5 -38.5t-26 -49t-8 -47.5q0 -40 17 -71t47.5 -48.5t69.5 -17.5zM377 506l-76 106l26 7l-104 -113h-85l183 183v0l141 -183h-85zM597 775l-133 -134h-59l89 134h103z" />
    <glyph glyph-name="uni1EA7" unicode="&#x1ea7;" horiz-adv-x="589" 
d="M224 -8q-46 0 -87.5 24.5t-67 69.5t-25.5 107q0 42 15.5 83.5t45 76.5t72 56.5t98.5 21.5q45 0 76 -13t52 -33.5t33 -46.5l-9 -18l21 94h85l-50 -414h-93l13 105l7 -24q-6 -9 -21 -24.5t-38.5 -30.5t-55 -24.5t-71.5 -9.5zM275 67q30 0 57 12.5t47.5 35t31.5 54.5l9 81
q-4 31 -21.5 54t-45.5 36.5t-62 13.5q-41 0 -69.5 -15t-46.5 -38.5t-26 -49t-8 -47.5q0 -40 17 -71t47.5 -48.5t69.5 -17.5zM406 483l-76 106l26 7l-104 -113h-85l183 183v0l141 -183h-85zM177 727l66 -134h-59l-110 134h103z" />
    <glyph glyph-name="uni1EA9" unicode="&#x1ea9;" horiz-adv-x="589" 
d="M224 -8q-46 0 -87.5 24.5t-67 69.5t-25.5 107q0 42 15.5 83.5t45 76.5t72 56.5t98.5 21.5q45 0 76 -13t52 -33.5t33 -46.5l-9 -18l21 94h85l-50 -414h-93l13 105l7 -24q-6 -9 -21 -24.5t-38.5 -30.5t-55 -24.5t-71.5 -9.5zM275 67q30 0 57 12.5t47.5 35t31.5 54.5l9 81
q-4 31 -21.5 54t-45.5 36.5t-62 13.5q-41 0 -69.5 -15t-46.5 -38.5t-26 -49t-8 -47.5q0 -40 17 -71t47.5 -48.5t69.5 -17.5zM398 483l-76 106l26 7l-104 -113h-85l183 183v0l141 -183h-85zM456 615q21 14 35.5 26.5t17.5 30.5q2 18 -5 29t-27 12q-15 0 -26 -7t-22 -21
l-32 24q19 29 44 42.5t52 12.5q37 0 55 -21.5t16 -52.5q-1 -26 -22 -52.5t-68 -49.5z" />
    <glyph glyph-name="uni1EAB" unicode="&#x1eab;" horiz-adv-x="589" 
d="M224 -8q-46 0 -87.5 24.5t-67 69.5t-25.5 107q0 42 15.5 83.5t45 76.5t72 56.5t98.5 21.5q45 0 76 -13t52 -33.5t33 -46.5l-9 -18l21 94h85l-50 -414h-93l13 105l7 -24q-6 -9 -21 -24.5t-38.5 -30.5t-55 -24.5t-71.5 -9.5zM275 67q30 0 57 12.5t47.5 35t31.5 54.5l9 81
q-4 31 -21.5 54t-45.5 36.5t-62 13.5q-41 0 -69.5 -15t-46.5 -38.5t-26 -49t-8 -47.5q0 -40 17 -71t47.5 -48.5t69.5 -17.5zM433 697q-33 2 -51.5 17.5t-34.5 32.5q-10 12 -21 22t-26 11q-12 1 -22.5 -8t-17.5 -25.5t-10 -40.5l-50 5q2 38 17 68.5t40 47t55 14.5
q27 -1 44 -16.5t31 -32.5q12 -14 23.5 -25t27.5 -11q19 -2 30.5 18.5t15.5 56.5l50 -4q-1 -41 -15 -71t-37 -45.5t-49 -13.5zM411 480l-76 106l26 7l-104 -113h-85l183 183v0l141 -183h-85z" />
    <glyph glyph-name="uni1EAD" unicode="&#x1ead;" horiz-adv-x="589" 
d="M224 -8q-46 0 -87.5 24.5t-67 69.5t-25.5 107q0 42 15.5 83.5t45 76.5t72 56.5t98.5 21.5q45 0 76 -13t52 -33.5t33 -46.5l-9 -18l21 94h85l-50 -414h-93l13 105l7 -24q-6 -9 -21 -24.5t-38.5 -30.5t-55 -24.5t-71.5 -9.5zM275 67q30 0 57 12.5t47.5 35t31.5 54.5l9 81
q-4 31 -21.5 54t-45.5 36.5t-62 13.5q-41 0 -69.5 -15t-46.5 -38.5t-26 -49t-8 -47.5q0 -40 17 -71t47.5 -48.5t69.5 -17.5zM189 -113q0 23 17 39t42 16q19 0 36.5 -12t16.5 -37q-1 -23 -18 -39t-42 -16q-19 0 -36 12.5t-16 36.5zM408 506l-76 106l26 7l-104 -113h-85
l183 183v0l141 -183h-85z" />
    <glyph glyph-name="uni1EAF" unicode="&#x1eaf;" horiz-adv-x="589" 
d="M224 -8q-46 0 -87.5 24.5t-67 69.5t-25.5 107q0 42 15.5 83.5t45 76.5t72 56.5t98.5 21.5q45 0 76 -13t52 -33.5t33 -46.5l-9 -18l21 94h85l-50 -414h-93l13 105l7 -24q-6 -9 -21 -24.5t-38.5 -30.5t-55 -24.5t-71.5 -9.5zM275 67q30 0 57 12.5t47.5 35t31.5 54.5l9 81
q-4 31 -21.5 54t-45.5 36.5t-62 13.5q-41 0 -69.5 -15t-46.5 -38.5t-26 -49t-8 -47.5q0 -40 17 -71t47.5 -48.5t69.5 -17.5zM330 503q-25 1 -49 11.5t-42.5 31.5t-29 55t-10.5 83h63q0 -42 11 -67.5t28.5 -37t36.5 -13.5q26 0 45 14t32 41.5t20 62.5h64q-11 -62 -34.5 -103
t-57.5 -60.5t-77 -17.5zM516 872l-133 -134h-59l89 134h103z" />
    <glyph glyph-name="uni1EB1" unicode="&#x1eb1;" horiz-adv-x="589" 
d="M224 -8q-46 0 -87.5 24.5t-67 69.5t-25.5 107q0 42 15.5 83.5t45 76.5t72 56.5t98.5 21.5q45 0 76 -13t52 -33.5t33 -46.5l-9 -18l21 94h85l-50 -414h-93l13 105l7 -24q-6 -9 -21 -24.5t-38.5 -30.5t-55 -24.5t-71.5 -9.5zM275 67q30 0 57 12.5t47.5 35t31.5 54.5l9 81
q-4 31 -21.5 54t-45.5 36.5t-62 13.5q-41 0 -69.5 -15t-46.5 -38.5t-26 -49t-8 -47.5q0 -40 17 -71t47.5 -48.5t69.5 -17.5zM326 503q-25 1 -49 11.5t-42.5 31.5t-29 55t-10.5 83h63q0 -42 11 -67.5t28.5 -37t36.5 -13.5q26 0 45 14t32 41.5t20 62.5h64q-11 -62 -34.5 -103
t-57.5 -60.5t-77 -17.5zM317 839l66 -134h-59l-110 134h103z" />
    <glyph glyph-name="uni1EB3" unicode="&#x1eb3;" horiz-adv-x="589" 
d="M224 -8q-46 0 -87.5 24.5t-67 69.5t-25.5 107q0 42 15.5 83.5t45 76.5t72 56.5t98.5 21.5q45 0 76 -13t52 -33.5t33 -46.5l-9 -18l21 94h85l-50 -414h-93l13 105l7 -24q-6 -9 -21 -24.5t-38.5 -30.5t-55 -24.5t-71.5 -9.5zM275 67q30 0 57 12.5t47.5 35t31.5 54.5l9 81
q-4 31 -21.5 54t-45.5 36.5t-62 13.5q-41 0 -69.5 -15t-46.5 -38.5t-26 -49t-8 -47.5q0 -40 17 -71t47.5 -48.5t69.5 -17.5zM327 488q-25 1 -49 11.5t-42.5 31.5t-29 55t-10.5 83h63q0 -42 11 -67.5t28.5 -37t36.5 -13.5q26 0 45 14t32 41.5t20 62.5h64q-11 -62 -34.5 -103
t-57.5 -60.5t-77 -17.5zM335 733q21 14 35.5 26.5t17.5 30.5q2 18 -5 29t-27 12q-15 0 -26 -7t-22 -21l-32 24q19 29 44 42.5t52 12.5q37 0 55 -21.5t16 -52.5q-1 -26 -22 -52.5t-68 -49.5z" />
    <glyph glyph-name="uni1EB5" unicode="&#x1eb5;" horiz-adv-x="589" 
d="M224 -8q-46 0 -87.5 24.5t-67 69.5t-25.5 107q0 42 15.5 83.5t45 76.5t72 56.5t98.5 21.5q45 0 76 -13t52 -33.5t33 -46.5l-9 -18l21 94h85l-50 -414h-93l13 105l7 -24q-6 -9 -21 -24.5t-38.5 -30.5t-55 -24.5t-71.5 -9.5zM275 67q30 0 57 12.5t47.5 35t31.5 54.5l9 81
q-4 31 -21.5 54t-45.5 36.5t-62 13.5q-41 0 -69.5 -15t-46.5 -38.5t-26 -49t-8 -47.5q0 -40 17 -71t47.5 -48.5t69.5 -17.5zM418 723q-32 2 -51 17.5t-34 33.5q-11 12 -21.5 22t-25.5 10q-12 1 -23 -7.5t-18 -25.5t-10 -41l-50 5q3 38 18 68.5t39.5 47t54.5 14.5
q27 -1 44 -16t31 -32q12 -14 23.5 -25.5t27.5 -11.5q20 -2 31 19t15 57l50 -4q-1 -42 -15 -72t-37 -45t-49 -14zM317 503q-25 1 -49 11.5t-42.5 31.5t-29 55t-10.5 83h63q0 -42 11 -67.5t28.5 -37t36.5 -13.5q26 0 45 14t32 41.5t20 62.5h63q-11 -62 -34.5 -103t-57 -60.5
t-76.5 -17.5z" />
    <glyph glyph-name="uni1EB7" unicode="&#x1eb7;" horiz-adv-x="589" 
d="M224 -8q-46 0 -87.5 24.5t-67 69.5t-25.5 107q0 42 15.5 83.5t45 76.5t72 56.5t98.5 21.5q45 0 76 -13t52 -33.5t33 -46.5l-9 -18l21 94h85l-50 -414h-93l13 105l7 -24q-6 -9 -21 -24.5t-38.5 -30.5t-55 -24.5t-71.5 -9.5zM275 67q30 0 57 12.5t47.5 35t31.5 54.5l9 81
q-4 31 -21.5 54t-45.5 36.5t-62 13.5q-41 0 -69.5 -15t-46.5 -38.5t-26 -49t-8 -47.5q0 -40 17 -71t47.5 -48.5t69.5 -17.5zM189 -113q0 23 17 39t42 16q19 0 36.5 -12t16.5 -37q-1 -23 -18 -39t-42 -16q-19 0 -36 12.5t-16 36.5zM327 488q-25 1 -49 11.5t-42.5 31.5t-29 55
t-10.5 83h63q0 -42 11 -67.5t28.5 -37t36.5 -13.5q26 0 45 14t32 41.5t20 62.5h64q-11 -62 -34.5 -103t-57.5 -60.5t-77 -17.5z" />
    <glyph glyph-name="b" unicode="b" horiz-adv-x="595" 
d="M312 -9q-60 0 -101.5 26.5t-62.5 66.5l14 27l-14 -111h-93l95 774h93l-55 -451v34q27 32 70 52.5t97 20.5t98.5 -23t71 -69t26.5 -114q0 -59 -28 -113t-81.5 -87t-129.5 -33zM303 70q42 0 71 14t47 36.5t26 48.5t8 49q0 42 -16 73.5t-46 48.5t-71 17q-49 0 -86.5 -27
t-54.5 -70l-11 -84q4 -16 13.5 -34.5t24.5 -35t38.5 -26.5t56.5 -10z" />
    <glyph glyph-name="c" unicode="c" horiz-adv-x="460" 
d="M397 28q-29 -18 -65.5 -28.5t-73.5 -10.5q-32 0 -69 11t-70.5 34t-54 61.5t-20.5 93.5q0 42 15.5 83.5t45 75.5t72 54t97.5 20q57 0 98 -17t68 -45l-54 -57q-16 16 -43.5 29t-62.5 13q-37 0 -69.5 -19.5t-52.5 -53.5t-20 -77q0 -36 17 -65.5t47.5 -47t71.5 -17.5
q23 0 44 6.5t38 18.5z" />
    <glyph glyph-name="ccedilla" unicode="&#xe7;" horiz-adv-x="435" 
d="M362 97q12 -14 21 -28.5t20 -30.5q-30 -22 -67 -35t-77 -13q-56 0 -100 26.5t-69 70.5t-25 98q0 49 20 92.5t54.5 76.5t79.5 51.5t94 18.5q41 0 74.5 -13t59.5 -35l-28.5 -28.5l-29.5 -29.5q-16 14 -37.5 22t-47.5 8q-45 0 -81.5 -21t-57.5 -56t-21 -78q0 -35 15.5 -63.5
t43.5 -45.5t66 -17q26 0 50 8t43 22v0zM263 -7q-2 -19 4 -28.5t15 -14.5t17 -11q15 -13 22.5 -30.5t7.5 -37.5q0 -32 -14.5 -60.5t-41.5 -46t-65 -17.5q-34 0 -60.5 19t-35.5 57q12 6 25 12t25 12q2 -16 14.5 -27t31.5 -11q28 0 43.5 19t15.5 44q0 19 -9.5 29t-22 19
t-20.5 22t-5 37l3 21h51z" />
    <glyph glyph-name="cacute" unicode="&#x107;" horiz-adv-x="435" 
d="M397 28q-29 -18 -65.5 -28.5t-73.5 -10.5q-32 0 -69 11t-70.5 34t-54 61.5t-20.5 93.5q0 42 15.5 83.5t45 75.5t72 54t97.5 20q57 0 98 -17t68 -45l-54 -57q-16 16 -43.5 29t-62.5 13q-37 0 -69.5 -19.5t-52.5 -53.5t-20 -77q0 -36 17 -65.5t47.5 -47t71.5 -17.5
q23 0 44 6.5t38 18.5zM409 619l-133 -134h-59l89 134h103z" />
    <glyph glyph-name="ccircumflex" unicode="&#x109;" horiz-adv-x="460" 
d="M397 28q-29 -18 -65.5 -28.5t-73.5 -10.5q-32 0 -69 11t-70.5 34t-54 61.5t-20.5 93.5q0 42 15.5 83.5t45 75.5t72 54t97.5 20q57 0 98 -17t68 -45l-54 -57q-16 16 -43.5 29t-62.5 13q-37 0 -69.5 -19.5t-52.5 -53.5t-20 -77q0 -36 17 -65.5t47.5 -47t71.5 -17.5
q23 0 44 6.5t38 18.5zM346 493l-76 106l26 7l-104 -113h-85l183 183v0l141 -183h-85z" />
    <glyph glyph-name="cdotaccent" unicode="&#x10b;" horiz-adv-x="460" 
d="M397 28q-29 -18 -65.5 -28.5t-73.5 -10.5q-32 0 -69 11t-70.5 34t-54 61.5t-20.5 93.5q0 42 15.5 83.5t45 75.5t72 54t97.5 20q57 0 98 -17t68 -45l-54 -57q-16 16 -43.5 29t-62.5 13q-37 0 -69.5 -19.5t-52.5 -53.5t-20 -77q0 -36 17 -65.5t47.5 -47t71.5 -17.5
q23 0 44 6.5t38 18.5zM222 561q0 23 17 39t42 16q19 0 36.5 -12t16.5 -37q-1 -23 -18 -39t-42 -16q-19 0 -36 12.5t-16 36.5z" />
    <glyph glyph-name="ccaron" unicode="&#x10d;" horiz-adv-x="435" 
d="M397 28q-29 -18 -65.5 -28.5t-73.5 -10.5q-32 0 -69 11t-70.5 34t-54 61.5t-20.5 93.5q0 42 15.5 83.5t45 75.5t72 54t97.5 20q57 0 98 -17t68 -45l-54 -57q-16 16 -43.5 29t-62.5 13q-37 0 -69.5 -19.5t-52.5 -53.5t-20 -77q0 -36 17 -65.5t47.5 -47t71.5 -17.5
q23 0 44 6.5t38 18.5zM247 668l76 -106l-25 -6l104 112h85l-183 -183h-1l-141 183h85z" />
    <glyph glyph-name="d" unicode="d" horiz-adv-x="595" 
d="M243 -8q-59 1 -105 29.5t-71 76t-22 103.5q2 44 19.5 86t49.5 74.5t76.5 51.5t99.5 18q57 -2 100.5 -28.5t63.5 -63.5l-19 -24l56 459h93l-96 -774h-93l12 99l8 -24q-34 -37 -77.5 -61t-94.5 -22zM271 70q32 -1 61 11.5t51 35.5t34 56l9 78q-4 30 -21 53.5t-44.5 37.5
t-62.5 15q-43 1 -78 -16t-56 -50t-24 -78q-2 -40 14 -72t46.5 -50.5t70.5 -20.5z" />
    <glyph glyph-name="dcaron" unicode="&#x10f;" horiz-adv-x="651" 
d="M243 -8q-59 1 -105 29.5t-71 76t-22 103.5q2 44 19.5 86t49.5 74.5t76.5 51.5t99.5 18q57 -2 100.5 -28.5t63.5 -63.5l-19 -24l56 459h93l-96 -774h-93l12 99l8 -24q-34 -37 -77.5 -61t-94.5 -22zM271 70q32 -1 61 11.5t51 35.5t34 56l9 78q-4 30 -21 53.5t-44.5 37.5
t-62.5 15q-43 1 -78 -16t-56 -50t-24 -78q-2 -40 14 -72t46.5 -50.5t70.5 -20.5zM666 573q-9 6 -18.5 12t-19.5 12q24 20 37 50.5t11 65.5q12 2 26 4t27 3q3 -42 -14 -80.5t-49 -66.5v0z" />
    <glyph glyph-name="e" unicode="e" horiz-adv-x="521" 
d="M272 70q25 0 48 8.5t44 21.5l34 -71q-30 -18 -65.5 -28t-69.5 -10q-65 0 -114 24.5t-76.5 71.5t-27.5 113q0 41 15 81t45 73.5t74.5 54t103.5 20.5q37 0 70.5 -9.5t61.5 -31.5t47.5 -59t27.5 -91l-354 -100l-15 57l302 87l-33 -15q-10 39 -39.5 64t-70.5 25
q-44 0 -76 -20.5t-49 -53.5t-17 -71q0 -48 19 -79t50 -46.5t65 -15.5z" />
    <glyph glyph-name="egrave" unicode="&#xe8;" horiz-adv-x="521" 
d="M272 70q25 0 48 8.5t44 21.5l34 -71q-30 -18 -65.5 -28t-69.5 -10q-65 0 -114 24.5t-76.5 71.5t-27.5 113q0 41 15 81t45 73.5t74.5 54t103.5 20.5q37 0 70.5 -9.5t61.5 -31.5t47.5 -59t27.5 -91l-354 -100l-15 57l302 87l-33 -15q-10 39 -39.5 64t-70.5 25
q-44 0 -76 -20.5t-49 -53.5t-17 -71q0 -48 19 -79t50 -46.5t65 -15.5zM255 646l66 -134h-59l-110 134h103z" />
    <glyph glyph-name="eacute" unicode="&#xe9;" horiz-adv-x="441" 
d="M272 70q25 0 48 8.5t44 21.5l34 -71q-30 -18 -65.5 -28t-69.5 -10q-65 0 -114 24.5t-76.5 71.5t-27.5 113q0 41 15 81t45 73.5t74.5 54t103.5 20.5q37 0 70.5 -9.5t61.5 -31.5t47.5 -59t27.5 -91l-354 -100l-15 57l302 87l-33 -15q-10 39 -39.5 64t-70.5 25
q-44 0 -76 -20.5t-49 -53.5t-17 -71q0 -48 19 -79t50 -46.5t65 -15.5zM417 619l-133 -134h-59l89 134h103z" />
    <glyph glyph-name="ecircumflex" unicode="&#xea;" horiz-adv-x="521" 
d="M272 70q25 0 48 8.5t44 21.5l34 -71q-30 -18 -65.5 -28t-69.5 -10q-65 0 -114 24.5t-76.5 71.5t-27.5 113q0 41 15 81t45 73.5t74.5 54t103.5 20.5q37 0 70.5 -9.5t61.5 -31.5t47.5 -59t27.5 -91l-354 -100l-15 57l302 87l-33 -15q-10 39 -39.5 64t-70.5 25
q-44 0 -76 -20.5t-49 -53.5t-17 -71q0 -48 19 -79t50 -46.5t65 -15.5zM370 512l-76 106l26 7l-104 -113h-85l183 183v0l141 -183h-85z" />
    <glyph glyph-name="edieresis" unicode="&#xeb;" horiz-adv-x="521" 
d="M272 70q25 0 48 8.5t44 21.5l34 -71q-30 -18 -65.5 -28t-69.5 -10q-65 0 -114 24.5t-76.5 71.5t-27.5 113q0 41 15 81t45 73.5t74.5 54t103.5 20.5q37 0 70.5 -9.5t61.5 -31.5t47.5 -59t27.5 -91l-354 -100l-15 57l302 87l-33 -15q-10 39 -39.5 64t-70.5 25
q-44 0 -76 -20.5t-49 -53.5t-17 -71q0 -48 19 -79t50 -46.5t65 -15.5zM154 560q2 23 20 37.5t38 13.5q19 -1 33.5 -17t11.5 -39q-2 -24 -19.5 -37.5t-36.5 -12.5q-20 1 -35 16.5t-12 38.5v0zM340 560q3 23 20.5 37.5t37.5 13.5q19 -1 33.5 -17.5t12.5 -38.5
q-3 -24 -21 -37.5t-36 -12.5q-20 1 -34.5 16t-12.5 39v0z" />
    <glyph glyph-name="emacron" unicode="&#x113;" horiz-adv-x="521" 
d="M272 70q25 0 48 8.5t44 21.5l34 -71q-30 -18 -65.5 -28t-69.5 -10q-65 0 -114 24.5t-76.5 71.5t-27.5 113q0 41 15 81t45 73.5t74.5 54t103.5 20.5q37 0 70.5 -9.5t61.5 -31.5t47.5 -59t27.5 -91l-354 -100l-15 57l302 87l-33 -15q-10 39 -39.5 64t-70.5 25
q-44 0 -76 -20.5t-49 -53.5t-17 -71q0 -48 19 -79t50 -46.5t65 -15.5zM182 564h233l-6 -53h-234z" />
    <glyph glyph-name="ebreve" unicode="&#x115;" horiz-adv-x="521" 
d="M272 70q25 0 48 8.5t44 21.5l34 -71q-30 -18 -65.5 -28t-69.5 -10q-65 0 -114 24.5t-76.5 71.5t-27.5 113q0 41 15 81t45 73.5t74.5 54t103.5 20.5q37 0 70.5 -9.5t61.5 -31.5t47.5 -59t27.5 -91l-354 -100l-15 57l302 87l-33 -15q-10 39 -39.5 64t-70.5 25
q-44 0 -76 -20.5t-49 -53.5t-17 -71q0 -48 19 -79t50 -46.5t65 -15.5zM289 494q-25 1 -49 11.5t-42.5 31.5t-29 55t-10.5 83h63q0 -42 11 -67.5t28.5 -37t36.5 -13.5q26 0 45 14t32 41.5t20 62.5h64q-11 -62 -34.5 -103t-57.5 -60.5t-77 -17.5z" />
    <glyph glyph-name="edotaccent" unicode="&#x117;" horiz-adv-x="521" 
d="M272 70q25 0 48 8.5t44 21.5l34 -71q-30 -18 -65.5 -28t-69.5 -10q-65 0 -114 24.5t-76.5 71.5t-27.5 113q0 41 15 81t45 73.5t74.5 54t103.5 20.5q37 0 70.5 -9.5t61.5 -31.5t47.5 -59t27.5 -91l-354 -100l-15 57l302 87l-33 -15q-10 39 -39.5 64t-70.5 25
q-44 0 -76 -20.5t-49 -53.5t-17 -71q0 -48 19 -79t50 -46.5t65 -15.5zM246 580q0 23 17 39t42 16q19 0 36.5 -12t16.5 -37q-1 -23 -18 -39t-42 -16q-19 0 -36 12.5t-16 36.5z" />
    <glyph glyph-name="eogonek" unicode="&#x119;" horiz-adv-x="514" 
d="M294 -197q-45 3 -76 31t-31 73q0 23 11 48.5t34.5 47.5t58.5 37l38 -22q-16 -8 -33.5 -15t-34.5 -12q-65 0 -114 24.5t-76.5 71.5t-27.5 113q0 41 15.5 81t45 73.5t74 54t104.5 20.5q36 0 70 -9.5t61.5 -31.5t47 -59t28.5 -91l-355 -100l-15 55l303 87l-33 -13
q-11 39 -40 64t-70 25q-45 0 -77 -20.5t-49 -53.5t-17 -71q0 -48 19.5 -79t50.5 -46.5t65 -15.5q25 0 48 8.5t43 21.5l35 -71q-17 -6 -31.5 -12t-28.5 -13q-33 -18 -52 -39t-20 -45q-2 -24 12.5 -37t32.5 -14q20 0 38 12t34 33l30 -49q-21 -28 -53.5 -45.5t-64.5 -16.5z" />
    <glyph glyph-name="ecaron" unicode="&#x11b;" horiz-adv-x="486" 
d="M272 70q25 0 48 8.5t44 21.5l34 -71q-30 -18 -65.5 -28t-69.5 -10q-65 0 -114 24.5t-76.5 71.5t-27.5 113q0 41 15 81t45 73.5t74.5 54t103.5 20.5q37 0 70.5 -9.5t61.5 -31.5t47.5 -59t27.5 -91l-354 -100l-15 57l302 87l-33 -15q-10 39 -39.5 64t-70.5 25
q-44 0 -76 -20.5t-49 -53.5t-17 -71q0 -48 19 -79t50 -46.5t65 -15.5zM238 668l76 -106l-25 -6l104 112h85l-183 -183h-1l-141 183h85z" />
    <glyph glyph-name="uni0205" unicode="&#x205;" horiz-adv-x="521" 
d="M272 70q25 0 48 8.5t44 21.5l34 -71q-30 -18 -65.5 -28t-69.5 -10q-65 0 -114 24.5t-76.5 71.5t-27.5 113q0 41 15 81t45 73.5t74.5 54t103.5 20.5q37 0 70.5 -9.5t61.5 -31.5t47.5 -59t27.5 -91l-354 -100l-15 57l302 87l-33 -15q-10 39 -39.5 64t-70.5 25
q-44 0 -76 -20.5t-49 -53.5t-17 -71q0 -48 19 -79t50 -46.5t65 -15.5zM202 646l66 -134h-59l-110 134h103zM336 646l66 -134h-59l-110 134h103z" />
    <glyph glyph-name="uni0207" unicode="&#x207;" horiz-adv-x="521" 
d="M272 70q25 0 48 8.5t44 21.5l34 -71q-30 -18 -65.5 -28t-69.5 -10q-65 0 -114 24.5t-76.5 71.5t-27.5 113q0 41 15 81t45 73.5t74.5 54t103.5 20.5q37 0 70.5 -9.5t61.5 -31.5t47.5 -59t27.5 -91l-354 -100l-15 57l302 87l-33 -15q-10 39 -39.5 64t-70.5 25
q-44 0 -76 -20.5t-49 -53.5t-17 -71q0 -48 19 -79t50 -46.5t65 -15.5zM312 661q25 -1 49 -11.5t42.5 -31.5t29 -55t10.5 -84h-63q1 43 -10.5 68.5t-28.5 37.5t-37 12q-26 2 -45 -13t-31.5 -41.5t-20.5 -63.5h-64q11 63 34.5 104t58 60.5t76.5 17.5z" />
    <glyph glyph-name="uni1EB9" unicode="&#x1eb9;" horiz-adv-x="521" 
d="M272 70q25 0 48 8.5t44 21.5l34 -71q-30 -18 -65.5 -28t-69.5 -10q-65 0 -114 24.5t-76.5 71.5t-27.5 113q0 41 15 81t45 73.5t74.5 54t103.5 20.5q37 0 70.5 -9.5t61.5 -31.5t47.5 -59t27.5 -91l-354 -100l-15 57l302 87l-33 -15q-10 39 -39.5 64t-70.5 25
q-44 0 -76 -20.5t-49 -53.5t-17 -71q0 -48 19 -79t50 -46.5t65 -15.5zM165 -113q0 23 17 39t42 16q19 0 36.5 -12t16.5 -37q-1 -23 -18 -39t-42 -16q-19 0 -36 12.5t-16 36.5z" />
    <glyph glyph-name="uni1EBB" unicode="&#x1ebb;" horiz-adv-x="521" 
d="M272 70q25 0 48 8.5t44 21.5l34 -71q-30 -18 -65.5 -28t-69.5 -10q-65 0 -114 24.5t-76.5 71.5t-27.5 113q0 41 15 81t45 73.5t74.5 54t103.5 20.5q37 0 70.5 -9.5t61.5 -31.5t47.5 -59t27.5 -91l-354 -100l-15 57l302 87l-33 -15q-10 39 -39.5 64t-70.5 25
q-44 0 -76 -20.5t-49 -53.5t-17 -71q0 -48 19 -79t50 -46.5t65 -15.5zM270 515q21 14 35.5 26.5t17.5 30.5q2 18 -5 29t-27 12q-15 0 -26 -7t-22 -21l-32 24q19 29 44 42.5t52 12.5q37 0 55 -21.5t16 -52.5q-1 -26 -22 -52.5t-68 -49.5z" />
    <glyph glyph-name="uni1EBD" unicode="&#x1ebd;" horiz-adv-x="521" 
d="M272 70q25 0 48 8.5t44 21.5l34 -71q-30 -18 -65.5 -28t-69.5 -10q-65 0 -114 24.5t-76.5 71.5t-27.5 113q0 41 15 81t45 73.5t74.5 54t103.5 20.5q37 0 70.5 -9.5t61.5 -31.5t47.5 -59t27.5 -91l-354 -100l-15 57l302 87l-33 -15q-10 39 -39.5 64t-70.5 25
q-44 0 -76 -20.5t-49 -53.5t-17 -71q0 -48 19 -79t50 -46.5t65 -15.5zM368 477q-36 2 -58 20t-39 37q-12 13 -23.5 24t-28.5 12q-14 1 -26 -8.5t-19.5 -28.5t-10.5 -45l-59 5q3 44 20 78.5t45 53.5t64 17q29 -1 48.5 -18.5t35.5 -36.5q14 -16 27 -28t30 -13q15 -1 25.5 9
t16.5 30t9 46l58 -5q0 -47 -16.5 -81t-42.5 -51.5t-56 -16.5z" />
    <glyph glyph-name="uni1EBF" unicode="&#x1ebf;" horiz-adv-x="521" 
d="M272 70q25 0 48 8.5t44 21.5l34 -71q-30 -18 -65.5 -28t-69.5 -10q-65 0 -114 24.5t-76.5 71.5t-27.5 113q0 41 15 81t45 73.5t74.5 54t103.5 20.5q37 0 70.5 -9.5t61.5 -31.5t47.5 -59t27.5 -91l-354 -100l-15 57l302 87l-33 -15q-10 39 -39.5 64t-70.5 25
q-44 0 -76 -20.5t-49 -53.5t-17 -71q0 -48 19 -79t50 -46.5t65 -15.5zM339 512l-76 106l26 7l-104 -113h-85l183 183v0l141 -183h-85zM558 781l-133 -134h-59l89 134h103z" />
    <glyph glyph-name="uni1EC1" unicode="&#x1ec1;" horiz-adv-x="521" 
d="M272 70q25 0 48 8.5t44 21.5l34 -71q-30 -18 -65.5 -28t-69.5 -10q-65 0 -114 24.5t-76.5 71.5t-27.5 113q0 41 15 81t45 73.5t74.5 54t103.5 20.5q37 0 70.5 -9.5t61.5 -31.5t47.5 -59t27.5 -91l-354 -100l-15 57l302 87l-33 -15q-10 39 -39.5 64t-70.5 25
q-44 0 -76 -20.5t-49 -53.5t-17 -71q0 -48 19 -79t50 -46.5t65 -15.5zM368 490l-76 106l26 7l-104 -113h-85l183 183v0l141 -183h-85zM138 734l66 -134h-59l-110 134h103z" />
    <glyph glyph-name="uni1EC3" unicode="&#x1ec3;" horiz-adv-x="521" 
d="M272 70q25 0 48 8.5t44 21.5l34 -71q-30 -18 -65.5 -28t-69.5 -10q-65 0 -114 24.5t-76.5 71.5t-27.5 113q0 41 15 81t45 73.5t74.5 54t103.5 20.5q37 0 70.5 -9.5t61.5 -31.5t47.5 -59t27.5 -91l-354 -100l-15 57l302 87l-33 -15q-10 39 -39.5 64t-70.5 25
q-44 0 -76 -20.5t-49 -53.5t-17 -71q0 -48 19 -79t50 -46.5t65 -15.5zM359 490l-76 106l26 7l-104 -113h-85l183 183v0l141 -183h-85zM418 621q21 14 35.5 26.5t17.5 30.5q2 18 -5 29t-27 12q-15 0 -26 -7t-22 -21l-32 24q19 29 44 42.5t52 12.5q37 0 55 -21.5t16 -52.5
q-1 -26 -22 -52.5t-68 -49.5z" />
    <glyph glyph-name="uni1EC5" unicode="&#x1ec5;" horiz-adv-x="521" 
d="M272 70q25 0 48 8.5t44 21.5l34 -71q-30 -18 -65.5 -28t-69.5 -10q-65 0 -114 24.5t-76.5 71.5t-27.5 113q0 41 15 81t45 73.5t74.5 54t103.5 20.5q37 0 70.5 -9.5t61.5 -31.5t47.5 -59t27.5 -91l-354 -100l-15 57l302 87l-33 -15q-10 39 -39.5 64t-70.5 25
q-44 0 -76 -20.5t-49 -53.5t-17 -71q0 -48 19 -79t50 -46.5t65 -15.5zM370 512l-76 106l26 7l-104 -113h-85l183 183v0l141 -183h-85zM400 732q-36 2 -58 20t-39 37q-12 13 -23.5 24t-28.5 12q-14 1 -26 -8.5t-19.5 -28.5t-10.5 -45l-59 5q3 44 20 78.5t45 53.5t64 17
q29 -1 48.5 -18.5t35.5 -36.5q14 -16 27 -28t30 -13q15 -1 25.5 9t16.5 30t9 46l58 -5q0 -47 -16.5 -81t-42.5 -51.5t-56 -16.5z" />
    <glyph glyph-name="uni1EC7" unicode="&#x1ec7;" horiz-adv-x="521" 
d="M272 70q25 0 48 8.5t44 21.5l34 -71q-30 -18 -65.5 -28t-69.5 -10q-65 0 -114 24.5t-76.5 71.5t-27.5 113q0 41 15 81t45 73.5t74.5 54t103.5 20.5q37 0 70.5 -9.5t61.5 -31.5t47.5 -59t27.5 -91l-354 -100l-15 57l302 87l-33 -15q-10 39 -39.5 64t-70.5 25
q-44 0 -76 -20.5t-49 -53.5t-17 -71q0 -48 19 -79t50 -46.5t65 -15.5zM165 -113q0 23 17 39t42 16q19 0 36.5 -12t16.5 -37q-1 -23 -18 -39t-42 -16q-19 0 -36 12.5t-16 36.5zM370 512l-76 106l26 7l-104 -113h-85l183 183v0l141 -183h-85z" />
    <glyph glyph-name="f" unicode="f" horiz-adv-x="380" 
d="M88 0l40 331h-71l11 83h70l21 175q11 90 58 138t126 48q21 0 45.5 -6t42.5 -20l-48 -67q-8 9 -18 12.5t-22 3.5q-36 0 -59.5 -25t-30.5 -85l-22 -174h132l-11 -83h-131l-40 -331h-93z" />
    <glyph glyph-name="g" unicode="g" horiz-adv-x="600" 
d="M252 -205q-50 0 -87 10.5t-66.5 30.5t-56.5 46l63 63q22 -23 45 -38.5t50.5 -22.5t59.5 -7q41 0 71 14.5t47.5 41t21.5 61.5l14 112l7 -17q-21 -43 -66.5 -70.5t-107.5 -27.5q-58 0 -103.5 25.5t-72 73t-26.5 112.5q0 33 13.5 72.5t42 75t73 58t106.5 22.5t106 -23.5
t61 -60.5l-11 -19l24 87h85l-54 -435q-6 -56 -37.5 -97t-83 -64t-118.5 -23zM297 354q-44 0 -74 -15.5t-48.5 -39.5t-26.5 -49.5t-8 -47.5q0 -40 17 -70.5t48 -47.5t73 -17q31 0 60 13t50.5 35.5t33.5 51.5l10 83q-5 30 -24 53.5t-47 37t-64 13.5z" />
    <glyph glyph-name="gcircumflex" unicode="&#x11d;" horiz-adv-x="600" 
d="M252 -205q-50 0 -87 10.5t-66.5 30.5t-56.5 46l63 63q22 -23 45 -38.5t50.5 -22.5t59.5 -7q41 0 71 14.5t47.5 41t21.5 61.5l14 112l7 -17q-21 -43 -66.5 -70.5t-107.5 -27.5q-58 0 -103.5 25.5t-72 73t-26.5 112.5q0 33 13.5 72.5t42 75t73 58t106.5 22.5t106 -23.5
t61 -60.5l-11 -19l24 87h85l-54 -435q-6 -56 -37.5 -97t-83 -64t-118.5 -23zM297 354q-44 0 -74 -15.5t-48.5 -39.5t-26.5 -49.5t-8 -47.5q0 -40 17 -70.5t48 -47.5t73 -17q31 0 60 13t50.5 35.5t33.5 51.5l10 83q-5 30 -24 53.5t-47 37t-64 13.5zM408 525l-76 106l26 7
l-104 -113h-85l183 183v0l141 -183h-85z" />
    <glyph glyph-name="gbreve" unicode="&#x11f;" horiz-adv-x="600" 
d="M252 -205q-50 0 -87 10.5t-66.5 30.5t-56.5 46l63 63q22 -23 45 -38.5t50.5 -22.5t59.5 -7q41 0 71 14.5t47.5 41t21.5 61.5l14 112l7 -17q-21 -43 -66.5 -70.5t-107.5 -27.5q-58 0 -103.5 25.5t-72 73t-26.5 112.5q0 33 13.5 72.5t42 75t73 58t106.5 22.5t106 -23.5
t61 -60.5l-11 -19l24 87h85l-54 -435q-6 -56 -37.5 -97t-83 -64t-118.5 -23zM297 354q-44 0 -74 -15.5t-48.5 -39.5t-26.5 -49.5t-8 -47.5q0 -40 17 -70.5t48 -47.5t73 -17q31 0 60 13t50.5 35.5t33.5 51.5l10 83q-5 30 -24 53.5t-47 37t-64 13.5zM327 507q-25 1 -49 11.5
t-42.5 31.5t-29 55t-10.5 83h63q0 -42 11 -67.5t28.5 -37t36.5 -13.5q26 0 45 14t32 41.5t20 62.5h64q-11 -62 -34.5 -103t-57.5 -60.5t-77 -17.5z" />
    <glyph glyph-name="gdotaccent" unicode="&#x121;" horiz-adv-x="600" 
d="M252 -205q-50 0 -87 10.5t-66.5 30.5t-56.5 46l63 63q22 -23 45 -38.5t50.5 -22.5t59.5 -7q41 0 71 14.5t47.5 41t21.5 61.5l14 112l7 -17q-21 -43 -66.5 -70.5t-107.5 -27.5q-58 0 -103.5 25.5t-72 73t-26.5 112.5q0 33 13.5 72.5t42 75t73 58t106.5 22.5t106 -23.5
t61 -60.5l-11 -19l24 87h85l-54 -435q-6 -56 -37.5 -97t-83 -64t-118.5 -23zM297 354q-44 0 -74 -15.5t-48.5 -39.5t-26.5 -49.5t-8 -47.5q0 -40 17 -70.5t48 -47.5t73 -17q31 0 60 13t50.5 35.5t33.5 51.5l10 83q-5 30 -24 53.5t-47 37t-64 13.5zM284 592q0 23 17 39t42 16
q19 0 36.5 -12t16.5 -37q-1 -23 -18 -39t-42 -16q-19 0 -36 12.5t-16 36.5z" />
    <glyph glyph-name="uni0123" unicode="&#x123;" horiz-adv-x="600" 
d="M364 663l48 -33q-25 -20 -36.5 -57.5t-7.5 -75.5l-83 1q-3 28 5 60t27 60.5t47 44.5zM252 -205q-50 0 -87 10.5t-66.5 30.5t-56.5 46l63 63q22 -23 45 -38.5t50.5 -22.5t59.5 -7q41 0 71 14.5t47.5 41t21.5 61.5l14 112l7 -17q-21 -43 -66.5 -70.5t-107.5 -27.5
q-58 0 -103.5 25.5t-72 73t-26.5 112.5q0 33 13.5 72.5t42 75t73 58t106.5 22.5t106 -23.5t61 -60.5l-11 -19l24 87h85l-54 -435q-6 -56 -37.5 -97t-83 -64t-118.5 -23zM297 354q-44 0 -74 -15.5t-48.5 -39.5t-26.5 -49.5t-8 -47.5q0 -40 17 -70.5t48 -47.5t73 -17
q31 0 60 13t50.5 35.5t33.5 51.5l10 83q-5 30 -24 53.5t-47 37t-64 13.5z" />
    <glyph glyph-name="gcaron" unicode="&#x1e7;" horiz-adv-x="600" 
d="M252 -205q-50 0 -87 10.5t-66.5 30.5t-56.5 46l63 63q22 -23 45 -38.5t50.5 -22.5t59.5 -7q41 0 71 14.5t47.5 41t21.5 61.5l14 112l7 -17q-21 -43 -66.5 -70.5t-107.5 -27.5q-58 0 -103.5 25.5t-72 73t-26.5 112.5q0 33 13.5 72.5t42 75t73 58t106.5 22.5t106 -23.5
t61 -60.5l-11 -19l24 87h85l-54 -435q-6 -56 -37.5 -97t-83 -64t-118.5 -23zM297 354q-44 0 -74 -15.5t-48.5 -39.5t-26.5 -49.5t-8 -47.5q0 -40 17 -70.5t48 -47.5t73 -17q31 0 60 13t50.5 35.5t33.5 51.5l10 83q-5 30 -24 53.5t-47 37t-64 13.5zM278 694l76 -106l-25 -6
l104 112h85l-183 -183h-1l-141 183h85z" />
    <glyph glyph-name="h" unicode="h" horiz-adv-x="553" 
d="M184 335q27 42 74 68.5t107 26.5q59 0 92 -34.5t28 -89.5l-38 -306h-93l33 276q2 32 -13.5 52.5t-52.5 21.5q-37 0 -69 -20.5t-52.5 -55.5t-26.5 -80l-24 -194h-93l94 774h92l-56 -459z" />
    <glyph glyph-name="hcircumflex" unicode="&#x125;" horiz-adv-x="553" 
d="M184 335q27 42 74 68.5t107 26.5q59 0 92 -34.5t28 -89.5l-38 -306h-93l33 276q2 32 -13.5 52.5t-52.5 21.5q-37 0 -69 -20.5t-52.5 -55.5t-26.5 -80l-24 -194h-93l94 774h92l-56 -459zM273 767l-76 106l26 7l-104 -113h-85l183 183v0l141 -183h-85z" />
    <glyph glyph-name="i" unicode="i" horiz-adv-x="254" 
d="M106 414h93l-51 -414h-93zM113 553q0 23 17 39t42 16q19 0 36.5 -12t16.5 -37q-1 -23 -18 -39t-42 -16q-19 0 -36 12.5t-16 36.5z" />
    <glyph glyph-name="igrave" unicode="&#xec;" horiz-adv-x="254" 
d="M106 414h93l-51 -414h-93zM122 619l66 -134h-59l-110 134h103z" />
    <glyph glyph-name="iacute" unicode="&#xed;" horiz-adv-x="254" 
d="M106 414h93l-51 -414h-93zM317 619l-133 -134h-59l89 134h103z" />
    <glyph glyph-name="icircumflex" unicode="&#xee;" horiz-adv-x="254" 
d="M106 414h93l-51 -414h-93zM237 485l-76 106l26 7l-104 -113h-85l183 183v0l141 -183h-85z" />
    <glyph glyph-name="idieresis" unicode="&#xef;" horiz-adv-x="254" 
d="M106 414h93l-51 -414h-93zM22 533q2 23 20 37.5t38 13.5q19 -1 33.5 -17t11.5 -39q-2 -24 -19.5 -37.5t-36.5 -12.5q-20 1 -35 16.5t-12 38.5v0zM208 533q3 23 20.5 37.5t37.5 13.5q19 -1 33.5 -17.5t12.5 -38.5q-3 -24 -21 -37.5t-36 -12.5q-20 1 -34.5 16t-12.5 39v0z
" />
    <glyph glyph-name="itilde" unicode="&#x129;" horiz-adv-x="254" 
d="M106 414h93l-51 -414h-93zM235 450q-36 2 -58 20t-39 37q-12 13 -23.5 24t-28.5 12q-14 1 -26 -8.5t-19.5 -28.5t-10.5 -45l-59 5q3 44 20 78.5t45 53.5t64 17q29 -1 48.5 -18.5t35.5 -36.5q14 -16 27 -28t30 -13q15 -1 25.5 9t16.5 30t9 46l58 -5q0 -47 -16.5 -81
t-42.5 -51.5t-56 -16.5z" />
    <glyph glyph-name="imacron" unicode="&#x12b;" horiz-adv-x="254" 
d="M106 414h93l-51 -414h-93zM50 537h233l-6 -53h-234z" />
    <glyph glyph-name="ibreve" unicode="&#x12d;" horiz-adv-x="254" 
d="M106 414h93l-51 -414h-93zM156 467q-25 1 -49 11.5t-42.5 31.5t-29 55t-10.5 83h63q0 -42 11 -67.5t28.5 -37t36.5 -13.5q26 0 45 14t32 41.5t20 62.5h64q-11 -62 -34.5 -103t-57.5 -60.5t-77 -17.5z" />
    <glyph glyph-name="iogonek" unicode="&#x12f;" horiz-adv-x="238" 
d="M75 -214q-45 3 -76.5 31t-31.5 73q0 21 10.5 44.5t32.5 45t56 34.5l73 -11l-83 -3l51 414h93l-51 -413q-46 -22 -73.5 -45.5t-29.5 -52.5q-2 -26 12 -38t33 -13q20 -1 37.5 11t33.5 33l30 -48q-20 -28 -53 -46t-64 -16zM111 538q1 23 18 39t42 15q19 0 36 -12t16 -37
q0 -23 -17 -39t-42 -16q-19 1 -36 13t-17 37z" />
    <glyph glyph-name="uni0209" unicode="&#x209;" horiz-adv-x="254" 
d="M106 414h93l-51 -414h-93zM70 619l66 -134h-59l-110 134h103zM204 619l66 -134h-59l-110 134h103z" />
    <glyph glyph-name="uni020B" unicode="&#x20b;" horiz-adv-x="254" 
d="M106 414h93l-51 -414h-93zM180 633q25 -1 49 -11.5t42.5 -31.5t29 -55t10.5 -84h-63q1 43 -10.5 68.5t-28.5 37.5t-37 12q-26 2 -45 -13t-31.5 -41.5t-20.5 -63.5h-64q11 63 34.5 104t58 60.5t76.5 17.5z" />
    <glyph glyph-name="uni1EC9" unicode="&#x1ec9;" horiz-adv-x="254" 
d="M106 414h93l-51 -414h-93zM138 488q21 14 35.5 26.5t17.5 30.5q2 18 -5 29t-27 12q-15 0 -26 -7t-22 -21l-32 24q19 29 44 42.5t52 12.5q37 0 55 -21.5t16 -52.5q-1 -26 -22 -52.5t-68 -49.5z" />
    <glyph glyph-name="uni1ECB" unicode="&#x1ecb;" horiz-adv-x="254" 
d="M106 414h93l-51 -414h-93zM113 553q0 23 17 39t42 16q19 0 36.5 -12t16.5 -37q-1 -23 -18 -39t-42 -16q-19 0 -36 12.5t-16 36.5zM27 -100q0 23 17 39t42 16q19 0 36.5 -12t16.5 -37q-1 -23 -18 -39t-42 -16q-19 0 -36 12.5t-16 36.5z" />
    <glyph glyph-name="j" unicode="j" horiz-adv-x="266" 
d="M-24 -147q38 24 60.5 58.5t29.5 83.5l52 419h93l-51 -414q-9 -72 -42.5 -124t-95.5 -81zM121 553q0 23 17 39t42 16q19 0 36.5 -12t16.5 -37q-1 -23 -18 -39t-42 -16q-19 0 -36 12.5t-16 36.5z" />
    <glyph glyph-name="jcircumflex" unicode="&#x135;" horiz-adv-x="266" 
d="M-24 -147q38 24 60.5 58.5t29.5 83.5l52 419h93l-51 -414q-9 -72 -42.5 -124t-95.5 -81zM245 485l-76 106l26 7l-104 -113h-85l183 183v0l141 -183h-85z" />
    <glyph glyph-name="k" unicode="k" horiz-adv-x="499" 
d="M56 0l94 774h94l-95 -774h-93zM283 275l156 -275h-109l-116 223zM136 132l-1 89l276 202l54 -49z" />
    <glyph glyph-name="uni0137" unicode="&#x137;" horiz-adv-x="467" 
d="M56 0l94 774h94l-95 -774h-93zM283 275l156 -275h-109l-116 223zM136 132l-1 89l276 202l54 -49zM182 -310l-47 33q25 20 36.5 57t7.5 75l82 -1q4 -27 -4 -58.5t-27 -60t-48 -45.5z" />
    <glyph glyph-name="l" unicode="l" horiz-adv-x="255" 
d="M150 774h94l-95 -774h-93z" />
    <glyph glyph-name="lacute" unicode="&#x13a;" horiz-adv-x="255" 
d="M150 774h94l-95 -774h-93zM354 972l-133 -134h-59l89 134h103z" />
    <glyph glyph-name="uni013C" unicode="&#x13c;" horiz-adv-x="255" 
d="M150 774h94l-95 -774h-93zM62 -209l-47 33q25 20 36.5 57t7.5 75l82 -1q4 -27 -4 -58.5t-27 -60t-48 -45.5z" />
    <glyph glyph-name="lcaron" unicode="&#x13e;" horiz-adv-x="255" 
d="M150 774h94l-95 -774h-93zM336 607l-47 33q25 20 36.5 57t7.5 75l82 -1q4 -27 -4 -58.5t-27 -60t-48 -45.5z" />
    <glyph glyph-name="m" unicode="m" horiz-adv-x="826" 
d="M190 414l-3 -95l-3 15q30 45 74.5 70.5t100.5 25.5q51 0 81 -22t35 -66l-3 -3q30 41 74.5 66t92.5 25q61 0 92 -34.5t26 -89.5l-37 -306h-93l33 273q3 32 -9 53t-46 23q-38 0 -69 -21.5t-51 -56t-26 -74.5l-24 -197h-94l34 273q2 32 -10.5 53t-47.5 23q-37 0 -68 -21.5
t-51 -56.5t-25 -75l-24 -196h-93l50 414h84z" />
    <glyph glyph-name="n" unicode="n" horiz-adv-x="553" 
d="M190 414l-1 -94l-7 13q27 43 73.5 70t107.5 27q60 0 93.5 -34.5t28.5 -89.5l-38 -306h-93l33 274q4 34 -13.5 55t-56.5 21q-37 0 -68 -20.5t-51 -55.5t-25 -80l-24 -194h-93l50 414h84z" />
    <glyph glyph-name="ntilde" unicode="&#xf1;" horiz-adv-x="553" 
d="M190 414l-1 -94l-7 13q27 43 73.5 70t107.5 27q60 0 93.5 -34.5t28.5 -89.5l-38 -306h-93l33 274q4 34 -13.5 55t-56.5 21q-37 0 -68 -20.5t-51 -55.5t-25 -80l-24 -194h-93l50 414h84zM391 490q-36 2 -58 20t-39 37q-12 13 -23.5 24t-28.5 12q-14 1 -26 -8.5
t-19.5 -28.5t-10.5 -45l-59 5q3 44 20 78.5t45 53.5t64 17q29 -1 48.5 -18.5t35.5 -36.5q14 -16 27 -28t30 -13q15 -1 25.5 9t16.5 30t9 46l58 -5q0 -47 -16.5 -81t-42.5 -51.5t-56 -16.5z" />
    <glyph glyph-name="nacute" unicode="&#x144;" horiz-adv-x="556" 
d="M190 414l-1 -94l-7 13q27 43 73.5 70t107.5 27q60 0 93.5 -34.5t28.5 -89.5l-38 -306h-93l33 274q4 34 -13.5 55t-56.5 21q-37 0 -68 -20.5t-51 -55.5t-25 -80l-24 -194h-93l50 414h84zM452 619l-133 -134h-59l89 134h103z" />
    <glyph glyph-name="uni0146" unicode="&#x146;" horiz-adv-x="553" 
d="M190 414l-1 -94l-7 13q27 43 73.5 70t107.5 27q60 0 93.5 -34.5t28.5 -89.5l-38 -306h-93l33 274q4 34 -13.5 55t-56.5 21q-37 0 -68 -20.5t-51 -55.5t-25 -80l-24 -194h-93l50 414h84zM209 -209l-47 33q25 20 36.5 57t7.5 75l82 -1q4 -27 -4 -58.5t-27 -60t-48 -45.5z
" />
    <glyph glyph-name="ncaron" unicode="&#x148;" horiz-adv-x="556" 
d="M190 414l-1 -94l-7 13q27 43 73.5 70t107.5 27q60 0 93.5 -34.5t28.5 -89.5l-38 -306h-93l33 274q4 34 -13.5 55t-56.5 21q-37 0 -68 -20.5t-51 -55.5t-25 -80l-24 -194h-93l50 414h84zM273 668l76 -106l-25 -6l104 112h85l-183 -183h-1l-141 183h85z" />
    <glyph glyph-name="o" unicode="o" 
d="M263 -10q-39 0 -78 13t-71 38.5t-51 63.5t-19 88q0 39 13.5 80.5t41.5 76.5t73.5 57t110.5 22q57 0 106.5 -24t81 -69.5t31.5 -109.5q0 -26 -7.5 -58.5t-24 -63.5t-44 -57t-68 -41.5t-95.5 -15.5zM266 67q51 0 82 24.5t45 60.5t14 70q0 35 -11.5 59.5t-31 40.5t-42 23.5
t-42.5 7.5q-50 0 -81.5 -24t-46 -60.5t-14.5 -70.5q0 -45 19.5 -74t49.5 -43t59 -14z" />
    <glyph glyph-name="ograve" unicode="&#xf2;" 
d="M263 -10q-39 0 -78 13t-71 38.5t-51 63.5t-19 88q0 39 13.5 80.5t41.5 76.5t73.5 57t110.5 22q57 0 106.5 -24t81 -69.5t31.5 -109.5q0 -26 -7.5 -58.5t-24 -63.5t-44 -57t-68 -41.5t-95.5 -15.5zM266 67q51 0 82 24.5t45 60.5t14 70q0 35 -11.5 59.5t-31 40.5t-42 23.5
t-42.5 7.5q-50 0 -81.5 -24t-46 -60.5t-14.5 -70.5q0 -45 19.5 -74t49.5 -43t59 -14zM255 627l66 -134h-59l-110 134h103z" />
    <glyph glyph-name="oacute" unicode="&#xf3;" 
d="M263 -10q-39 0 -78 13t-71 38.5t-51 63.5t-19 88q0 39 13.5 80.5t41.5 76.5t73.5 57t110.5 22q57 0 106.5 -24t81 -69.5t31.5 -109.5q0 -26 -7.5 -58.5t-24 -63.5t-44 -57t-68 -41.5t-95.5 -15.5zM266 67q51 0 82 24.5t45 60.5t14 70q0 35 -11.5 59.5t-31 40.5t-42 23.5
t-42.5 7.5q-50 0 -81.5 -24t-46 -60.5t-14.5 -70.5q0 -45 19.5 -74t49.5 -43t59 -14zM450 627l-133 -134h-59l89 134h103z" />
    <glyph glyph-name="ocircumflex" unicode="&#xf4;" 
d="M263 -10q-39 0 -78 13t-71 38.5t-51 63.5t-19 88q0 39 13.5 80.5t41.5 76.5t73.5 57t110.5 22q57 0 106.5 -24t81 -69.5t31.5 -109.5q0 -26 -7.5 -58.5t-24 -63.5t-44 -57t-68 -41.5t-95.5 -15.5zM266 67q51 0 82 24.5t45 60.5t14 70q0 35 -11.5 59.5t-31 40.5t-42 23.5
t-42.5 7.5q-50 0 -81.5 -24t-46 -60.5t-14.5 -70.5q0 -45 19.5 -74t49.5 -43t59 -14zM370 493l-76 106l26 7l-104 -113h-85l183 183v0l141 -183h-85z" />
    <glyph glyph-name="otilde" unicode="&#xf5;" 
d="M263 -10q-39 0 -78 13t-71 38.5t-51 63.5t-19 88q0 39 13.5 80.5t41.5 76.5t73.5 57t110.5 22q57 0 106.5 -24t81 -69.5t31.5 -109.5q0 -26 -7.5 -58.5t-24 -63.5t-44 -57t-68 -41.5t-95.5 -15.5zM266 67q51 0 82 24.5t45 60.5t14 70q0 35 -11.5 59.5t-31 40.5t-42 23.5
t-42.5 7.5q-50 0 -81.5 -24t-46 -60.5t-14.5 -70.5q0 -45 19.5 -74t49.5 -43t59 -14zM368 458q-36 2 -58 20t-39 37q-12 13 -23.5 24t-28.5 12q-14 1 -26 -8.5t-19.5 -28.5t-10.5 -45l-59 5q3 44 20 78.5t45 53.5t64 17q29 -1 48.5 -18.5t35.5 -36.5q14 -16 27 -28t30 -13
q15 -1 25.5 9t16.5 30t9 46l58 -5q0 -47 -16.5 -81t-42.5 -51.5t-56 -16.5z" />
    <glyph glyph-name="odieresis" unicode="&#xf6;" 
d="M263 -10q-39 0 -78 13t-71 38.5t-51 63.5t-19 88q0 39 13.5 80.5t41.5 76.5t73.5 57t110.5 22q57 0 106.5 -24t81 -69.5t31.5 -109.5q0 -26 -7.5 -58.5t-24 -63.5t-44 -57t-68 -41.5t-95.5 -15.5zM266 67q51 0 82 24.5t45 60.5t14 70q0 35 -11.5 59.5t-31 40.5t-42 23.5
t-42.5 7.5q-50 0 -81.5 -24t-46 -60.5t-14.5 -70.5q0 -45 19.5 -74t49.5 -43t59 -14zM155 541q2 23 20 37.5t38 13.5q19 -1 33.5 -17t11.5 -39q-2 -24 -19.5 -37.5t-36.5 -12.5q-20 1 -35 16.5t-12 38.5v0zM341 541q3 23 20.5 37.5t37.5 13.5q19 -1 33.5 -17.5t12.5 -38.5
q-3 -24 -21 -37.5t-36 -12.5q-20 1 -34.5 16t-12.5 39v0z" />
    <glyph glyph-name="omacron" unicode="&#x14d;" 
d="M263 -10q-39 0 -78 13t-71 38.5t-51 63.5t-19 88q0 39 13.5 80.5t41.5 76.5t73.5 57t110.5 22q57 0 106.5 -24t81 -69.5t31.5 -109.5q0 -26 -7.5 -58.5t-24 -63.5t-44 -57t-68 -41.5t-95.5 -15.5zM266 67q51 0 82 24.5t45 60.5t14 70q0 35 -11.5 59.5t-31 40.5t-42 23.5
t-42.5 7.5q-50 0 -81.5 -24t-46 -60.5t-14.5 -70.5q0 -45 19.5 -74t49.5 -43t59 -14zM183 545h233l-6 -53h-234z" />
    <glyph glyph-name="obreve" unicode="&#x14f;" 
d="M263 -10q-39 0 -78 13t-71 38.5t-51 63.5t-19 88q0 39 13.5 80.5t41.5 76.5t73.5 57t110.5 22q57 0 106.5 -24t81 -69.5t31.5 -109.5q0 -26 -7.5 -58.5t-24 -63.5t-44 -57t-68 -41.5t-95.5 -15.5zM266 67q51 0 82 24.5t45 60.5t14 70q0 35 -11.5 59.5t-31 40.5t-42 23.5
t-42.5 7.5q-50 0 -81.5 -24t-46 -60.5t-14.5 -70.5q0 -45 19.5 -74t49.5 -43t59 -14zM289 475q-25 1 -49 11.5t-42.5 31.5t-29 55t-10.5 83h63q0 -42 11 -67.5t28.5 -37t36.5 -13.5q26 0 45 14t32 41.5t20 62.5h64q-11 -62 -34.5 -103t-57.5 -60.5t-77 -17.5z" />
    <glyph glyph-name="ohungarumlaut" unicode="&#x151;" 
d="M263 -10q-39 0 -78 13t-71 38.5t-51 63.5t-19 88q0 39 13.5 80.5t41.5 76.5t73.5 57t110.5 22q57 0 106.5 -24t81 -69.5t31.5 -109.5q0 -26 -7.5 -58.5t-24 -63.5t-44 -57t-68 -41.5t-95.5 -15.5zM266 67q51 0 82 24.5t45 60.5t14 70q0 35 -11.5 59.5t-31 40.5t-42 23.5
t-42.5 7.5q-50 0 -81.5 -24t-46 -60.5t-14.5 -70.5q0 -45 19.5 -74t49.5 -43t59 -14zM344 627q-33 -33 -66.5 -67t-66.5 -67h-59q26 33 53 67t54 67h85zM524 627q-33 -33 -66.5 -67t-66.5 -67h-60q27 33 54 67t54 67h85z" />
    <glyph glyph-name="ohorn" unicode="&#x1a1;" horiz-adv-x="572" 
d="M262 -10q-39 0 -78 13t-71 38.5t-51 63.5t-19 88q0 39 13 80.5t41.5 76.5t74 57t110.5 22q57 0 106.5 -24t80.5 -69.5t31 -109.5q0 -26 -7.5 -58.5t-24 -63.5t-44 -57t-68 -41.5t-94.5 -15.5zM265 67q51 0 82 24.5t45 60.5t14 70q0 35 -12 59.5t-31 40.5t-41.5 23.5
t-43.5 7.5q-49 0 -80.5 -24t-46 -60.5t-14.5 -70.5q0 -45 19.5 -74t49 -43t59.5 -14zM429 354q32 -3 52 16t30 63h70q-13 -58 -36.5 -88.5t-54.5 -40.5t-68 -8z" />
    <glyph glyph-name="uni01EB" unicode="&#x1eb;" 
d="M368 23q-22 -14 -45 -23.5t-61 -9.5q-39 0 -78 13t-71 38.5t-51 63.5t-19 88q0 39 13 80.5t41.5 76.5t74 57t110.5 22q57 0 106.5 -24t80.5 -69.5t31 -109.5q0 -36 -11.5 -75.5t-37.5 -73.5t-68 -56q-30 -18 -57.5 -35t-45 -37t-20.5 -48q-2 -24 12.5 -37t32.5 -14
q20 -1 38 11t34 34l30 -49q-21 -28 -54 -45.5t-64 -16.5q-45 3 -76 31t-31 73q0 26 11.5 52t34.5 48.5t55 35.5zM265 67q51 0 82 24.5t45 60.5t14 70q0 35 -12 59.5t-31 40.5t-41.5 23.5t-43.5 7.5q-49 0 -80.5 -24t-46 -60.5t-14.5 -70.5q0 -45 19.5 -74t49 -43t59.5 -14z
" />
    <glyph glyph-name="uni020D" unicode="&#x20d;" 
d="M263 -10q-39 0 -78 13t-71 38.5t-51 63.5t-19 88q0 39 13.5 80.5t41.5 76.5t73.5 57t110.5 22q57 0 106.5 -24t81 -69.5t31.5 -109.5q0 -26 -7.5 -58.5t-24 -63.5t-44 -57t-68 -41.5t-95.5 -15.5zM266 67q51 0 82 24.5t45 60.5t14 70q0 35 -11.5 59.5t-31 40.5t-42 23.5
t-42.5 7.5q-50 0 -81.5 -24t-46 -60.5t-14.5 -70.5q0 -45 19.5 -74t49.5 -43t59 -14zM203 627l66 -134h-59l-110 134h103zM337 627l66 -134h-59l-110 134h103z" />
    <glyph glyph-name="uni020F" unicode="&#x20f;" 
d="M263 -10q-39 0 -78 13t-71 38.5t-51 63.5t-19 88q0 39 13.5 80.5t41.5 76.5t73.5 57t110.5 22q57 0 106.5 -24t81 -69.5t31.5 -109.5q0 -26 -7.5 -58.5t-24 -63.5t-44 -57t-68 -41.5t-95.5 -15.5zM266 67q51 0 82 24.5t45 60.5t14 70q0 35 -11.5 59.5t-31 40.5t-42 23.5
t-42.5 7.5q-50 0 -81.5 -24t-46 -60.5t-14.5 -70.5q0 -45 19.5 -74t49.5 -43t59 -14zM313 642q25 -1 49 -11.5t42.5 -31.5t29 -55t10.5 -84h-63q1 43 -10.5 68.5t-28.5 37.5t-37 12q-26 2 -45 -13t-31.5 -41.5t-20.5 -63.5h-64q11 63 34.5 104t58 60.5t76.5 17.5z" />
    <glyph glyph-name="uni022B" unicode="&#x22b;" 
d="M263 -10q-39 0 -78 13t-71 38.5t-51 63.5t-19 88q0 39 13.5 80.5t41.5 76.5t73.5 57t110.5 22q57 0 106.5 -24t81 -69.5t31.5 -109.5q0 -26 -7.5 -58.5t-24 -63.5t-44 -57t-68 -41.5t-95.5 -15.5zM266 67q51 0 82 24.5t45 60.5t14 70q0 35 -11.5 59.5t-31 40.5t-42 23.5
t-42.5 7.5q-50 0 -81.5 -24t-46 -60.5t-14.5 -70.5q0 -45 19.5 -74t49.5 -43t59 -14zM155 541q2 23 20 37.5t38 13.5q19 -1 33.5 -17t11.5 -39q-2 -24 -19.5 -37.5t-36.5 -12.5q-20 1 -35 16.5t-12 38.5v0zM341 541q3 23 20.5 37.5t37.5 13.5q19 -1 33.5 -17.5t12.5 -38.5
q-3 -24 -21 -37.5t-36 -12.5q-20 1 -34.5 16t-12.5 39v0zM203 711h233l-6 -53h-234z" />
    <glyph glyph-name="uni022D" unicode="&#x22d;" 
d="M263 -10q-39 0 -78 13t-71 38.5t-51 63.5t-19 88q0 39 13.5 80.5t41.5 76.5t73.5 57t110.5 22q57 0 106.5 -24t81 -69.5t31.5 -109.5q0 -26 -7.5 -58.5t-24 -63.5t-44 -57t-68 -41.5t-95.5 -15.5zM266 67q51 0 82 24.5t45 60.5t14 70q0 35 -11.5 59.5t-31 40.5t-42 23.5
t-42.5 7.5q-50 0 -81.5 -24t-46 -60.5t-14.5 -70.5q0 -45 19.5 -74t49.5 -43t59 -14zM368 458q-36 2 -58 20t-39 37q-12 13 -23.5 24t-28.5 12q-14 1 -26 -8.5t-19.5 -28.5t-10.5 -45l-59 5q3 44 20 78.5t45 53.5t64 17q29 -1 48.5 -18.5t35.5 -36.5q14 -16 27 -28t30 -13
q15 -1 25.5 9t16.5 30t9 46l58 -5q0 -47 -16.5 -81t-42.5 -51.5t-56 -16.5zM215 728h233l-6 -53h-234z" />
    <glyph glyph-name="uni0231" unicode="&#x231;" 
d="M263 -10q-39 0 -78 13t-71 38.5t-51 63.5t-19 88q0 39 13.5 80.5t41.5 76.5t73.5 57t110.5 22q57 0 106.5 -24t81 -69.5t31.5 -109.5q0 -26 -7.5 -58.5t-24 -63.5t-44 -57t-68 -41.5t-95.5 -15.5zM266 67q51 0 82 24.5t45 60.5t14 70q0 35 -11.5 59.5t-31 40.5t-42 23.5
t-42.5 7.5q-50 0 -81.5 -24t-46 -60.5t-14.5 -70.5q0 -45 19.5 -74t49.5 -43t59 -14zM246 561q0 23 17 39t42 16q19 0 36.5 -12t16.5 -37q-1 -23 -18 -39t-42 -16q-19 0 -36 12.5t-16 36.5zM208 744h233l-6 -53h-234z" />
    <glyph glyph-name="uni1ECD" unicode="&#x1ecd;" 
d="M263 -10q-39 0 -78 13t-71 38.5t-51 63.5t-19 88q0 39 13.5 80.5t41.5 76.5t73.5 57t110.5 22q57 0 106.5 -24t81 -69.5t31.5 -109.5q0 -26 -7.5 -58.5t-24 -63.5t-44 -57t-68 -41.5t-95.5 -15.5zM266 67q51 0 82 24.5t45 60.5t14 70q0 35 -11.5 59.5t-31 40.5t-42 23.5
t-42.5 7.5q-50 0 -81.5 -24t-46 -60.5t-14.5 -70.5q0 -45 19.5 -74t49.5 -43t59 -14zM176 -100q0 23 17 39t42 16q19 0 36.5 -12t16.5 -37q-1 -23 -18 -39t-42 -16q-19 0 -36 12.5t-16 36.5z" />
    <glyph glyph-name="uni1ECF" unicode="&#x1ecf;" 
d="M263 -10q-39 0 -78 13t-71 38.5t-51 63.5t-19 88q0 39 13.5 80.5t41.5 76.5t73.5 57t110.5 22q57 0 106.5 -24t81 -69.5t31.5 -109.5q0 -26 -7.5 -58.5t-24 -63.5t-44 -57t-68 -41.5t-95.5 -15.5zM266 67q51 0 82 24.5t45 60.5t14 70q0 35 -11.5 59.5t-31 40.5t-42 23.5
t-42.5 7.5q-50 0 -81.5 -24t-46 -60.5t-14.5 -70.5q0 -45 19.5 -74t49.5 -43t59 -14zM271 496q21 14 35.5 26.5t17.5 30.5q2 18 -5 29t-27 12q-15 0 -26 -7t-22 -21l-32 24q19 29 44 42.5t52 12.5q37 0 55 -21.5t16 -52.5q-1 -26 -22 -52.5t-68 -49.5z" />
    <glyph glyph-name="uni1ED1" unicode="&#x1ed1;" 
d="M263 -10q-39 0 -78 13t-71 38.5t-51 63.5t-19 88q0 39 13.5 80.5t41.5 76.5t73.5 57t110.5 22q57 0 106.5 -24t81 -69.5t31.5 -109.5q0 -26 -7.5 -58.5t-24 -63.5t-44 -57t-68 -41.5t-95.5 -15.5zM266 67q51 0 82 24.5t45 60.5t14 70q0 35 -11.5 59.5t-31 40.5t-42 23.5
t-42.5 7.5q-50 0 -81.5 -24t-46 -60.5t-14.5 -70.5q0 -45 19.5 -74t49.5 -43t59 -14zM339 493l-76 106l26 7l-104 -113h-85l183 183v0l141 -183h-85zM559 762l-133 -134h-59l89 134h103z" />
    <glyph glyph-name="uni1ED3" unicode="&#x1ed3;" 
d="M263 -10q-39 0 -78 13t-71 38.5t-51 63.5t-19 88q0 39 13.5 80.5t41.5 76.5t73.5 57t110.5 22q57 0 106.5 -24t81 -69.5t31.5 -109.5q0 -26 -7.5 -58.5t-24 -63.5t-44 -57t-68 -41.5t-95.5 -15.5zM266 67q51 0 82 24.5t45 60.5t14 70q0 35 -11.5 59.5t-31 40.5t-42 23.5
t-42.5 7.5q-50 0 -81.5 -24t-46 -60.5t-14.5 -70.5q0 -45 19.5 -74t49.5 -43t59 -14zM368 471l-76 106l26 7l-104 -113h-85l183 183v0l141 -183h-85zM139 715l66 -134h-59l-110 134h103z" />
    <glyph glyph-name="uni1ED5" unicode="&#x1ed5;" 
d="M263 -10q-39 0 -78 13t-71 38.5t-51 63.5t-19 88q0 39 13.5 80.5t41.5 76.5t73.5 57t110.5 22q57 0 106.5 -24t81 -69.5t31.5 -109.5q0 -26 -7.5 -58.5t-24 -63.5t-44 -57t-68 -41.5t-95.5 -15.5zM266 67q51 0 82 24.5t45 60.5t14 70q0 35 -11.5 59.5t-31 40.5t-42 23.5
t-42.5 7.5q-50 0 -81.5 -24t-46 -60.5t-14.5 -70.5q0 -45 19.5 -74t49.5 -43t59 -14zM360 471l-76 106l26 7l-104 -113h-85l183 183v0l141 -183h-85zM418 602q21 14 35.5 26.5t17.5 30.5q2 18 -5 29t-27 12q-15 0 -26 -7t-22 -21l-32 24q19 29 44 42.5t52 12.5
q37 0 55 -21.5t16 -52.5q-1 -26 -22 -52.5t-68 -49.5z" />
    <glyph glyph-name="uni1ED7" unicode="&#x1ed7;" 
d="M263 -10q-39 0 -78 13t-71 38.5t-51 63.5t-19 88q0 39 13.5 80.5t41.5 76.5t73.5 57t110.5 22q57 0 106.5 -24t81 -69.5t31.5 -109.5q0 -26 -7.5 -58.5t-24 -63.5t-44 -57t-68 -41.5t-95.5 -15.5zM266 67q51 0 82 24.5t45 60.5t14 70q0 35 -11.5 59.5t-31 40.5t-42 23.5
t-42.5 7.5q-50 0 -81.5 -24t-46 -60.5t-14.5 -70.5q0 -45 19.5 -74t49.5 -43t59 -14zM395 684q-33 2 -51.5 17.5t-34.5 32.5q-10 12 -21 22t-26 11q-12 1 -22.5 -8t-17.5 -25.5t-10 -40.5l-50 5q2 38 17 68.5t40 47t55 14.5q27 -1 44 -16.5t31 -32.5q12 -14 23.5 -25
t27.5 -11q19 -2 30.5 18.5t15.5 56.5l50 -4q-1 -41 -15 -71t-37 -45.5t-49 -13.5zM373 467l-76 106l26 7l-104 -113h-85l183 183v0l141 -183h-85z" />
    <glyph glyph-name="uni1ED9" unicode="&#x1ed9;" 
d="M263 -10q-39 0 -78 13t-71 38.5t-51 63.5t-19 88q0 39 13.5 80.5t41.5 76.5t73.5 57t110.5 22q57 0 106.5 -24t81 -69.5t31.5 -109.5q0 -26 -7.5 -58.5t-24 -63.5t-44 -57t-68 -41.5t-95.5 -15.5zM266 67q51 0 82 24.5t45 60.5t14 70q0 35 -11.5 59.5t-31 40.5t-42 23.5
t-42.5 7.5q-50 0 -81.5 -24t-46 -60.5t-14.5 -70.5q0 -45 19.5 -74t49.5 -43t59 -14zM176 -100q0 23 17 39t42 16q19 0 36.5 -12t16.5 -37q-1 -23 -18 -39t-42 -16q-19 0 -36 12.5t-16 36.5zM370 493l-76 106l26 7l-104 -113h-85l183 183v0l141 -183h-85z" />
    <glyph glyph-name="uni1EDB" unicode="&#x1edb;" horiz-adv-x="572" 
d="M262 -10q-39 0 -78 13t-71 38.5t-51 63.5t-19 88q0 39 13 80.5t41.5 76.5t74 57t110.5 22q57 0 106.5 -24t80.5 -69.5t31 -109.5q0 -26 -7.5 -58.5t-24 -63.5t-44 -57t-68 -41.5t-94.5 -15.5zM265 67q51 0 82 24.5t45 60.5t14 70q0 35 -12 59.5t-31 40.5t-41.5 23.5
t-43.5 7.5q-49 0 -80.5 -24t-46 -60.5t-14.5 -70.5q0 -45 19.5 -74t49 -43t59.5 -14zM429 354q32 -3 52 16t30 63h70q-13 -58 -36.5 -88.5t-54.5 -40.5t-68 -8zM448 627l-133 -134h-59l89 134h103z" />
    <glyph glyph-name="uni1EDD" unicode="&#x1edd;" horiz-adv-x="572" 
d="M262 -10q-39 0 -78 13t-71 38.5t-51 63.5t-19 88q0 39 13 80.5t41.5 76.5t74 57t110.5 22q57 0 106.5 -24t80.5 -69.5t31 -109.5q0 -26 -7.5 -58.5t-24 -63.5t-44 -57t-68 -41.5t-94.5 -15.5zM265 67q51 0 82 24.5t45 60.5t14 70q0 35 -12 59.5t-31 40.5t-41.5 23.5
t-43.5 7.5q-49 0 -80.5 -24t-46 -60.5t-14.5 -70.5q0 -45 19.5 -74t49 -43t59.5 -14zM429 354q32 -3 52 16t30 63h70q-13 -58 -36.5 -88.5t-54.5 -40.5t-68 -8zM254 627l66 -134h-59l-110 134h103z" />
    <glyph glyph-name="uni1EDF" unicode="&#x1edf;" horiz-adv-x="572" 
d="M262 -10q-39 0 -78 13t-71 38.5t-51 63.5t-19 88q0 39 13 80.5t41.5 76.5t74 57t110.5 22q57 0 106.5 -24t80.5 -69.5t31 -109.5q0 -26 -7.5 -58.5t-24 -63.5t-44 -57t-68 -41.5t-94.5 -15.5zM265 67q51 0 82 24.5t45 60.5t14 70q0 35 -12 59.5t-31 40.5t-41.5 23.5
t-43.5 7.5q-49 0 -80.5 -24t-46 -60.5t-14.5 -70.5q0 -45 19.5 -74t49 -43t59.5 -14zM429 354q32 -3 52 16t30 63h70q-13 -58 -36.5 -88.5t-54.5 -40.5t-68 -8zM270 496q21 14 35.5 26.5t17.5 30.5q2 18 -5 29t-27 12q-15 0 -26 -7t-22 -21l-32 24q19 29 44 42.5t52 12.5
q37 0 55 -21.5t16 -52.5q-1 -26 -22 -52.5t-68 -49.5z" />
    <glyph glyph-name="uni1EE1" unicode="&#x1ee1;" horiz-adv-x="572" 
d="M262 -10q-39 0 -78 13t-71 38.5t-51 63.5t-19 88q0 39 13 80.5t41.5 76.5t74 57t110.5 22q57 0 106.5 -24t80.5 -69.5t31 -109.5q0 -26 -7.5 -58.5t-24 -63.5t-44 -57t-68 -41.5t-94.5 -15.5zM265 67q51 0 82 24.5t45 60.5t14 70q0 35 -12 59.5t-31 40.5t-41.5 23.5
t-43.5 7.5q-49 0 -80.5 -24t-46 -60.5t-14.5 -70.5q0 -45 19.5 -74t49 -43t59.5 -14zM429 354q32 -3 52 16t30 63h70q-13 -58 -36.5 -88.5t-54.5 -40.5t-68 -8zM367 458q-36 2 -58 20t-39 37q-12 13 -23.5 24t-28.5 12q-14 1 -26 -8.5t-19.5 -28.5t-10.5 -45l-59 5
q3 44 20 78.5t45 53.5t64 17q29 -1 48.5 -18.5t35.5 -36.5q14 -16 27 -28t30 -13q15 -1 25.5 9t16.5 30t9 46l58 -5q0 -47 -16.5 -81t-42.5 -51.5t-56 -16.5z" />
    <glyph glyph-name="uni1EE3" unicode="&#x1ee3;" horiz-adv-x="572" 
d="M262 -10q-39 0 -78 13t-71 38.5t-51 63.5t-19 88q0 39 13 80.5t41.5 76.5t74 57t110.5 22q57 0 106.5 -24t80.5 -69.5t31 -109.5q0 -26 -7.5 -58.5t-24 -63.5t-44 -57t-68 -41.5t-94.5 -15.5zM265 67q51 0 82 24.5t45 60.5t14 70q0 35 -12 59.5t-31 40.5t-41.5 23.5
t-43.5 7.5q-49 0 -80.5 -24t-46 -60.5t-14.5 -70.5q0 -45 19.5 -74t49 -43t59.5 -14zM429 354q32 -3 52 16t30 63h70q-13 -58 -36.5 -88.5t-54.5 -40.5t-68 -8zM175 -100q0 23 17 39t42 16q19 0 36.5 -12t16.5 -37q-1 -23 -18 -39t-42 -16q-19 0 -36 12.5t-16 36.5z" />
    <glyph glyph-name="p" unicode="p" horiz-adv-x="585" 
d="M288 -10q-48 0 -92 24t-62 60l22 24l-33 -297h-92l77 619h80l-4 -106l-20 29q40 39 89.5 63.5t98.5 24.5q53 0 96.5 -24t69 -66t25.5 -98q0 -68 -32 -125.5t-89.5 -92.5t-133.5 -35zM286 69q48 0 84.5 22t57 59t20.5 78q0 38 -17.5 67t-46.5 45t-64 16q-33 0 -61.5 -13.5
t-50 -37t-34.5 -55.5l-9 -75q3 -17 11 -35.5t22 -34.5t36 -26t52 -10z" />
    <glyph glyph-name="q" unicode="q" horiz-adv-x="588" 
d="M235 -8q-48 -1 -92 23t-71.5 68.5t-27.5 104.5q0 48 17.5 91t50 77.5t75 54.5t92.5 20q65 0 104 -27t56 -63l-11 -17l18 90h87l-76 -613h-93l37 305l25 -22q-7 -10 -22.5 -25.5t-39.5 -31t-56.5 -26t-72.5 -9.5zM262 66q32 0 61 13t51 36.5t35 55.5l11 74q-3 18 -11.5 37
t-23 35t-37 26t-53.5 10q-47 0 -83.5 -22t-57 -59t-20.5 -80q0 -37 17.5 -65.5t46.5 -44.5t64 -16z" />
    <glyph glyph-name="r" unicode="r" horiz-adv-x="378" 
d="M189 414l-7 -101q21 38 52.5 64t66 39.5t63.5 13.5l-15 -92q-47 3 -85.5 -18t-62.5 -56t-29 -75l-24 -189h-92l50 414h83z" />
    <glyph glyph-name="racute" unicode="&#x155;" horiz-adv-x="378" 
d="M189 414l-7 -101q21 38 52.5 64t66 39.5t63.5 13.5l-15 -92q-47 3 -85.5 -18t-62.5 -56t-29 -75l-24 -189h-92l50 414h83zM377 628l-133 -134h-59l89 134h103z" />
    <glyph glyph-name="uni0157" unicode="&#x157;" horiz-adv-x="378" 
d="M189 414l-7 -101q21 38 52.5 64t66 39.5t63.5 13.5l-15 -92q-47 3 -85.5 -18t-62.5 -56t-29 -75l-24 -189h-92l50 414h83zM105 -209l-47 33q25 20 36.5 57t7.5 75l82 -1q4 -27 -4 -58.5t-27 -60t-48 -45.5z" />
    <glyph glyph-name="rcaron" unicode="&#x159;" horiz-adv-x="378" 
d="M189 414l-7 -101q21 38 52.5 64t66 39.5t63.5 13.5l-15 -92q-47 3 -85.5 -18t-62.5 -56t-29 -75l-24 -189h-92l50 414h83zM143 694l76 -106l-25 -6l104 112h85l-183 -183h-1l-141 183h85z" />
    <glyph glyph-name="uni0211" unicode="&#x211;" horiz-adv-x="378" 
d="M189 414l-7 -101q21 38 52.5 64t66 39.5t63.5 13.5l-15 -92q-47 3 -85.5 -18t-62.5 -56t-29 -75l-24 -189h-92l50 414h83zM105 659l66 -134h-59l-110 134h103zM239 659l66 -134h-59l-110 134h103z" />
    <glyph glyph-name="uni0213" unicode="&#x213;" horiz-adv-x="378" 
d="M189 414l-7 -101q21 38 52.5 64t66 39.5t63.5 13.5l-15 -92q-47 3 -85.5 -18t-62.5 -56t-29 -75l-24 -189h-92l50 414h83zM215 673q25 -1 49 -11.5t42.5 -31.5t29 -55t10.5 -84h-63q1 43 -10.5 68.5t-28.5 37.5t-37 12q-26 2 -45 -13t-31.5 -41.5t-20.5 -63.5h-64
q11 63 34.5 104t58 60.5t76.5 17.5z" />
    <glyph glyph-name="s" unicode="s" horiz-adv-x="408" 
d="M184 -8q-20 0 -49.5 5.5t-59 21t-52.5 45.5l46 51q20 -24 40.5 -36.5t39.5 -16t35 -3.5q36 0 52 18.5t16 35.5q0 21 -13 33.5t-33.5 21t-42.5 16.5q-45 18 -68.5 45.5t-23.5 66.5q0 20 8 42.5t25 42.5t45 33t70 13q19 0 44.5 -3.5t53 -15t50.5 -35.5l-43 -55
q-20 24 -45 33.5t-49 9.5q-22 0 -36 -7.5t-20.5 -19.5t-6.5 -24q0 -19 13 -31t33 -20t40 -17q28 -11 50 -26.5t34 -38t10 -56.5q-2 -21 -12 -44t-29 -42.5t-49 -31t-73 -11.5z" />
    <glyph glyph-name="sacute" unicode="&#x15b;" horiz-adv-x="408" 
d="M184 -8q-20 0 -49.5 5.5t-59 21t-52.5 45.5l46 51q20 -24 40.5 -36.5t39.5 -16t35 -3.5q36 0 52 18.5t16 35.5q0 21 -13 33.5t-33.5 21t-42.5 16.5q-45 18 -68.5 45.5t-23.5 66.5q0 20 8 42.5t25 42.5t45 33t70 13q19 0 44.5 -3.5t53 -15t50.5 -35.5l-43 -55
q-20 24 -45 33.5t-49 9.5q-22 0 -36 -7.5t-20.5 -19.5t-6.5 -24q0 -19 13 -31t33 -20t40 -17q28 -11 50 -26.5t34 -38t10 -56.5q-2 -21 -12 -44t-29 -42.5t-49 -31t-73 -11.5zM407 628l-133 -134h-59l89 134h103z" />
    <glyph glyph-name="scircumflex" unicode="&#x15d;" horiz-adv-x="408" 
d="M184 -8q-20 0 -49.5 5.5t-59 21t-52.5 45.5l46 51q20 -24 40.5 -36.5t39.5 -16t35 -3.5q36 0 52 18.5t16 35.5q0 21 -13 33.5t-33.5 21t-42.5 16.5q-45 18 -68.5 45.5t-23.5 66.5q0 20 8 42.5t25 42.5t45 33t70 13q19 0 44.5 -3.5t53 -15t50.5 -35.5l-43 -55
q-20 24 -45 33.5t-49 9.5q-22 0 -36 -7.5t-20.5 -19.5t-6.5 -24q0 -19 13 -31t33 -20t40 -17q28 -11 50 -26.5t34 -38t10 -56.5q-2 -21 -12 -44t-29 -42.5t-49 -31t-73 -11.5zM328 525l-76 106l26 7l-104 -113h-85l183 183v0l141 -183h-85z" />
    <glyph glyph-name="scedilla" unicode="&#x15f;" horiz-adv-x="408" 
d="M184 -8q-20 0 -49.5 5.5t-59 21t-52.5 45.5l46 51q20 -24 40.5 -36.5t39.5 -16t35 -3.5q36 0 52 18.5t16 35.5q0 21 -13 33.5t-33.5 21t-42.5 16.5q-45 18 -68.5 45.5t-23.5 66.5q0 20 8 42.5t25 42.5t45 33t70 13q19 0 44.5 -3.5t53 -15t50.5 -35.5l-43 -55
q-20 24 -45 33.5t-49 9.5q-22 0 -36 -7.5t-20.5 -19.5t-6.5 -24q0 -19 13 -31t33 -20t40 -17q28 -11 50 -26.5t34 -38t10 -56.5q-2 -21 -12 -44t-29 -42.5t-49 -31t-73 -11.5zM62 -148q9 -12 25 -20.5t38 -10.5q26 -1 48 9.5t25 32.5q3 17 -9.5 32t-49.5 17q-16 1 -34 -2
t-32 -7l-11 47l71 54l71 -4l-77 -78l-19 25q12 3 28 5t31 2q53 -2 84 -26.5t26 -68.5q-4 -33 -26 -53t-54.5 -29t-68.5 -7q-37 3 -61.5 15.5t-38.5 28.5z" />
    <glyph glyph-name="scaron" unicode="&#x161;" horiz-adv-x="408" 
d="M184 -8q-20 0 -49.5 5.5t-59 21t-52.5 45.5l46 51q20 -24 40.5 -36.5t39.5 -16t35 -3.5q36 0 52 18.5t16 35.5q0 21 -13 33.5t-33.5 21t-42.5 16.5q-45 18 -68.5 45.5t-23.5 66.5q0 20 8 42.5t25 42.5t45 33t70 13q19 0 44.5 -3.5t53 -15t50.5 -35.5l-43 -55
q-20 24 -45 33.5t-49 9.5q-22 0 -36 -7.5t-20.5 -19.5t-6.5 -24q0 -19 13 -31t33 -20t40 -17q28 -11 50 -26.5t34 -38t10 -56.5q-2 -21 -12 -44t-29 -42.5t-49 -31t-73 -11.5zM198 694l76 -106l-25 -6l104 112h85l-183 -183h-1l-141 183h85z" />
    <glyph glyph-name="uni0219" unicode="&#x219;" horiz-adv-x="408" 
d="M184 -8q-20 0 -49.5 5.5t-59 21t-52.5 45.5l46 51q20 -24 40.5 -36.5t39.5 -16t35 -3.5q36 0 52 18.5t16 35.5q0 21 -13 33.5t-33.5 21t-42.5 16.5q-45 18 -68.5 45.5t-23.5 66.5q0 20 8 42.5t25 42.5t45 33t70 13q19 0 44.5 -3.5t53 -15t50.5 -35.5l-43 -55
q-20 24 -45 33.5t-49 9.5q-22 0 -36 -7.5t-20.5 -19.5t-6.5 -24q0 -19 13 -31t33 -20t40 -17q28 -11 50 -26.5t34 -38t10 -56.5q-2 -21 -12 -44t-29 -42.5t-49 -31t-73 -11.5zM122 -209l-47 33q25 20 36.5 57t7.5 75l82 -1q4 -27 -4 -58.5t-27 -60t-48 -45.5z" />
    <glyph glyph-name="t" unicode="t" horiz-adv-x="359" 
d="M166 596h93l-22 -184h114l-9 -73h-114l-41 -339h-93l41 339h-76l8 73h77z" />
    <glyph glyph-name="uni0163" unicode="&#x163;" horiz-adv-x="359" 
d="M166 596h93l-22 -184h114l-9 -73h-114l-41 -339h-93l41 339h-76l8 73h77zM51 -148q9 -12 25 -20.5t38 -10.5q26 -1 48 9.5t25 32.5q3 17 -9.5 32t-49.5 17q-16 1 -34 -2t-32 -7l-11 47l71 54l71 -4l-77 -78l-19 25q12 3 28 5t31 2q53 -2 84 -26.5t26 -68.5
q-4 -33 -26 -53t-54.5 -29t-68.5 -7q-37 3 -61.5 15.5t-38.5 28.5z" />
    <glyph glyph-name="tcaron" unicode="&#x165;" horiz-adv-x="359" 
d="M166 596h93l-22 -184h114l-9 -73h-114l-41 -339h-93l41 339h-76l8 73h77zM178 825l76 -106l-25 -6l104 112h85l-183 -183h-1l-141 183h85z" />
    <glyph glyph-name="uni021B" unicode="&#x21b;" horiz-adv-x="359" 
d="M166 596h93l-22 -184h114l-9 -73h-114l-41 -339h-93l41 339h-76l8 73h77zM111 -209l-47 33q25 20 36.5 57t7.5 75l82 -1q4 -27 -4 -58.5t-27 -60t-48 -45.5z" />
    <glyph glyph-name="u" unicode="u" 
d="M186 -16q-57 0 -90 33.5t-27 88.5l37 308h93l-34 -276q-2 -31 13.5 -52t52.5 -22q35 0 65.5 20.5t51.5 56t26 80.5l24 193h93l-51 -414h-84l5 99l4 -14q-16 -28 -43.5 -51t-62 -36.5t-73.5 -13.5z" />
    <glyph glyph-name="ugrave" unicode="&#xf9;" 
d="M186 -16q-57 0 -90 33.5t-27 88.5l37 308h93l-34 -276q-2 -31 13.5 -52t52.5 -22q35 0 65.5 20.5t51.5 56t26 80.5l24 193h93l-51 -414h-84l5 99l4 -14q-16 -28 -43.5 -51t-62 -36.5t-73.5 -13.5zM275 659l66 -134h-59l-110 134h103z" />
    <glyph glyph-name="uacute" unicode="&#xfa;" 
d="M186 -16q-57 0 -90 33.5t-27 88.5l37 308h93l-34 -276q-2 -31 13.5 -52t52.5 -22q35 0 65.5 20.5t51.5 56t26 80.5l24 193h93l-51 -414h-84l5 99l4 -14q-16 -28 -43.5 -51t-62 -36.5t-73.5 -13.5zM469 628l-133 -134h-59l89 134h103z" />
    <glyph glyph-name="ucircumflex" unicode="&#xfb;" 
d="M186 -16q-57 0 -90 33.5t-27 88.5l37 308h93l-34 -276q-2 -31 13.5 -52t52.5 -22q35 0 65.5 20.5t51.5 56t26 80.5l24 193h93l-51 -414h-84l5 99l4 -14q-16 -28 -43.5 -51t-62 -36.5t-73.5 -13.5zM390 525l-76 106l26 7l-104 -113h-85l183 183v0l141 -183h-85z" />
    <glyph glyph-name="udieresis" unicode="&#xfc;" 
d="M186 -16q-57 0 -90 33.5t-27 88.5l37 308h93l-34 -276q-2 -31 13.5 -52t52.5 -22q35 0 65.5 20.5t51.5 56t26 80.5l24 193h93l-51 -414h-84l5 99l4 -14q-16 -28 -43.5 -51t-62 -36.5t-73.5 -13.5zM174 573q2 23 20 37.5t38 13.5q19 -1 33.5 -17t11.5 -39
q-2 -24 -19.5 -37.5t-36.5 -12.5q-20 1 -35 16.5t-12 38.5v0zM360 573q3 23 20.5 37.5t37.5 13.5q19 -1 33.5 -17.5t12.5 -38.5q-3 -24 -21 -37.5t-36 -12.5q-20 1 -34.5 16t-12.5 39v0z" />
    <glyph glyph-name="utilde" unicode="&#x169;" 
d="M186 -16q-57 0 -90 33.5t-27 88.5l37 308h93l-34 -276q-2 -31 13.5 -52t52.5 -22q35 0 65.5 20.5t51.5 56t26 80.5l24 193h93l-51 -414h-84l5 99l4 -14q-16 -28 -43.5 -51t-62 -36.5t-73.5 -13.5zM388 490q-36 2 -58 20t-39 37q-12 13 -23.5 24t-28.5 12q-14 1 -26 -8.5
t-19.5 -28.5t-10.5 -45l-59 5q3 44 20 78.5t45 53.5t64 17q29 -1 48.5 -18.5t35.5 -36.5q14 -16 27 -28t30 -13q15 -1 25.5 9t16.5 30t9 46l58 -5q0 -47 -16.5 -81t-42.5 -51.5t-56 -16.5z" />
    <glyph glyph-name="umacron" unicode="&#x16b;" 
d="M186 -16q-57 0 -90 33.5t-27 88.5l37 308h93l-34 -276q-2 -31 13.5 -52t52.5 -22q35 0 65.5 20.5t51.5 56t26 80.5l24 193h93l-51 -414h-84l5 99l4 -14q-16 -28 -43.5 -51t-62 -36.5t-73.5 -13.5zM202 577h233l-6 -53h-234z" />
    <glyph glyph-name="ubreve" unicode="&#x16d;" 
d="M186 -16q-57 0 -90 33.5t-27 88.5l37 308h93l-34 -276q-2 -31 13.5 -52t52.5 -22q35 0 65.5 20.5t51.5 56t26 80.5l24 193h93l-51 -414h-84l5 99l4 -14q-16 -28 -43.5 -51t-62 -36.5t-73.5 -13.5zM309 507q-25 1 -49 11.5t-42.5 31.5t-29 55t-10.5 83h63q0 -42 11 -67.5
t28.5 -37t36.5 -13.5q26 0 45 14t32 41.5t20 62.5h64q-11 -62 -34.5 -103t-57.5 -60.5t-77 -17.5z" />
    <glyph glyph-name="uring" unicode="&#x16f;" horiz-adv-x="543" 
d="M256 528q0 25 13.5 45.5t35 33t45.5 12.5q31 0 52 -21.5t21 -52.5q0 -24 -13.5 -45t-34.5 -34t-46 -13q-31 0 -52 22t-21 53v0zM303 532q0 -13 9 -23t23 -10q17 0 29 12t12 28q0 15 -8.5 24t-23.5 9q-16 0 -28.5 -11.5t-12.5 -28.5v0zM186 -16q-57 0 -90 33.5t-27 88.5
l37 308h93l-34 -276q-2 -31 13.5 -52t52.5 -22q35 0 65.5 20.5t51.5 56t26 80.5l24 193h93l-51 -414h-84l5 99l4 -14q-16 -28 -43.5 -51t-62 -36.5t-73.5 -13.5z" />
    <glyph glyph-name="uhungarumlaut" unicode="&#x171;" 
d="M186 -16q-57 0 -90 33.5t-27 88.5l37 308h93l-34 -276q-2 -31 13.5 -52t52.5 -22q35 0 65.5 20.5t51.5 56t26 80.5l24 193h93l-51 -414h-84l5 99l4 -14q-16 -28 -43.5 -51t-62 -36.5t-73.5 -13.5zM363 659q-33 -33 -66.5 -67t-66.5 -67h-59q26 33 53 67t54 67h85z
M543 659q-33 -33 -66.5 -67t-66.5 -67h-60q27 33 54 67t54 67h85z" />
    <glyph glyph-name="uogonek" unicode="&#x173;" 
d="M378 -213q-45 2 -76.5 30.5t-31.5 72.5q0 36 24 70.5t75 56.5l66 -16l-82 -1l5 85q-16 -28 -42.5 -51t-60 -36.5t-72.5 -13.5q-56 0 -89 33.5t-28 88.5l38 308h93l-34 -276q-3 -31 13 -52t53 -22q35 0 65.5 20.5t51 56t25.5 80.5l25 193h93l-51 -414q-40 -21 -64 -44.5
t-25 -51.5q-2 -27 12.5 -39t32.5 -12q20 -1 38 11t34 33l30 -49q-21 -27 -54 -45t-64 -16z" />
    <glyph glyph-name="uhorn" unicode="&#x1b0;" horiz-adv-x="576" 
d="M186 -16q-57 0 -90 33.5t-27 88.5l37 308h93l-34 -276q-2 -31 13.5 -52t52.5 -22q35 0 65.5 20.5t51.5 56t26 80.5l24 193h93l-51 -414h-84l5 99l4 -14q-16 -28 -43.5 -51t-62 -36.5t-73.5 -13.5zM460 327q41 -3 66 17t37 69h69q-14 -61 -40 -93t-61 -42.5t-78 -7.5z" />
    <glyph glyph-name="uni0215" unicode="&#x215;" 
d="M186 -16q-57 0 -90 33.5t-27 88.5l37 308h93l-34 -276q-2 -31 13.5 -52t52.5 -22q35 0 65.5 20.5t51.5 56t26 80.5l24 193h93l-51 -414h-84l5 99l4 -14q-16 -28 -43.5 -51t-62 -36.5t-73.5 -13.5zM222 659l66 -134h-59l-110 134h103zM356 659l66 -134h-59l-110 134h103z
" />
    <glyph glyph-name="uni0217" unicode="&#x217;" 
d="M186 -16q-57 0 -90 33.5t-27 88.5l37 308h93l-34 -276q-2 -31 13.5 -52t52.5 -22q35 0 65.5 20.5t51.5 56t26 80.5l24 193h93l-51 -414h-84l5 99l4 -14q-16 -28 -43.5 -51t-62 -36.5t-73.5 -13.5zM332 673q25 -1 49 -11.5t42.5 -31.5t29 -55t10.5 -84h-63
q1 43 -10.5 68.5t-28.5 37.5t-37 12q-26 2 -45 -13t-31.5 -41.5t-20.5 -63.5h-64q11 63 34.5 104t58 60.5t76.5 17.5z" />
    <glyph glyph-name="uni1EE5" unicode="&#x1ee5;" 
d="M186 -16q-57 0 -90 33.5t-27 88.5l37 308h93l-34 -276q-2 -31 13.5 -52t52.5 -22q35 0 65.5 20.5t51.5 56t26 80.5l24 193h93l-51 -414h-84l5 99l4 -14q-16 -28 -43.5 -51t-62 -36.5t-73.5 -13.5zM186 -113q0 23 17 39t42 16q19 0 36.5 -12t16.5 -37q-1 -23 -18 -39
t-42 -16q-19 0 -36 12.5t-16 36.5z" />
    <glyph glyph-name="uni1EE7" unicode="&#x1ee7;" 
d="M186 -16q-57 0 -90 33.5t-27 88.5l37 308h93l-34 -276q-2 -31 13.5 -52t52.5 -22q35 0 65.5 20.5t51.5 56t26 80.5l24 193h93l-51 -414h-84l5 99l4 -14q-16 -28 -43.5 -51t-62 -36.5t-73.5 -13.5zM290 528q21 14 35.5 26.5t17.5 30.5q2 18 -5 29t-27 12q-15 0 -26 -7
t-22 -21l-32 24q19 29 44 42.5t52 12.5q37 0 55 -21.5t16 -52.5q-1 -26 -22 -52.5t-68 -49.5z" />
    <glyph glyph-name="uni1EE9" unicode="&#x1ee9;" horiz-adv-x="576" 
d="M186 -16q-57 0 -90 33.5t-27 88.5l37 308h93l-34 -276q-2 -31 13.5 -52t52.5 -22q35 0 65.5 20.5t51.5 56t26 80.5l24 193h93l-51 -414h-84l5 99l4 -14q-16 -28 -43.5 -51t-62 -36.5t-73.5 -13.5zM460 327q41 -3 66 17t37 69h69q-14 -61 -40 -93t-61 -42.5t-78 -7.5z
M469 628l-133 -134h-59l89 134h103z" />
    <glyph glyph-name="uni1EEB" unicode="&#x1eeb;" horiz-adv-x="576" 
d="M186 -16q-57 0 -90 33.5t-27 88.5l37 308h93l-34 -276q-2 -31 13.5 -52t52.5 -22q35 0 65.5 20.5t51.5 56t26 80.5l24 193h93l-51 -414h-84l5 99l4 -14q-16 -28 -43.5 -51t-62 -36.5t-73.5 -13.5zM460 327q41 -3 66 17t37 69h69q-14 -61 -40 -93t-61 -42.5t-78 -7.5z
M275 659l66 -134h-59l-110 134h103z" />
    <glyph glyph-name="uni1EED" unicode="&#x1eed;" horiz-adv-x="576" 
d="M186 -16q-57 0 -90 33.5t-27 88.5l37 308h93l-34 -276q-2 -31 13.5 -52t52.5 -22q35 0 65.5 20.5t51.5 56t26 80.5l24 193h93l-51 -414h-84l5 99l4 -14q-16 -28 -43.5 -51t-62 -36.5t-73.5 -13.5zM460 327q41 -3 66 17t37 69h69q-14 -61 -40 -93t-61 -42.5t-78 -7.5z
M290 528q21 14 35.5 26.5t17.5 30.5q2 18 -5 29t-27 12q-15 0 -26 -7t-22 -21l-32 24q19 29 44 42.5t52 12.5q37 0 55 -21.5t16 -52.5q-1 -26 -22 -52.5t-68 -49.5z" />
    <glyph glyph-name="uni1EEF" unicode="&#x1eef;" horiz-adv-x="576" 
d="M186 -16q-57 0 -90 33.5t-27 88.5l37 308h93l-34 -276q-2 -31 13.5 -52t52.5 -22q35 0 65.5 20.5t51.5 56t26 80.5l24 193h93l-51 -414h-84l5 99l4 -14q-16 -28 -43.5 -51t-62 -36.5t-73.5 -13.5zM460 327q41 -3 66 17t37 69h69q-14 -61 -40 -93t-61 -42.5t-78 -7.5z
M388 490q-36 2 -58 20t-39 37q-12 13 -23.5 24t-28.5 12q-14 1 -26 -8.5t-19.5 -28.5t-10.5 -45l-59 5q3 44 20 78.5t45 53.5t64 17q29 -1 48.5 -18.5t35.5 -36.5q14 -16 27 -28t30 -13q15 -1 25.5 9t16.5 30t9 46l58 -5q0 -47 -16.5 -81t-42.5 -51.5t-56 -16.5z" />
    <glyph glyph-name="uni1EF1" unicode="&#x1ef1;" horiz-adv-x="576" 
d="M186 -16q-57 0 -90 33.5t-27 88.5l37 308h93l-34 -276q-2 -31 13.5 -52t52.5 -22q35 0 65.5 20.5t51.5 56t26 80.5l24 193h93l-51 -414h-84l5 99l4 -14q-16 -28 -43.5 -51t-62 -36.5t-73.5 -13.5zM460 327q41 -3 66 17t37 69h69q-14 -61 -40 -93t-61 -42.5t-78 -7.5z
M186 -113q0 23 17 39t42 16q19 0 36.5 -12t16.5 -37q-1 -23 -18 -39t-42 -16q-19 0 -36 12.5t-16 36.5z" />
    <glyph glyph-name="v" unicode="v" horiz-adv-x="494" 
d="M220 -12l-178 426h110l115 -326l-56 2l183 324h104l-273 -426h-5z" />
    <glyph glyph-name="w" unicode="w" horiz-adv-x="675" 
d="M433 -15l-97 279l-152 -278h-6l-136 428h91l93 -285l-33 6l119 209l-23 70h80l88 -273l-19 -1l149 274h91l-239 -429h-6z" />
    <glyph glyph-name="wcircumflex" unicode="&#x175;" horiz-adv-x="675" 
d="M433 -15l-97 279l-152 -278h-6l-136 428h91l93 -285l-33 6l119 209l-23 70h80l88 -273l-19 -1l149 274h91l-239 -429h-6zM446 485l-76 106l26 7l-104 -113h-85l183 183v0l141 -183h-85z" />
    <glyph glyph-name="wgrave" unicode="&#x1e81;" horiz-adv-x="675" 
d="M433 -15l-97 279l-152 -278h-6l-136 428h91l93 -285l-33 6l119 209l-23 70h80l88 -273l-19 -1l149 274h91l-239 -429h-6zM331 619l66 -134h-59l-110 134h103z" />
    <glyph glyph-name="wacute" unicode="&#x1e83;" horiz-adv-x="675" 
d="M433 -15l-97 279l-152 -278h-6l-136 428h91l93 -285l-33 6l119 209l-23 70h80l88 -273l-19 -1l149 274h91l-239 -429h-6zM530 619l-133 -134h-59l89 134h103z" />
    <glyph glyph-name="wdieresis" unicode="&#x1e85;" horiz-adv-x="675" 
d="M433 -15l-97 279l-152 -278h-6l-136 428h91l93 -285l-33 6l119 209l-23 70h80l88 -273l-19 -1l149 274h91l-239 -429h-6zM230 533q2 23 20 37.5t38 13.5q19 -1 33.5 -17t11.5 -39q-2 -24 -19.5 -37.5t-36.5 -12.5q-20 1 -35 16.5t-12 38.5v0zM416 533q3 23 20.5 37.5
t37.5 13.5q19 -1 33.5 -17.5t12.5 -38.5q-3 -24 -21 -37.5t-36 -12.5q-20 1 -34.5 16t-12.5 39v0z" />
    <glyph glyph-name="x" unicode="x" horiz-adv-x="456" 
d="M427 0h-112l-263 414h114zM249 261l117 153h97l-187 -221zM228 154l-127 -154h-96l186 217z" />
    <glyph glyph-name="y" unicode="y" horiz-adv-x="494" 
d="M77 -199l348 613h88l-343 -613h-93zM205 -3l-148 417h105l121 -370z" />
    <glyph glyph-name="yacute" unicode="&#xfd;" horiz-adv-x="529" 
d="M77 -199l348 613h88l-343 -613h-93zM205 -3l-148 417h105l121 -370zM456 619l-133 -134h-59l89 134h103z" />
    <glyph glyph-name="ydieresis" unicode="&#xff;" horiz-adv-x="476" 
d="M77 -199l348 613h88l-343 -613h-93zM205 -3l-148 417h105l121 -370zM156 533q2 23 20 37.5t38 13.5q19 -1 33.5 -17t11.5 -39q-2 -24 -19.5 -37.5t-36.5 -12.5q-20 1 -35 16.5t-12 38.5v0zM342 533q3 23 20.5 37.5t37.5 13.5q19 -1 33.5 -17.5t12.5 -38.5
q-3 -24 -21 -37.5t-36 -12.5q-20 1 -34.5 16t-12.5 39v0z" />
    <glyph glyph-name="ycircumflex" unicode="&#x177;" horiz-adv-x="600" 
d="M77 -199l348 613h88l-343 -613h-93zM205 -3l-148 417h105l121 -370zM355 485l-76 106l26 7l-104 -113h-85l183 183v0l141 -183h-85z" />
    <glyph glyph-name="uni0233" unicode="&#x233;" horiz-adv-x="494" 
d="M77 -199l348 613h88l-343 -613h-93zM205 -3l-148 417h105l121 -370zM187 537h233l-6 -53h-234z" />
    <glyph glyph-name="ygrave" unicode="&#x1ef3;" horiz-adv-x="494" 
d="M77 -199l348 613h88l-343 -613h-93zM205 -3l-148 417h105l121 -370zM259 619l66 -134h-59l-110 134h103z" />
    <glyph glyph-name="uni1EF5" unicode="&#x1ef5;" horiz-adv-x="494" 
d="M77 -199l348 613h88l-343 -613h-93zM205 -3l-148 417h105l121 -370zM312 -104q0 23 17 39t42 16q19 0 36.5 -12t16.5 -37q-1 -23 -18 -39t-42 -16q-19 0 -36 12.5t-16 36.5z" />
    <glyph glyph-name="uni1EF7" unicode="&#x1ef7;" horiz-adv-x="494" 
d="M77 -199l348 613h88l-343 -613h-93zM205 -3l-148 417h105l121 -370zM275 488q21 14 35.5 26.5t17.5 30.5q2 18 -5 29t-27 12q-15 0 -26 -7t-22 -21l-32 24q19 29 44 42.5t52 12.5q37 0 55 -21.5t16 -52.5q-1 -26 -22 -52.5t-68 -49.5z" />
    <glyph glyph-name="uni1EF9" unicode="&#x1ef9;" horiz-adv-x="600" 
d="M77 -199l348 613h88l-343 -613h-93zM205 -3l-148 417h105l121 -370zM352 450q-37 2 -58.5 20t-39.5 37q-11 13 -23 24t-29 12q-14 1 -26 -9t-19.5 -28.5t-10.5 -44.5l-58 5q3 44 20 78t44.5 53.5t63.5 16.5q30 -1 49.5 -18t35.5 -37q13 -15 26.5 -27.5t29.5 -13.5
q15 -1 25.5 9.5t17 30t8.5 45.5l59 -4q-1 -47 -17 -81t-42 -51.5t-56 -16.5z" />
    <glyph glyph-name="z" unicode="z" horiz-adv-x="463" 
d="M137 337q-34 0 -53.5 19.5t-15.5 57.5l5 39h71l-1 -13q-2 -16 5 -21t25 -5h265l-292 -357l-17 20h264l-9 -77h-382l297 365l12 -28h-174z" />
    <glyph glyph-name="zacute" unicode="&#x17a;" horiz-adv-x="482" 
d="M137 337q-34 0 -53.5 19.5t-15.5 57.5l5 39h71l-1 -13q-2 -16 5 -21t25 -5h265l-292 -357l-17 20h264l-9 -77h-382l297 365l12 -28h-174zM419 619l-133 -134h-59l89 134h103z" />
    <glyph glyph-name="zdotaccent" unicode="&#x17c;" horiz-adv-x="482" 
d="M137 337q-34 0 -53.5 19.5t-15.5 57.5l5 39h71l-1 -13q-2 -16 5 -21t25 -5h265l-292 -357l-17 20h264l-9 -77h-382l297 365l12 -28h-174zM240 568q0 23 17 39t42 16q19 0 36.5 -12t16.5 -37q-1 -23 -18 -39t-42 -16q-19 0 -36 12.5t-16 36.5z" />
    <glyph glyph-name="zcaron" unicode="&#x17e;" horiz-adv-x="482" 
d="M137 337q-34 0 -53.5 19.5t-15.5 57.5l5 39h71l-1 -13q-2 -16 5 -21t25 -5h265l-292 -357l-17 20h264l-9 -77h-382l297 365l12 -28h-174zM243 668l76 -106l-25 -6l104 112h85l-183 -183h-1l-141 183h85z" />
    <glyph glyph-name="germandbls" unicode="&#xdf;" horiz-adv-x="604" 
d="M338 -6q-33 0 -66.5 11t-53.5 31l41 58q18 -15 40.5 -22t36.5 -7q29 0 50.5 14t37 36t24 47.5t10.5 48.5q4 40 -8.5 71t-38 49t-60.5 19l-5 1l9 81q26 -1 43 6.5t28 20.5t15.5 27.5t4.5 26.5q0 33 -19 54t-62 23q-40 1 -67 -19.5t-43 -58t-25 -89.5l-70 -423h-93l56 343
h-65l15 77h65l7 50q10 66 41 109.5t80.5 65.5t111.5 21q54 -1 90 -20t54.5 -51t18.5 -73q0 -24 -7.5 -48.5t-27 -45.5t-54.5 -35q32 -15 55.5 -40.5t35 -62t8.5 -85.5q-2 -38 -16 -76.5t-40 -69.5t-64.5 -48.5t-92.5 -16.5z" />
    <glyph glyph-name="ae" unicode="&#xe6;" horiz-adv-x="806" 
d="M538 -10q-27 1 -58 9t-60 25t-51 44t-32.5 65.5t-4.5 89.5q7 61 43 108t90 74t117 25q32 -1 63.5 -11t59 -32.5t46 -59t24.5 -89.5l-381 -80l-4 55l307 67l-21 -13q-7 29 -23 48t-37.5 29.5t-47.5 11.5q-37 2 -67.5 -15t-50.5 -47.5t-26 -71.5q-5 -39 5 -67t29.5 -46.5
t43.5 -28t47 -10.5q26 -1 51.5 7t48.5 23l34 -71q-32 -19 -70.5 -29.5t-74.5 -9.5zM198 -10q-42 0 -79.5 13.5t-61 41t-23.5 67.5q0 32 17.5 63.5t56.5 51.5t104 19q26 -1 48.5 -5.5t42 -13t36.5 -20.5t32 -29l-23 -55q-18 19 -38 32t-41 19t-43 6q-50 2 -70 -20.5
t-19 -46.5q1 -21 13.5 -34.5t33 -19t44.5 -5.5q27 2 55 13t46 30l11 88l39 -28l-13 -103q-21 -23 -48.5 -37.5t-58.5 -20.5t-61 -6zM324 214l6 43q4 30 -3.5 49t-22 29t-31 13.5t-31.5 4.5q-37 1 -69.5 -15t-59.5 -42l-40 62q36 31 83 52t108 19q21 -1 44.5 -6t45.5 -15.5
t39 -27.5t25.5 -42.5t4.5 -59.5l-3 -21z" />
    <glyph glyph-name="aeacute" unicode="&#x1fd;" horiz-adv-x="806" 
d="M538 -10q-27 1 -58 9t-60 25t-51 44t-32.5 65.5t-4.5 89.5q7 61 43 108t90 74t117 25q32 -1 63.5 -11t59 -32.5t46 -59t24.5 -89.5l-381 -80l-4 55l307 67l-21 -13q-7 29 -23 48t-37.5 29.5t-47.5 11.5q-37 2 -67.5 -15t-50.5 -47.5t-26 -71.5q-5 -39 5 -67t29.5 -46.5
t43.5 -28t47 -10.5q26 -1 51.5 7t48.5 23l34 -71q-32 -19 -70.5 -29.5t-74.5 -9.5zM198 -10q-42 0 -79.5 13.5t-61 41t-23.5 67.5q0 32 17.5 63.5t56.5 51.5t104 19q26 -1 48.5 -5.5t42 -13t36.5 -20.5t32 -29l-23 -55q-18 19 -38 32t-41 19t-43 6q-50 2 -70 -20.5
t-19 -46.5q1 -21 13.5 -34.5t33 -19t44.5 -5.5q27 2 55 13t46 30l11 88l39 -28l-13 -103q-21 -23 -48.5 -37.5t-58.5 -20.5t-61 -6zM324 214l6 43q4 30 -3.5 49t-22 29t-31 13.5t-31.5 4.5q-37 1 -69.5 -15t-59.5 -42l-40 62q36 31 83 52t108 19q21 -1 44.5 -6t45.5 -15.5
t39 -27.5t25.5 -42.5t4.5 -59.5l-3 -21zM593 619l-133 -134h-59l89 134h103z" />
    <glyph glyph-name="eth" unicode="&#xf0;" horiz-adv-x="545" 
d="M252 -8q-23 0 -51 6.5t-56.5 21.5t-51.5 41t-36 65t-11 94q2 39 16.5 77t42.5 68.5t68 48.5t93 17q30 0 60.5 -11.5t56 -35t41 -58.5t16.5 -83l-32 2q7 74 -5 138.5t-39.5 122t-67.5 108.5t-90 97l75 57q56 -48 98.5 -105.5t71.5 -121t43.5 -128.5t13.5 -126
q-1 -54 -16 -107t-46.5 -96t-79.5 -68t-114 -24zM261 68q35 0 61.5 13t44 34.5t27 46.5t11.5 48q3 44 -10.5 72t-35 43.5t-44 21.5t-36.5 6q-37 1 -63.5 -13t-44 -36.5t-26 -49t-9.5 -50.5q0 -50 20.5 -80t49.5 -43t55 -13zM480 664l-253 -133l-24 64l254 132z" />
    <glyph glyph-name="oslash" unicode="&#xf8;" horiz-adv-x="517" 
d="M506 404q-13 -14 -39 -40.5t-61 -61t-73.5 -73.5t-77.5 -77.5t-73 -73.5t-60.5 -61.5l-39.5 -39.5l-34 35q13 14 39 40t60 60.5t72.5 73.5t77 77.5l73 73t60.5 61t39 39.5zM263 -10q-39 0 -78 13t-71 38.5t-51 63.5t-19 88q0 39 13.5 80.5t41.5 76.5t73.5 57t110.5 22
q57 0 106.5 -24t81 -69.5t31.5 -109.5q0 -26 -7.5 -58.5t-24 -63.5t-44 -57t-68 -41.5t-95.5 -15.5zM266 67q51 0 82 24.5t45 60.5t14 70q0 35 -11.5 59.5t-31 40.5t-42 23.5t-42.5 7.5q-50 0 -81.5 -24t-46 -60.5t-14.5 -70.5q0 -45 19.5 -74t49.5 -43t59 -14z" />
    <glyph glyph-name="oslashacute" unicode="&#x1ff;" horiz-adv-x="517" 
d="M506 404q-13 -14 -39 -40.5t-61 -61t-73.5 -73.5t-77.5 -77.5t-73 -73.5t-60.5 -61.5l-39.5 -39.5l-34 35q13 14 39 40t60 60.5t72.5 73.5t77 77.5l73 73t60.5 61t39 39.5zM263 -10q-39 0 -78 13t-71 38.5t-51 63.5t-19 88q0 39 13.5 80.5t41.5 76.5t73.5 57t110.5 22
q57 0 106.5 -24t81 -69.5t31.5 -109.5q0 -26 -7.5 -58.5t-24 -63.5t-44 -57t-68 -41.5t-95.5 -15.5zM266 67q51 0 82 24.5t45 60.5t14 70q0 35 -11.5 59.5t-31 40.5t-42 23.5t-42.5 7.5q-50 0 -81.5 -24t-46 -60.5t-14.5 -70.5q0 -45 19.5 -74t49.5 -43t59 -14zM450 627
l-133 -134h-59l89 134h103z" />
    <glyph glyph-name="thorn" unicode="&#xfe;" horiz-adv-x="567" 
d="M229 774l-55 -450l-2 24q14 18 37.5 35.5t55.5 29t70 11.5q57 0 99.5 -23t66 -66t23.5 -101q0 -79 -33 -133.5t-89 -82.5t-124 -28q-53 0 -90.5 22t-50.5 50l6 8l-34 -269h-78l119 973h79zM438 225q0 35 -14.5 63t-41 44t-64.5 16q-44 0 -80.5 -21t-58 -56t-21.5 -78
q0 -35 16 -64t44.5 -45.5t65.5 -16.5q45 0 80 19.5t54.5 55t19.5 83.5z" />
    <glyph glyph-name="dcroat" unicode="&#x111;" horiz-adv-x="562" 
d="M325 674h299l-9 -67h-298zM243 -8q-59 1 -105 29.5t-71 76t-22 103.5q2 44 19.5 86t49.5 74.5t76.5 51.5t99.5 18q57 -2 100.5 -28.5t63.5 -63.5l-19 -24l56 459h93l-96 -774h-93l12 99l8 -24q-34 -37 -77.5 -61t-94.5 -22zM271 70q32 -1 61 11.5t51 35.5t34 56l9 78
q-4 30 -21 53.5t-44.5 37.5t-62.5 15q-43 1 -78 -16t-56 -50t-24 -78q-2 -40 14 -72t46.5 -50.5t70.5 -20.5z" />
    <glyph glyph-name="hbar" unicode="&#x127;" horiz-adv-x="553" 
d="M184 335q27 42 74 68.5t107 26.5q59 0 92 -34.5t28 -89.5l-38 -306h-93l33 276q2 32 -13.5 52.5t-52.5 21.5q-37 0 -69 -20.5t-52.5 -55.5t-26.5 -80l-24 -194h-93l94 774h92l-56 -459zM46 653h258l-12 -93h-258z" />
    <glyph glyph-name="dotlessi" unicode="&#x131;" horiz-adv-x="254" 
d="M106 414h93l-51 -414h-93z" />
    <glyph glyph-name="ij" unicode="&#x133;" horiz-adv-x="521" 
d="M106 414h93l-51 -414h-93zM113 553q0 23 17 39t42 16q19 0 36.5 -12t16.5 -37q-1 -23 -18 -39t-42 -16q-19 0 -36 12.5t-16 36.5zM230 -147q38 24 60.5 58.5t29.5 83.5l52 419h93l-51 -414q-9 -72 -42.5 -124t-95.5 -81zM376 553q0 23 17 39t42 16q19 0 36.5 -12
t16.5 -37q-1 -23 -18 -39t-42 -16q-19 0 -36 12.5t-16 36.5z" />
    <glyph glyph-name="kgreenlandic" unicode="&#x138;" horiz-adv-x="507" 
d="M156 126l-4 82l221 206h114zM148 0h-93l51 414h93zM269 237l168 -237h-109l-134 196z" />
    <glyph glyph-name="ldot" unicode="&#x140;" horiz-adv-x="535" 
d="M150 774h94l-95 -774h-93zM355 278q0 25 19.5 42t40.5 17q17 0 31 -14t14 -34q0 -17 -9 -30t-22.5 -20.5t-27.5 -7.5q-18 0 -32 13t-14 34v0z" />
    <glyph glyph-name="lslash" unicode="&#x142;" horiz-adv-x="264" 
d="M284 389l-9 -81l-243 -63l10 81zM158 774h94l-95 -774h-93z" />
    <glyph glyph-name="napostrophe" unicode="&#x149;" horiz-adv-x="600" 
d="M119 711q-8 -63 -17 -125.5t-17 -126.5h-81l31 252h84zM190 414l-1 -94l-7 13q27 43 73.5 70t107.5 27q60 0 93.5 -34.5t28.5 -89.5l-38 -306h-93l33 274q4 34 -13.5 55t-56.5 21q-37 0 -68 -20.5t-51 -55.5t-25 -80l-24 -194h-93l50 414h84z" />
    <glyph glyph-name="eng" unicode="&#x14b;" horiz-adv-x="553" 
d="M447 2q-8 -67 -38 -119t-84 -82l-48 57q32 23 51.5 59t25.5 84l33 273q4 34 -13.5 55t-56.5 21q-37 0 -68 -20.5t-51 -55.5t-25 -80l-24 -194h-93l50 414h84l-1 -96l-2 15q26 43 71 70t105 27t93.5 -34.5t28.5 -89.5z" />
    <glyph glyph-name="oe" unicode="&#x153;" horiz-adv-x="789" 
d="M258 -11q-32 0 -69 11t-70.5 34t-54 61.5t-20.5 93.5q0 42 15.5 83.5t45 75.5t72 54t97.5 20t94.5 -16t66.5 -41l-55 -57q-16 14 -41.5 25.5t-58.5 11.5q-37 0 -69.5 -19.5t-52.5 -53.5t-20 -77q0 -36 17 -65.5t47.5 -47t71.5 -17.5q23 0 44 6.5t38 18.5l41 -62
q-29 -18 -65.5 -28.5t-73.5 -10.5zM540 70q25 0 48 8.5t44 21.5l34 -71q-30 -18 -65.5 -28t-69.5 -10q-65 0 -114.5 24.5t-77 71.5t-27.5 113q0 41 15.5 81t45 73.5t74.5 54t104 20.5q37 0 70.5 -9.5t61.5 -31.5t47.5 -59t27.5 -91l-354 -100l-15 57l302 87l-33 -15
q-11 39 -40 64t-70 25q-44 0 -76 -20.5t-49 -53.5t-17 -71q0 -48 19 -79t50 -46.5t65 -15.5z" />
    <glyph glyph-name="tbar" unicode="&#x167;" horiz-adv-x="359" 
d="M166 596h93l-22 -184h114l-9 -73h-114l-41 -339h-93l41 339h-76l8 73h77zM41 243h258l-12 -93h-258z" />
    <glyph glyph-name="florin" unicode="&#x192;" horiz-adv-x="334" 
d="M136 518q11 86 49.5 141.5t98 81.5t131.5 25l-11 -93q-51 0 -87.5 -19.5t-57.5 -55.5t-27 -86l-12 -101l131 -5l-11 -89l-131 5l-29 -234q-10 -86 -45.5 -141t-93.5 -81t-140 -25l11 93q51 0 87 19.5t57.5 55.5t27.5 87l28 231l-70 3l11 90l71 -3z" />
    <glyph glyph-name="uni01C6" unicode="&#x1c6;" horiz-adv-x="1077" 
d="M243 -8q-59 1 -105 29.5t-71 76t-22 103.5q2 44 19.5 86t49.5 74.5t76.5 51.5t99.5 18q57 -2 100.5 -28.5t63.5 -63.5l-19 -24l56 459h93l-96 -774h-93l12 99l8 -24q-34 -37 -77.5 -61t-94.5 -22zM271 70q32 -1 61 11.5t51 35.5t34 56l9 78q-4 30 -21 53.5t-44.5 37.5
t-62.5 15q-43 1 -78 -16t-56 -50t-24 -78q-2 -40 14 -72t46.5 -50.5t70.5 -20.5zM732 337q-34 0 -53.5 19.5t-15.5 57.5l5 39h71l-1 -13q-2 -16 5 -21t25 -5h265l-292 -357l-17 20h264l-9 -77h-382l297 365l12 -28h-174zM838 668l76 -106l-25 -6l104 112h85l-183 -183h-1
l-141 183h85z" />
    <glyph glyph-name="uni01C9" unicode="&#x1c9;" horiz-adv-x="522" 
d="M150 774h94l-95 -774h-93zM231 -147q38 24 60.5 58.5t29.5 83.5l52 419h93l-51 -414q-9 -72 -42.5 -124t-95.5 -81zM377 553q0 23 17 39t42 16q19 0 36.5 -12t16.5 -37q-1 -23 -18 -39t-42 -16q-19 0 -36 12.5t-16 36.5z" />
    <glyph glyph-name="uni01CC" unicode="&#x1cc;" horiz-adv-x="820" 
d="M190 414l-1 -94l-7 13q27 43 73.5 70t107.5 27q60 0 93.5 -34.5t28.5 -89.5l-38 -306h-93l33 274q4 34 -13.5 55t-56.5 21q-37 0 -68 -20.5t-51 -55.5t-25 -80l-24 -194h-93l50 414h84zM529 -147q38 24 60.5 58.5t29.5 83.5l52 419h93l-51 -414q-9 -72 -42.5 -124
t-95.5 -81zM675 553q0 23 17 39t42 16q19 0 36.5 -12t16.5 -37q-1 -23 -18 -39t-42 -16q-19 0 -36 12.5t-16 36.5z" />
    <glyph glyph-name="uni01F3" unicode="&#x1f3;" horiz-adv-x="1058" 
d="M243 -8q-59 1 -105 29.5t-71 76t-22 103.5q2 44 19.5 86t49.5 74.5t76.5 51.5t99.5 18q57 -2 100.5 -28.5t63.5 -63.5l-19 -24l56 459h93l-96 -774h-93l12 99l8 -24q-34 -37 -77.5 -61t-94.5 -22zM271 70q32 -1 61 11.5t51 35.5t34 56l9 78q-4 30 -21 53.5t-44.5 37.5
t-62.5 15q-43 1 -78 -16t-56 -50t-24 -78q-2 -40 14 -72t46.5 -50.5t70.5 -20.5zM732 337q-34 0 -53.5 19.5t-15.5 57.5l5 39h71l-1 -13q-2 -16 5 -21t25 -5h265l-292 -357l-17 20h264l-9 -77h-382l297 365l12 -28h-174z" />
    <glyph glyph-name="uni0237" unicode="&#x237;" horiz-adv-x="266" 
d="M-24 -147q38 24 60.5 58.5t29.5 83.5l52 419h93l-51 -414q-9 -72 -42.5 -124t-95.5 -81z" />
    <glyph glyph-name="uni0259" unicode="&#x259;" horiz-adv-x="521" 
d="M249 344q-24 0 -47 -8t-45 -22l-34 71q31 18 66 28t69 10q66 0 115 -24.5t76.5 -71.5t27.5 -114q0 -40 -15.5 -80.5t-45 -74t-74.5 -53.5t-104 -20q-37 0 -70.5 9.5t-61.5 31.5t-47 59t-28 91l355 99l14 -56l-302 -87l33 14q11 -39 40 -63.5t70 -24.5q45 0 76.5 20.5
t49 53.5t17.5 71q0 47 -19.5 79t-50.5 47t-65 15z" />
    <glyph glyph-name="uni0272" unicode="&#x272;" horiz-adv-x="550" 
d="M25 -199l-48 57q31 24 51 59.5t26 83.5l5 44h94l-6 -48q-8 -67 -41 -116t-81 -80zM186 414l-4 -101l-2 16q26 46 74 73.5t107 27.5t92 -34.5t28 -89.5l-37 -306h-94l33 273q3 34 -13 55.5t-55 21.5q-36 0 -67 -20t-52 -55t-27 -81l-24 -194h-93l50 414h84z" />
    <glyph glyph-name="f_f" unicode="&#xfb00;" horiz-adv-x="760" 
d="M88 0l40 331h-71l11 83h70l21 175q11 90 58 138t126 48q21 0 45.5 -6t42.5 -20l-48 -67q-8 9 -18 12.5t-22 3.5q-36 0 -59.5 -25t-30.5 -85l-22 -174h132l-11 -83h-131l-40 -331h-93zM468 0l40 331h-71l11 83h70l21 175q11 90 58 138t126 48q21 0 45.5 -6t42.5 -20
l-48 -67q-8 9 -18 12.5t-22 3.5q-36 0 -59.5 -25t-30.5 -85l-22 -174h132l-11 -83h-131l-40 -331h-93z" />
    <glyph glyph-name="uni03BC" unicode="&#x3bc;" 
d="M186 -16q-57 0 -90 33.5t-27 88.5l37 308h93l-34 -276q-2 -31 13.5 -52t52.5 -22q35 0 65.5 20.5t51.5 56t26 80.5l24 193h93l-51 -414h-84l5 99l4 -14q-16 -28 -43.5 -51t-62 -36.5t-73.5 -13.5zM101 368h84l-74 -603h-85z" />
    <glyph glyph-name="pi" unicode="&#x3c0;" horiz-adv-x="378" 
d="M49 350h364l-10 -81h-54l-33 -269h-83l33 269h-88l-33 -269h-84l33 269h-56z" />
    <glyph glyph-name="uni01C5" unicode="&#x1c5;" horiz-adv-x="1235" 
d="M77 0l89 723h211q101 0 168 -30.5t105 -81t52 -114t9 -130.5q-6 -86 -39 -154.5t-87 -115.5t-122 -72t-144 -25h-242zM185 93h132q60 0 112.5 18t92 53t63.5 87.5t28 121.5q5 67 -12 115.5t-51 80t-78.5 46.5t-95.5 15h-126zM889 337q-34 0 -53.5 19.5t-15.5 57.5l5 39
h71l-1 -13q-2 -16 5 -21t25 -5h265l-292 -357l-17 20h264l-9 -77h-382l297 365l12 -28h-174zM996 668l76 -106l-25 -6l104 112h85l-183 -183h-1l-141 183h85z" />
    <glyph glyph-name="uni01C8" unicode="&#x1c8;" horiz-adv-x="874" 
d="M166 723h96l-77 -630h368l-12 -93h-464zM584 -147q38 24 60.5 58.5t29.5 83.5l52 419h93l-51 -414q-9 -72 -42.5 -124t-95.5 -81zM729 553q0 23 17 39t42 16q19 0 36.5 -12t16.5 -37q-1 -23 -18 -39t-42 -16q-19 0 -36 12.5t-16 36.5z" />
    <glyph glyph-name="uni01CB" unicode="&#x1cb;" horiz-adv-x="1105" 
d="M703 -23h-3l-489 569l26 -9l-64 -537h-96l91 745h4l483 -571l-21 7l64 542h96zM814 -147q38 24 60.5 58.5t29.5 83.5l52 419h93l-51 -414q-9 -72 -42.5 -124t-95.5 -81zM960 553q0 23 17 39t42 16q19 0 36.5 -12t16.5 -37q-1 -23 -18 -39t-42 -16q-19 0 -36 12.5
t-16 36.5z" />
    <glyph glyph-name="uni02BC" unicode="&#x2bc;" horiz-adv-x="203" 
d="M218 711q-8 -63 -17 -125.5t-17 -126.5h-81l31 252h84z" />
    <glyph glyph-name="circumflex" unicode="&#x2c6;" horiz-adv-x="466" 
d="M355 485l-76 106l26 7l-104 -113h-85l183 183v0l141 -183h-85z" />
    <glyph glyph-name="caron" unicode="&#x2c7;" horiz-adv-x="464" 
d="M230 668l76 -106l-25 -6l104 112h85l-183 -183h-1l-141 183h85z" />
    <glyph glyph-name="uni02C9" unicode="&#x2c9;" horiz-adv-x="404" 
d="M140 722h233l-6 -53h-234z" />
    <glyph glyph-name="ordfeminine" unicode="&#xaa;" horiz-adv-x="400" 
d="M191 422q-37 0 -65 17t-41.5 50.5t-7.5 81.5t28 82t54.5 52.5t66.5 18.5q40 0 63.5 -16.5t33.5 -40.5l10 47h66l-34 -286h-72l9 70l3 -14q-6 -10 -21.5 -25t-39 -26t-53.5 -11zM220 480q21 0 39 9t30.5 25t18.5 37l7 49q-4 28 -23.5 47t-49.5 19q-34 0 -60.5 -25
t-32.5 -67q-3 -26 5 -47.5t25.5 -34t40.5 -12.5z" />
    <glyph glyph-name="ordmasculine" unicode="&#xba;" horiz-adv-x="378" 
d="M79 580q5 44 29 77t62 50.5t83 14.5t77.5 -25t48 -57.5t9.5 -78.5q-5 -43 -28.5 -76t-61 -50.5t-83.5 -15.5q-44 3 -77 24t-49 56.5t-10 80.5zM151 575q-3 -24 5.5 -45t25.5 -33.5t40 -14.5q24 -1 44 9.5t33.5 30t16.5 43.5q3 25 -5.5 46t-25.5 34t-41 14q-24 2 -44 -9
t-33 -31t-16 -44z" />
    <glyph glyph-name="gravecomb" unicode="&#x300;" horiz-adv-x="0" 
d="M145 619l66 -134h-59l-110 134h103z" />
    <glyph glyph-name="acutecomb" unicode="&#x301;" horiz-adv-x="0" 
d="M340 619l-133 -134h-59l89 134h103z" />
    <glyph glyph-name="uni0302" unicode="&#x302;" horiz-adv-x="0" 
d="M355 485l-76 106l26 7l-104 -113h-85l183 183v0l141 -183h-85z" />
    <glyph glyph-name="uni03020303" horiz-adv-x="0" 
d="M377 702q-33 2 -51.5 17.5t-34.5 32.5q-10 12 -21 22t-26 11q-12 1 -22.5 -8t-17.5 -25.5t-10 -40.5l-50 5q2 38 17 68.5t40 47t55 14.5q27 -1 44 -16.5t31 -32.5q12 -14 23.5 -25t27.5 -11q19 -2 30.5 18.5t15.5 56.5l50 -4q-1 -41 -15 -71t-37 -45.5t-49 -13.5z
M355 485l-76 106l26 7l-104 -113h-85l183 183v0l141 -183h-85z" />
    <glyph glyph-name="tildecomb" unicode="&#x303;" horiz-adv-x="0" 
d="M408 450q-36 2 -58 20t-39 37q-12 13 -23.5 24t-28.5 12q-14 1 -26 -8.5t-19.5 -28.5t-10.5 -45l-59 5q3 44 20 78.5t45 53.5t64 17q29 -1 48.5 -18.5t35.5 -36.5q14 -16 27 -28t30 -13q15 -1 25.5 9t16.5 30t9 46l58 -5q0 -47 -16.5 -81t-42.5 -51.5t-56 -16.5z" />
    <glyph glyph-name="uni0304" unicode="&#x304;" horiz-adv-x="0" 
d="M152 537h233l-6 -53h-234z" />
    <glyph glyph-name="uni0306" unicode="&#x306;" horiz-adv-x="0" 
d="M303 482q-25 1 -49 11.5t-42.5 31.5t-29 55t-10.5 83h63q0 -42 11 -67.5t28.5 -37t36.5 -13.5q26 0 45 14t32 41.5t20 62.5h64q-11 -62 -34.5 -103t-57.5 -60.5t-77 -17.5z" />
    <glyph glyph-name="uni03060303" horiz-adv-x="0" 
d="M404 702q-32 2 -51 17.5t-34 33.5q-11 12 -21.5 22t-25.5 10q-12 1 -23 -7.5t-18 -25.5t-10 -41l-50 5q3 38 18 68.5t39.5 47t54.5 14.5q27 -1 44 -16t31 -32q12 -14 23.5 -25.5t27.5 -11.5q20 -2 31 19t15 57l50 -4q-1 -42 -15 -72t-37 -45t-49 -14zM303 482
q-25 1 -49 11.5t-42.5 31.5t-29 55t-10.5 83h63q0 -42 11 -67.5t28.5 -37t36.5 -13.5q26 0 45 14t32 41.5t20 62.5h63q-11 -62 -34.5 -103t-57 -60.5t-76.5 -17.5z" />
    <glyph glyph-name="uni0307" unicode="&#x307;" horiz-adv-x="0" 
d="M130 563q0 23 17 39t42 16q19 0 36.5 -12t16.5 -37q-1 -23 -18 -39t-42 -16q-19 0 -36 12.5t-16 36.5z" />
    <glyph glyph-name="uni0308" unicode="&#x308;" horiz-adv-x="0" 
d="M85 533q2 23 20 37.5t38 13.5q19 -1 33.5 -17t11.5 -39q-2 -24 -19.5 -37.5t-36.5 -12.5q-20 1 -35 16.5t-12 38.5v0zM271 533q3 23 20.5 37.5t37.5 13.5q19 -1 33.5 -17.5t12.5 -38.5q-3 -24 -21 -37.5t-36 -12.5q-20 1 -34.5 16t-12.5 39v0z" />
    <glyph glyph-name="hookabovecomb" unicode="&#x309;" horiz-adv-x="0" 
d="M146 583q21 14 35.5 26.5t17.5 30.5q2 18 -5 29t-27 12q-15 0 -26 -7t-22 -21l-32 24q19 29 44 42.5t52 12.5q37 0 55 -21.5t16 -52.5q-1 -26 -22 -52.5t-68 -49.5z" />
    <glyph glyph-name="uni030A" unicode="&#x30a;" horiz-adv-x="0" 
d="M142 533q4 42 33 65t70 21q40 -2 64 -27t20 -64q-3 -42 -32.5 -65.5t-69.5 -21.5t-64 27.5t-21 64.5zM193 529q-1 -19 9.5 -31t29.5 -13t32 11t15 32q1 21 -9.5 33t-28.5 12q-19 1 -32.5 -10.5t-15.5 -33.5z" />
    <glyph glyph-name="uni030B" unicode="&#x30b;" horiz-adv-x="0" 
d="M322 619q-33 -33 -66.5 -67t-66.5 -67h-59q26 33 53 67t54 67h85zM502 619q-33 -33 -66.5 -67t-66.5 -67h-60q27 33 54 67t54 67h85z" />
    <glyph glyph-name="uni030C" unicode="&#x30c;" horiz-adv-x="0" 
d="M230 668l76 -106l-25 -6l104 112h85l-183 -183h-1l-141 183h85z" />
    <glyph glyph-name="uni030F" unicode="&#x30f;" horiz-adv-x="0" 
d="M145 619l66 -134h-59l-110 134h103zM279 619l66 -134h-59l-110 134h103z" />
    <glyph glyph-name="uni0311" unicode="&#x311;" horiz-adv-x="0" 
d="M402 676q25 -1 49 -11.5t42.5 -31.5t29 -55t10.5 -84h-63q1 43 -10.5 68.5t-28.5 37.5t-37 12q-26 2 -45 -13t-31.5 -41.5t-20.5 -63.5h-64q11 63 34.5 104t58 60.5t76.5 17.5z" />
    <glyph glyph-name="uni0312" unicode="&#x312;" horiz-adv-x="0" 
d="M158 717l47 -34q-25 -20 -36.5 -57t-7.5 -75l-83 1q-3 28 5 59.5t27 60t48 45.5z" />
    <glyph glyph-name="uni031B" unicode="&#x31b;" horiz-adv-x="0" 
d="M129 728q41 -3 66 17t37 69h69q-14 -61 -40 -93t-61 -42.5t-78 -7.5z" />
    <glyph glyph-name="dotbelowcomb" unicode="&#x323;" horiz-adv-x="0" 
d="M4 -100q0 23 17 39t42 16q19 0 36.5 -12t16.5 -37q-1 -23 -18 -39t-42 -16q-19 0 -36 12.5t-16 36.5z" />
    <glyph glyph-name="uni0324" unicode="&#x324;" horiz-adv-x="0" 
d="M-28 -108q2 23 20 37.5t38 13.5q19 -1 33.5 -17t11.5 -39q-2 -24 -19.5 -37.5t-36.5 -12.5q-20 1 -35 16.5t-12 38.5v0zM158 -108q3 23 20.5 37.5t37.5 13.5q19 -1 33.5 -17.5t12.5 -38.5q-3 -24 -21 -37.5t-36 -12.5q-20 1 -34.5 16t-12.5 39v0z" />
    <glyph glyph-name="uni0326" unicode="&#x326;" horiz-adv-x="0" 
d="M67 -190l-47 33q25 20 36.5 57t7.5 75l82 -1q4 -27 -4 -58.5t-27 -60t-48 -45.5z" />
    <glyph glyph-name="uni0327" unicode="&#x327;" horiz-adv-x="0" 
d="M108 -148q9 -12 25 -20.5t38 -10.5q26 -1 48 9.5t25 32.5q3 17 -9.5 32t-49.5 17q-16 1 -34 -2t-32 -7l-11 47l71 54l71 -4l-77 -78l-19 25q12 3 28 5t31 2q53 -2 84 -26.5t26 -68.5q-4 -33 -26 -53t-54.5 -29t-68.5 -7q-37 3 -61.5 15.5t-38.5 28.5z" />
    <glyph glyph-name="uni0328" unicode="&#x328;" horiz-adv-x="0" 
d="M166 -215q-45 3 -76 31t-31 73q0 21 10.5 45t32.5 45t56 33l101 -16q-54 -21 -86.5 -43t-34.5 -51q-2 -26 12 -38t33 -13q20 -1 37.5 11t33.5 34l30 -49q-20 -28 -53 -45.5t-65 -16.5z" />
    <glyph glyph-name="uni032E" unicode="&#x32e;" horiz-adv-x="0" 
d="M184 -212q-25 1 -49 11.5t-42.5 31.5t-29 55t-10.5 83h63q0 -42 11 -67.5t28.5 -37t36.5 -13.5q26 0 45 14t32 41.5t20 62.5h64q-11 -62 -34.5 -103t-57.5 -60.5t-77 -17.5z" />
    <glyph glyph-name="uni0331" unicode="&#x331;" horiz-adv-x="0" 
d="M48 -73h233l-6 -53h-234z" />
    <glyph glyph-name="uni0335" unicode="&#x335;" horiz-adv-x="0" 
d="M60 301h258l-12 -93h-258z" />
    <glyph glyph-name="zero" unicode="0" horiz-adv-x="642" 
d="M303 -1q-55 1 -101 21.5t-79.5 58.5t-50.5 93t-14 126q2 25 8.5 61.5t19.5 78t36 82t57 73.5t82 52t111 18q55 -2 102 -23.5t81 -62.5t50 -99t8 -132q-5 -71 -27.5 -134t-61 -112t-94 -76t-127.5 -25zM315 91q44 -2 79 20t60 60t40 86.5t18 99.5q5 75 -15.5 122t-57.5 69
t-81 23q-45 2 -79.5 -20t-60 -60t-40 -86.5t-18.5 -99.5q-4 -74 16.5 -121.5t57 -69.5t81.5 -23z" />
    <glyph glyph-name="one" unicode="1" horiz-adv-x="349" 
d="M125 658h173l-82 -658h-97l69 565h-75z" />
    <glyph glyph-name="two" unicode="2" horiz-adv-x="567" 
d="M45 0q103 92 170 158t107 113t59 80t25 58t6 47q0 41 -16 66.5t-43 38t-61 12.5q-37 0 -61.5 -13t-38.5 -33t-19.5 -41.5t-5.5 -38.5q0 -27 6.5 -49t20.5 -39l-66 -54q-13 16 -26 39t-21.5 51t-8.5 57q0 32 11 68.5t37.5 69.5t71 54.5t110.5 21.5q63 0 110.5 -22
t74.5 -64.5t26 -103.5q0 -41 -11 -80.5t-39 -84t-78 -101t-129 -131.5l-44 14h293l-12 -93h-448z" />
    <glyph glyph-name="three" unicode="3" horiz-adv-x="503" 
d="M461 658l-200 -281l-56 28q26 8 47 10t37 1q47 -2 86 -24.5t63 -62t24 -94.5q0 -39 -12.5 -81t-40.5 -77.5t-73 -58.5t-110 -24q-31 -1 -66 7t-67 26.5t-56 48.5l57 74q24 -33 60 -48.5t71 -15.5q34 1 60 13t43 32.5t25.5 46.5t8.5 55q0 54 -38 85t-98 32q-23 1 -46 -4
t-35 -11l-4 4l175 239l29 -13h-241l12 93h345z" />
    <glyph glyph-name="four" unicode="4" horiz-adv-x="515" 
d="M3 159v1l463 506h1l-53 -433h86l-9 -74h-86l-19 -159h-97l19 159h-305zM355 453l-209 -236l-11 16h182l29 232z" />
    <glyph glyph-name="five" unicode="5" horiz-adv-x="522" 
d="M235 -7q-22 0 -55 7t-67 25t-59 47l59 74q17 -23 39 -36t43.5 -18t36.5 -5q49 0 79 19t44 49.5t14 64.5q0 35 -12.5 59.5t-33.5 40t-46 23t-48 8.5q-29 1 -61 -8t-63 -30h-2l65 345h308l-10 -93h-237l-29 -168l-5 22q13 5 33.5 8t41.5 3q34 -1 69 -13.5t64.5 -37.5
t47.5 -63t18 -91q0 -36 -12 -76t-39 -75.5t-72 -58t-111 -22.5z" />
    <glyph glyph-name="six" unicode="6" horiz-adv-x="561" 
d="M275 -7q-64 0 -114 28t-78.5 79.5t-28.5 121.5q0 48 16 100.5t55.5 108.5t109 113.5t174.5 114.5l55 -75q-85 -34 -146 -81t-97 -97.5t-48 -96.5l-24 9q32 49 76.5 75t108.5 26q30 0 62 -11.5t59.5 -35.5t44.5 -60.5t17 -86.5q0 -39 -15.5 -80t-46 -75.5t-76 -55.5
t-104.5 -21zM276 79q41 0 69 15t43.5 37t22.5 46t7 43q0 36 -17 62.5t-46.5 42t-65.5 15.5q-43 0 -70 -15t-42.5 -37t-21.5 -45t-6 -39q0 -35 16.5 -63t45 -45t65.5 -17z" />
    <glyph glyph-name="seven" unicode="7" horiz-adv-x="489" 
d="M517 658l-342 -658h-115l307 579l36 -14h-329l12 93h431z" />
    <glyph glyph-name="eight" unicode="8" horiz-adv-x="549" 
d="M42 197q0 53 21.5 93.5t56 69t74.5 42.5q-25 19 -40.5 45.5t-13.5 62.5q1 27 12 54.5t32.5 50.5t53.5 37t77 14q50 0 88.5 -19t60.5 -50.5t22 -71.5q0 -49 -23 -80.5t-62 -54.5q27 -14 51.5 -38t40.5 -57t16 -75q0 -26 -9.5 -56.5t-28.5 -60.5t-48.5 -55t-69 -40
t-89.5 -15q-66 0 -116 28t-78 75t-28 101zM141 202q0 -34 15 -63.5t43 -47t67 -17.5q41 0 74.5 20t53 53t19.5 73q0 35 -16.5 64t-45.5 46.5t-65 17.5q-45 0 -77.5 -21.5t-50 -54.5t-17.5 -70zM232 505q-2 -32 21 -54t56 -22q30 0 48 13t26.5 32t8.5 35q0 34 -21.5 55
t-52.5 21q-36 0 -59 -22t-27 -58z" />
    <glyph glyph-name="nine" unicode="9" horiz-adv-x="554" 
d="M254 218q-36 1 -69.5 15.5t-60.5 40.5t-42.5 63.5t-13.5 83.5q2 39 18.5 78.5t47.5 73t76.5 53t103.5 18.5q66 -1 116 -30t78 -78t25 -112q-3 -64 -29 -121t-74 -109t-117 -100.5t-160 -96.5l-56 75q89 37 155 79.5t107 87t51 85.5l28 -9q-35 -48 -77.5 -73t-106.5 -24z
M290 298q62 -2 99.5 28t45.5 99q3 36 -12 65.5t-43 48t-67 19.5q-45 1 -76.5 -19t-48.5 -51t-20 -64q-2 -36 13.5 -64.5t44 -44.5t64.5 -17z" />
    <glyph glyph-name="uni00B2" unicode="&#xb2;" horiz-adv-x="403" 
d="M121 636q14 17 36 30.5t48.5 21t52.5 7.5q61 -1 94 -34t26 -92q-5 -40 -30 -75.5t-61 -66t-72.5 -57.5t-65.5 -49l20 63h200l-9 -78h-272l7 51q27 18 57 39.5t57.5 45.5t46.5 50t22 52q4 39 -10.5 55.5t-43.5 16.5q-24 0 -46.5 -12t-35.5 -29z" />
    <glyph glyph-name="uni00B3" unicode="&#xb3;" horiz-adv-x="390" 
d="M176 303q-40 0 -65.5 15.5t-38.5 31.5l34 54q5 -7 14.5 -17t23 -17t29.5 -5q32 3 52.5 21.5t24.5 49.5q4 33 -15 50.5t-48 17.5q-14 0 -26.5 -3t-21.5 -7l-4 9l105 133l19 -16h-141l9 68h221l-127 -179l-59 16q13 10 31 17t40 7q24 1 49 -14t41 -41.5t11 -59.5
q-4 -37 -25.5 -66.5t-55 -47t-77.5 -17.5z" />
    <glyph glyph-name="uni00B9" unicode="&#xb9;" horiz-adv-x="271" 
d="M102 669h147l-45 -372h-87l35 288h-59z" />
    <glyph glyph-name="onequarter" unicode="&#xbc;" horiz-adv-x="870" 
d="M676 764q-95 -191 -188.5 -382t-187.5 -382h-85l188 382l188 382h85zM102 669h147l-45 -372h-87l35 288h-59zM817 159l-7 -53h-298l2 24l230 256h57l-47 -380h-81l35 283l20 1l-145 -164l-9 33h243z" />
    <glyph glyph-name="onehalf" unicode="&#xbd;" horiz-adv-x="881" 
d="M118 669h147l-45 -372h-87l35 288h-59zM644 764q-94 -191 -187.5 -382t-188.5 -382h-84l188 382l188 382h84zM533 329q14 17 36 30.5t48.5 21t52.5 7.5q61 -1 94 -34t26 -92q-5 -40 -30 -75.5t-61 -66t-72.5 -57.5t-65.5 -49l20 63h200l-9 -78h-272l7 51q27 18 57 39.5
t57.5 45.5t46.5 50t22 52q4 39 -10.5 55.5t-43.5 16.5q-24 0 -46.5 -12t-35.5 -29z" />
    <glyph glyph-name="threequarters" unicode="&#xbe;" horiz-adv-x="883" 
d="M171 303q-40 0 -65.5 15.5t-38.5 31.5l34 54q5 -7 14.5 -17t23 -17t29.5 -5q32 3 52.5 21.5t24.5 49.5q4 33 -15 50.5t-48 17.5q-14 0 -26.5 -3t-21.5 -7l-4 9l105 133l19 -16h-141l9 68h221l-127 -179l-59 16q13 10 31 17t40 7q24 1 49 -14t41 -41.5t11 -59.5
q-4 -37 -25.5 -66.5t-55 -47t-77.5 -17.5zM695 764q-94 -191 -187.5 -382t-188.5 -382h-84l188 382l188 382h84zM829 153l-7 -54h-297l2 25l229 256h57l-47 -380h-81l35 282l20 2l-145 -164l-9 33h243z" />
    <glyph glyph-name="uni2074" unicode="&#x2074;" horiz-adv-x="386" 
d="M364 450l-7 -54h-297l2 25l229 256h57l-47 -380h-81l35 282l20 2l-145 -164l-9 33h243z" />
    <glyph glyph-name="underscore" unicode="_" horiz-adv-x="607" 
d="M111 81h405l-10 -81h-405z" />
    <glyph glyph-name="hyphen" unicode="-" horiz-adv-x="304" 
d="M85 256h187l-10 -82h-186z" />
    <glyph glyph-name="endash" unicode="&#x2013;" horiz-adv-x="515" 
d="M132 252h305l-10 -82h-305z" />
    <glyph glyph-name="emdash" unicode="&#x2014;" horiz-adv-x="709" 
d="M131 252h508l-10 -82h-508z" />
    <glyph glyph-name="parenleft" unicode="(" horiz-adv-x="376" 
d="M95 273q6 80 27.5 152.5t53 134t69 110.5t75.5 84l67 -45q-46 -45 -88 -110.5t-71 -148t-37 -181.5q-6 -87 4.5 -161.5t34.5 -134.5t55 -103l-78 -37q-34 44 -63 111t-43 150.5t-6 178.5v0z" />
    <glyph glyph-name="bracketleft" unicode="[" horiz-adv-x="351" 
d="M170 755h194l-10 -82h-110l-91 -742h110l-10 -82h-194z" />
    <glyph glyph-name="braceleft" unicode="{" horiz-adv-x="343" 
d="M317 673q-20 0 -33 -7.5t-20 -29.5t-13 -66l-15 -131q-5 -41 -19.5 -68.5t-31.5 -43.5t-32 -26q12 -8 25 -24.5t21 -43.5t3 -67l-16 -131q-5 -43 -3.5 -65.5t12.5 -30.5t31 -8h45l-10 -82h-64q-24 0 -45 1.5t-36.5 11t-22 35t-0.5 72.5l19 154q4 27 1 58.5t-17.5 54
t-47.5 23.5v0l10 82q33 2 53.5 24.5t30.5 54t13 58.5l20 158q6 47 18.5 72t29.5 35t39 11t46 1h64l-10 -82h-45z" />
    <glyph glyph-name="quotesinglbase" unicode="&#x201a;" horiz-adv-x="148" 
d="M54 -54q-10 7 -19.5 13t-18.5 12q23 20 36 50t11 65q13 2 26.5 4t26.5 3q3 -41 -14 -80t-48 -67v0z" />
    <glyph glyph-name="quotedblbase" unicode="&#x201e;" horiz-adv-x="345" 
d="M54 -54q-10 7 -19.5 13t-18.5 12q23 20 36 50t11 65q13 2 26.5 4t26.5 3q3 -41 -14 -80t-48 -67v0zM159 -54q-9 7 -19 13l-20 12q24 20 37.5 50t10.5 65q13 2 27 4t27 3q3 -41 -14 -80t-49 -67v0z" />
    <glyph glyph-name="parenright" unicode=")" horiz-adv-x="376" 
d="M303 316q-6 -80 -27.5 -152.5t-53 -134t-69 -110.5t-75.5 -84l-68 45q47 45 89 110.5t71 148.5t36 182q7 86 -3.5 161t-34.5 135t-55 103l78 36q35 -44 63.5 -111t42.5 -150.5t6 -178.5v0z" />
    <glyph glyph-name="bracketright" unicode="]" horiz-adv-x="371" 
d="M137 755h195l-111 -906h-195l10 82h111l90 742h-110z" />
    <glyph glyph-name="braceright" unicode="}" horiz-adv-x="355" 
d="M84 -69q21 0 33 8t19.5 30.5t12.5 65.5l16 131q5 42 19.5 69t32.5 43t31 23q-12 10 -25.5 26t-21 43.5t-3.5 68.5l16 131q6 44 4.5 66t-12 29.5t-31.5 7.5h-45l10 82h64q24 0 45 -1t36.5 -11t22 -35t0.5 -72l-19 -158q-3 -20 -2 -43.5t7 -44.5t20 -34.5t38 -14.5v0
l-10 -82q-24 0 -41.5 -14t-29 -34.5t-17.5 -44t-9 -44.5l-19 -153q-6 -47 -18 -72t-30 -35t-39.5 -11.5t-45.5 -1.5h-64l10 82h45z" />
    <glyph glyph-name="guillemotleft" unicode="&#xab;" horiz-adv-x="608" 
d="M148 242q6 5 21 19.5t35 34t42 40.5t42 41t35 34t21 19l-11 -95q-8 -7 -20 -19.5t-25.5 -27t-25.5 -27t-20 -19.5q6 -7 15 -19.5t18.5 -27.5t18.5 -27.5t15 -19.5l-12 -95zM321 242q6 5 21 19.5t35 34t42 40.5t42 41t35 34t21 19l-11 -95q-8 -6 -20 -19t-25.5 -27.5
t-25.5 -27t-20 -19.5q6 -7 15 -19.5t19 -27.5t19 -27.5t14 -19.5l-11 -95z" />
    <glyph glyph-name="quoteleft" unicode="&#x2018;" horiz-adv-x="166" 
d="M190 597q-10 -6 -21 -12t-23 -12q-24 28 -31.5 66.5t5.5 80.5q12 -1 25.5 -3t25.5 -4q-11 -35 -5 -65.5t24 -50.5v0z" />
    <glyph glyph-name="quotedblleft" unicode="&#x201c;" horiz-adv-x="251" 
d="M190 597q-10 -6 -21.5 -12t-22.5 -12q-25 28 -32.5 66.5t5.5 80.5q13 -1 26.5 -3t25.5 -4q-11 -35 -5 -65.5t24 -50.5v0zM295 597q-10 -6 -21.5 -12t-22.5 -12q-25 28 -32.5 66.5t5.5 80.5q13 -1 26.5 -3t25.5 -4q-11 -35 -5 -65.5t24 -50.5v0z" />
    <glyph glyph-name="guilsinglleft" unicode="&#x2039;" horiz-adv-x="396" 
d="M148 242q6 5 21 19.5t35 34t42 40.5t42 41t35 34t21 19l-11 -95q-8 -7 -20 -19.5t-25.5 -27t-25.5 -27t-20 -19.5q6 -7 15 -19.5t18.5 -27.5t18.5 -27.5t15 -19.5l-12 -95z" />
    <glyph glyph-name="guillemotright" unicode="&#xbb;" horiz-adv-x="608" 
d="M435 242q-6 5 -21 19.5t-35 34t-41.5 40.5t-41.5 41t-35 34t-22 19l12 -95q8 -7 20 -19.5t25.5 -27t25.5 -27t19 -19.5q-5 -7 -14 -19.5t-19 -27.5t-19 -27.5t-14 -19.5l11 -95zM262 242q-6 5 -21 19.5t-35 34t-42 40.5t-42 41t-35 34t-21 19l11 -95q8 -6 20 -19
t26 -27.5t26 -27t19 -19.5q-5 -7 -14 -19.5t-19 -27.5t-19 -27.5t-15 -19.5l11 -95z" />
    <glyph glyph-name="quoteright" unicode="&#x2019;" horiz-adv-x="166" 
d="M147 573q-9 6 -18.5 12t-19.5 12q24 20 37 50.5t11 65.5q12 2 26 4t27 3q3 -42 -14 -80.5t-49 -66.5v0z" />
    <glyph glyph-name="quotedblright" unicode="&#x201d;" horiz-adv-x="251" 
d="M122 573q-8 6 -17.5 12t-19.5 12q24 20 37 50.5t10 65.5q13 2 27 4t26 3q4 -42 -13 -80.5t-50 -66.5v0zM228 573q-9 6 -18.5 12t-19.5 12q24 20 37 50.5t11 65.5q12 2 26 4t27 3q3 -42 -14 -80.5t-49 -66.5v0z" />
    <glyph glyph-name="guilsinglright" unicode="&#x203a;" horiz-adv-x="397" 
d="M262 242q-6 5 -21 19.5t-35 34t-42 40.5t-42 41t-35 34t-21 19l11 -95q8 -7 20 -19.5t25.5 -27t25.5 -27t20 -19.5q-6 -7 -15 -19.5t-18.5 -27.5t-18.5 -27.5t-15 -19.5l11 -95z" />
    <glyph glyph-name="exclam" unicode="!" horiz-adv-x="201" 
d="M130 746h84l-71 -572h-83zM72 -2q-23 5 -33 20.5t-5 35.5q6 19 24 29.5t41 6.5q21 -4 31 -21t4 -36q-6 -21 -23 -29.5t-39 -5.5z" />
    <glyph glyph-name="quotedbl" unicode="&#x22;" horiz-adv-x="339" 
d="M236 729q-8 -63 -17 -125.5t-17 -126.5h-80l31 252h83zM371 729q-8 -63 -17 -125.5t-17 -126.5h-80l31 252h83z" />
    <glyph glyph-name="numbersign" unicode="#" horiz-adv-x="578" 
d="M339 651q-12 -49 -24 -97t-24 -97h102q12 49 24 97t24 97h85q-13 -49 -25 -97t-24 -97h103q-4 -20 -8.5 -40t-9.5 -41h-104q-6 -25 -12 -51.5t-13 -52.5h104q-5 -20 -10.5 -40.5t-9.5 -41.5h-104q-11 -47 -22.5 -94.5t-23.5 -95.5h-84q11 48 22.5 95.5t23.5 94.5h-102
q-11 -47 -23 -94.5t-23 -95.5h-85q12 48 23.5 95.5t22.5 94.5h-93q5 21 10 41.5t10 40.5h93q7 26 13 52.5t12 51.5h-92q5 21 9 41t9 40h93q13 49 24.5 97t24.5 97h84zM272 376q-7 -25 -12.5 -51.5t-12.5 -52.5h102q6 26 12 52.5t12 51.5h-101z" />
    <glyph glyph-name="percent" unicode="%" horiz-adv-x="814" 
d="M219 267q-27 1 -51 11t-42 30t-27.5 51t-7.5 73q4 49 22.5 89.5t53 64.5t83.5 22q25 -1 48.5 -11t41.5 -30t28 -50.5t7 -72.5q-3 -49 -21.5 -89.5t-52 -64.5t-82.5 -23zM225 333q23 0 37.5 16.5t22 42.5t9.5 55q1 29 -3 47t-12.5 28t-18 14t-18.5 5q-23 0 -38 -15
t-22 -40.5t-9 -56.5q-2 -36 6 -57t21 -29.5t25 -9.5zM592 -16q-26 2 -50 11.5t-41.5 29.5t-27 51t-6.5 72q3 49 22 90t53 65t84 22q26 -1 50 -11.5t41.5 -30.5t27 -50.5t6.5 -72.5q-3 -47 -22 -88t-53 -65t-84 -23zM600 50q24 0 38.5 17t21.5 43.5t9 54.5q2 38 -6 57.5
t-20 27.5t-25 8q-23 1 -38 -14.5t-22.5 -40.5t-9.5 -57q-1 -36 7 -57t20.5 -29.5t24.5 -9.5zM719 609l-492 -610l-92 1l490 609h94z" />
    <glyph glyph-name="ampersand" unicode="&#x26;" horiz-adv-x="712" 
d="M626 0h-27.5h-38h-33.5h-14l-287 463q-9 14 -18.5 34.5t-15 44.5t-3.5 48q3 44 27 82t67 61.5t104 23.5q59 0 103 -23t70 -54l-57 -65q-28 28 -55 44.5t-56 16.5q-50 0 -76 -28.5t-28 -65.5q-1 -13 3.5 -28t11 -28t10.5 -20zM317 346q-29 2 -57.5 -7.5t-52 -28.5
t-38.5 -45t-17 -57q-2 -38 16 -67.5t51 -46.5t73 -19q36 -1 65.5 9t51.5 28t35 40l55 -58q-32 -47 -91 -77t-138 -27q-68 3 -119 32t-78 78t-22 109q4 49 29 88.5t64 68t86 44t94 13.5zM575 424h89l-156 -305l-64 44z" />
    <glyph glyph-name="quotesingle" unicode="'" horiz-adv-x="164" 
d="M216 729q-8 -63 -17 -125.5t-17 -126.5h-81l31 252h84z" />
    <glyph glyph-name="asterisk" unicode="*" horiz-adv-x="335" 
d="M204 525q-21 -11 -42.5 -22.5t-42.5 -22.5q-6 13 -11.5 26t-11.5 25q22 11 43 22.5t42 22.5q-17 12 -35.5 24t-37.5 24q8 12 16 23.5t16 23.5q19 -11 38.5 -23t37.5 -24l12 96h59l-6 -48t-7 -48q22 12 44.5 23.5t44.5 22.5q5 -12 10.5 -23.5t11.5 -23.5q-23 -12 -45 -24
l-44 -24v0q19 -12 37.5 -23.5t37.5 -23.5q-9 -12 -17.5 -25t-17.5 -26l-38 24l-38 24q-3 -23 -5.5 -45.5t-6.5 -45.5h-55z" />
    <glyph glyph-name="comma" unicode="," horiz-adv-x="203" 
d="M39 -201l-47 33q25 20 36.5 57t7.5 75l82 -1q4 -27 -4 -58.5t-27 -60t-48 -45.5z" />
    <glyph glyph-name="period" unicode="." horiz-adv-x="165" 
d="M40 47q0 25 19.5 42t40.5 17q17 0 31 -14t14 -34q0 -17 -9 -30t-22.5 -20.5t-27.5 -7.5q-18 0 -32 13t-14 34v0z" />
    <glyph glyph-name="slash" unicode="/" horiz-adv-x="384" 
d="M476 745q-95 -191 -188.5 -382t-187.5 -382h-85q94 191 187.5 382t188.5 382h85z" />
    <glyph glyph-name="colon" unicode=":" horiz-adv-x="177" 
d="M39 47q0 25 19.5 42t41.5 17q17 0 30.5 -14t13.5 -34q0 -17 -9 -30t-22 -20.5t-27 -7.5q-18 0 -32.5 13t-14.5 34v0zM73 319q0 25 19.5 42t40.5 17q17 0 31 -13.5t14 -34.5q0 -17 -9 -30t-22.5 -20.5t-26.5 -7.5q-19 0 -33 13t-14 34v0z" />
    <glyph glyph-name="semicolon" unicode=";" horiz-adv-x="203" 
d="M103 300q0 17 9 30.5t22.5 21t26.5 7.5q18 0 32 -13.5t14 -34.5q0 -26 -19 -42t-40 -16q-18 0 -31.5 13t-13.5 34v0zM162 87q-29 -52 -57 -103.5t-56 -104.5h-76q27 53 52.5 104.5t51.5 103.5h85z" />
    <glyph glyph-name="question" unicode="?" horiz-adv-x="447" 
d="M157 264q4 32 17 53t31.5 36t42 28.5t48.5 31.5q44 32 66 68t22 76q0 30 -12 53t-34.5 36t-52.5 13q-38 0 -64.5 -11t-45 -33t-32.5 -55v0q-17 6 -35 13t-35 14q10 22 26.5 48.5t42.5 50.5t63.5 39.5t89.5 15.5t91 -24t61.5 -64t22.5 -89q0 -63 -32.5 -110t-89.5 -85
q-20 -14 -43.5 -29t-42 -37t-22.5 -58l-10 -79h-85zM166 1q-18 0 -32.5 13t-14.5 33q0 25 19.5 42t40.5 17q17 0 31 -14t14 -34q0 -25 -18.5 -41t-39.5 -16v0z" />
    <glyph glyph-name="at" unicode="@" horiz-adv-x="1017" 
d="M434 -219q-82 0 -153.5 24t-125 71.5t-83.5 118.5t-30 166q0 61 19 127.5t59.5 130t105.5 114.5t155.5 81.5t210.5 30.5q91 0 163 -27t122 -75.5t76.5 -112.5t26.5 -138q0 -60 -18.5 -114.5t-51 -96t-77 -66t-98.5 -24.5q-41 0 -69.5 19.5t-40.5 54.5t-4 80l16 -43
q-16 -26 -46.5 -52t-68.5 -43t-78 -17q-55 0 -98 23.5t-67 66.5t-24 102q0 69 31 125.5t84.5 90t122.5 33.5q44 0 74 -12t50 -32t30 -45l18 72h88l-38 -270q-2 -18 0.5 -33.5t13 -24.5t28.5 -9q25 0 49.5 16.5t43.5 46t30.5 68.5t11.5 84q0 77 -36.5 140t-106 101t-171.5 38
q-106 0 -183 -29.5t-129 -77t-82.5 -102.5t-43.5 -107t-13 -91q0 -79 24 -137.5t67 -96.5t102 -57t128 -19q59 0 115.5 18.5t106.5 49.5l38 -54q-38 -29 -85 -48.5t-95.5 -29t-93.5 -9.5zM479 67q33 0 61.5 13t50 36.5t32.5 56.5l12 81q-4 30 -21.5 52.5t-44.5 35t-61 12.5
q-42 0 -77.5 -22t-56 -58.5t-20.5 -79.5q0 -36 16 -65t44 -45.5t65 -16.5z" />
    <glyph glyph-name="backslash" unicode="\" horiz-adv-x="389" 
d="M186 745l94 -382t93 -382h-94l-94 382l-94 382h95z" />
    <glyph glyph-name="exclamdown" unicode="&#xa1;" horiz-adv-x="201" 
d="M96 -199h-84l71 572h83zM154 549q23 -5 33.5 -20.5t4.5 -35.5q-6 -19 -24 -29.5t-40 -6.5q-22 5 -31.5 21.5t-4.5 35.5q6 21 23 29.5t39 5.5z" />
    <glyph glyph-name="section" unicode="&#xa7;" horiz-adv-x="572" 
d="M362 131l-30 38q43 -7 77.5 -26.5t52.5 -52.5t12 -80q-7 -54 -40.5 -96t-86.5 -65t-117 -19q-44 3 -84.5 15t-73.5 31t-57 42l57 77q25 -23 51.5 -40t54.5 -27t57 -11q34 -2 63.5 7t49.5 29t23 50q4 30 -13 49.5t-46.5 33t-63.5 23.5q-32 11 -64 25.5t-57.5 35.5t-39 50
t-8.5 69q7 52 37 85t72.5 47t86.5 9l-12 -33q-48 18 -77.5 44t-41.5 58t-8 69q6 43 33 81.5t76.5 61.5t119.5 19q54 -4 102 -24t82 -50l-50 -70q-32 28 -66 42.5t-68 17.5q-40 2 -67.5 -7.5t-42 -26.5t-17.5 -37q-3 -29 13.5 -48.5t47 -33.5t68.5 -26q31 -11 62.5 -25
t56.5 -34t38 -50t8 -72q-7 -58 -51.5 -101.5t-118.5 -53.5zM436 275q5 29 -13 50t-47 35.5t-60 22.5q-59 5 -96.5 -18t-43.5 -59q-5 -32 11 -54t46.5 -37.5t68.5 -28.5q27 0 56.5 10.5t51.5 30t26 48.5z" />
    <glyph glyph-name="paragraph" unicode="&#xb6;" horiz-adv-x="554" 
d="M256 428q-43 0 -75.5 19.5t-51.5 53.5t-19 76q0 50 26 91.5t68.5 66t92.5 24.5h249l-94 -759h-83l84 678h-82l-84 -678h-84z" />
    <glyph glyph-name="periodcentered" unicode="&#xb7;" horiz-adv-x="213" 
d="M74 280q0 25 19.5 42t40.5 17q17 0 31 -14t14 -34q0 -17 -9 -30t-22.5 -20.5t-27.5 -7.5q-18 0 -32 13t-14 34v0z" />
    <glyph glyph-name="questiondown" unicode="&#xbf;" horiz-adv-x="431" 
d="M314 275q-4 -32 -16.5 -53t-31.5 -36t-42 -28.5t-48 -31.5q-44 -32 -66 -68t-22 -76q0 -30 12 -53t34.5 -36t52.5 -13q38 0 64.5 11t45 33.5t32.5 54.5v0q17 -6 35 -12.5t35 -14.5q-10 -22 -27 -48.5t-43 -50.5t-63 -39.5t-89 -15.5q-51 0 -90.5 24t-62 64.5t-22.5 88.5
q0 64 32.5 110.5t89.5 84.5q20 15 44 29.5t42 36.5t22 58l10 79h84zM306 538q18 0 32 -12.5t14 -33.5q0 -25 -19 -42t-40 -17q-17 0 -31 14t-14 34q0 26 19 41.5t39 15.5v0z" />
    <glyph glyph-name="dagger" unicode="&#x2020;" horiz-adv-x="300" 
d="M90 466h234l-11 -82h-233zM183 611h84l-74 -602h-84z" />
    <glyph glyph-name="daggerdbl" unicode="&#x2021;" horiz-adv-x="300" 
d="M36 300h301l-9 -82h-301zM90 466h233l-10 -82h-233zM182 611h85l-74 -602h-84z" />
    <glyph glyph-name="bullet" unicode="&#x2022;" horiz-adv-x="484" 
d="M151 290q0 39 20 72t53 52t72 19q33 0 58.5 -15.5t40 -42t14.5 -58.5q0 -39 -20 -71.5t-53 -51t-72 -18.5q-33 0 -58.5 15.5t-40 41t-14.5 57.5v0z" />
    <glyph glyph-name="ellipsis" unicode="&#x2026;" horiz-adv-x="496" 
d="M40 47q0 25 19.5 42t40.5 17q17 0 31 -14t14 -34q0 -17 -9 -30t-22.5 -20.5t-27.5 -7.5q-18 0 -32 13t-14 34v0zM205 47q0 25 19.5 42t40.5 17q17 0 31 -14t14 -34q0 -17 -9 -30t-22.5 -20.5t-26.5 -7.5q-18 0 -32.5 13t-14.5 34v0zM371 47q0 25 19 42t41 17q17 0 31 -14
t14 -34q0 -17 -9 -30t-22.5 -20.5t-27.5 -7.5q-18 0 -32 13t-14 34v0z" />
    <glyph glyph-name="perthousand" unicode="&#x2030;" horiz-adv-x="1140" 
d="M220 267q-28 1 -52.5 11t-42 30t-27 51t-7.5 73q4 49 22.5 89.5t52.5 64t83 22.5q27 -1 50.5 -11.5t41.5 -30.5t27.5 -50.5t6.5 -71.5q-3 -48 -21.5 -88.5t-51.5 -65t-82 -23.5zM212 380q13 -12 23 -12t18.5 9.5t15.5 24.5q6 17 5.5 30t-4.5 23.5t-8.5 20t-6.5 19.5
q-13 15 -23 14.5t-18 -11t-16 -25.5q-6 -17 -5.5 -29.5t4 -22t8.5 -19.5t7 -22zM594 -16q-27 2 -51 11.5t-42 29.5t-27.5 50.5t-6.5 72.5q3 49 21.5 89.5t52.5 64.5t84 23q26 -1 50 -11.5t42 -30t27.5 -50.5t6.5 -73q-3 -47 -21.5 -87.5t-52.5 -64.5t-83 -24zM586 97
q15 -12 25.5 -11.5t18 10.5t15.5 24q6 16 5 29t-4.5 23.5t-8 20t-6.5 19.5q-14 16 -24 15t-18 -12t-16 -25q-7 -22 -4.5 -37t8.5 -27.5t9 -28.5zM719 609l-492 -610l-92 1l490 609h94zM921 -16q-28 2 -52 12t-41.5 30t-27 50.5t-6.5 71.5q3 49 21.5 89.5t52.5 64.5t84 23
q26 -1 50 -11.5t42 -30t27.5 -50.5t6.5 -73q-3 -47 -21.5 -87.5t-52.5 -64.5t-83 -24zM912 97q15 -13 25.5 -12t18.5 11t15 24q6 17 5.5 29.5t-4.5 23t-8.5 20t-5.5 19.5q-13 16 -23.5 15t-18.5 -12t-16 -25q-6 -17 -5.5 -29t4 -22t8 -20t5.5 -22z" />
    <glyph glyph-name="plus" unicode="+" horiz-adv-x="550" 
d="M278 416h85l-17 -142h139l-10 -81h-139l-18 -142h-85l18 142h-140l10 81h140z" />
    <glyph glyph-name="less" unicode="&#x3c;" horiz-adv-x="601" 
d="M479 -15q-103 65 -205.5 129t-205.5 127q118 64 236.5 128t236.5 127l-14 -114q-64 -35 -130 -70t-131 -71l114 -70t113 -71v0z" />
    <glyph glyph-name="equal" unicode="=" horiz-adv-x="717" 
d="M125 195h512l-10 -81h-512zM149 392h512l-10 -82h-512z" />
    <glyph glyph-name="greater" unicode="&#x3e;" horiz-adv-x="591" 
d="M95 100q66 35 131.5 70.5t130.5 70.5q-56 36 -113 71l-114 70l14 114q103 -64 205.5 -127.5t205.5 -127.5q-119 -64 -237 -127.5t-237 -128.5v0z" />
    <glyph glyph-name="bar" unicode="|" horiz-adv-x="287" 
d="M179 709h84l-116 -944h-84z" />
    <glyph glyph-name="asciitilde" unicode="~" horiz-adv-x="465" 
d="M310 431q-37 2 -58.5 20t-39.5 37q-11 13 -23 24t-29 12q-14 1 -26 -9t-19.5 -28.5t-10.5 -44.5l-58 5q3 44 20 78t44.5 53.5t63.5 16.5q30 -1 49.5 -18t35.5 -37q13 -15 26.5 -27.5t29.5 -13.5q15 -1 25.5 9.5t17 30t8.5 45.5l59 -4q-1 -47 -17 -81t-42 -51.5t-56 -16.5
z" />
    <glyph glyph-name="logicalnot" unicode="&#xac;" horiz-adv-x="501" 
d="M89 296h364l-23 -184h-97l11 91h-268z" />
    <glyph glyph-name="plusminus" unicode="&#xb1;" horiz-adv-x="531" 
d="M298 578h85l-18 -142h140l-10 -81h-139l-18 -142h-85l18 142h-140l9 81h140zM108 171h364l-9 -82h-365z" />
    <glyph glyph-name="multiply" unicode="&#xd7;" horiz-adv-x="517" 
d="M307 240q27 24 53 47t54 48q15 -17 30 -36t30 -36q-25 -23 -52 -46.5t-52 -47.5q21 -24 41.5 -48t41.5 -49l-82 -72q-20 24 -42 47.5t-43 47.5q-26 -23 -52.5 -46.5t-52.5 -47.5q-16 18 -31.5 35.5t-30.5 35.5q26 24 52.5 47t53.5 48l-85 96l81 74z" />
    <glyph glyph-name="divide" unicode="&#xf7;" horiz-adv-x="506" 
d="M214 100q0 25 19.5 42t40.5 17q17 0 31 -14t14 -35q0 -17 -9 -30t-22 -20t-27 -7q-18 0 -32.5 13t-14.5 34v0zM250 391q0 25 19 42t41 17q17 0 31 -14t14 -34q0 -26 -19 -42t-40 -16q-18 0 -32 13t-14 34v0zM105 290h364l-10 -81h-365z" />
    <glyph glyph-name="fraction" unicode="&#x2044;" horiz-adv-x="300" 
d="M427 764q-94 -191 -187.5 -382t-188.5 -382h-84l188 382l188 382h84z" />
    <glyph glyph-name="uni2206" unicode="&#x2206;" horiz-adv-x="507" 
d="M326 738l110 -478h-59l-69 323l-149 -323h-59l226 478v0zM155 310h245l-7 -50h-245z" />
    <glyph glyph-name="product" unicode="&#x220f;" horiz-adv-x="721" 
d="M297 759h287l-103 -834h-83l92 753h-119l-93 -753h-83z" />
    <glyph glyph-name="summation" unicode="&#x2211;" horiz-adv-x="550" 
d="M171 759h398l-37 -81h-261l53 -339l-136 -340h261l17 -81h-399l167 421z" />
    <glyph glyph-name="minus" unicode="&#x2212;" horiz-adv-x="642" 
d="M114 246h364l-9 -82h-365z" />
    <glyph glyph-name="uni2215" unicode="&#x2215;" horiz-adv-x="385" 
d="M449 745q-95 -191 -188.5 -382t-187.5 -382h-85q94 191 187.5 382t188.5 382h85z" />
    <glyph glyph-name="uni2219" unicode="&#x2219;" horiz-adv-x="217" 
d="M113 237q-34 2 -54 26.5t-16 57.5t30 54.5t59 19.5q32 -2 52.5 -26.5t16.5 -57.5t-30 -54.5t-58 -19.5z" />
    <glyph glyph-name="radical" unicode="&#x221a;" horiz-adv-x="560" 
d="M527 614h59l-350 -612l-100 301h-82l7 50h118l73 -221z" />
    <glyph glyph-name="infinity" unicode="&#x221e;" horiz-adv-x="465" 
d="M279 307q-3 -26 -23.5 -46t-49 -31.5t-59.5 -11.5t-50.5 12.5t-28.5 31.5t-9 37q0 21 12.5 43.5t37 37.5t60.5 15q30 0 56.5 -11.5t41.5 -31.5t12 -45v0zM228 301q0 27 19.5 48.5t50 33.5t61.5 12t50.5 -12t28 -30.5t8.5 -37.5q0 -21 -12 -43.5t-36 -38t-61 -15.5
q-28 0 -53 11t-40.5 29.5t-15.5 42.5v0zM228 305q2 18 -18 29t-46 11q-28 0 -41 -12.5t-13 -30.5q0 -13 10 -23.5t35 -10.5q24 0 48 10.5t25 26.5v0zM278 305q-1 -17 20 -27t45 -10q31 0 42 14t11 28q0 15 -10.5 25t-33.5 10q-25 0 -48 -11t-26 -29v0z" />
    <glyph glyph-name="integral" unicode="&#x222b;" horiz-adv-x="378" 
d="M332 673q-21 0 -33.5 -7.5t-20 -29.5t-12.5 -66l-74 -601q-6 -47 -18.5 -72.5t-30.5 -35t-39.5 -11t-45.5 -1.5h-64l11 82h44q21 0 33.5 8t20 30.5t12.5 65.5l74 601v0q6 47 18 72t30 35t40 11t46 1h63l-10 -82h-44z" />
    <glyph glyph-name="approxequal" unicode="&#x2248;" horiz-adv-x="481" 
d="M273 94q-37 2 -58.5 20t-39.5 37q-11 13 -23 24t-29 12q-14 1 -26 -9t-19.5 -28.5t-10.5 -44.5l-58 5q3 44 20 78t44.5 53.5t63.5 16.5q30 -1 49.5 -18t35.5 -37q13 -15 26.5 -27.5t29.5 -13.5q15 -1 25.5 9.5t17 30t8.5 45.5l59 -4q-1 -47 -17 -81t-42 -51.5t-56 -16.5z
M281 280q-37 2 -58.5 20t-39.5 37q-11 13 -23 24t-29 12q-14 1 -26 -9t-19.5 -28.5t-10.5 -44.5l-58 5q3 44 20 78t44.5 53.5t63.5 16.5q30 -1 49.5 -18t35.5 -37q13 -15 26.5 -27.5t29.5 -13.5q15 -1 25.5 9.5t17 30t8.5 45.5l59 -4q-1 -47 -17 -81t-42 -51.5t-56 -16.5z
" />
    <glyph glyph-name="notequal" unicode="&#x2260;" horiz-adv-x="717" 
d="M648 498q-41 -42 -91 -93.5t-104.5 -107t-108.5 -111t-104 -107t-92 -93.5l-42 42q41 42 91 93.5t104.5 107t109 111.5t104.5 107.5t92 93.5zM125 195h512l-10 -81h-512zM149 392h512l-10 -82h-512z" />
    <glyph glyph-name="lessequal" unicode="&#x2264;" horiz-adv-x="554" 
d="M472 218q-102 64 -204.5 127.5t-205.5 127.5q118 63 236.5 127t236.5 128l-14 -114q-65 -35 -131 -70t-130 -71q57 -35 113.5 -70.5t113.5 -70.5v0zM60 143h365l-10 -82h-365z" />
    <glyph glyph-name="greaterequal" unicode="&#x2265;" horiz-adv-x="555" 
d="M152 728q103 -64 205.5 -128t205.5 -127q-119 -64 -237 -127.5t-237 -127.5l15 114q65 35 131 70.5t130 70.5q-57 36 -113.5 71t-113.5 70zM79 143h365l-10 -82h-364z" />
    <glyph glyph-name="dollar" unicode="$" horiz-adv-x="579" 
d="M223 -68l53 439l28 32l48 386h58l-50 -409l-29 -33l-50 -415h-58zM516 581q-35 22 -79 39t-87 18q-35 1 -59.5 -7.5t-41 -22.5t-24.5 -32t-9 -35q-2 -31 17.5 -55t52.5 -42.5t69 -35.5q42 -19 80.5 -44.5t61.5 -65.5t17 -104q-3 -37 -20.5 -74t-49 -66t-78 -46
t-108.5 -15q-47 2 -89.5 14.5t-79 32t-65.5 44.5l52 73q22 -20 52 -37.5t64.5 -28t67.5 -12.5q43 0 76.5 14.5t54 42t23.5 63.5q2 32 -15.5 56.5t-46 43t-62.5 33.5q-31 14 -63.5 32t-59.5 41t-41.5 56t-9.5 77q5 58 36 100t81.5 64t113.5 22q47 -2 86 -12.5t71 -25.5
t58 -33z" />
    <glyph glyph-name="cent" unicode="&#xa2;" horiz-adv-x="460" 
d="M272 481h58l-67 -549h-58zM397 28q-29 -18 -65.5 -28.5t-73.5 -10.5q-32 0 -69 11t-70.5 34t-54 61.5t-20.5 93.5q0 42 15.5 83.5t45 75.5t72 54t97.5 20q57 0 98 -17t68 -45l-54 -57q-16 16 -43.5 29t-62.5 13q-37 0 -69.5 -19.5t-52.5 -53.5t-20 -77q0 -36 17 -65.5
t47.5 -47t71.5 -17.5q23 0 44 6.5t38 18.5z" />
    <glyph glyph-name="sterling" unicode="&#xa3;" horiz-adv-x="577" 
d="M399 384l-11 -94h-301l11 94h301zM182 538q6 47 37 83.5t80.5 57t111.5 20.5q72 0 116 -27.5t62 -74.5l-76 -48q-8 15 -21 28t-34.5 21t-55.5 8q-41 0 -67.5 -12t-40.5 -35t-18 -55l-38 -307l-3 -20q-2 -14 -6.5 -31t-11 -32.5t-15.5 -24.5l-7 4h207q36 0 53.5 10
t20.5 34l5 42l85 1l-8 -65q-4 -33 -18.5 -59t-45.5 -41t-83 -15h-392l12 93h45q21 0 33 7.5t19.5 29.5t12.5 65z" />
    <glyph glyph-name="currency" unicode="&#xa4;" horiz-adv-x="504" 
d="M413 438q9 -18 13.5 -37.5t2.5 -40.5q-2 -25 -12 -47.5t-26 -41.5l26 -31l-44 -38l-14 16t-14 15q-39 -22 -85 -21q-23 1 -42.5 8t-35.5 19v0l-35 -30l-36 43l34 29q-9 17 -13.5 38t-2.5 43v0q2 25 11 46t24 40q-6 8 -12 15t-12 15l44 38l26 -30q20 11 41.5 18t45.5 6
q23 -1 43 -9t36 -21v0l33 27l36 -42zM186 359q-2 -36 22 -63t60 -28q26 -1 49 11.5t38.5 34t16.5 48.5q2 37 -21.5 63.5t-60.5 28.5q-26 0 -49 -12.5t-38 -34t-17 -48.5v0z" />
    <glyph glyph-name="yen" unicode="&#xa5;" horiz-adv-x="691" 
d="M173 301h368l-9 -76h-368zM163 154h367l-9 -77h-367zM307 297l-215 426h118l173 -343l-30 -3l255 346h119l-323 -426l-36 -297h-97z" />
    <glyph glyph-name="colonmonetary" unicode="&#x20a1;" horiz-adv-x="698" 
d="M597 780l-415 -842h-87l414 842h88zM758 780l-415 -842h-88l414 842h89zM617 37q-17 -9 -46 -21t-66.5 -20t-80.5 -8q-63 0 -124.5 20t-111.5 61t-80 104.5t-30 150.5q0 57 13.5 114t42 109t73 92t107.5 63.5t145 23.5q73 0 130 -22t95 -50l-50 -87q-28 23 -71 43t-96 23
q-72 2 -126 -22t-90 -66.5t-54 -97.5t-18 -116q0 -55 18 -101t51 -79t79 -51.5t101 -18.5q37 0 66.5 8t52.5 18.5t40 18.5z" />
    <glyph glyph-name="franc" unicode="&#x20a3;" horiz-adv-x="589" 
d="M166 723h428l-12 -92h-328l-28 -232h288l-12 -92h-288l-37 -307h-100zM39 184h233l-6 -53h-234z" />
    <glyph glyph-name="lira" unicode="&#x20a4;" horiz-adv-x="601" 
d="M421 434l-11 -87h-308l11 87h308zM402 287l-10 -86h-308l11 86h307zM194 538q6 47 36.5 83.5t80 57t112.5 20.5q71 0 115 -27.5t63 -74.5l-77 -48q-4 7 -10.5 16t-17.5 18.5t-30.5 16t-52.5 6.5q-41 0 -67.5 -12t-40.5 -35t-18 -55l-40 -327v0q0 4 -1.5 -5.5t-5.5 -25
t-10 -31t-15 -22.5v0h198q36 0 54 10t20 34l5 42l85 1l-7 -65q-5 -33 -19.5 -59t-45.5 -41t-83 -15h-391l11 93h45q21 0 33.5 7.5t19.5 29.5t12 65z" />
    <glyph glyph-name="uni20A6" unicode="&#x20a6;" horiz-adv-x="851" 
d="M470 406h385l-7 -66h-385zM430 340h-399l7 66h400zM722 -23h-3l-489 572l27 -12l-63 -537h-98l91 745h5l483 -574l-23 10l64 542h97z" />
    <glyph glyph-name="peseta" unicode="&#x20a7;" horiz-adv-x="629" 
d="M547 527h100v-66h-101zM168 461h-103l1 66h102v-66zM350 723q49 0 90.5 -13t72 -38t47.5 -61.5t17 -84.5q0 -45 -15 -90.5t-47.5 -84t-84.5 -62t-125 -23.5h-104l-32 -266h-100l89 723h192zM314 359q46 0 77 16t50 40.5t27 50.5t8 46q0 28 -13 55t-41 44.5t-74 17.5h-102
l-33 -270h101z" />
    <glyph glyph-name="uni20A9" unicode="&#x20a9;" horiz-adv-x="1011" 
d="M79 451h905l-7 -66h-906zM113 719h113l128 -550l-16 6l188 369l30 -131l-247 -446zM462 719h96l146 -543l-20 4l253 539h103l-376 -751z" />
    <glyph glyph-name="dong" unicode="&#x20ab;" horiz-adv-x="601" 
d="M380 716h251l-8 -65h-251zM60 66h466l-8 -66h-466zM271 133q-59 1 -104.5 29.5t-68.5 79.5t-15 118q8 68 41.5 116t83.5 73.5t109 23.5q32 -1 61 -13t50.5 -32t32.5 -47l-8 -26l41 327h92l-78 -639h-93l13 102l4 -25q-30 -44 -68.5 -66t-92.5 -21zM301 213
q32 -1 58.5 11.5t46 36t30.5 54.5l10 79q-5 28 -21 51.5t-41 38t-59 15.5q-36 1 -67.5 -16t-53 -48.5t-26.5 -73.5q-5 -41 9.5 -74t44 -53t69.5 -21z" />
    <glyph glyph-name="Euro" unicode="&#x20ac;" horiz-adv-x="756" 
d="M91 461h365l-9 -77h-365zM74 322h365l-9 -76h-365zM678 37q-17 -9 -46.5 -21t-67 -20t-80.5 -8q-63 0 -124.5 20t-111.5 61t-79.5 104.5t-29.5 150.5q0 57 13 114t41.5 109t73 92t107.5 63.5t145 23.5q73 0 130 -22t95 -50l-49 -87q-28 23 -71.5 43t-96.5 23
q-71 2 -125 -22t-90 -66.5t-54.5 -97.5t-18.5 -116q0 -55 18 -101t51.5 -79t79 -51.5t100.5 -18.5q37 0 67 8t53 18.5t39 18.5z" />
    <glyph glyph-name="uni20AD" unicode="&#x20ad;" horiz-adv-x="662" 
d="M66 438h532l-12 -93h-532zM227 432l-7 -36l15 18l334 309h125l-337 -310l265 -413h-122l-222 351l-68 -59l-35 -292h-98l89 723h97z" />
    <glyph glyph-name="uni20B1" unicode="&#x20b1;" horiz-adv-x="612" 
d="M505 588h146l-8 -66h-146zM502 457h133l-8 -66h-133zM170 391h-133l9 66h132zM186 522h-133l9 66h132zM341 723q49 0 90.5 -13t72 -38t47.5 -61.5t17 -84.5q0 -45 -15 -90.5t-47.5 -84t-84.5 -62t-125 -23.5h-104l-32 -266h-100l89 723h192zM305 359q46 0 77 16t50 40.5
t27 50.5t8 46q0 28 -13 55t-41 44.5t-74 17.5h-102l-33 -270h101z" />
    <glyph glyph-name="uni20B2" unicode="&#x20b2;" horiz-adv-x="745" 
d="M655 45q-21 -15 -59 -28t-82 -21t-84 -7q-37 1 -77 9.5t-80 26t-75.5 44.5t-63 65t-43 86.5t-14.5 108.5q2 53 17 108.5t45.5 107.5t77 92.5t110.5 64.5t147 23q60 -1 120 -17.5t108 -48.5l-43 -87q-38 26 -88.5 41.5t-98.5 14.5q-65 0 -114 -18.5t-83 -49.5t-55 -69.5
t-31 -79.5t-11 -79q-1 -50 14.5 -89.5t42.5 -68.5t60.5 -48t70.5 -29.5t71 -11.5q33 -2 67.5 3.5t59.5 17.5l18 152h-144l12 92h242zM426 818h84l-116 -944h-84z" />
    <glyph glyph-name="uni20B5" unicode="&#x20b5;" horiz-adv-x="698" 
d="M617 37q-17 -9 -46 -21t-66.5 -20t-80.5 -8q-63 0 -124.5 20t-111.5 61t-80 104.5t-30 150.5q0 57 13.5 114t42 109t73 92t107.5 63.5t145 23.5q73 0 130 -22t95 -50l-50 -87q-28 23 -71 43t-96 23q-72 2 -126 -22t-90 -66.5t-54 -97.5t-18 -116q0 -55 18 -101t51 -79
t79 -51.5t101 -18.5q37 0 66.5 8t52.5 18.5t40 18.5zM418 829h84l-116 -944h-84z" />
    <glyph glyph-name="uni20B9" unicode="&#x20b9;" horiz-adv-x="547" 
d="M112 266l11 93h85q58 0 92 22t51 54t20 60q3 22 -2 45.5t-19 43.5t-39 33t-63 13h-92l12 93h404l-12 -93h-241l-79 67q54 0 99.5 -10.5t77 -34t46.5 -61t8 -92.5q-5 -43 -23 -84t-50.5 -74.5t-81.5 -54t-118 -20.5h-86zM359 0l-155 301l116 3l152 -304h-113zM137 454
l9 81h406l-10 -81h-405z" />
    <glyph glyph-name="uni20BA" unicode="&#x20ba;" horiz-adv-x="642" 
d="M590 320q1 -14 1 -30.5t-3 -33.5q-10 -71 -43 -119.5t-83.5 -78.5t-112.5 -44t-131 -14h-97l89 723h96l-84 -683l-1 54q54 0 99.5 8.5t80.5 27t56.5 50t27.5 78.5q2 10 2 19.5v17.5zM449 444l30 -59l-400 -209l-30 59zM422 571l30 -59l-400 -207l-29 59z" />
    <glyph glyph-name="uni20BC" unicode="&#x20bc;" horiz-adv-x="751" 
d="M408 831h84l-102 -831h-83zM579 464q6 49 -12.5 87.5t-55 60.5t-85.5 22q-50 0 -93 -22t-70.5 -60.5t-33.5 -87.5l-57 -467h-95l57 469q10 80 53.5 138.5t108.5 91t141 32.5v0q76 0 133.5 -32.5t86.5 -91t19 -138.5l-58 -469h-96z" />
    <glyph glyph-name="uni20BD" unicode="&#x20bd;" horiz-adv-x="568" 
d="M14 190h285l-10 -85h-285zM33 357h232l-9 -85h-232zM342 723q50 0 91.5 -13t72 -38t47 -61.5t16.5 -84.5q0 -45 -15 -90.5t-47.5 -84t-84 -62t-125.5 -23.5h-103l-33 -266h-99l88 723h192zM306 359q47 0 78 16t49.5 40.5t26.5 50.5t8 46q0 28 -12.5 55t-41 44.5
t-74.5 17.5h-102l-33 -270h101z" />
    <glyph glyph-name="asciicircum" unicode="^" horiz-adv-x="475" 
d="M357 485q-5 10 -15.5 26.5t-20.5 33t-16 26.5q-8 -10 -22 -26.5t-28.5 -33t-22.5 -26.5h-59q35 46 71.5 91.5t72.5 91.5v0q25 -46 49.5 -91.5t49.5 -91.5h-59z" />
    <glyph glyph-name="grave" unicode="`" horiz-adv-x="203" 
d="M145 619l66 -134h-59l-110 134h103z" />
    <glyph glyph-name="dieresis" unicode="&#xa8;" horiz-adv-x="375" 
d="M85 533q2 23 20 37.5t38 13.5q19 -1 33.5 -17t11.5 -39q-2 -24 -19.5 -37.5t-36.5 -12.5q-20 1 -35 16.5t-12 38.5v0zM271 533q3 23 20.5 37.5t37.5 13.5q19 -1 33.5 -17.5t12.5 -38.5q-3 -24 -21 -37.5t-36 -12.5q-20 1 -34.5 16t-12.5 39v0z" />
    <glyph glyph-name="macron" unicode="&#xaf;" horiz-adv-x="404" 
d="M152 537h233l-6 -53h-234z" />
    <glyph glyph-name="acute" unicode="&#xb4;" horiz-adv-x="277" 
d="M315 619l-133 -134h-59l89 134h103z" />
    <glyph glyph-name="cedilla" unicode="&#xb8;" horiz-adv-x="457" 
d="M108 -148q9 -12 25 -20.5t38 -10.5q26 -1 48 9.5t25 32.5q3 17 -9.5 32t-49.5 17q-16 1 -34 -2t-32 -7l-11 47l71 54l71 -4l-77 -78l-19 25q12 3 28 5t31 2q53 -2 84 -26.5t26 -68.5q-4 -33 -26 -53t-54.5 -29t-68.5 -7q-37 3 -61.5 15.5t-38.5 28.5z" />
    <glyph glyph-name="breve" unicode="&#x2d8;" horiz-adv-x="461" 
d="M276 482q-25 1 -49 11.5t-42.5 31.5t-29 55t-10.5 83h63q0 -42 11 -67.5t28.5 -37t36.5 -13.5q26 0 45 14t32 41.5t20 62.5h64q-11 -62 -34.5 -103t-57.5 -60.5t-77 -17.5z" />
    <glyph glyph-name="dotaccent" unicode="&#x2d9;" horiz-adv-x="238" 
d="M119 568q0 23 17 39t42 16q19 0 36.5 -12t16.5 -37q-1 -23 -18 -39t-42 -16q-19 0 -36 12.5t-16 36.5z" />
    <glyph glyph-name="ring" unicode="&#x2da;" horiz-adv-x="360" 
d="M142 533q4 42 33 65t70 21q40 -2 64 -27t20 -64q-3 -42 -32.5 -65.5t-69.5 -21.5t-64 27.5t-21 64.5zM193 529q-1 -19 9.5 -31t29.5 -13t32 11t15 32q1 21 -9.5 33t-28.5 12q-19 1 -32.5 -10.5t-15.5 -33.5z" />
    <glyph glyph-name="ogonek" unicode="&#x2db;" horiz-adv-x="383" 
d="M166 -215q-45 3 -76 31t-31 73q0 21 10.5 45t32.5 45t56 33l101 -16q-54 -21 -86.5 -43t-34.5 -51q-2 -26 12 -38t33 -13q20 -1 37.5 11t33.5 34l30 -49q-20 -28 -53 -45.5t-65 -16.5z" />
    </font>
</defs>
</svg>
