<?xml version="1.0" standalone="no"?>
<!DOCTYPE svg PUBLIC "-//W3C//DTD SVG 1.1//EN" "http://www.w3.org/Graphics/SVG/1.1/DTD/svg11.dtd" >
<svg xmlns="http://www.w3.org/2000/svg" xmlns:xlink="http://www.w3.org/1999/xlink" version="1.1">
<metadata>
Created by FontForge 20201107 at Tue Feb 14 12:19:12 2017
 By Unknown
FREE FOR PERSONAL USE
</metadata>
<defs>
<font id="Amontillado" horiz-adv-x="478" >
  <font-face 
    font-family="Amontillado"
    font-weight="400"
    font-stretch="normal"
    units-per-em="1000"
    panose-1="0 0 0 0 0 0 0 0 0 0"
    ascent="750"
    descent="-250"
    x-height="222"
    cap-height="455"
    bbox="-255 -156.875 1023.74 555"
    underline-thickness="50"
    underline-position="-100"
    unicode-range="U+0020-FB02"
  />
<missing-glyph horiz-adv-x="198" 
 />
    <glyph glyph-name=".notdef" horiz-adv-x="198" 
 />
    <glyph glyph-name="B" unicode="B" horiz-adv-x="438" 
d="M161 -48q-21 0 -45 3.5t-45.5 13t-37.5 25.5t-21 41q-1 4 -2 18t4 32t19 37.5t44 34.5q7 3 17 6q8 2 20 4t28 2q8 22 16.5 45.5t16.5 44t14.5 37t10.5 25.5l3 3t6 -1h1l28 -20q4 -3 6 -7q4 -9 -3 -26v-1q-8 -17 -18 -40t-22 -49q8 1 26 6t40.5 13.5t46 20t43 26.5
t31.5 32.5t11 38.5q-1 27 -23.5 42.5t-56 21t-73.5 1t-75.5 -16.5t-62 -31.5t-32.5 -44.5q-3 -10 4 -15q5 -5 21 -7t48 4q2 0 4 -1q3 -1 1 -5l-20 -43l-9 5l-4.5 2t-10 5t-11 5.5t-8.5 3.5l-8 3l6 -5q1 -1 11.5 -8t24.5 -9l9 -2l-1 -2q-2 -1 -4 -3t-7 -1q-8 3 -20 8.5
t-23.5 14.5t-20 21t-9.5 29q-1 21 11 46.5t41.5 47t77.5 35.5t120 11q32 -1 60 -8q24 -6 48.5 -19.5t38.5 -39.5q13 -25 13.5 -49.5t-14.5 -48.5t-46.5 -47.5t-81.5 -47.5q20 3 37 -1q14 -3 26.5 -13.5t16.5 -32.5q5 -36 -15.5 -67.5t-56 -54.5t-79.5 -35.5t-85 -12.5z
M90 262q-3 0 -7 2q-7 4 -11 10q-5 7 -2 22l3 10l-6 -9q0 -1 -3 -8.5t1 -15.5q5 -11 24 -14zM246 410q-13 0 -25 -4l1 -3q3 0 7 1q3 0 7.5 0.5t9.5 0.5t10.5 -0.5t10.5 -1.5l10 -2l-9 5q-2 1 -6 2q-8 2 -16 2zM103 363l12 8q1 0 17.5 9t36.5 13v3l-6 -0.5t-14 -3t-18 -7
t-18 -12.5zM288 393q-1 0 -11.5 1.5t-27.5 1.5q-30 0 -69.5 -9t-75.5 -39l2 -2l11.5 7t33 15.5t52.5 15.5t71 7q3 0 6.5 -0.5t6.5 -0.5zM400 371q20 -17 24.5 -35t1.5 -34t-9 -27t-8 -13l2 -2q28 38 22 72q-3 10 -8 18t-10 13t-9 7.5l-4 2.5l-14 8zM410 340q2 -6 2.5 -12.5
t1.5 -11.5q1 -6 1 -12v-11l3 10q5 17 0 27.5t-6 11.5l-5 7zM424 269q-9 -11 -20 -21t-21.5 -18t-18 -12.5l-7.5 -4.5l2 -3q16 7 29 17t21.5 19t13 15l4.5 6zM162 -26q11 0 28.5 1.5t37.5 6.5t40.5 14.5t37.5 26.5l-2 3l-9 -7t-27.5 -16t-48 -16.5t-70.5 -9.5l-1 -3h14z
M315 35q3 3 2 4q0 1 -1 1q-2 0 -8 -3.5t-13.5 -8t-14.5 -9.5t-10 -7l-11 -9l12 6q1 0 6 3t12 6.5t14 8t12 8.5zM362 139l4.5 -4.5t6 -9.5t3 -14.5t-4.5 -20.5l-5 -11l8 10l4 8q4 10 3 20q-1 13 -17 24v1zM349 77l8 5l3.5 2t6.5 6t4 10t-3 14l-3 -1q1 0 1.5 -9t-10.5 -20z
M208 245l-6 -14q-3 -6 -9.5 -22.5t-8.5 -27.5l-1 -11l4 10q3 8 7 17q3 8 6 17t5 18zM193 223q2 2 4 6q2 3 3.5 8t3.5 12l3 11l-6 -10q0 -1 -4.5 -11t-6.5 -15l-1 -5zM208 313l5 -8q1 -3 4 -6q2 -2 4.5 -5t5.5 -6q4 -5 4 -13q0 -4 -2 -8l-3 -11l6 10q10 15 6 21.5t-7 8.5h-1
q-2 1 -4 3l-4 4l-6 4zM206 293q-8 -15 -15 -33q-6 -15 -12.5 -34t-11.5 -38l3 -1q0 1 6 14.5t13 31t13 34.5t7 25l1 9zM143 147q-28 0 -51 -10l1 -3l12 3q5 1 13 2t18 1q38 0 77 -15l14 -5l-13 8q-9 5 -20 9q-10 4 -23 7t-28 3zM222 107q-4 4 -10 8q-5 3 -13 5.5t-19 3.5
l-1 -3l5 -1.5t11.5 -3.5t13 -5t11.5 -7l10 -8zM127 27q-3 5 -6 9q-2 4 -5 8t-5 8l-3 9v-9q0 -1 3 -10t14 -17l8 -5zM123 62q3 8 7 17q3 8 6 17t5 18l3 13l-6 -14q-3 -6 -9.5 -23t-8.5 -28l-1 -10zM134 73q2 2 4 6q2 3 3.5 7.5t3.5 11.5l2 11l-5 -10q-2 -6 -5 -10
q-2 -5 -4 -9t-2 -6l-1 -5zM109 154q-20 -1 -34 -10t-15 -9l2 -3q5 3 13 6.5t16 6.5q9 4 19 6l12 4zM121 115q-32 -3 -57 -21t-23 -55v-1q0 -6 4 -12q3 -5 8.5 -10.5t15.5 -10.5q32 -13 89 -8q26 3 55 9.5t54.5 19.5t43.5 33.5t22 50.5q2 15 -8 23t-26 11t-36 2.5t-38 -2.5
q2 -4 2 -6l7 -45q0 -4 -2 -5q-3 -2 -6 1q-2 1 -6 4q-3 2 -7.5 4.5t-9.5 5.5q-7 3 -15 6t-19 5q-12 -24 -24 -42q-3 -5 -5 -9.5t-4 -6.5q-2 -9 0.5 -19t4.5 -16v-2q0 -2 -1 -2q-1 -1 -4 -1q-7 1 -14.5 6.5t-13 13.5t-7 17.5t2.5 20.5v1h1q0 2 1 3q3 8 6.5 17t8.5 20zM24 47
q1 -12 5 -23q4 -10 12 -20t25 -16l1 3q-9 5 -17 13q-7 7 -13.5 17t-9.5 26l-2 14z" />
    <glyph glyph-name="C" unicode="C" horiz-adv-x="244" 
d="M88 230q-63 26 -73 81q-7 28 -3.5 51t11.5 40.5t18 30t17 18.5q8 10 17 15h1q1 0 3 0.5t4 0.5q4 0 6 -1l53 -26h1v-3q0 -3 -7 -5q-13 -2 -32.5 -11t-33.5 -34q-6 -13 -9.5 -25t-3.5 -24v-8t1 -9q2 -15 9 -27t14.5 -20t14.5 -13t10 -6q66 85 146 129q41 22 73.5 28.5
t53.5 6.5q27 0 47 -7.5t27 -20.5q14 -24 -6 -61q-4 -7 -8 -12.5t-7 -9.5q-4 -5 -8 -9q-29 -28 -61.5 -45t-64 -26t-60 -12t-49.5 -3q-13 0 -23 0.5t-15 1.5q-34 -47 -48.5 -89.5t-8.5 -76.5q10 -46 38 -64q16 -9 40 -13.5t62 -4.5q30 0 72.5 2.5t110.5 9.5q20 2 39.5 3
t36.5 1q89 0 139 -24q20 -11 30 -21.5t15 -18.5v-1q1 -1 1.5 -3t-0.5 -3l-2 -2q-2 0 -6 2q-29 17 -90.5 20t-155.5 3q-45 1 -97 1t-112 2q-129 4 -166 73q-10 17 -14.5 50t12.5 83q5 15 10 28t10 23q5 11 11 21q3 4 5.5 7.5t4.5 6.5zM545 -36q-6 0 -10.5 -0.5t-7.5 -0.5
q-4 -1 -6 -1v-3h13q28 0 52 -6.5t25 -6.5l1 3q-21 10 -38.5 12.5t-28.5 2.5zM466 -33q-7 0 -25.5 -0.5t-33.5 -3.5v-3h9t18 0.5t20 1.5t15 2l11 3h-11h-3zM473 -42q-20 0 -34.5 -1t-24.5 -2q-11 -2 -20 -3v-3q25 3 66 3q22 0 44.5 -1t40.5 -1.5t29.5 -1.5l11.5 -1v3
q-30 5 -58 6.5t-55 1.5zM239 226q3 0 1 2l-1 1q-8 -2 -12 -2l-34 -2h-8q-2 0 -3 1l-1 -2q-1 0 -0.5 -0.5t1.5 -0.5q2 -1 5 -1q3 -1 13 -1q8 0 18 1t21 4zM239 231q11 3 26.5 7t32.5 10t33.5 13.5t30.5 16.5l-1 2l-11 -5t-28.5 -12.5t-39.5 -15.5t-44 -13q-5 -1 -8 -1.5
t-5 -0.5q-3 -1 -5 -1v-3q5 1 9.5 1.5t9.5 1.5zM340 275q6 3 12 6.5t11 7.5l10 8l-2 2q-6 -4 -14.5 -9t-15.5 -9q-7 -5 -8 -5.5t-1 -1.5v-2h1q1 0 1.5 0.5t5.5 2.5zM394 299q11 8 20 17t15 17q7 10 12 19l-2 2q-3 -5 -10.5 -13.5t-15.5 -17t-14.5 -15l-6.5 -6.5l-10 -11z
M408 399v-4q5 0 10 -1q10 -2 15 -10q5 -11 -8 -30l3 -2l2.5 3.5t5.5 9t4.5 11.5t-0.5 11q-6 12 -30 12h-2zM399 391q-16 0 -36 -7.5t-37 -16.5t-29 -17l-12 -8q-30 -20 -59 -45.5t-53 -54.5h10q55 5 99.5 22.5t75.5 37.5t48 38.5t19 26.5q2 10 -3 15q-8 9 -23 9zM234 335
q3 0 10.5 4.5t16 10t15 10.5t8.5 6l11 8l-12 -5q-11 -5 -20 -10.5t-16 -10.5q-8 -6 -14 -11l-4 -4zM297 383q-44 -16 -73.5 -36.5t-48 -38.5t-27 -30.5l-8.5 -12.5l3 -2q22 30 49 52t50.5 36.5t39.5 21.5l16 7zM115 -16l6 -7q1 -1 17 -10.5t59 -10.5v3q-1 0 -24.5 3
t-49.5 17zM188 -48q-13 1 -33.5 5.5t-40.5 16t-36 32t-20 54.5h-3q0 -1 1.5 -17t13.5 -36q11 -18 38 -36.5t80 -21.5h12h3v3h-15zM69 32q0 -1 3 -10.5t11 -19.5l7 -9l-4 11l-2 4l-4.5 9t-4.5 9.5t-3 6.5l-5 6zM73 107q4 12 8 25q4 11 9 24t12 25l-2 2l-4 -6.5t-9 -17
t-10 -24t-7 -27.5zM101 209q-7 -11 -13 -23q-5 -11 -11 -24t-8 -27l3 -1l2.5 7t6.5 17.5t10 23.5t13 25zM67 446q-1 -2 -2.5 -4.5t-3.5 -4.5l-5 -5l2 -2q2 2 6 5q4 4 12 10q3 3 7 3q5 0 9 -2t5 -2l1 2q-11 8 -18 8q-5 0 -7.5 -2.5l-4.5 -4.5q0 -1 -1 -1zM49 317q0 1 -3.5 12
t-1.5 25l-3 1q-1 -1 -2 -14.5t7 -24.5l7 -10zM31 342q0 -19 9 -43t38 -46q1 -1 2 -1l1 1v-1v1l1 2q-1 0 -2 1q-4 3 -14 12.5t-18.5 26t-11 40t7.5 53.5l-3 1q0 -1 -5 -14t-5 -33z" />
    <glyph glyph-name="D" unicode="D" horiz-adv-x="436" 
d="M233 327q4 -3 6 -7q4 -9 -3 -27q-8 -17 -18 -40t-21 -48l-10 -19q6 -2 11.5 -3.5t11.5 -3.5v-1l6 -4q2 -2 4 -4.5t3 -7.5l6 -44q2 -3 -2 -5q-3 -3 -5 0q-2 1 -6 4q-3 2 -8 4.5t-10 5.5q-6 3 -14.5 6t-19.5 5q-6 -12 -12 -23t-12 -20q-3 -5 -5 -9t-4 -7q-2 -9 0.5 -19
t4.5 -16v-1q0 -2 -1 -3t-4 -1q-7 1 -14.5 6.5t-13 13.5t-7 18t2.5 21l1 1q0 2 1 2q3 8 6.5 17.5t8.5 20.5q-20 -2 -37 -8.5t-27 -18.5q-8 -10 -12.5 -23t-3.5 -26q0 -1 4.5 -12.5t24.5 -20.5q23 -11 66 -9q27 1 63 8t68 26q2 1 11 7.5t21 15.5q12 10 27.5 25.5t30 35.5
t26.5 45.5t18 57.5q7 41 -2.5 67t-25 41t-34 21.5t-29.5 8.5l-7.5 1.5t-3.5 0.5q-33 3 -71.5 -2t-72 -17t-58 -31t-30.5 -43q-2 -10 4 -15q5 -5 20.5 -7t48.5 4q2 0 4 -1q3 -1 1 -5l-22 -45l-3 -3t-7 -1q-8 3 -20 8.5t-23.5 14.5t-20.5 21t-9 29q-1 21 11 46.5t41 47
t77 35.5t120 11h9q5 0 10.5 -1t13.5 -2q1 0 7 -1t15 -3q17 -4 39 -14t42 -30q18 -19 30 -46.5t11 -68.5q-3 -36 -17 -74q-13 -32 -39 -71t-75 -76q-13 -10 -26 -17q-35 -21 -76.5 -33t-80.5 -11h-11q-46 2 -74 14q-18 8 -28 16.5t-20 28.5q-4 7 -6 20q-1 4 -2 18t4 32t19 37
t43 34q7 4 17 7q8 2 20 4t28 1q9 22 17.5 45t16 43.5t14 37t10.5 25.5q1 2 3 3.5t6 -0.5h1zM110 227l-4.5 2t-10.5 5t-11.5 5.5t-8.5 3.5l-8 3l6 -5q1 -1 12 -8t24 -9l9 -2zM74 262q-3 0 -7 2q-7 4 -11 10q-5 8 -2 22l3 10l-6 -9q0 -1 -3 -8.5t1 -15.5q6 -11 25 -14v3z
M231 410q-14 0 -26 -4l1 -3q3 0 7 1q3 0 7.5 0.5t9.5 0.5q6 0 11 -0.5t10 -1.5l10 -2l-9 5q-2 1 -5 2q-8 2 -16 2zM87 363l13 8q7 5 16 9q17 8 38 13l-1 3q-1 0 -19.5 -3t-35.5 -20zM272 393q-5 0 -11 1q-5 1 -12.5 1.5t-15.5 0.5q-29 0 -69 -9t-75 -39l2 -2q18 12 43 22
q21 8 52 15.5t72 7.5q3 0 6.5 -0.5t6.5 -0.5zM393 342q5 -6 9 -15.5t8 -19.5q4 -11 8 -24l4 -12l-1 12q0 12 -4 23t-8.5 19t-9 13.5l-4.5 5.5zM382 132q-2 -3 -3 -5.5t-3 -5.5l2 -2q0 -1 7 11q20 32 30.5 59t15 49t3.5 39t-4 30q-8 28 -20 40.5t-13 12.5l-10 7l8 -9
q25 -30 29 -64.5t-3 -66t-19.5 -57.5t-19.5 -38zM255 28l12 6l5.5 3t12 6.5t13.5 8t12 8.5q3 3 3 4q-1 1 -2 1q-2 0 -8 -3.5t-13.5 -8t-14.5 -9.5t-10 -7zM144 -1h14q10 0 27.5 1.5t37.5 6.5t41 14.5t38 26.5l-2 3l-9 -7t-28 -16t-48.5 -16.5t-70.5 -9.5v-3zM63 16l-5.5 3
t-12.5 9.5t-13 17.5t-9 26l-3 14v-14q0 -12 4 -23q4 -10 12.5 -20t25.5 -16zM57 159q5 3 13 6.5t16 6.5q9 4 19 6l13 3h-13q-20 -1 -34.5 -10t-15.5 -10zM114 79l4 9q3 9 7 18q3 8 6 17t5 17l3 13l-6 -13q-3 -7 -9.5 -23.5t-8.5 -27.5zM128 46l-6 8l-6 8q-2 4 -4.5 8t-4.5 9
l-4 9l1 -10q0 -1 2.5 -10t13.5 -17zM143 136l-5 -10q-1 -1 -5.5 -11t-5.5 -15l-1 -5l3 4q2 2 4 6q2 3 3.5 8t3.5 12zM217 133q0 1 -9.5 9t-32.5 9v-3l15 -5q6 -2 13 -5t12 -7l10 -8zM209 154q0 1 -19.5 10.5t-51.5 9.5q-23 0 -51 -10l1 -3l12 3q5 1 13 2t18 1q38 0 77 -15
l14 -6zM203 271l-6 -13q-3 -7 -9 -23.5t-8 -27.5l-2 -10l5 9q0 1 7 18t11 34zM188 250q1 0 5 6t7 19l2 11l-5 -10q-1 0 -5.5 -10t-5.5 -15l-1 -5zM205 327l-3 -7l-4.5 -9.5t-11 -24.5t-13 -34t-11.5 -38l3 -1q1 1 7 15t13 31t13 34t7 26v8zM227 292q11 16 7 22t-8 8
q0 1 -1 1q-2 1 -4 3l-4 4l-6 4l-8 6l6 -8l4 -6q3 -6 9 -12q4 -5 4 -13q0 -4 -1 -7l-4 -12z" />
    <glyph glyph-name="E" unicode="E" horiz-adv-x="361" 
d="M172 -7q-41 1 -69 9t-47 20t-30 27t-16 30q-12 36 0 81q10 29 36 50.5t60 31.5q19 6 37.5 8t32.5 3q17 1 31 0q-5 5 -11 13q-3 4 -5.5 8t-4.5 8q-6 2 -12 3.5t-12 3.5q-2 1 -4.5 2t-4.5 2q-51 20 -67 41.5t-8 43.5q5 -5 14.5 -11t14.5 -9l12 -6q1 0 1 -0.5t1 -0.5
q24 -14 48 -21q2 -2 5 -2.5t5 -1.5q2 8 5 15t8 14q14 20 31.5 32t30.5 18q23 13 43.5 17.5t37.5 3.5t30.5 -6t22.5 -11q4 0 14 -10q4 -5 8 -11t6 -14q1 -6 0.5 -13.5t-2.5 -15.5q-4 -15 -14.5 -26.5t-25 -20t-31.5 -14.5t-32 -9q-5 -1 -9 -1.5t-9 -0.5q-1 0 -1.5 -0.5
t-1.5 -0.5q-12 -1 -24.5 -1t-25.5 2q5 -11 18 -18t16 -8q6 -2 14 -5.5t15.5 -7t13 -6.5t6.5 -4q3 -6 -22.5 -6t-60.5 5q-51 5 -82.5 -4.5t-49.5 -25.5q-15 -12 -23 -26t-11 -26q-4 -14 -4 -28q4 -27 16 -44t27 -27.5t31.5 -14.5t31.5 -4q34 0 58 5.5t42.5 15t34.5 23.5
t35 31q5 4 9 8q9 7 15 3q-1 -2 -2 -5q-2 -7 -7 -13q-23 -26 -43 -42t-35 -25q-18 -11 -33 -16q-11 -4 -23 -8q-11 -3 -25 -5.5t-30 -1.5zM88 354q9 -10 19 -16t19 -9.5t15 -4.5t7 -1v1v-1v1v2q-11 3 -21.5 8t-18.5 10q-10 5 -17 12zM105 331q7 -6 17 -10q8 -5 19 -9t25 -7
l1 3l-7 3t-17 6.5t-20 8t-16 8.5zM175 296q-1 0 -10 4t-17 6l-15 4l14 -7l8 -4t9 -3t10 -3zM203 9q-5 -1 -11 -2q-5 -1 -12.5 -1h-15.5h-14l-1 -3q1 0 7.5 -1t16.5 -1q18 0 31 5l14 7zM97 28l8 -4q1 0 11.5 -4t20.5 -6l13 -1l-12 4q-1 0 -5.5 2t-10 3.5t-10 3t-6.5 1.5z
M274 235q-11 4 -21 8q-8 4 -16.5 9t-11.5 12l-3 -1q1 -1 11 -13t40 -18zM270 286q8 0 21 0.5t27.5 3.5t29.5 8.5t26 15.5l-2 2q-10 -7 -26 -13q-14 -5 -34.5 -9.5t-48.5 -4.5v-3h7zM383 393l9 -8q6 -6 8 -13t2 -13q0 -7 -2 -15l3 -1q5 13 4 21.5t-4 13.5q-4 6 -9 10z
M389 375q-2 1 -2.5 2t-1.5 2t-2 1q-23 11 -47.5 3.5t-45.5 -21.5q-25 -17 -48 -41l-2 -4l-2 -4q39 -6 80 0q22 4 39 10q14 5 26 14.5t11 23.5q-1 3 -1.5 6t-3.5 8zM357 398q-2 0 -5 1q-6 2 -13 2t-17.5 -2.5t-22.5 -9.5l2 -3q5 2 12 4q6 2 14.5 3.5t19.5 1.5h10l12 -1z
M208 330q18 25 37 39.5t36.5 22t31.5 9.5t22 2q3 0 4 -1h3l1 3h-1q-2 0 -3 1h-9q-30 0 -53.5 -11.5t-39 -25t-24 -25.5l-8.5 -12zM198 240q-11 0 -26 -1.5t-31 -5t-30.5 -11t-25.5 -19.5l1 -1l1 -1q0 1 7 6.5t21.5 12t38 11.5t58.5 5h10v1v-1v3h-7q-3 0 -7.5 0.5t-9.5 0.5z
M130 236q-20 -3 -34.5 -10t-24.5 -15q-11 -9 -19 -18l2 -2q9 11 22 19t25 13t21 7.5l9 2.5zM37 143q0 -1 -1.5 -13t1.5 -24l3 -13v13q0 7 -0.5 20.5t0.5 16.5h-3zM29 119q0 -1 0.5 -13t8.5 -29q8 -16 25.5 -33.5t52.5 -28.5q7 -2 11 -2.5t5 -0.5v1v-1v1v2l-15 3
q-11 3 -24 10t-25.5 19t-22.5 29.5t-13 42.5h-3z" />
    <glyph glyph-name="F" unicode="F" horiz-adv-x="355" 
d="M254 327q-9 1 -32 6t-52.5 14.5t-60 23t-53.5 32.5t-34.5 43t-2.5 55q2 5 4.5 10t5.5 10q1 1 3 5q2 2 3.5 3t2.5 2h2q3 -2 3 -4q0 -17 9.5 -32t24 -28t32.5 -24t35 -20h1q2 -2 11 -6.5t28 -11.5q18 -7 52 -15q30 -9 70 -15q2 4 4 5q6 9 15 18q17 18 43.5 32.5t56 21
t59 3.5t52.5 -21q9 -8 13.5 -16t6.5 -24q1 -24 -17.5 -39t-49 -23t-70.5 -10.5t-80 -0.5q0 -1 -2 -3l-1 -4h-1l-10 -20t-14 -30q11 2 24 3t26 -1.5t24.5 -8t18.5 -17.5q6 -11 7 -21q1 -8 -4 -17t-19 -15q-2 -1 -5 -1q-5 -2 -9 0q-1 0 -1 1t-0.5 1t0.5 2q0 3 -0.5 9.5
t-4 12.5t-10 11t-18.5 6q-5 1 -12 1q-6 0 -14.5 -0.5t-19.5 -1.5q-2 -3 -4 -9q-40 -84 -58.5 -143t-14.5 -88q1 -9 6.5 -18t10.5 -15q2 -4 -1 -5q-2 -2 -3 -2t-3 1l-6 1t-14.5 6t-17 14t-14.5 26q-8 20 -5.5 54t14.5 72q5 18 15 41.5t22 49.5q-4 -1 -7.5 -2t-8.5 -2l-12 -3
q-2 -1 -1.5 -1t-2.5 -1q-11 -2 -17.5 2.5t-10.5 9.5q-1 2 1 4q1 1 3 1q17 5 34.5 10.5t35.5 10.5q9 19 17.5 36.5t16.5 33.5q1 1 2 3l2 4l3 6q-6 0 -11.5 0.5t-10.5 1.5zM351 256l14 -6q12 -5 18.5 -10.5t9.5 -11t3 -9.5v-4h4q2 12 -5 22t-17.5 13t-11.5 3zM209 -28
q-1 1 -7 11t-6.5 36.5t9.5 71.5t42 116l-2 1l-4 -8t-10 -22t-13 -32t-13 -38q-33 -107 1 -138l1 -1l1 2v-2v2zM220 102l4 10.5t9 24.5t9.5 29t6.5 24l-3 1q0 -1 -4 -12t-9 -25t-10 -28.5t-6 -22.5zM334 252q-2 0 -17 -1.5t-35.5 -5t-42 -8.5t-35.5 -12l-12 -6l13 3l16.5 4
t38 8.5t42.5 9t32 5.5v3zM531 382q0 -1 -9.5 -11.5t-31.5 -15.5l-10 -3h11q1 0 6.5 0.5t12.5 3t13.5 8t10.5 16.5l5 15zM437 362q20 0 38 4q15 3 28.5 8.5t17.5 16.5q4 12 -11.5 19t-40 5.5t-53 -12.5t-50.5 -35v-1q17 -2 33 -3t38 -2zM489 437l5 -1t11.5 -3t13 -5.5
t9.5 -9.5l4 -7l-1 8q-2 6 -6 10t-10.5 7.5t-18.5 3.5h-7v-3zM461 435q-23 0 -43 -7t-35 -15.5t-23.5 -15.5l-8.5 -7l2 -3q35 26 66.5 34t52.5 8q6 0 10.5 -0.5t7.5 -0.5q4 -1 7 -1v1v-1v1l1 2q-20 5 -37 5zM392 340q-35 0 -86.5 5t-111.5 22l-1 -3l14 -5t39 -10t59 -9.5
t74 -4.5q44 0 85 6v3q-1 0 -20 -2t-52 -2zM168 381l12 -4q13 -4 27 -8q11 -3 25 -6.5t25 -4.5l1 3q-1 0 -12.5 3t-25 6.5t-25.5 6.5t-15 3zM110 397q-1 1 -9 6.5t-15 8.5l-14 7l12 -9q3 -2 7 -5q6 -5 17 -10zM105 411l-6.5 4t-15 9.5t-17.5 12t-15 11.5l-3 -3q1 0 15.5 -13
t39.5 -24zM37 471q6 -11 15 -19t17 -13t13.5 -7.5t6.5 -2.5v1v-1v1l1 2q-11 5 -20 12t-16 14q-8 7 -15 15z" />
    <glyph glyph-name="G" unicode="G" horiz-adv-x="334" 
d="M93 -151q-15 -4 -34.5 -5.5t-38.5 3t-33.5 15.5t-18.5 32q-2 13 5 27.5t21 24.5q26 19 54 24t52 3t40.5 -7.5t20.5 -6.5l4 -2q2 -1 5 -1q6 9 13 20q6 9 13 21t15 26q-9 -5 -17 -9.5t-19 -7.5q-43 -13 -73.5 -11.5t-50.5 14.5t-30 36t-12 54q1 60 26 108.5t59 85.5
q1 1 3 4t7 8q-42 20 -51.5 41.5t4.5 44.5q5 -5 12.5 -11.5t11.5 -9.5q9 -9 23.5 -16t29.5 -13q1 0 1 -0.5t1 -0.5q7 8 15 15t17 15q15 13 32.5 25.5t37.5 22.5q18 10 45.5 16.5t53 5t42.5 -13.5t15 -40q-4 -33 -26 -53.5t-52.5 -32t-64.5 -15.5t-62 -3q-15 1 -28 3
q-8 -6 -14.5 -13t-13.5 -15q-25 -27 -40 -51t-23 -45t-10.5 -38t-0.5 -31q4 -33 24 -55q15 -12 33.5 -13.5t37 3.5t36 14t32.5 18q3 4 8.5 12t10.5 17.5t9.5 18.5t6.5 14q6 22 6 38.5t-2 27.5t-5 16.5t-4 5.5q-2 3 -3 5.5t-2 4.5q-3 2 1 6q0 1 3 1h2q2 -1 8.5 -2.5
t15.5 -8.5q5 -4 9 -8.5t8 -12.5q13 -21 12.5 -44.5t-5.5 -47.5q-6 -31 -20.5 -60.5t-28.5 -52.5q-17 -27 -36 -51q7 -2 18.5 -6.5t31.5 -9.5q29 -8 61.5 -12t66.5 -3q6 0 33.5 3.5t60 13t60.5 26t36 43.5q0 3 3 3q1 1 2 0l4 -6l3 -6q3 -11 5 -23.5t-3 -27.5q-4 -11 -14 -22
q-8 -9 -24 -19t-42 -17q-24 -7 -53 -11.5t-66 -3t-84 11.5t-107 32q-3 2 -7 3q-8 2 -9 3q-21 -21 -44 -37.5t-55 -23.5zM589 -38q-1 -23 -11 -35.5t-10 -13.5l2 -2q11 7 16 16t6.5 17t0.5 13.5l-1 5.5l-3 10v-11zM563 -80q-10 -7 -20 -12q-8 -5 -18 -10t-17 -7q-2 -1 -5 -1
q-1 0 -2 -1l1 -3q1 0 7 2q12 4 30 11.5t26 18.5l5 6zM220 -81l15 -6t40 -13t57 -13t67 -6q52 0 97 17q2 1 3 1t2 1q1 0 2 1l-1 3q-2 -1 -4 -1.5t-4 -1.5q-10 -4 -31 -8.5t-56 -4.5q-42 0 -88.5 8.5t-97.5 25.5zM375 360l-3 2q-1 -1 -1 -1.5t-1 -1.5q-4 -5 -14 -15t-28.5 -20
t-46.5 -17.5t-68 -7.5v-3h15q12 0 30.5 2t39 8t40.5 18t34 33zM354 423q20 -7 23.5 -18t4.5 -12h3q1 11 -3.5 17t-10.5 10q-7 4 -16 6zM363 393q-17 10 -40.5 4.5t-46.5 -17.5q-10 -6 -22 -14q-11 -7 -24.5 -16.5t-29.5 -23.5q-1 -1 -1 -1.5t-1 -1.5q38 -4 81 0q24 4 42 11
q16 6 30 15.5t17 23.5q1 4 1 6.5t-2 7.5q-1 2 -3 4q-1 1 -1 2zM324 419q-28 0 -49.5 -8t-36.5 -18t-23 -18.5l-8 -8.5l-9 -10l11 8q23 18 43.5 28t36.5 15.5t27 6.5t16 1h3v2v-2v2v2h-11zM164 345l67 51l-11 -5q-11 -5 -20 -11.5t-15 -11.5q-8 -7 -13 -13zM157 300
q-1 1 -10 4.5t-17 5.5l-15 3l14 -6q5 -1 9 -3t8.5 -3.5t9.5 -2.5zM69 356q9 -9 19.5 -15t19.5 -9t15 -4.5t7 -1.5v2v-2v2v2q-12 3 -22.5 7.5t-18.5 9.5q-10 5 -18 11zM86 334q1 -1 18.5 -10t43.5 -14l1 3l-7 2.5t-17 6t-20 7.5t-17 7zM56 200q-6 -12 -12 -27t-9 -31.5
t-2 -35t8 -36.5l3 1q-2 7 -3 15q-1 7 -2 16.5t1 22.5q2 23 14.5 57t44.5 76l-2 2q0 -1 -13.5 -17.5t-27.5 -42.5zM50 42l-4 6.5t-8 17t-7.5 24.5t-3.5 30h-3v-8t1.5 -19.5t6.5 -25.5t15 -27zM121 5q10 0 28.5 3t38.5 14l-1 3q-1 0 -23 -8t-54 -9v-3h11zM265 210
q16 -13 20 -26.5t4 -14.5h2v-1v1l1 1q0 12 -4 20t-9 13q-5 6 -12 10l-9 4zM247 65q-4 -12 -10 -24.5t-11 -23.5t-9 -18.5l-4 -7.5l3 -1q9 11 15 24t11 24l8 26zM209 -29l-4 -4l-4 -4l2 -2l2 2l6 6q24 25 38.5 54.5t22 55t10 42.5l2.5 17l-3 1q-8 -39 -18 -67.5t-20 -49
t-19 -33t-15 -18.5zM45 -143q10 0 23 1.5t28 6t30 12.5t28 22l-3 2q-12 -11 -30 -20q-15 -8 -37.5 -14t-53.5 -6h-3v-3q2 -1 5 -1h13zM155 -86l-4 -2.5t-9 -6t-9.5 -7.5t-6.5 -6l-7 -7l9 5l4 2.5t9 6t9.5 7t6.5 6.5l4 6zM146 -74q-28 10 -50 11t-38 -2q-18 -4 -33 -11
q-5 -4 -11 -11t-5 -16q1 -11 14.5 -16t33.5 -2.5t44 14t45 33.5zM-15 -92l4 7q9 13 21.5 21t23.5 13q13 5 27 8v3q-25 -2 -39.5 -9t-22.5 -14.5t-10.5 -13.5t-2.5 -7z" />
    <glyph glyph-name="H" unicode="H" horiz-adv-x="603" 
d="M47 281q-16 2 -22.5 9.5t-8.5 15.5q-2 10 1 22q6 19 22.5 29t35 14.5t34.5 5t19 0.5h10q36 0 70 -1.5t63 0.5t52.5 9t37.5 24q2 3 2.5 5.5t2.5 4.5l11 23l1 1q0 3 2 1q2 1 2.5 0.5t1.5 -0.5l4.5 -3t10 -7t11 -7.5t8.5 -6.5q7 -6 6 -14t-5 -16q-2 -4 -12.5 -26t-25.5 -54
q-7 -14 -13.5 -30t-14.5 -33q57 -8 95 -12.5t66 -6.5q5 13 10 25.5t10 23.5q13 25 27 52q12 23 28 51.5t35 56.5l1 1q0 1 2 3l2 2q3 3 6 3h2q27 -9 49 -28.5t34 -45t11 -54.5t-19 -56q-34 -58 -140 -64q-11 -27 -25 -57.5t-25.5 -62.5t-19 -64t-5.5 -62q1 -5 4 -11t11 -11
q18 -6 30.5 2t18.5 16t6.5 20t-0.5 20v1l2 2t4 0q8 -3 14.5 -11.5t9 -20t-1 -23t-15.5 -20.5q-18 -14 -38 -15.5t-37 5.5t-31 21.5t-20 32.5q-3 9 -3.5 26t1.5 37t6 41.5t10 39.5q5 16 14 41t20 54q-47 1 -88 2.5t-78 3.5q-11 -24 -19.5 -48.5t-16.5 -47.5l-4 -12
q-2 -5 -3 -9q-2 -4 -2.5 -9.5t-2.5 -11.5q-4 -15 -5 -27t0 -20q1 -9 6.5 -18t10.5 -15q2 -3 0 -5t-3 -2q-2 0 -3 1q-1 0 -7 1.5t-14.5 6t-17.5 13.5t-15 24q0 2 -1 3q-7 21 -5 43.5t8.5 45.5t16 45.5t17.5 43.5q-70 3 -117 1.5t-72 -14.5q-4 -2 -6 -2l-2 2q0 2 2 6
q5 8 15.5 18.5t31.5 19.5q51 23 139 18q7 0 13.5 -0.5t13.5 -1.5q11 30 22.5 56.5t21.5 48.5q-26 -8 -57 -7.5t-64 0.5q-34 0 -68.5 -3t-66.5 -14q-11 -5 -16 -11.5t-6.5 -13.5t-0.5 -13t2 -9q1 -2 1 -3t-1 -1q-5 -3 -9 -3h-5zM123 221q14 7 30.5 11t31.5 6.5t28 3t21 0.5
h12v1v-1v1v2q-8 1 -15 1h-14q-26 0 -44.5 -3.5t-29.5 -7.5t-16.5 -8l-5.5 -4l-9 -8zM275 228l-15 1q-7 0 -14 1t-15 1.5t-17 0.5q-28 0 -44 -4v-3h39q20 0 33 0.5t18 0.5zM280 86q1 6 2.5 12t2.5 11t2 11l-3 1q0 -1 -2.5 -7.5t-5.5 -16t-5.5 -20.5t-2.5 -20q0 -5 1 -6h1
q2 0 3.5 4.5t6.5 30.5zM260 65q3 14 8.5 34.5t10.5 40.5q6 23 13 47l-3 1q-9 -24 -16 -46q-6 -19 -12.5 -39t-8.5 -34q-3 -15 -1 -27t5.5 -20t7.5 -12.5t5 -5.5l2 2q-5 7 -9 16q-3 8 -4.5 18.5t2.5 24.5zM558 -81l13 5q9 4 12.5 10.5t4.5 12.5q1 7 0 15l-4 13l1 -14
q0 -9 -2.5 -15t-5.5 -11q-4 -5 -7 -8zM526 -87q-1 0 -8 2.5t-15.5 8t-16.5 15.5t-11 25l-3 13v-13l0.5 -7t5.5 -16t15.5 -18t31.5 -13l1 2v1zM564 224q2 5 4.5 10.5t4.5 11.5q4 8 9.5 23t7.5 26l-2 1l-4 -9t-9 -21.5l-10 -25t-8 -20.5q-1 -3 -1 -5l1 -1h1q1 0 1.5 1z
M661 239l-8 -4l-6.5 -3t-15.5 -7t-20.5 -7t-21.5 -4l1 -4q1 0 8.5 1t18 3.5t21 6.5t17.5 11zM677 258q13 13 18.5 27t7 26t0 20l-1.5 8l-3 -1q1 -18 -2 -32.5t-8 -24.5t-9.5 -15.5l-4.5 -5.5zM670 412q17 -18 25.5 -35.5t12 -32t3 -25t-1.5 -14.5q0 -1 -0.5 -1.5t-0.5 -1.5
l3 -1v1l1 2q6 26 0.5 46.5t-14.5 34.5t-17.5 21.5l-8.5 7.5zM661 377q-2 -3 -9 -15.5t-17 -32.5t-23 -45.5t-26 -54.5q25 3 42 12q16 8 25.5 23t15.5 39q8 35 -5 77v1q-1 -1 -1.5 -2t-1.5 -2zM613 378l-8 -15.5t-19.5 -40.5t-26 -57.5t-27.5 -67.5t-23.5 -70t-14.5 -66h3
l7.5 28.5t22.5 73.5t37.5 101.5t51.5 112.5zM493 216l-14 1.5t-34.5 3.5t-45 3t-46.5 1v-3l18.5 -1.5t42.5 -3t46.5 -3t31.5 -1.5zM387 377l-7 -14t-16 -32.5t-18 -38.5t-13 -33q-2 -5 -2 -5.5t1 -1.5v-1h1q1 0 2 1t4 7t8.5 19t15.5 36t18 42t9 19zM363 360l-4 -7.5t-9 -18
t-9.5 -22t-7.5 -20.5l3 -1q0 1 4 8.5t9 18t9.5 22t6.5 19.5l3 12zM103 361q-2 -1 -5 -1v-3l12 0.5t30.5 1.5t42.5 1.5t48 0.5q25 0 40.5 1.5t25 3t14 3l7.5 2.5l10 5l-11 -2l-9.5 -1.5t-25.5 -3t-36 -2.5t-42 -1h-15h-19q-30 0 -45 -1.5t-22 -3.5zM61 361q-17 -6 -25.5 -14
t-10.5 -16q-4 -9 -1 -18l2 -6l1 6q2 11 7.5 19t11.5 14q7 7 16 12z" />
    <glyph glyph-name="I" unicode="I" horiz-adv-x="282" 
d="M92 -42q-6 1 -19 5t-26 12t-23 21t-11 33q-1 15 5.5 25.5t16 16t20 6.5t18.5 -2q3 -2 3 -4t-1 -3l-1 -1q-5 -4 -14 -12.5t-11 -18.5q-1 -5 -1 -12.5t3 -14.5t9 -13.5t17 -10.5q7 -2 12 -1t7 2q4 2 5 3q24 17 55.5 70t67.5 139q2 4 3 8t3 8l22 53q4 11 10 26t12.5 31.5
t13 32.5t11.5 29q2 5 6.5 12.5t6.5 10.5q13 15 31 19q-6 -1 -11 -2q-11 -2 -19 -5q-6 -2 -27.5 -12t-50 -30.5t-59 -50.5t-52.5 -70q-4 -6 -8 -14q-3 -7 -6 -15.5t-5 -16.5q-1 -5 0.5 -14t10.5 -11q8 -2 22.5 1.5t39.5 17.5h1h3q3 0 3 -4v-1l-7 -49q0 -1 -2 -3.5t-7 -3.5
q-23 4 -47 9.5t-39 27.5q-7 9 -9.5 17.5t-4.5 16.5q-2 9 -2 17q2 32 18 60t42 51q30 29 63 49.5t62.5 33.5t51 19.5t28.5 8.5h2q12 3 23 -0.5t19.5 -10t15 -14.5t10.5 -14q1 -3 1 -5q0 -4 -6 -7q-6 -2 -12.5 -5.5t-11.5 -8.5q-9 -9 -24.5 -40.5t-31 -68.5t-29 -71.5
t-19.5 -48.5q-19 -48 -41 -88q-19 -35 -43.5 -67t-50.5 -44q-11 -5 -22.5 -5.5t-19.5 1.5zM137 181l6 -2q3 -1 8 -1q9 0 17 6q4 3 5 6l3 5l-5 -3q-5 -2 -10 -3.5t-9 -3.5l-9 -3zM106 182q-13 16 -10 45h-3l-1 -5t-1.5 -12t1 -15t6.5 -14q11 -13 29 -13v3q-3 0 -7 2
q-3 1 -7 3t-7 6zM93 265q3 8 9.5 18.5t13 19.5t12 15.5l5.5 6.5l-3 2q-17 -17 -27 -35t-13 -26q-1 -1 -1 -1.5t-1 -1.5l3 -1q1 0 1 1zM118 290q14 21 36.5 41.5t44 36.5t37.5 26l16 10l-2 3q-34 -15 -59 -35t-42 -38t-25.5 -30.5l-8.5 -12.5zM313 427q1 0 2 1q0 2 -2 2
q-13 -2 -25.5 -8t-13.5 -6q-1 -1 -1 -2q1 -1 2 -1t13.5 6t24.5 8zM293 264l-3 -11q-4 -12 -8 -23q-3 -9 -6.5 -19t-6.5 -16l3 -1l3.5 6.5t7 15.5t7 19t3.5 18v11zM381 413q-4 0 -15.5 -4.5t-22.5 -24.5l3 -2q5 7 11 13q5 5 11.5 9.5t14.5 5.5l11 2l-11 1h-2zM282 276
q-2 -4 -3 -6.5t-2 -4.5q-1 -3 -2 -5l3 -1q2 3 7 16q4 12 10 26.5t11.5 28t9.5 24t5 13.5q3 10 10.5 26.5t12.5 20.5l-2 2l-9 -9t-12 -21q-2 -5 -5 -14.5t-7 -20.5q-7 -18 -14.5 -39t-12.5 -36zM275 232q-40 -101 -66 -145t-27 -44l3 -2q16 18 32.5 49.5t30 62.5t22 54.5
l8.5 23.5zM197 84l-7 -10t-16 -22.5t-18 -26t-13 -20.5l3 -1q7 9 16 20q8 10 17.5 24.5t20.5 33.5zM48 -10l6 -8q1 0 9 -6.5t22 -6.5q19 0 34 14l-2 2q-4 -3 -8 -5q-10 -4 -22 -4q-16 0 -31 9zM50 69q-9 -2 -15 -6q-5 -4 -10 -11.5t-5 -20.5h3q1 7 5 14q3 5 8.5 11t14.5 10
l9 3h-10z" />
    <glyph glyph-name="J" unicode="J" horiz-adv-x="311" 
d="M309 276q-4 -11 -11.5 -28t-16 -37t-17.5 -41t-17 -39q-2 -7 -6 -16q-3 -8 -8 -18t-10 -21q27 14 42.5 33t13.5 50q0 1 1 2q2 2 5 0q2 -2 8 -15t4 -31t-18.5 -36.5t-59.5 -31.5q-3 -1 -6.5 -1.5t-6.5 -2.5q-19 -34 -43.5 -66.5t-50.5 -44.5q-11 -5 -24.5 -6.5t-24.5 0.5
q-6 1 -16 4t-21 14v1q-1 0 -7 7t-9.5 18t-0.5 24t20 27q7 6 15 9q20 10 47.5 14.5t57.5 10.5q13 23 26 51.5t27 61.5q2 4 3 8t3 8l22 53q4 11 10 26t12.5 31.5t13 32.5t11.5 29q2 5 6.5 12.5t6.5 10.5q13 14 31 19q-6 -1 -11 -2q-11 -2 -19 -5q-6 -2 -27.5 -12t-50 -30.5
t-59 -50.5t-52.5 -70q-4 -6 -8 -14q-3 -7 -6 -15.5t-5 -16.5q-1 -5 0.5 -14t10.5 -11q8 -2 22.5 1.5t40.5 17.5h3q4 0 4 -4v-1l-7 -49q-1 -1 -2.5 -3.5t-6.5 -3.5q-6 -3 -14 -2t-16.5 3t-16 5.5t-11.5 5.5q-8 5 -16 11t-13 14q-7 9 -9.5 17.5t-4.5 16.5q-2 9 -2 17
q2 32 18 60t42 51q30 29 63 49.5t62.5 33.5t51 19.5t28.5 8.5h2q12 3 23 -0.5t19.5 -10t15 -14.5t10.5 -14q1 -3 1 -5q0 -5 -5 -7q-7 -2 -13.5 -5.5t-11.5 -8.5q-12 -13 -22.5 -37.5t-19.5 -46.5zM114 151l6 -2q3 -1 9 -1q9 0 17 6q4 3 5 6l3 5l-5 -3q-5 -2 -10 -3.5
t-9 -3.5l-9 -3zM84 152q-13 14 -10 45h-3l-1.5 -5t-1.5 -12t1.5 -15t6.5 -14q10 -13 29 -13v3q-3 0 -7 2q-3 1 -7 3t-7 6zM70 235q3 8 9.5 18.5t13.5 19.5q8 11 17 22l-2 2q-17 -17 -27 -35t-14 -26q0 -1 -0.5 -1.5t-0.5 -1.5l3 -1v1zM95 260q14 21 36.5 41.5t44 36.5
t37.5 26l16 10l-1 3q-34 -15 -59 -35t-42 -38t-25.5 -30.5l-8.5 -12.5zM291 397q1 0 1 1t-1 2q-13 -2 -25.5 -8t-13.5 -6q-1 -1 -1 -2t1 -1h1q6 3 13 6q5 2 12 4t13 4zM263 79l11 6q8 5 11.5 12t4.5 13q1 7 0 15l-1 10l-2 -10q-2 -19 -8.5 -28t-6.5 -10zM359 383
q-5 0 -16 -4.5t-22 -24.5l3 -2q5 7 11 13q5 5 11.5 9.5t13.5 5.5l11 2l-11 1h-1zM259 246q-2 -5 -4 -11q-1 -3 -2 -5l3 -1q1 2 2.5 6t3.5 10q5 12 10.5 26.5t11 28t9.5 24t5 13.5q4 10 11.5 26.5t12.5 20.5l-2 2q-2 -2 -9.5 -9t-12.5 -21q-2 -5 -5 -14.5t-7 -20.5
q-6 -18 -13.5 -39t-13.5 -36zM24 -18q1 8 5 14q3 5 8.5 10.5t14.5 9.5l8 4l-9 -1q-9 -1 -15 -5q-5 -4 -10 -11.5t-5 -20.5h3zM63 -61q19 0 34 14l-2 2q-1 0 -8.5 -4.5t-21.5 -4.5q-16 0 -31 9l-9 5l7 -8q4 -4 8 -7q4 -2 9.5 -4t13.5 -2zM95 -26q20 20 40 56q-2 -1 -7 -1
q-29 -4 -51 -12q-19 -7 -32.5 -17.5t-8.5 -26.5q1 -2 2 -5q2 -5 5 -7q8 -6 20.5 -7t31.5 20zM123 -26q1 0 17 20t38 58l-3 2l-7 -10t-16 -22.5t-18 -26t-13 -20.5zM162 11q17 18 33.5 49.5t30 62.5t21.5 54.5l8 23.5l-3 1q-20 -51 -37 -86.5t-29 -58.5q-15 -27 -26 -44z
M267 223q-3 -12 -7 -23q-3 -9 -7 -19t-6 -16l3 -1l3.5 6.5t7 15.5t6.5 19t3 18l1 11z" />
    <glyph glyph-name="K" unicode="K" horiz-adv-x="516" 
d="M580 398q10 -37 -7.5 -66.5t-50 -51.5t-73.5 -37t-76 -23q46 -6 64.5 -29t22 -51.5t-0.5 -57.5t-4 -46q0 -19 4.5 -32t10 -21t11 -12t7.5 -6q3 -4 1 -6q-1 -1 -3 -2q-40 1 -58 20t-24 45t-4 54.5t2 49.5q1 18 -7.5 29.5t-21 18.5t-25.5 10.5t-22 4.5q-8 -16 -12 -28
q-10 -35 -26 -66q-14 -26 -34 -52t-46 -38q-11 -5 -22.5 -5t-19.5 2q-6 1 -19 4.5t-26 11.5t-23 21t-11 33q-1 15 5.5 25.5t16 16t20 6.5t18.5 -2q3 -2 3 -4t-1 -2l-1 -1q-5 -5 -14 -13.5t-11 -18.5q-1 -5 -1 -12t3 -14.5t9 -14t17 -10.5q7 -2 12 -1t7 2q4 2 5 3
q21 15 38.5 43.5t32.5 62.5t27.5 68.5t23.5 60.5q5 13 12 30.5t14 36.5q-20 -6 -50 -6q-38 0 -76 -0.5t-82 -5.5q-11 -2 -20 -4t-15 -4q-7 -2 -12 -4q-11 -4 -16 -10.5t-6.5 -13.5t0 -13t2.5 -9v-4q0 -1 -1 -1q-3 -2 -9 -2h-5q-16 2 -22 9.5t-8 15.5q-2 10 1 21
q5 16 17.5 26t29 15.5t36 7t37.5 1.5q36 0 70 -1.5t63 0t52.5 8.5t37.5 24q2 3 3 5.5t2 4.5l11 23q0 1 1 1q0 2 3 2q2 0 3 -1l4.5 -2.5t10 -6.5l11 -8t8.5 -7q7 -6 6 -13.5t-5 -16.5q-2 -3 -11 -22.5t-23 -48.5q-3 -8 -6.5 -16t-7.5 -17q24 8 44 16q9 5 37.5 20.5t57.5 40.5
q23 20 39.5 43.5t13.5 48.5q0 4 2 5h2q2 0 6 -4q2 -1 4 -5q5 -5 9.5 -12t7.5 -16zM388 396l4 -4q4 -6 5 -9t1 -10q0 -3 -1 -5l-1 -9l4 8q7 12 3.5 17.5t-5.5 6.5l-8 7zM26 286q2 11 7.5 19t11.5 14q7 7 16 12l-1 3q-17 -6 -25 -14t-10.5 -15.5t-2 -13l0.5 -5.5l2 -6zM104 70
q1 7 5 14q3 5 8 11t14 10l9 3h-10q-8 -2 -14 -6q-5 -4 -10 -11t-5 -21h3zM166 8q18 0 33 14l-2 2q-4 -3 -8 -5q-10 -4 -22 -4q-15 0 -30 9l-9 5l7 -8q4 -4 8 -7q4 -2 9.5 -4t13.5 -2zM327 349l-11 -2l-9.5 -1.5t-25.5 -3t-36 -2.5t-42 -1h-15q-5 0 -9.5 0.5t-9.5 0.5
q-30 0 -45 -2t-23 -4q-2 -1 -4 -1v-3l12 0.5t30.5 1.5t42.5 2t48 1q25 0 40.5 1t25 2.5t14 3l7.5 2.5zM243 63q7 10 14 22q6 11 14 26.5t16 35.5l-3 2l-5.5 -10.5t-13 -24.5t-14.5 -28l-11 -22zM256 106q15 25 30 58.5t27 64.5t19.5 52.5t7.5 22.5l-3 1q-42 -101 -62.5 -149
t-21.5 -48zM356 337l-4 -11q-4 -12 -8 -23q-3 -9 -6.5 -19t-6.5 -16l3 -1l3.5 6t7 15t7 19t3.5 18zM442 -1q1 0 4.5 -11t19.5 -18l2 3q-6 4 -10 8t-7.5 8.5t-4.5 10.5zM434 -6l-3 5.5t-6 18t-4.5 32.5t0.5 49h-3q0 -1 -1.5 -14.5t-1 -31t3.5 -35t12 -26.5zM434 126
q0 24 -9.5 39t-21.5 23t-22 11.5l-10 3.5l-14 2l13 -5q15 -7 25.5 -13.5t21.5 -20.5q12 -13 13 -67v-35h3v10v25q0 11 0.5 18.5t0.5 8.5zM528 364l10 5q7 4 11 11q4 6 7 15t1 21l-3 -1q0 -7 -2 -14q-2 -6 -5.5 -14t-10.5 -15zM532 349q-5 -5 -14 -13l-18 -16t-16.5 -13.5
l-7.5 -5.5l2 -3q12 7 22 15.5t18 16.5q9 9 16 17zM379 234q10 3 31.5 10t39.5 18l-2 3q-15 -7 -28 -12q-11 -5 -23 -9.5t-19 -6.5q-2 0 -2 -0.5t-1 -0.5h-1v-3q2 0 2.5 0.5t2.5 0.5zM399 249q2 1 25 10t50 24t51 35.5t29 44.5l-3 1l-5.5 -10t-22 -26t-46.5 -36t-79 -40z" />
    <glyph glyph-name="L" unicode="L" horiz-adv-x="322" 
d="M313 169q-18 -41 -36 -78.5t-29 -60.5l-10 -18q-5 -8 -10 -17.5t-10 -17.5q6 -3 16.5 -8t27.5 -12q27 -11 57.5 -19t62.5 -11q6 0 33 -0.5t59 4.5t61 17.5t40 37.5q2 2 3 2q2 1 3 0l3 -6q2 -14 3 -26.5t-6 -28.5q-5 -10 -16 -18q-9 -8 -25 -14.5t-42 -10.5
q-24 -3 -52.5 -4.5t-63.5 4t-79 20t-99 42.5q-1 0 -2 1t-2 1t-2 1q-13 -19 -43.5 -36.5t-62.5 -23.5t-58 3.5t-29 43.5q-2 11 6 24t20 21q16 11 35.5 15.5t39 5t35.5 -2t24 -4.5q6 9 18 34t27.5 59.5t33.5 76t37 84.5l8 18q4 11 10 26t12.5 31.5t13 32.5t11.5 29q2 5 6 12.5
t7 10.5q6 6 10 9q-1 2 -1.5 2.5t-1.5 2.5q-2 -1 -3 -1t-3 -1q-8 -2 -28 -12q-2 -1 -2.5 -1.5t-2.5 -1.5q-41 -23 -65.5 -41.5t-36.5 -30.5q-7 -7 -10 -10.5t-5 -5.5l-6 -8l-6 -8q-2 -4 -3.5 -11.5t5.5 -12.5q6 -4 19 -5t38 3q1 0 3 -1q3 -3 2 -5l-20 -39q-1 -1 -3 -2.5
t-7 -0.5q-7 2 -18 8t-22 15l-1 1l-2 2h-1q-13 12 -17 29q-8 30 7 57t41 44q36 26 75.5 40.5t83.5 30.5h1h2q12 3 23 -0.5t19.5 -10t15 -14.5t10.5 -14q1 -3 1 -5q0 -4 -6 -7q-7 -2 -13.5 -5.5t-11.5 -8.5q-11 -11 -17 -24t-9 -21q-5 -11 -13.5 -32.5t-18 -47t-20 -51
t-18.5 -45.5zM200 270l5 -4q8 -7 18 -7q7 0 10.5 2t4.5 2l4 3h-5h-5h-9t-8 1l-8 2zM188 265q0 1 -6 5t-9 14q-5 20 10 45l-2 2l-3.5 -4.5t-6.5 -10.5t-5 -14t0 -16q3 -16 21 -23zM185 343q6 6 15.5 14t18.5 15t16 11.5l7 4.5l-2 3q-22 -11 -36.5 -25t-20.5 -21q-2 -2 -2 -3
l2 -2q1 0 1 1zM206 347q15 17 38 32t44 26t36.5 17.5l15.5 6.5l-1 3q-32 -9 -57 -22.5t-42.5 -27t-26.5 -23.5l-9 -10zM151 -34q-23 8 -40.5 9t-29.5 -2q-14 -4 -25 -11q-5 -3 -10.5 -9t-5.5 -14q0 -9 10.5 -13t27 -1.5t36 12.5t37.5 29zM28 -55q4 11 12 18t16 11q10 4 20 7
v3q-18 -2 -28.5 -8t-15.5 -13t-6 -12.5l-1 -5.5v-9zM124 -74v-1v1l1 -2l-1 2q-1 -1 -14.5 -7.5t-36.5 -6.5q-11 0 -23 3l-11 2l10 -5q0 -1 7 -3.5t19 -2.5q25 0 51 17l-1 1l1 -1zM154 -46l-7 -4q-1 0 -8 -5t-12 -11l-4 -6l6 4q1 0 7.5 4t12.5 11zM174 -16l-14 6q-16 4 -31 6
q-8 1 -15 0v-4q3 0 18.5 -1.5t26.5 -3.5zM412 413q-4 0 -15.5 -4.5t-22.5 -24.5l3 -2q5 7 11 13q5 5 11.5 9.5t13.5 5.5l11 2l-11 1h-1zM315 278q-2 -4 -3 -6.5t-2 -4.5q-1 -3 -2 -5l3 -1q2 6 7 16q4 12 10 26.5t11.5 28t9.5 24t5 13.5q3 10 10.5 26.5t12.5 20.5l-2 3v-1
q-2 -2 -9.5 -9t-12.5 -21q-2 -5 -4.5 -14.5t-7.5 -20.5q-6 -18 -13.5 -39t-12.5 -36zM317 250q-3 -12 -7 -23q-3 -9 -7 -19t-6 -16l3 -1l3 6t7 15t7 19t3 19l1 11zM290 210q-38 -102 -63 -146.5t-25 -45.5l2 -1q16 18 32 50t28.5 63.5t20 55l7.5 23.5zM570 -44
q-2 -8 -6 -15.5t-8 -13.5q-4 -7 -10 -13l-8 -8l10 6q11 6 16 13.5t7 14.5q3 8 2 16l-2 9zM546 -77q-2 0 -6 -3q-8 -4 -26 -12t-40 -11v-3q1 0 9 1t19.5 3.5t22.5 6.5t18 11q5 5 4 6v1h-1zM440 -93q1 -1 5 -1h15q11 0 24.5 2t27.5 7l-1 3l-22 -4q-10 -2 -21.5 -3t-21.5 -1
q-4 0 -6 1v-4zM330 -84l10 -3t26 -6t36 -6t41 -3q24 0 46 5l-1 3l-10 -2t-12 -1h-16q-18 0 -47.5 3t-71.5 13zM223 -52q-4 2 -5 3l-1 1l-2 -3q4 -2 7 -4q7 -4 18 -9.5t24 -11.5t26 -10.5t24 -6.5l15 -3l-14 6l-11 4t-26 10t-30.5 12.5t-24.5 11.5zM200 -15q1 0 15.5 21.5
t33.5 60.5l-3 2l-6 -10t-14 -23.5t-16 -27.5l-12 -21z" />
    <glyph glyph-name="M" unicode="M" horiz-adv-x="621" 
d="M519 -62q-5 10 -8.5 26.5t-4.5 37t0 41.5t4 40q3 16 8.5 37t12 44t14.5 46.5t15 44.5q-21 -30 -47 -63.5t-50.5 -64.5t-44.5 -55.5t-29 -36.5h-1q-4 -5 -9.5 -4t-7.5 3l-36 23q-2 2 -6 7t-2 13v1q7 24 17 60t21 71q-20 -33 -39.5 -59.5t-34.5 -45.5q-18 -22 -34 -39
l-15 -15q-12 -11 -27.5 -20.5t-32 -16.5t-32.5 -11t-29 -4q-20 0 -32 3.5t-32 17.5q-19 11 -30.5 29t-15 39t0 43t14.5 42q9 14 25 25q14 10 36 18.5t56 11.5q3 0 7 -1q8 -2 13 -8l31 -38q1 -1 1 -5q-2 -4 -5 -2q-4 0 -8 1q-10 2 -20 2q-13 0 -30.5 -3.5t-35.5 -14.5
t-30 -24.5t-14 -29.5q-2 -12 -0.5 -28t9.5 -27h1q4 -5 10 -9q5 -3 12.5 -5.5t18.5 -2.5q20 0 47.5 12t54.5 32t54 52t51.5 68.5t46.5 74.5t39 69.5t27.5 53.5t13.5 26q0 1 1 1q2 4 6 1l4.5 -2.5t10.5 -6.5t12.5 -8t9.5 -7q11 -8 8.5 -19t-8.5 -23q-2 -3 -8 -18t-14.5 -39
t-18.5 -54.5t-20 -63.5q-5 -16 -8.5 -30.5t-7.5 -28.5q35 38 70.5 85.5t65 91t50.5 76.5t27 43v2q1 0 1 1q3 3 6 1l5 -3t11 -7t12 -7.5t10 -6.5q10 -8 7.5 -19.5t-8.5 -22.5q-2 -3 -7.5 -18.5t-14 -39.5t-18.5 -54.5t-20 -63.5q-12 -39 -20.5 -76.5t-14 -69t-7 -57
t1.5 -40.5q0 -2 0.5 -3.5t0.5 -3.5q2 -5 6 -11t13 -10q19 -6 30 2t16 15q5 8 3.5 20.5t-3.5 19.5v2q0 1 1 2q2 1 5 0q8 -3 15.5 -12t11.5 -20t2.5 -22.5t-11.5 -21.5q-16 -15 -33.5 -15t-33.5 5q-18 6 -37 20q-7 5 -14.5 13.5t-13.5 20.5zM631 -86l1 -3q1 0 3 2q3 3 6.5 10
t1.5 18l-2 12l-1 -12q-1 -6 -2 -11q-2 -11 -6 -15zM644 -67q0 -1 -0.5 -6.5t-3.5 -12t-9.5 -12t-18.5 -6.5l1 -3q2 0 11 1.5t17 9.5q8 10 7 29h-4zM455 404l2 -4q0 -1 3.5 -4t7.5 -6q6 -6 6 -16v-9l-3 -15l5 14q8 17 3.5 23t-5.5 6zM337 208q-19 -26 -33 -43.5t-24 -28.5
q-11 -13 -20 -21l2 -2q11 8 24.5 23.5t25.5 30.5t20 27t9 13v1v2h-1h-1h-1zM24 138q11 25 28 39.5t34 22.5q19 9 41 13v3q-36 -4 -56.5 -16.5t-31.5 -25.5q-11 -14 -14.5 -24t-3.5 -11l-3 -14zM113 6q16 0 29 4l-1 3q-2 -1 -6 -1q-4 -1 -15 -1q-17 0 -38.5 7.5t-38.5 32.5
l-2 -1l4 -7t13 -15.5t22.5 -15t32.5 -6.5zM358 217l-1 1v1h-1q-2 0 -4 -4q-6 -8 -8 -12q-11 -13 -28.5 -34.5t-37.5 -44.5t-40 -45t-36 -37l2 -2q17 13 39 36q19 19 45 49.5t58 75.5q6 8 8 11t3 4h1v1zM368 49l-9 8q-3 3 -7 7.5t-3 7.5v24v11l-3 -10q0 -1 -2 -8.5t-3 -12.5
q0 -6 6 -12.5t11 -8.5zM566 137l5 16.5t11 37.5l12 42t8 30l-3 1l-4.5 -14t-10.5 -33.5t-12 -41t-9 -37.5zM622 408q-9 -13 -16 -25q-7 -11 -13 -21.5t-10 -15.5l3 -1l5.5 6.5t12 16t13 20t8.5 19.5l2 9zM433 365l-3.5 -11.5t-8.5 -27l-10 -31t-8 -24.5l3 -1q0 1 5 13.5
t10.5 28t10 31t4.5 21.5l1 10zM439 345q-12 -27 -24 -63t-21 -69t-15 -56.5l-6 -23.5l3 -1q4 13 10 34t13.5 44t15 47t13.5 43t10 31t4 13zM379 113q0 1 3 9.5t6.5 19.5t7 21.5t3.5 16.5v11l-3 -10q0 -1 -3 -9.5t-6.5 -19t-6.5 -21.5t-4 -17zM390 69q23 26 44 50
q18 20 36 41.5t27 35.5l-3 2l-7 -8t-17 -20l-22.5 -27t-24 -29t-21.5 -25.5t-15 -17.5zM521 220l6 7t13 16t13.5 17.5t9.5 13.5l5 10l-8 -8l-4.5 -5.5t-11.5 -13t-14 -17.5t-12 -19l-7 -13zM557 166q-6 -24 -12 -51t-10 -55t-4 -54t6 -47h4q0 1 -1.5 23.5t3 65t18 104
t42.5 139.5l-3 1l-4 -10t-10 -27.5t-14 -40t-15 -48.5z" />
    <glyph glyph-name="N" unicode="N" horiz-adv-x="538" 
d="M411 -45q-3 10 -3.5 26.5t1.5 37t6 41.5t10 40q4 15 12.5 38t18.5 49t21 53t21 48q-11 -11 -22 -23.5t-24 -27.5q-28 -31 -60.5 -70.5t-69.5 -90.5q-11 -14 -21 -28.5t-21 -29.5q0 -2 -2 -2v-1q-5 -6 -12 -6q-4 0 -6 2l-24 11l-8 4q-3 1 -5 6q-2 4 -1.5 8.5t1.5 6.5v1
l5 17q11 43 26 88.5t32 87.5q13 32 25 61t23 52q-20 -6 -50 -6h-58h-12q-26 -1 -48 -2t-40 -4q-12 -2 -21 -4t-15 -4q-7 -2 -12 -4q-11 -4 -16 -10.5t-6 -13.5t0 -13t2 -9v-3q0 -1 -1 -1q-3 -3 -8 -3h-5q-17 2 -23 9.5t-8 15.5q-2 10 1 22q5 19 21.5 29t35 14.5t34.5 5
t19 0.5h11q35 0 69 -1.5t63 0t52.5 8.5t37.5 24l5 10l11 23l1 1q2 2 3 2q2 0 3 -1l4.5 -2.5t10 -6.5l11 -8t8.5 -7q7 -6 6.5 -13.5t-5.5 -15.5q-2 -5 -12.5 -26.5t-25.5 -54.5q-20 -44 -42.5 -99t-39.5 -105q7 10 15 21.5t18 24.5q38 51 100.5 124t154.5 164q0 1 1 2v1
q4 2 7 1l4.5 -3t9.5 -7t11 -7.5t9 -6.5q9 -9 5 -20t-12 -22q-2 -3 -10.5 -18.5t-20.5 -39.5t-27 -54.5t-30 -63.5q-18 -39 -32 -76.5t-24.5 -69t-15.5 -57t-5 -40.5v-1v-6q2 -5 5 -11t11 -10q18 -6 30.5 2t17.5 15q7 8 7.5 20.5t-0.5 19.5v2l2 2q1 1 4 0q7 -3 14 -12t9 -20
t-1 -22.5t-15 -21.5q-18 -15 -36.5 -15t-33.5 5q-18 6 -33 20q-6 5 -12 13.5t-11 20.5zM527 -68q-1 -1 -2 -1l1 -3q1 0 3 2q3 2 7.5 8.5t3.5 18.5l-1 12l-2 -12q-1 -6 -3 -10q-2 -5 -3.5 -9t-3.5 -6zM505 -88h5q5 0 12 1.5t13 7.5q9 9 9 27h-3l-1 -5.5t-5 -11.5t-11 -11
t-19 -5v-3zM394 417l4 -4q2 -2 3.5 -4.5t2.5 -4.5q1 -4 1 -11q0 -3 -1 -5q5 9 3 17q-1 4 -4 5zM31 307q2 10 7.5 18.5t12 14t11.5 9l5 3.5l-1 2q-18 -6 -26 -14t-10.5 -15.5t-2 -13l0.5 -5.5l2 -6zM332 369l-11 -2q-17 -2 -35 -4q-16 -2 -36 -3t-42 -1h-15q-5 1 -9 1h-9
q-31 0 -46 -2t-22 -4q-2 0 -3 -0.5t-2 -0.5v-3l12 0.5t31 1.5t42.5 2t47.5 1q25 0 41 1t25.5 2.5t13.5 3t7 2.5zM473 160l6.5 15.5t15 36t16.5 40.5t11 29l-3 1q-10 -23 -20 -45q-8 -19 -16 -39.5t-13 -36.5zM610 399l-4.5 -8t-11 -18l-13 -20t-10.5 -16l3 -1l5.5 6.5t12 16
t13 20t8.5 19.5l2 9zM358 346q-4 -12 -8 -23q-3 -9 -7 -19t-6 -16l2 -1l3.5 6.5t7.5 15.5t7.5 19t3.5 18v11zM342 325q-42 -101 -62.5 -148.5t-20.5 -48.5l3 -1q15 24 30 58t26.5 64.5t19 52.5l7.5 22zM248 83q1 0 14.5 22t30.5 62l-3 2l-5.5 -10.5t-13 -24t-15 -28
t-10.5 -22.5zM301 69l9 11.5t20.5 26t22 28t14.5 17.5l-2 2l-9.5 -9.5t-19.5 -21t-21.5 -26.5t-16.5 -26l-5 -12zM437 260q3 3 20.5 21t37.5 39t36.5 38.5t18.5 19.5l-2 2q-15 -11 -34.5 -30.5t-36.5 -39t-29.5 -34l-12.5 -14.5zM524 310l-5.5 -9.5t-13.5 -26t-18 -38
t-20 -46.5q-9 -23 -18.5 -50t-16 -54t-9 -53t0.5 -47h3l1.5 22.5t10.5 64.5t29 101.5t58 133.5z" />
    <glyph glyph-name="O" unicode="O" horiz-adv-x="454" 
d="M438 167q-9 -40 -31.5 -78t-53 -68t-66.5 -48t-70 -17q-49 2 -80 32t-38 82q-8 0 -15 -1t-15 1q-21 1 -37 9q-14 7 -25 21t-9 40q1 12 7 21q5 8 15 13.5t28 3.5q-4 -15 -1 -28q2 -11 10.5 -21.5t28.5 -12.5h11q1 7 2 15.5t2 17.5q7 42 23.5 81t38 72.5t46.5 59.5t49 41
q18 11 38 18.5t40.5 8t40 -6t35.5 -23.5q16 -16 20 -45.5t-6 -65.5l6.5 -6.5t9.5 -19t4 -37t-8 -59.5zM420 274l5 -13q6 -13 7 -29t-1 -30q-2 -17 -5 -33l3 -2q7 26 8 44t-1 29.5t-5.5 17l-3.5 5.5zM412 294q-6 -18 -15.5 -34.5t-19 -29t-16.5 -20.5l-7 -8l2 -2
q17 16 28.5 32t18.5 30q8 16 13 31zM308 141q-21 -15 -48 -28q-23 -11 -56 -23t-74 -17q3 -25 14.5 -43.5t34.5 -23.5q25 -7 51 -3q22 4 48 18.5t49 50.5q35 53 48 91.5t16 57.5q-14 -21 -35 -41.5t-48 -38.5zM222 108q2 1 3.5 1t4.5 2q10 4 28.5 13t39.5 26l-1 3l-8 -5
t-19 -11.5t-22.5 -13.5t-18.5 -10q-3 -1 -6 -1h-2zM389 152q-5 -11 -11 -24t-12 -24q-7 -13 -14 -27l2 -2q7 9 14 21.5t12 24.5t8.5 20.5t3.5 9.5zM358 390q32 -6 42 -30q9 -18 5.5 -39t-8.5 -34q-3 -4 -5 -11l3 -1q0 1 1 3q2 4 3 8q24 52 5 81q-5 10 -13 15.5t-15 8.5
t-12.5 4l-5.5 1v-6zM371 352q-10 9 -23 13q-11 3 -28.5 2t-39.5 -15q-21 -13 -40.5 -32t-36 -41t-30 -44.5t-23.5 -43.5q-7 -14 -13 -33.5t-8 -39.5q41 6 87 28t84 54q14 13 27 25q11 11 22 22.5t17 21.5q7 9 11.5 20.5t5.5 23.5t-2 22.5t-10 16.5zM300 383
q-12 -2 -22.5 -7.5t-18 -12t-12 -11.5l-4.5 -5l2 -3q8 8 17 14.5t18 11.5q10 5 21 10zM248 367l-13.5 -12t-33 -35.5t-41.5 -60t-38 -86.5l3 -1l8 18.5t23 47t38.5 62t55.5 64.5zM86 101q2 -1 5 -2t15 -1q23 0 56 11v3q-1 0 -21 -4.5t-40 -4.5q-4 0 -7.5 0.5t-6.5 0.5z
M44 171l-14 -2q-4 -1 -8 -3q-7 -3 -14 -13q-7 -16 0 -36l3 1l-1 5.5t0 13t5.5 15.5t15.5 13zM97 88q24 0 55 7.5t69 24.5l6 3q2 1 3 1l-3 4q-3 -3 -7 -5q-16 -7 -50.5 -18t-69.5 -11q-16 0 -28.5 2.5t-22.5 9.5l-9 5l7 -8q4 -4 11 -8q6 -3 15.5 -5t23.5 -2zM153 -14
q-8 7 -16 17q-7 8 -14 20t-11 28h-3l2 -8t7 -19t13 -23t21 -19zM192 -30l-13 7q0 1 -14 10.5t-28 26.5l-3 -2l3 -5t9 -11.5t14 -12.5t18 -9zM291 -11q1 0 1 0.5t1 0.5l1 1l-2 3q-1 0 -1.5 -0.5t-1.5 -0.5q-6 -4 -22.5 -10t-40.5 -6q-10 0 -15 1l-13 1l12 -5q2 -1 6 -2t15 -1
q10 0 25 3.5t35 14.5zM266 -9q22 7 40 19t32 27t24.5 31.5t18.5 31.5q8 16 14.5 31t10.5 26q4 13 7 25l-3 1q-18 -59 -42.5 -95.5t-46.5 -57t-38.5 -28t-17.5 -7.5v-2v2v-2v2z" />
    <glyph glyph-name="P" unicode="P" horiz-adv-x="451" 
d="M492 250q-10 -45 -41.5 -81.5t-73.5 -60.5t-89 -33t-89 2q-14 -35 -23 -61t-7 -34v-6q0 -6 3 -12q2 -5 -2 -10t-11 0q-3 2 -9.5 9t-11.5 19t-6.5 28.5t4.5 39.5q2 10 6.5 22.5t10.5 28.5q-14 13 -24.5 36t-4.5 60q5 33 25.5 60.5t44 47t43.5 31.5t25 14q9 4 20.5 5.5
t17.5 -1.5q5 -2 8 -13.5t-7 -33.5q-14 -32 -30 -65q-14 -29 -30 -65t-30 -71l16 -3q33 -4 66.5 8.5t62.5 35.5t50.5 53t31.5 62q8 25 2 54t-24.5 53t-49 40.5t-71.5 18.5q-34 1 -71 -9.5t-71 -31t-60 -48.5t-38 -62q-3 -11 -1 -21t6.5 -17.5t10 -13t8.5 -6.5l2 -1h1v-1
q0 -2 -1 -4l-2 -4q-2 -2 -3 -4q-11 -12 -21 -13t-18 3q-9 4 -17 14q-12 16 -11.5 34.5t7.5 35.5t16.5 31t15.5 21q13 13 36.5 34t57.5 40.5t76.5 32.5t93.5 11q56 -2 94.5 -19.5t60.5 -45t28 -62.5t-3 -72zM159 234q-7 -11 -11 -25t-4 -28.5t4.5 -28.5t15.5 -26
q12 29 25.5 61t24.5 58q13 31 27 59q2 3 3 7q2 7 -2 6q-1 0 -10 -7t-22 -18.5t-27 -26.5t-24 -31zM317 96l1 1q126 60 149 149q7 26 4 49t-8 40q-7 20 -17 37l-3 -2l6 -11.5t11 -31t6 -44.5t-9 -52q-12 -29 -34.5 -53t-45.5 -41t-41 -27t-20 -11zM266 301l-8.5 -18.5
t-19.5 -44t-22 -51.5t-17 -42l3 -1q1 2 11 24.5l22 49.5t22 51.5t12 30.5l4 15zM371 433q19 -5 34 -13t25.5 -16t16 -13.5l5.5 -5.5l2 2q-10 14 -23.5 23t-26.5 15q-15 7 -32 11zM474 324q5 -20 4.5 -37t-3 -30.5t-6 -21l-3.5 -7.5l3 -1q10 19 12.5 36.5t1.5 31.5
q-1 16 -6 30zM235 207q0 -1 -5.5 -13t-12.5 -27.5t-13 -29.5t-7 -20l3 -1q0 1 6 14.5t12.5 29t12.5 29.5t7 17zM44 213q-7 8 -10 17.5t-4 18t-1 14.5v6h-2q-6 -18 -4 -29t6 -17.5t9 -9.5l5 -3l6 -3zM185 86l-5 -11q-5 -11 -9 -22q-4 -10 -8 -22.5t-7 -24.5h3q0 1 3.5 10.5
t8 21t8 22.5t4.5 14zM158 -32q-2 2 -4 6q-5 8 -9 25t1 41l4 14l-7 -13q-3 -9 -4 -20q-1 -9 1.5 -21.5t10.5 -26.5q1 -3 3 -5q1 -1 1 -2l2 1zM379 149l13 9q8 5 15.5 13t13.5 16t10 14l4 6l-3 2q-5 -8 -12 -16l-14 -16q-8 -9 -16 -17zM245 283q0 -1 -3.5 -7.5t-7.5 -16
t-8.5 -19t-6.5 -16.5l3 -1q0 1 3.5 8t8 16.5t8.5 19t6 15.5zM258 84q-11 0 -21 1q-8 1 -17 1t-14 2l-1 -3q1 0 10.5 -3t24.5 -3q5 0 9.5 0.5t9.5 1.5l14 3h-15zM288 350q-6 0 -12 -2q-3 -1 -6 -1l1 -3q20 5 26 -3q3 -3 3 -10q-1 -2 -1 -5l3 -1v1q0 3 1 5q1 9 -3 15
q-4 4 -12 4zM150 32l6 11q1 1 5.5 10t5.5 20l1 11l-4 -10q0 -1 -4 -11t-6 -19z" />
    <glyph glyph-name="Q" unicode="Q" horiz-adv-x="469" 
d="M108 80q-7 0 -14.5 -0.5t-15.5 0.5q-21 2 -37 9q-14 6 -25 19t-9 38q2 10 8 18q5 7 15 12.5t28 3.5q-4 -15 -1 -26q2 -10 10.5 -19t28.5 -11h11q1 6 1.5 13.5t2.5 15.5q7 39 24 74.5t39.5 66.5t48 54.5t49.5 38.5q18 10 38.5 17t40.5 7.5t39.5 -6t35.5 -21.5
q17 -14 20.5 -42t-8.5 -60q2 -1 7.5 -6t10 -17t4.5 -33.5t-8 -54.5q-10 -37 -33.5 -72t-55 -62.5t-67.5 -44t-70 -15.5h-10t-10 2q5 -2 8.5 -4t8.5 -3q3 -2 22 -9t42.5 -11.5t47.5 -2.5t38 17l3 3q0 -1 1 -2t1 -6q0 -3 -1 -4q-3 -14 -9 -25q-5 -10 -14.5 -19t-23.5 -12
q-16 -5 -35 -2q-17 2 -40.5 11.5t-53.5 33.5q-18 13 -35 22q-14 8 -30 12t-27 -1q-19 -8 -21 -19.5t-1 -16.5l-2 -3h-1v-1q-3 0 -7 2l-4 2q-10 9 -10 19t5 18q4 10 14 19q14 13 29 15t29 -1q-26 26 -32 69zM76 -26q8 15 21 22q6 4 12 5v3q-11 -2 -18 -6.5t-11 -9.5
q-5 -6 -7 -13l-4 -12zM118 63l1.5 -7.5t6 -17t12.5 -20t21 -17.5l2 3l-5 4t-11.5 11.5t-13 18.5t-10.5 25h-3zM320 147q-22 -15 -50 -27q-24 -11 -57 -21.5t-74 -15.5q3 -22 14 -39t34 -21q26 -6 52 -2q23 3 49.5 16t49.5 45q35 50 49.5 85t17.5 53q-16 -20 -36.5 -38.5
t-48.5 -34.5zM232 116q1 1 2.5 1.5t3.5 2.5q11 3 30 11t42 23l-2 3q-14 -8 -27 -15q-11 -6 -23.5 -12t-20.5 -8q-2 -1 -5 -1h-1zM402 156q-5 -10 -11.5 -21.5t-12.5 -22.5q-7 -12 -15 -24l1 -2q7 8 14.5 19.5t13 22.5t9.5 18.5t4 8.5zM187 -3q0 1 -14.5 9t-28.5 23l-3 -2
l3.5 -4t9 -9.5t13.5 -11t18 -8.5l14 -5zM352 -53q-1 0 -1 -2q0 -1 1 -1h1q1 0 7.5 2.5t8.5 7.5q2 2 -1 2l-2 -1q-1 -2 -5.5 -4.5t-8.5 -3.5zM351 -78q-1 -1 -1.5 -1t-1.5 -1q-5 -3 -13.5 -6.5t-25.5 -3.5q-4 0 -8 0.5t-9 0.5v-3q2 -1 5 -2q6 -2 14 -2q21 0 38 12l4 4z
M262 -76q1 0 15.5 -5.5t33.5 -5.5q10 0 19 1.5t17 6.5v1v-1l-1 3v-1v1l1 -2l-1 2q-1 -1 -10 -4.5t-25 -3.5q-22 0 -47 12zM232 -48q-8 0 -23.5 8t-29.5 16q-9 7 -17 10q-8 5 -16.5 6.5t-13.5 1.5h-3q-5 0 -6.5 -0.5t-2.5 -0.5l-10 -7l12 3h2q2 0 3.5 0.5t4.5 0.5q5 -1 16 -4
t27 -14q25 -16 39 -20t17 -4h1v4zM302 9v2q-1 0 -1.5 -0.5t-1.5 -0.5q-7 -3 -24 -8t-40 -5h-8t-8 1l-13 1l12 -5q2 -1 5 -2q6 -2 15 -2q11 0 26.5 3.5t35.5 13.5zM432 268l5 -12q6 -11 7 -25.5t-1 -27.5q-2 -15 -6 -31l3 -1q8 24 9 40t-1 26.5t-5 15.5l-3 5zM422 184
q-19 -54 -43.5 -87t-47 -52t-39 -25.5t-17.5 -7.5v-2v2v-2v2l-1 -3h1q45 12 73 42t45 58q17 29 25 52q4 12 7 22zM426 286q-7 -16 -17 -31t-19.5 -26.5t-16.5 -19l-7 -7.5l2 -2q17 14 28.5 29t19.5 28q8 14 13 28zM371 376q32 -6 43 -28q10 -18 5.5 -37t-10.5 -31
q-1 -2 -1.5 -5t-1.5 -5l1 -1q1 1 2 3q2 4 3 7q24 47 6 74q-5 9 -12.5 14t-15 8t-13 3.5l-5.5 0.5zM387 340q-11 9 -25 13q-12 3 -29 1.5t-38 -14.5q-22 -13 -42.5 -30.5t-38 -37t-31.5 -40t-23 -39.5q-7 -14 -13 -31.5t-8 -36.5q40 6 87 26t87 49q14 12 27 23q11 10 22.5 21
t17.5 21q7 7 12 17.5t6 21t-1.5 20.5t-9.5 16zM314 369q-12 -2 -22.5 -7.5t-18.5 -11.5t-12.5 -11t-5.5 -5l2 -1q8 7 18 13t19 10.5t15 7l6 2.5zM261 353l-14 -10.5t-34 -32.5t-42.5 -55t-39.5 -79l3 -1l8 17.5t24 43t40 56.5t56 58zM94 110q1 0 5.5 -1t15.5 -1q23 0 56 9
l-1 4q-10 -3 -21 -5q-20 -5 -40 -5q-4 0 -7.5 0.5t-6.5 0.5zM52 174l-12 -2q-1 0 -9.5 -3t-13.5 -12q-8 -11 -2 -32h3l-1 5t0.5 12t6.5 14t17 12zM53 111q1 0 12 -7t40 -7q24 0 55.5 8t69.5 22q2 1 3.5 1.5t2.5 1.5t2 1l-1 3l-4 -2l-4 -2q-8 -3 -21 -7t-29.5 -8.5
t-34.5 -7.5t-36 -3q-32 0 -52 10l-7 6z" />
    <glyph glyph-name="R" unicode="R" 
d="M508 240q-9 -39 -34.5 -72.5t-60.5 -57.5t-75.5 -37t-79.5 -12q6 -8 21.5 -24.5t36 -32t44.5 -24t47 0.5q4 0 5 -1v-2q0 -4 -2 -6l-3 -4q-6 -8 -15 -15t-23 -12q-17 -7 -43 -4q-13 2 -26 8.5t-27 18.5h-1q-17 15 -33 35.5t-31 49.5q-11 -28 -18 -48.5t-6 -28.5v-6
q0 -6 3 -12q2 -5 -1.5 -10t-11.5 0q-3 2 -9.5 9t-11.5 19t-6.5 28.5t4.5 39.5q2 10 7 22.5t11 28.5q-14 13 -25 36t-5 60q5 34 25.5 61t44 47t43.5 31.5t25 13.5q9 4 20.5 5.5t17.5 -1.5q5 -2 8 -13.5t-7 -33.5q-14 -32 -30 -65q-14 -29 -30 -65t-30 -71l16 -3
q34 -4 67.5 8.5t62.5 35.5t50.5 53t31.5 62q8 25 1.5 54t-25 53t-49 40.5t-71.5 18.5q-33 1 -73 -10.5t-76.5 -31.5t-63.5 -46t-32 -53q-3 -11 -1 -21t6.5 -17.5t10 -13t8.5 -6.5l2 -1h1v-1q0 -2 -1 -4l-2 -4q-2 -2 -3 -4q-11 -12 -21 -13t-18 3q-9 4 -17 14
q-12 16 -11.5 34.5t7.5 35.5t16.5 31t15.5 21q18 22 47.5 42t65.5 35.5t76 24t80 6.5q57 -2 95.5 -19.5t60 -45t27.5 -62.5t-2 -72zM179 117q12 29 25.5 60.5t25.5 57.5q13 30 27 59q2 3 3 7q1 2 0 4.5t-3 1.5q-1 0 -10 -7t-22 -18t-27 -26.5t-24 -31.5q-14 -22 -14.5 -53
t19.5 -54zM330 86l1 1q126 60 149 149q7 26 4 49t-8 40q-7 20 -17 37l-3 -1l6 -12t11 -31.5t6 -44.5t-9 -52q-11 -29 -34 -53t-46 -41t-41 -27t-20 -11zM279 291l-8.5 -18.5t-19.5 -44t-22 -51.5t-17 -42l3 -1q1 2 11 24.5l22 49.5t22 51.5t12 30.5l4 15zM353 -43
q-9 0 -21.5 3.5t-26.5 13t-30.5 26t-34.5 42.5l-3 -2q1 -2 10.5 -15.5t25 -29.5t35 -29t41.5 -13q14 0 23 4q1 1 2 1l-1 3q-1 0 -1 -0.5t-1 -0.5q-2 -1 -6.5 -2t-11.5 -1zM213 106q0 1 6 14.5t12.5 29t12.5 29.5t7 17l-3 1q0 -1 -5.5 -13t-12.5 -27.5t-13 -29.5t-7 -20z
M54 213q-7 8 -10 17.5t-4 18t-1 14.5v6h-2q-6 -18 -4 -29t6 -17.5t9 -9.5l5 -3l6 -3zM198 76l-5 -11q-5 -11 -9 -22q-4 -10 -8 -22t-6 -24l3 -1q0 1 3.5 10.5t8 21t8 22.5t3.5 14zM384 423q19 -5 34 -13t26 -16q12 -10 21 -19l2 2q-9 14 -23 23t-27 15q-16 7 -32 11z
M171 -42l-4 6q-5 8 -8.5 25t1.5 41l3 15l-6 -14q-3 -9 -4 -20q-1 -9 1 -21.5t10 -26.5q4 -7 5 -7zM265 23q0 -1 5.5 -8.5t14.5 -16.5t21 -18t26 -12l1 3q-9 3 -20 10q-9 6 -21 16.5t-25 27.5zM392 139l13 9q8 5 15.5 13t13.5 16t10 14l4 6l-3 2q-5 -8 -11.5 -16.5
t-13.5 -15.5l-12 -12l-5 -5zM253 69q5 0 9.5 0.5t9.5 1.5l14 3h-14h-6.5t-15.5 0.5t-17.5 1.5t-13.5 2l-1 -3q1 0 10.5 -3t24.5 -3zM235 213q0 1 3.5 8t8 16.5t8.5 19t6 15.5l-2 1q0 -1 -3.5 -7.5t-8 -16l-9 -19t-6.5 -16.5zM301 340q-6 0 -12 -2q-3 -1 -6 -1l1 -3
q20 5 26 -3q3 -3 3 -10q0 -2 -0.5 -2.5t-0.5 -2.5l3 -1v1q0 1 0.5 2t0.5 3q2 10 -3 15q-4 4 -12 4zM163 22l7 11q0 1 4.5 10t5.5 20l2 11l-5 -10l-4 -10t-3.5 -10t-2.5 -9zM359 -27l13 -5q1 0 4.5 -1.5t8.5 -1.5q9 0 17 5l7 6l-9 -3l-6 -2q-4 -1 -13 -1q-5 0 -8 1zM64 321
l1 1q-1 0 -2 -1h1z" />
    <glyph glyph-name="S" unicode="S" horiz-adv-x="382" 
d="M139 214q75 -7 130 7t90.5 35.5t51.5 44.5t14 34q-6 22 -48.5 34t-117.5 0q-37 -6 -69 -21t-56 -35.5t-38 -43.5t-16 -45t3 -36t16.5 -24.5t30.5 -19.5t45 -19q34 -14 63 -23.5t43 -24.5q34 7 52.5 9t33.5 4q6 0 10 -1q9 -2 5 -9q-5 -6 -8.5 -11.5t-20.5 -8.5
q-19 -2 -35 -5t-33 -5v-4q0 -11 -6.5 -24.5t-19.5 -27t-33 -25.5t-47 -19q-38 -11 -65.5 -10t-44 10t-21.5 23t2 29q4 9 20 18.5t38.5 18t50 16t56.5 13.5q-16 9 -45.5 21t-74.5 31q-96 38 -84 118q3 18 16.5 44.5t40.5 53t68 48.5t97 32q51 9 89.5 5t65.5 -14.5t42 -26.5
t19 -31q9 -32 -3.5 -65t-65.5 -71q-32 -24 -64.5 -37t-59.5 -19q-32 -7 -61 -8q-12 0 -22.5 8t-18.5 18t-13.5 20t-7.5 15q0 1 2 3q1 0 3 1h1zM182 160l-6 7l-3.5 5t-8 11.5t-8.5 12.5t-5 9l-4 -2l2 -4.5t5.5 -10.5t8.5 -12.5t11 -10.5zM48 198q-3 8 -5 17q-2 8 -1 18t6 22
l-1 2l-3 -5.5t-5 -14.5t-1.5 -20t8.5 -21zM66 -34q-3 2 -5 6q-5 7 -4 18l1 8l-3 -6q-1 0 -2.5 -3.5t0.5 -9.5q0 -9 12 -16zM80 -19q19 -2 41.5 3t43 13.5t37.5 19.5t26 22q-56 -12 -85.5 -22.5t-43.5 -18.5q-17 -10 -19 -17zM253 25q-18 -22 -38 -35q-11 -8 -23 -13l1 -3
q16 5 27.5 13.5t19.5 16.5q9 9 15 19zM243 -3q17 16 23.5 29.5t6.5 14.5l-3 1q-14 -30 -38 -47.5t-48 -26.5t-43.5 -11.5t-23.5 -2.5h-2v-3h2q50 2 80 16t46 30zM361 73q-10 -1 -22.5 -2.5t-23.5 -3.5q-13 -3 -26 -5v-3q5 0 16.5 1.5t23.5 3.5t21.5 3.5t10.5 1.5v4zM351 77
l-24.5 -3t-61.5 -10t-81 -18.5t-83 -28.5l1 -3q1 0 22.5 7.5t56.5 17.5t79.5 20t90.5 15v3zM143 110q17 -6 32 -12q13 -5 26.5 -10.5t21.5 -9.5l1 3q-12 7 -25 13q-24 11 -55 19zM113 147q-2 1 -9.5 6t-15.5 14.5t-14 23t-4 31.5l2 11l-5 -11q-5 -14 -1 -27q2 -11 12.5 -25
t33.5 -26l2 2zM114 332q4 4 15 12t29.5 17t46 17t64.5 11v3h-3q-6 0 -23 -1.5t-39 -7t-46.5 -17t-44.5 -32.5q-2 -1 -2 -1.5t-1 -1.5l-1 -1l2 -2zM416 382l-1 1q-2 0 -2 2q-23 16 -51.5 20.5t-51.5 4.5q-9 0 -16 -0.5t-12 -0.5q-6 -1 -11 -1v-3q7 0 13.5 0.5t13.5 0.5
q52 0 78 -9.5t34 -14.5q2 -2 4 -2zM197 191q1 -1 4 -1q2 0 5 0.5t5 0.5q15 1 40.5 3.5t50.5 10.5l-1 3l-10 -2t-23.5 -4.5t-29 -4.5t-27.5 -3h-13h-1v-3zM430 290q-5 -11 -13 -21.5t-16.5 -19.5t-15 -14.5l-6.5 -5.5l2 -3q14 10 23.5 21t16 20t9.5 15t3 7zM399 257l-2 2
q-1 -1 -14 -12t-37 -24.5t-58.5 -25t-79.5 -12.5v-3h6q10 0 30.5 2t46.5 9.5t54.5 22t53.5 40.5v1z" />
    <glyph glyph-name="T" unicode="T" horiz-adv-x="265" 
d="M312 346q9 -8 4.5 -19t-11.5 -23q-2 -3 -5.5 -9.5t-9.5 -19t-16.5 -33.5t-25.5 -54q-40 -85 -58.5 -144t-14.5 -88q1 -8 6.5 -17t10.5 -15q2 -3 -1 -6q0 -2 -3 -2q-1 0 -1.5 0.5t-1.5 0.5l-6 1.5t-14.5 6.5t-17 14t-14.5 26q-8 19 -5.5 53.5t14.5 72.5q6 18 16 41.5
t22 49.5t24 51.5t23 46.5q5 11 12 24q5 11 13 27l17 34q0 1 0.5 1.5t0.5 1.5t1 1q3 3 7 1q1 -1 14 -9.5t20 -14.5zM162 -54q-1 1 -7 11t-6.5 36.5t10 71.5t42.5 116l-3 1q-7 -14 -14 -30q-6 -14 -13 -32t-13 -38q-33 -106 2 -138v-1l1 2v-2v2zM173 76l4 10.5t9 24.5t10 29
t7 24l-3 1q0 -1 -4.5 -12t-9.5 -25t-10 -28.5t-6 -22.5zM219 194q0 1 5 11t11 22.5t11.5 25t7.5 18.5l2 11l-5 -10l-4.5 -8t-10 -20t-11.5 -25.5t-9 -23.5zM291 329l-5 -10l-6.5 -12.5t-15.5 -31.5t-18.5 -40.5t-16.5 -39.5l3 -1q1 1 9 17.5t18 37t19 40.5t11 29zM299 314
q9 9 7 18q-1 6 -6 11l-6 4l-9 4l7 -7q12 -11 8.5 -19t-3.5 -9zM662 458q-2 -4 -7 -11.5t-12.5 -16.5t-17 -17.5t-19.5 -14.5q-24 -14 -59 -23t-80 -9q-17 0 -36.5 1t-39.5 3q-68 7 -109 11.5t-71 4.5q-38 0 -62 -4t-40 -14q-15 -9 -24.5 -25.5t-13 -35.5t-1.5 -38.5t9 -34.5
l2.5 -5t-0.5 -5q-1 -1 -3 -1h-3q-8 1 -18 3t-19 7t-16.5 13t-10.5 20q-5 21 -2 40.5t14 39.5q37 68 167 73q43 1 105 0.5t128 2.5t128 12.5t104 29.5q4 2 5 2h1h1l1 -1q1 -3 -1 -7zM34 263q-5 11 -7 24q-2 11 0.5 27.5t12.5 36.5l-3 2l-5.5 -9.5t-9 -23t-3 -29.5t12.5 -30z
M642 450q-6 -3 -15.5 -6.5t-18.5 -6.5t-16 -5.5l-7 -2.5l1 -3q17 4 33.5 10.5t23.5 10.5q3 1 5 3l-1 3q0 -1 -1 -1q-1 -1 -2 -1t-2 -1zM276 407q9 -1 22.5 -1.5t30.5 -0.5h32t29 1q15 0 29 1v4h-49q-23 0 -40 -0.5t-29 -0.5h-25v-3zM421 378q8 0 15.5 0.5t12.5 1.5v3
l-13.5 0.5t-34 1.5t-46.5 2t-52 3h-2q-26 3 -50 5t-44 3h-2q-6 1 -12 1h-11q-39 0 -56 -8t-19 -10l2 -2q9 4 21 8q11 3 26.5 5.5t38.5 2.5h10q4 -1 13 -1q14 -2 35 -3.5t50 -3.5q30 -3 61.5 -6t56.5 -3zM451 392q93 0 142 20l-1 3q-15 -6 -37 -10q-19 -4 -47.5 -6.5
t-66.5 -2.5q-21 0 -43.5 1.5t-46.5 3.5v-4q1 0 30 -2.5t70 -2.5z" />
    <glyph glyph-name="U" unicode="U" horiz-adv-x="559" 
d="M555 -23q7 -3 13.5 -12t9 -20t-1 -22.5t-15.5 -21.5q-18 -15 -36 -15t-33 5q-18 6 -33 20q-14 11 -23 34q-4 10 -4.5 26.5t1.5 37t6 41.5t10 40q6 22 20 57q-23 -37 -45 -74t-37 -65q-3 -5 -7 -6.5t-6 -1.5q-7 1 -18.5 3t-25 5.5t-28 10t-26.5 16.5q-20 15 -30 38t-1 57
q6 25 15.5 50t20.5 51q13 32 25 61t23 52q-20 -6 -51 -6h-57h-13q-25 -1 -47 -2t-41 -4q-11 -2 -20 -4t-15 -4q-7 -2 -12 -4q-11 -4 -16 -10.5t-6 -13.5t0 -13t2 -9v-3q0 -1 -1 -1q-5 -3 -8 -3h-5q-17 2 -23 9.5t-8 15.5q-2 10 1 21q5 19 21.5 29.5t35 15t34.5 5t19 0.5h10
q36 0 70 -1.5t63 0t52.5 8.5t37.5 24q2 3 3 5.5t2 4.5l11 23l1 1q0 2 3 2q2 0 3 -1l4.5 -2.5t10 -6.5l11 -8t8.5 -7q7 -6 6 -13.5t-5 -15.5q-2 -5 -12.5 -26.5t-25.5 -54.5q-12 -27 -26 -59t-27 -66q-1 -1 -1 -1.5t-1 -1.5q0 -1 -2 -5q-17 -48 -11 -73.5t20 -36.5
q17 -13 43 -15q22 40 51.5 89.5t59.5 97t56.5 88t42.5 63.5q8 14 16 27t14 23q1 0 1 2h1q2 4 6 2l4.5 -3t10 -7t11 -7.5t8.5 -6.5q9 -9 5 -20t-12 -23q-2 -3 -10 -18t-20 -39t-27 -54.5t-30 -63.5q-18 -40 -32.5 -77t-24.5 -69t-15.5 -57t-5.5 -40v-1q0 -2 0.5 -3t0.5 -3
q1 -5 4 -11t11 -10q18 -6 30.5 1.5t18.5 15.5t6.5 20.5t0.5 19.5v2q0 1 1 2q2 2 5 0zM636 391q-9 -13 -16 -25q-6 -11 -12.5 -21.5t-9.5 -15.5l2 -1l5.5 6.5t12.5 16t13 20t8 19.5l2 9zM390 409l4 -4q3 -4 5 -8q2 -5 1 -10t-1 -6l-1 -8l4 7q7 12 3.5 18t-5.5 6l-8 8zM28 300
q2 11 7.5 19t11.5 14q7 7 16 12l-1 3q-17 -7 -25.5 -14.5t-10.5 -15.5q-4 -9 -1 -18l2 -6zM329 362l-11 -1l-9.5 -1.5t-25.5 -3t-36 -2.5t-42 -1h-15h-19q-30 0 -45 -2t-23 -4h-4v-4l12 1t30.5 1.5t42.5 1.5t48 1q25 0 40.5 1t25 2.5t14 3t7.5 3.5zM370 360q-4 -12 -8 -23
q-3 -9 -6.5 -19t-6.5 -16l3 -1l3.5 6t7 15t7 19t3.5 19l1 11zM352 335l-9 -20.5t-20 -47t-21.5 -51t-13.5 -32.5l3 -1l7.5 16t18 39t21 49t17.5 47zM298 78q-3 10 -4 22q-1 10 0.5 23.5t6.5 27.5l-3 1q-4 -12 -6 -24q-2 -11 -2 -24t5 -27zM306 23q-1 0 -1.5 0.5t-1.5 0.5
q-3 2 -11.5 8t-17 15t-15 20.5t-4.5 24.5l2 14l-5 -13q0 -1 -1 -7t3 -16t14.5 -22.5t33.5 -25.5l2 -2l1 2v-2v2zM366 18l-12.5 4t-28.5 11.5t-32 18.5t-23 25l-3 -1q0 -1 3.5 -7.5t14 -16t30 -20t51.5 -17.5v3zM499 152l6.5 15.5t15 36t16.5 40.5t11 29l-3 1
q-10 -23 -20 -45q-8 -19 -16 -39.5t-13 -36.5zM453 -22l1.5 22.5t10.5 64.5t29.5 101.5t58.5 133.5l-3 2l-5 -9.5t-13 -26t-18 -38t-20 -46.5q-9 -23 -18.5 -50t-16.5 -54t-9.5 -53t0.5 -47h3zM567 -60l-1 -5.5t-5 -11.5t-11 -11t-19 -4v-4h5q5 0 12 1.5t13 7.5q9 10 9 27
h-3zM566 -39l-3 -12q-1 -6 -3 -10q-2 -5 -3.5 -9t-3.5 -6q-1 -1 -2 -1l1 -3q1 0 3 2q4 2 8 8.5t3 18.5v12z" />
    <glyph glyph-name="V" unicode="V" horiz-adv-x="498" 
d="M595 339q-29 -48 -58 -95.5t-55 -89.5t-47.5 -75.5t-33.5 -52.5q-2 -4 -6 -10t-8.5 -12t-9 -10.5t-7.5 -4.5q-4 0 -8 4q-2 2 -3 4q-25 37 -37 76.5t-15.5 77t-1 71t7.5 58.5t9.5 39.5l4.5 14.5q-20 -6 -51 -6h-57h-13q-25 -1 -47 -2t-41 -4q-11 -2 -20 -4t-15 -4
q-7 -2 -12 -4q-11 -4 -16 -10.5t-6 -13.5t0 -13t2 -9v-3q0 -1 -1 -1q-3 -3 -8 -3h-5q-17 2 -23 9.5t-8 15.5q-2 10 1 21q5 19 21.5 29.5t35 15t34.5 5t19 0.5h11q35 0 69 -1.5t63 0t52.5 8.5t37.5 24q2 3 3 5.5t2 4.5l11 23l1 1q0 2 3 2q2 0 3 -1l4.5 -2.5t10 -6.5l11 -8
t8.5 -7q7 -6 6 -13.5t-5 -15.5q-2 -3 -6 -12.5t-12 -24.5q-27 -66 -34.5 -116.5t-5.5 -86t10 -57t13 -28.5q10 18 21.5 38.5t24.5 41.5q17 31 36.5 68.5t38 76.5t34 77t25 71t11 59t-7.5 40q-2 6 2 7q7 0 16 -2t18 -8t16.5 -17.5t12.5 -30.5q3 -18 1 -38q-2 -17 -7.5 -39
t-19.5 -46zM383 399l4 -4q3 -4 5 -8q2 -5 1.5 -10t-0.5 -6l-2 -8l4 7q7 12 3.5 18t-4.5 6l-9 8zM21 290q2 11 7.5 19t11.5 14q7 7 16 12l-1 3q-17 -7 -25.5 -14.5t-10.5 -15.5q-4 -9 -1 -18l2 -6zM322 352l-11 -1l-9.5 -1.5t-25.5 -3t-36 -2.5t-42 -1h-15h-19q-30 0 -45 -2
t-22 -4h-5v-4l12 1t30.5 1.5t42.5 1.5t48 1q25 0 40.5 1t25 2.5t14 3t7.5 3.5zM358 312q0 -1 -3 -9.5t-6 -20t-6 -24t-3 -21.5q0 -2 1 -2t2 1q0 4 2 14l8 36q3 11 5.5 17.5t2.5 7.5l-1 2q-1 0 -2 -1zM343 288l-5.5 -21t-8.5 -55t1 -76.5t22 -86.5h2v-1v1l1 1l-6 18.5
t-11 50.5t-4.5 75t12.5 93zM368 8q2 2 0 2q-2 2 -3.5 4.5t-3.5 5.5l-2 4q-4 6 -6 11q-1 3 -2 5q0 1 -2 1q-1 0 -1 -2q1 -1 5.5 -12t12.5 -19q1 0 1 -1q1 0 1 1zM600 439q-2 -17 -5 -32.5t-7 -28.5q-4 -15 -10 -28l3 -1q7 12 12 27.5t7 29.5t3 23.5l1 9.5h-4zM568 507l2.5 -7
t3 -20t-2.5 -32t-14 -44l3 -2l5 10t9.5 25.5t5 34t-8.5 36.5zM584 418q-5 -22 -15 -48t-20.5 -49t-18.5 -39l-8 -16l3 -2q18 32 30 59.5t19 48.5q8 25 13 45zM479 177v-3v-1h1l1 0.5t3.5 4t7 11.5t13.5 22q8 14 15 25.5t8 11.5l-3 2q-1 -1 -7 -10.5t-14 -21.5t-15 -23.5
t-10 -17.5zM400 62q2 0 3.5 2.5t9.5 16.5q5 9 11.5 20.5t13.5 22.5q4 7 10 18t12 22.5t10.5 20.5l6.5 13l-3 2l-10 -17.5t-22.5 -40t-25 -44.5t-16.5 -31q-1 -3 -1 -5h1z" />
    <glyph glyph-name="W" unicode="W" horiz-adv-x="625" 
d="M757 472q3 -18 1 -38q-2 -17 -7.5 -39t-18.5 -46q-25 -44 -51.5 -87t-50.5 -82t-45 -72t-36 -55q-8 -13 -13 -21.5t-9 -14.5q-2 -4 -4.5 -8t-5.5 -8q-4 -4 -8.5 -1.5t-6.5 6.5q-8 13 -14 31t-11 38q-6 24 -8 45.5t-4 37.5q-8 -21 -18 -43q-8 -19 -18.5 -40.5t-22.5 -40.5
l-8 -12q-3 -5 -6.5 -10.5t-6.5 -8.5q-4 -4 -11 -4q-5 0 -9 4q-2 2 -3 4q0 1 -1 2q-37 57 -46 116t-5 108q4 57 21 111q-20 -6 -51 -6h-57h-13q-25 -1 -47 -2t-41 -4q-11 -2 -20 -4t-15 -4q-7 -2 -12 -4q-11 -4 -16 -10.5t-6.5 -13.5t-0.5 -13t2 -9q1 -2 1 -3t-1 -1
q-5 -3 -9 -3h-5q-16 2 -22.5 9.5t-8.5 15.5q-2 10 1 21q6 19 22.5 29.5t35 15t34.5 5t19 0.5h10q36 0 70 -1.5t63 0t52.5 8.5t37.5 24q2 3 2.5 5.5t2.5 4.5l11 23q0 1 1 1q0 2 2 2q3 0 4 -1l4.5 -2.5t10 -6.5l11 -8t8.5 -7q7 -6 6 -13.5t-5 -15.5q-2 -3 -6.5 -12.5
t-11.5 -24.5q-26 -65 -34 -114t-6.5 -84.5t9.5 -57t13 -30.5q20 33 38.5 77.5t33.5 85.5q18 48 33 98q8 26 15 47q5 18 10 34.5t6 20.5q0 2 1 4q2 4 4 4l4 -2l6 -3l20 -10q5 -3 11 -6q3 -1 5 -4q4 -6 0 -19q-1 -5 -7.5 -20.5t-12.5 -36.5v-1q-1 -2 -7.5 -22.5t-14.5 -52.5
q-5 -21 -9 -44t-5.5 -46.5t0.5 -46t9 -40.5v-1q1 -1 1 -1.5t1 -1.5q8 15 17.5 31.5t20.5 33.5q17 31 36.5 68.5t38 76.5t34 77t25 71t11 59t-8.5 40q-2 6 3 7q7 0 16 -2t18 -8t16.5 -17.5t11.5 -30.5zM387 409l4 -4q3 -4 5 -8q2 -5 1.5 -10t-0.5 -6l-2 -8l4 7q7 12 3.5 18
t-4.5 6l-9 8zM25 300q2 11 7.5 19t11.5 14q7 7 16 12l-1 3q-17 -7 -25.5 -14.5t-10.5 -15.5q-4 -9 -1 -18l2 -6zM326 362l-11 -1l-9.5 -1.5t-25.5 -3t-36 -2.5t-42 -1h-15h-19q-30 0 -45 -2t-22 -4h-5v-4l12 1t30.5 1.5t42.5 1.5t48 1q25 0 40.5 1t25 2.5t14 3t7.5 3.5z
M362 322q0 -1 -3 -9.5t-6 -20t-6 -24t-3 -21.5q0 -2 1 -2t2 1q0 4 2 14l8 36q3 11 5.5 17.5t2.5 7.5l-1 2q-1 0 -2 -1zM346 298l-5.5 -21t-8 -55t1.5 -76.5t22 -86.5h2v-1v1l1 1l-6 18.5t-11 50.5t-5 75t12 93zM372 18q2 2 0 2q-2 2 -3.5 4.5t-3.5 5.5l-2 4q-4 6 -6 11
q-1 3 -2 5q0 1 -2 1q-1 0 -1 -2q1 -1 5.5 -12t12.5 -19q1 0 1 -1q1 0 1 1zM535 403l7 -3q6 -4 8 -17q1 -6 0 -13l3 -1q6 19 0 28q-2 2 -7 5q-2 1 -3 1h-8zM403 56q9 11 17 27t13.5 31t9 25.5l3.5 10.5l-3 1q-8 -21 -15.5 -38.5t-13.5 -29.5q-7 -14 -13 -25zM466 218
q6 13 11.5 29.5t10 31t7 25l2.5 10.5h-3q-5 -11 -10 -27.5t-10 -31.5q-5 -18 -11 -36zM499 79l-3 14t-5.5 35.5t-1 49t10.5 56.5l-3 1l-4 -13.5t-7 -35.5t-2 -50t12 -58zM499 272q2 8 5.5 17.5t6.5 19.5q2 6 5 15.5t5.5 19t5 18t2.5 11.5l-3 1l-5 -15.5t-11 -35t-11.5 -38.5
t-7.5 -26q-1 -3 0 -4h1q1 0 1.5 2t5.5 15zM703 517l2.5 -7t3.5 -20t-2.5 -32t-14.5 -44l3 -2l5.5 10t10 25.5t5 34t-9.5 36.5zM719 428q-5 -22 -15 -48t-20.5 -49t-18.5 -39l-8 -16l3 -2q19 32 31 59.5t19 48.5q8 25 12 45zM573 134q4 7 10 18t12 22.5t11 20.5t6 13l-3 2
l-9.5 -17.5t-22.5 -40t-25 -44.5t-17 -31q-1 -3 -1 -5h1h1q1 0 2.5 2.5t9.5 16.5q5 9 11.5 20.5t13.5 22.5zM640 221q4 7 8.5 13.5t7.5 11.5q4 6 7 12l-3 2q-1 -1 -7 -10.5t-13.5 -21.5t-14.5 -23.5t-10 -17.5q-2 -2 -1 -3v-1h1q1 0 1.5 0.5t3 4t7 11.5t13.5 22zM716 359
q8 12 12.5 27.5t7 29.5t3 23.5l0.5 9.5h-3q-2 -17 -5.5 -32.5t-7.5 -28.5q-4 -15 -10 -28z" />
    <glyph glyph-name="X" unicode="X" horiz-adv-x="568" 
d="M563 57q1 0 2 1q1 0 2 0.5t3 0.5q5 0 5 -3l-2 -4q-20 -31 -43 -44t-47 -13q-20 0 -40.5 10.5t-37.5 31.5t-28 52t-11 71q0 14 1.5 28.5t5.5 30.5q-4 -1 -9.5 -1t-9.5 -1l-2 -5q-17 -40 -35 -77.5t-29 -60.5q-2 -2 -7.5 -14t-13.5 -25.5t-18.5 -24t-23.5 -10.5q-4 0 -6 1
l-30 14q-7 3 -13 15.5t-10 27.5t-6.5 29.5t-2.5 23.5q0 52 38 85.5t110 45.5q13 29 22.5 54t17.5 47q-11 -6 -28 -10t-42 -4q-8 0 -15 0.5t-14 0.5q-74 0 -114.5 -4.5t-59.5 -12t-22 -16t-3 -16.5q0 -7 1.5 -12t1.5 -6q0 -2 -8 -4q-4 -1 -7 -1q-20 2 -26 13t-6 21
q0 22 14.5 34.5t33.5 18.5t37 7.5t25 1.5q29 0 58.5 -1t56.5 -1q47 0 78 8t50 37h-1l12 23l1 1q0 2 2 2q3 0 4 -1q2 -2 7.5 -6t11.5 -9t11 -10.5t5 -11.5q-2 -14 -4 -25.5t-5.5 -25t-10.5 -31.5t-17 -44q2 1 6 0.5t6 0.5q17 51 42 87t51.5 58.5t52.5 32.5t45 10
q8 0 16.5 -4.5t15.5 -11t11.5 -15t4.5 -17.5q0 -29 -18 -53t-46 -44.5t-62 -36.5t-66 -28q-6 -27 -9 -51.5t-3 -43.5q0 -58 20 -91.5t47 -33.5q18 0 37.5 12.5t39.5 26.5zM24 291q2 11 7.5 19t11.5 14q7 7 16 12l-1 3q-25 -9 -31.5 -21.5t-6.5 -20.5v-5q0 -1 1 -2l2 -6z
M325 353l-11 -2l-9.5 -1.5t-25.5 -3t-36 -2.5t-42 -1q-10 0 -15 1q-49 0 -67.5 -3.5t-23.5 -3.5v-3q2 0 14.5 0.5t31 1.5t41 2t46.5 1q25 0 40.5 1t25 2.5t14 3l7.5 2.5zM386 400q3 -1 7.5 -10.5t2.5 -17.5l-2 -9l4 8q4 7 4 13q0 5 -2 7.5t-3 3.5l-9 7zM305 201l-2 -1
l-6.5 -13t-14 -29t-13.5 -29.5t-6 -16.5q0 -1 1 -1t1 -1q2 0 8 13.5t14 30.5q9 19 19 45q0 -1 0.5 0.5t-1.5 1.5zM201 155l-6 -6q-1 -1 -6.5 -11.5t-5.5 -35.5q0 -13 2.5 -29.5t8.5 -37.5h3q0 1 -3.5 20t-3.5 43q0 13 1.5 25.5t6.5 23.5zM176 139q6 17 17 32q10 13 27 25
t43 19v3l-13 -3.5t-29 -12.5t-30.5 -24t-17.5 -39h3zM230 78q10 21 24.5 52.5t31.5 68.5q-24 -12 -42 -30q-16 -16 -28.5 -42.5t-12.5 -65.5q0 -6 0.5 -12t1.5 -12q4 0 7.5 8t17.5 33zM320 194l-1 2q-2 0 -5.5 -7.5t-14.5 -33.5l-53 -107q-2 -2 -3 -3.5t-2 -2.5q-1 -2 -2 -2
q0 -3 2 -3t9 11.5t16 29t18.5 38t17.5 38t13 29zM331 263q2 0 7 11.5t5 21.5l-2 4l-1 -4q-3 -6 -5 -12q-5 -12 -5 -20zM349 269q2 6 6 16t8.5 21.5t8 23t4.5 19.5l2 15l-5 -14l-5 -12.5t-11 -28t-11 -31t-5 -22.5h1q2 0 2.5 1.5t4.5 11.5zM441 265q-1 0 7 3t19.5 8t24 12.5
t21.5 15.5l10 9l-12 -7q-16 -10 -30 -18q-12 -7 -24 -13t-17 -7zM593 372l-6.5 -11t-21.5 -26.5t-40 -33t-61 -31.5l1 -3q1 0 19 7.5t40.5 20.5t43.5 32.5t28 43.5zM581 427q-54 -14 -87.5 -54.5t-49.5 -86.5q48 24 77 46.5t44.5 40.5t20.5 30t5 14q0 8 -4.5 9t-5.5 1z
M439 336q-7 -11 -11 -20.5t-6 -16.5l-5 -15l3 -1q8 31 27.5 56.5t40.5 44t37 28.5l16 10l-2 3q-40 -19 -64 -44t-36 -45zM397 122q-1 4 -1 9v24q0 16 1 34t5 32l-3 1q0 -1 -4.5 -20.5t-4.5 -45.5q0 -20 4 -35zM404 120q1 -9 2.5 -23.5t7.5 -24.5l5 -10l-2 11q-3 10 -5 20
q-2 8 -3.5 17.5t-1.5 15.5v3h-3v-9zM498 7q-1 0 -3.5 -0.5t-7.5 -0.5q-12 0 -31.5 8t-37.5 39l-3 -1q6 -14 16 -25q8 -10 20 -17.5t29 -7.5q5 0 9.5 0.5t9.5 1.5z" />
    <glyph glyph-name="Y" unicode="Y" horiz-adv-x="495" 
d="M465 -33q10 -7 15 -17.5t3 -19.5q-3 -16 -13 -23t-21 -10q-13 -4 -28 -2q-20 1 -35.5 6t-28.5 13q-5 2 -13 9q-5 5 -10 9t-10 9q-3 -1 -5 -2l-6 -3q-41 -18 -73.5 -27.5t-58.5 -12t-47 -0.5t-38 7h-1q-27 7 -41 25q-12 13 -17 30q-2 11 -1 20t3 17q1 1 1 2t1 2q1 2 3 4
l1 1q2 -2 2 -3q5 -19 25 -30.5t43 -18t42.5 -9t24.5 -2.5q24 -1 47 2t43 8q14 5 22.5 6.5t13.5 3.5q2 0 4 1t4 1.5t5 2.5q-5 22 0 54q2 12 4 24.5t6 25.5q1 4 3 10q2 5 4 11l4 12q-11 13 -19 30q-14 26 -18 52t-3 49t5 41.5t8 29.5q1 3 2 5l2 4t1 4q1 3 3 7q1 3 3 7q1 1 1 2
q-20 -6 -50 -6h-58h-12q-26 -1 -48 -2t-40 -4q-11 -2 -20 -4t-15 -4q-7 -2 -12 -4q-11 -4 -16 -10.5t-6.5 -13.5t-0.5 -13t2 -9v-3q0 -1 -1 -1q-3 -3 -8 -3h-5q-16 2 -22.5 9.5t-8.5 15.5q-2 10 1 21q5 19 22 29.5t35.5 15t34 5t18.5 0.5h11q36 0 69.5 -1.5t63 0t52.5 8.5
t37 24q2 3 3 5.5t2 4.5l11 23l1 1q2 2 3 2q2 0 3 -1l4.5 -2.5t10 -6.5l11 -8t8.5 -7q7 -6 6.5 -13.5t-5.5 -15.5q-2 -3 -7.5 -15.5t-14.5 -31.5q-12 -26 -21 -45v-1q0 -2 -2 -4q0 -1 -1 -1q-19 -43 -16 -73.5t13 -49.5q4 -8 5 -9v-1l1 -1q1 -2 4.5 -5t9.5 -3.5t14.5 3
t19.5 14.5q2 3 8 9t12.5 13.5t12 14t8.5 9.5q26 35 43.5 68t30.5 62q29 67 37 118.5t-9 75.5q-2 6 2 7q14 0 33 -10t32 -48q7 -21 2.5 -47.5t-13.5 -47.5q-15 -35 -48 -93.5t-97 -130.5q-19 -19 -35.5 -32t-30.5 -21q-11 -30 -19 -54.5t-12 -44.5q-1 -2 -1 -4t-1 -4
q19 4 45.5 3t51.5 -19zM386 399l4 -4q3 -4 5 -8q2 -5 1.5 -10t-0.5 -6l-1 -8l4 7q7 12 3 18t-5 6l-9 8zM25 290q2 11 7.5 19t11.5 14q7 7 16 12l-1 3q-18 -6 -26 -14.5t-10.5 -16t-1.5 -12.5l1 -5l2 -6zM325 352l-10 -1l-10 -1.5t-25.5 -3t-36 -2.5t-42.5 -1h-14h-19
q-31 0 -45.5 -2t-22.5 -4h-5l1 -4q20 1 42 2q19 1 42.5 2t47.5 1q25 0 41 1t25.5 2.5t13.5 3t7 3.5zM106 -67q14 -5 28 -7t24 -2h15q4 0 6 1l-1 4q-2 -1 -6 -1q-11 0 -22 1t-21 3l-22 4zM84 -84l-8 9q-6 5 -10 12q-4 5 -8 13t-6 16l-2 9l-1 -9q-1 -8 2 -16q2 -7 7 -14.5
t16 -13.5zM145 -85q-23 3 -40.5 11t-25.5 12q-2 1 -3 2t-2 1h-1h-2v-1q-1 -1 5 -6q7 -6 18 -10.5t22 -7t19 -3.5t9 -1v1v-1v2zM176 -84q20 0 40 2.5t36 6.5q18 4 36 9l-1 3q-42 -10 -71.5 -13t-46.5 -3h-17t-12 1t-9 2l-1 -3q10 -2 21 -3.5t25 -1.5zM443 -49q-9 5 -20 8
q-10 2 -24 2t-31 -5q2 -11 9 -17q13 -10 27 -15t25 -5t18 3.5t7 9.5q1 7 -3 12t-8 7zM603 431q-2 -17 -5 -32.5t-7 -28.5q-4 -15 -10 -28l2 -2q8 13 12.5 28.5t7 29.5t3 23.5l0.5 9.5h-3zM569 507q5 -11 7 -26q2 -13 0.5 -32.5t-10.5 -45.5l2 -1l5 10.5t8.5 26.5t2.5 34.5
t-12 35.5zM586 410q-5 -22 -15 -48.5t-20 -49.5t-18 -38.5l-8 -15.5l3 -2q18 32 30 59.5t19 48.5t10 33l3 12zM518 270q-6 -11 -16.5 -27.5t-21 -32.5t-18.5 -27.5l-8 -11.5l2 -2q11 12 21.5 26.5t19 29t15 26t9.5 17.5q2 4 2 5l-2 2q-1 0 -1 -1q-1 -1 -1 -2t-1 -2zM476 182
q-21 -25 -38.5 -40t-30.5 -24q-15 -11 -28 -15l1 -4q15 3 31.5 16t31 27t24.5 25.5t11 12.5zM368 66q-4 -10 -7 -21q-2 -10 -4 -22t-2 -25q0 -1 1 -2q2 0 2 2v9l10 48q1 2 1 3.5t1 3.5q0 2 1 3t0 2q-2 0 -3 -1zM360 79q0 -1 -3.5 -10.5t-6.5 -23t-5 -29t0 -28.5l4 1
q0 14 2 29q2 13 4.5 28.5t7.5 31.5zM341 143l-5 14t-6.5 38.5t3 58t24.5 73.5l-3 2q-5 -7 -9 -17q-4 -8 -8 -19t-7 -24q-7 -24 -8 -58t16 -69l2 1v-2v2h1zM349 -56q6 -8 12.5 -12t7.5 -4l6 -4l-4 6q-5 7 -12 11.5t-8 4.5l-7 4zM459 -87l-11 -2q-11 -3 -23 -3
q-23 0 -36.5 6.5t-14.5 7.5l-1 -2l1 2l-2 -3q25 -16 51 -16q6 0 10.5 0.5t8.5 1.5t7 3zM473 -66q-2 9 -7 17q-5 7 -15 13t-28 8v-3q10 -2 20 -6q8 -4 15.5 -11.5t11.5 -18.5l4 -9z" />
    <glyph glyph-name="Z" unicode="Z" horiz-adv-x="377" 
d="M327 76q1 -2 1 -6q3 -12 0 -29q-10 -32 -34.5 -46.5t-56 -18t-65 1t-60.5 10.5q-14 4 -25 7t-19 5q-2 1 -2.5 1t-2.5 1h-2q-30 11 -39 29t-8 35q0 14 6.5 28t14.5 26q10 14 22 28q14 17 31.5 34t34.5 31q12 10 32.5 24.5t44.5 31t49.5 33t46.5 28.5l1 1l4 2q-31 2 -68 9
t-79 24q-19 9 -31 22q-11 11 -16.5 27t2.5 39q5 10 13 15q7 5 17 5.5t26 -7.5q-7 -13 -8 -24t4 -22t22 -21t42.5 -15.5t55 -6.5t60.5 2.5t60 12.5l15 5q7 2 15.5 5.5t17.5 7.5h4q3 0 5 -3q1 0 1 -1q2 -2 2 -3q1 -1 6 -14t7 -23q0 -2 1 -3q2 -13 -8 -20t-23 -12l-20 -10
t-40 -21t-54.5 -30.5t-62.5 -37.5q-50 -30 -92.5 -59.5t-71.5 -55.5q-18 -16 -31 -30.5t-18 -19.5q-2 -4 -4 -7t-3 -6q-2 -5 -1 -8t3 -5q2 -3 5 -4q12 -5 31 -7t38.5 -2.5t35 0.5t20.5 1h2q13 0 27 1t29 3q27 5 50 15.5t32 30.5q3 3 4 2q1 1 2 0zM455 344v2q0 1 -2 1
q-10 -4 -24 -11l-27 -13.5t-22 -12l-9 -5.5q-1 0 -1 -2q1 0 1 -0.5t1 -0.5l1 1q15 9 30 17q13 7 27 13.5t25 10.5zM451 401q-2 0 -3 -0.5t-3 -0.5q-2 -1 -3 -1v-3h2q5 0 9 -4.5t6 -9.5l4 -12h3q0 1 -1 4.5t-3 8.5q-5 13 -5 15q-2 3 -6 3zM424 378l-8 -2t-20.5 -5t-29 -6
t-33.5 -4v-3l9 0.5t22.5 2t29.5 5t31 9.5zM213 380q-43 11 -56 34q-7 11 -7.5 21t1.5 16q2 4 2 6l-3 1q-1 -1 -1 -2t-0.5 -1.5t-0.5 -2.5q-8 -27 6 -45q6 -10 16 -16t19 -9t16 -4l7 -1l1 1v-1v1v2zM221 356l7.5 -2t19.5 -4.5t28 -4t34 -1.5q42 0 72 12l-1 1l1 -1l-1 3v-1v1
v-2v2q-1 -1 -19 -5.5t-53 -4.5q-20 0 -42.5 2.5t-45.5 7.5v-3zM348 325q-1 0 -31.5 -16.5t-73 -42.5t-87.5 -59t-75 -66l2 -2l16.5 15t49.5 40.5t83 58.5t117 69zM124 167l-8 -6t-19 -16t-23 -22.5t-21 -25.5l2 -2l9.5 10t21.5 22l23 23t16 15zM129 10q16 -3 37 -3
q17 0 29 1.5t13 1.5l-1 3q-4 -1 -11 -1h-18h-33q-9 0 -16 1v-3zM77 28q-27 3 -34 16q-3 6 -1 13q1 4 2 6l-3 2q-9 -15 -3 -25q3 -5 9 -8t12.5 -4.5t11.5 -2t6 -0.5v1v-1v3zM188 -5q50 0 85 15l-1 3h-1q-4 -2 -25 -7.5t-60 -5.5q-48 0 -102 12l-1 -3l9 -2t23.5 -5t33 -5
t39.5 -2zM235 -19q25 2 41 11t26 18q11 11 17 23l-3 2q-10 -16 -23 -25.5t-25 -15t-21.5 -8t-12.5 -2.5h-1l1 -3h1z" />
    <glyph glyph-name="a" unicode="a" horiz-adv-x="219" 
d="M-5 122q13 21 29 40t31 32t28.5 18.5t22.5 -0.5t16.5 -11.5t12.5 -9.5q6 -4 11 -8q2 6 5 11q2 5 3.5 10t1.5 9q0 1 1 2l2 2q3 0 8 -3q6 -3 13 -9t13 -13.5t8 -15.5t-3 -17q-6 -11 -17.5 -34t-22.5 -46.5t-18 -42t-4 -20.5q2 -2 11 4.5t20.5 17t22 22t16.5 19.5q0 1 2 2
q3 3 6 1q2 -1 4 -5.5t-7 -15.5q-17 -21 -34 -36.5t-22 -20.5q-14 -10 -23 -11.5t-14 -0.5q-18 3 -22.5 16t-2.5 30t9.5 36t13.5 33q-11 -13 -25.5 -29.5t-29 -32t-26 -28t-14.5 -16.5q-6 -7 -23 -2t-26 16q-9 10 -5 39t28 68zM7 7q7 0 18 12l-3 2q-2 -2 -5 -4q-6 -4 -11 -4
q-3 0 -5 2l-5 3l2 -5q0 -1 2 -3.5t7 -2.5zM111 34q3 9 7 18q3 8 6 17t5 17l3 13l-6 -13q-3 -7 -9.5 -23.5t-8.5 -27.5l-1 -10zM141 12q-1 -1 -3 -2q-4 -2 -7 -2q-6 0 -9 9l-2 9l-1 -9v-5q0 -5 3 -8q2 -2 6 -2q5 0 15 8l-1 1l1 -1l-1 1zM159 140q-8 -14 -14 -29
q-6 -13 -11.5 -28.5t-10.5 -30.5l3 -1l3.5 7.5t9 19.5t11.5 27.5t12 33.5zM31 46q9 6 26.5 25.5t34.5 40.5q20 25 44 53q-14 9 -27.5 3t-22.5 -17t-27.5 -37t-31.5 -54q-5 -9 -3.5 -12.5t3.5 -3.5t3 1q1 0 1 1zM93 205q-5 0 -9.5 -2.5t-8.5 -4.5q-4 -4 -9 -7l2 -3q11 8 23 8
q7 0 12.5 -2t9.5 -4q2 -2 4 -2l1 -1l2 2q-1 0 -2 1q-2 2 -4 3q-2 2 -6 4.5t-8 5.5q-4 2 -7 2zM53 158q0 -1 -4.5 -7t-9.5 -14.5t-11 -18t-9 -16.5l-5 -13l8 11q0 1 4.5 7.5t10.5 15.5t11.5 18t7.5 15l3 10zM45 161q-1 -1 -10 -11.5t-19.5 -27t-19.5 -36t-10 -37.5v-11l3 10
l4 10.5t11.5 26t18.5 35t25 39.5z" />
    <glyph glyph-name="b" unicode="b" horiz-adv-x="190" 
d="M0 165q13 40 32 77t38.5 68.5t37 56t28.5 38.5v1q2 2 8.5 5t14.5 2q5 0 7 -1l36 -19q3 -2 8 -10t3 -24v-1q-3 -23 -19.5 -58.5t-51.5 -76.5q4 1 12 1q19 0 24 -17t2.5 -39t-9.5 -44t-12 -32q-20 -43 -50 -69t-67 -24q-6 1 -11 2t-10 3q-31 13 -36 60q-4 41 9 83zM62 20
q19 3 35.5 22.5t30.5 44.5q0 -1 -1 -1q-26 -3 -40.5 7t-19.5 26q-1 6 -1 13q0 6 1 14t4 17q-4 -2 -14 -6q-20 -49 -26.5 -82.5t1.5 -45.5q3 -4 9.5 -7.5t20.5 -1.5zM111 94q-2 0 -6 2t-9 6.5t-9 12t-5 20.5l-1 12l-2 -12q0 -1 -0.5 -10t6.5 -19q7 -12 26 -15h1v2v-2v2v1h-1z
M109 144q0 8 2 17q2 8 5.5 15.5t11.5 14.5l8 8l-10 -5q-9 -5 -14 -12q-5 -6 -7.5 -16t1.5 -23l4 -11zM122 103q-4 0 -8 4q-8 6 -11 20l-2 10l-1 -10v-4t2 -8.5t6.5 -9t13.5 -5.5v3zM160 172q3 24 -7.5 21t-20.5 -20q-5 -9 -8 -19.5t-3.5 -20t2 -15.5t9.5 -6q6 0 9 1
q8 19 13 35t6 24zM182 374q-5 0 -20.5 -25t-38.5 -63q-4 -7 -7.5 -13.5t-8.5 -13.5q-9 -15 -18 -33t-18 -38q8 5 15 11t14 14q23 23 39 48t26 47.5t14 39.5t4 23q0 1 -0.5 1t-0.5 1v1zM101 295q2 5 6 11.5t8 11.5q4 6 9 12l8 11l-10 -8q-15 -13 -19.5 -24.5t-4.5 -12.5
l-2 -12zM135 370l-15 -18.5t-33.5 -48t-36 -65.5t-23.5 -71l3 -1l5 14.5t17 41t32.5 63.5t52.5 83zM14 98l3 3q4 5 4.5 14t0.5 10v6l-2 -5q-2 -4 -3 -8t-2 -7q-1 -4 -1 -8v-5zM16 84q0 -1 -1.5 -8t-2 -16.5t1 -20t6.5 -17.5q7 -10 19 -10h2h1v3h-2q-3 0 -7.5 2.5t-8 9.5
t-5.5 20t0 36zM8 108q-1 -1 -4 -14.5t-2 -26.5l1 -11l2 11l1 5.5t2.5 12t2 13.5t0.5 10l-1 8z" />
    <glyph glyph-name="c" unicode="c" horiz-adv-x="168" 
d="M79 127q9 1 20.5 5.5t21.5 10.5t17 12.5t9 10.5q5 10 3 17q-1 3 -3 5q-14 8 -29 -1t-29 -22q-16 -16 -31 -37q-21 -32 -25.5 -52.5t-2.5 -33.5q3 -15 13 -23q12 -8 27.5 -2.5t30.5 16.5t28 23.5t22 20.5q2 2 5 3q6 2 9 -1q1 -1 1 -3v-4.5t-2 -4.5q-20 -20 -34 -32.5
t-23 -20.5q-11 -9 -17 -14q-38 -11 -60 -4.5t-33 19.5q-13 15 -17 37q-5 35 7.5 62.5t28.5 47.5q18 23 44 42q23 14 42 15t33 -4q16 -6 28 -19q8 -11 6 -24.5t-10 -26.5q-16 -21 -30.5 -27t-25.5 -4q-13 2 -26 11q-1 0 -1 0.5t1 0.5l1 1h1zM127 122h-13h-4h-7.5t-9.5 1l-8 2
l6 -5q1 -1 3 -2t10 -1q2 0 10 2zM84 202l12 5q7 4 16 4h10l14 -1l-13 4q-4 1 -11 1q-5 0 -8 -1t-5 -2q-3 -1 -5 -2zM5 105l6 13q3 7 8.5 18.5t8.5 14.5l-2 2q-2 -2 -9 -12.5t-9 -22.5zM-1 39q1 1 0 6q-1 7 -2 19t1 21v2l-3 1v-3q-2 -5 -3 -17t4 -24q1 -5 2 -5h1zM48 -4
l-10 5q-1 0 -10.5 4.5t-12.5 6.5l-1 1l-2 -2l1 -1q2 -2 8.5 -6t14.5 -6zM33 17q-8 4 -13 10l-7 8l5 -10q0 -1 4.5 -6.5t17.5 -10.5l9 -3q-8 1 -18 6l-10 5l9 -8q2 -2 6 -4q6 -3 19 -3q9 0 14 1l-1 3v-1v1h-9h-8l-10 6zM21 100q1 0 5 11.5t13 22.5l-2 2q-1 -1 -9.5 -12
t-9.5 -24l1 -13zM43 161q8 10 18 17.5t18 12.5q10 6 19 10l-1 3q-16 -6 -27 -13t-17.5 -13.5t-9 -11l-2.5 -4.5l-4 -10zM156 163q-1 0 -6.5 -10.5t-16.5 -20.5l2 -2q1 0 11 10t13 22l2 14z" />
    <glyph glyph-name="d" unicode="d" horiz-adv-x="226" 
d="M126 107q-11 -13 -26 -30t-29.5 -33t-27 -28.5t-16.5 -15.5q-6 -5 -21.5 -0.5t-24.5 15.5q-9 10 -4.5 39t28.5 68q13 21 28.5 40t31 32t29 18.5t22.5 -0.5q17 -11 27 -19t12 -10q16 30 30 58.5t24.5 53t17.5 43t11 29.5t7.5 21t6.5 23v2l3 2q1 0 8 -2q14 -9 22.5 -17
t12 -17t1 -20t-11.5 -27q-5 -11 -19.5 -41t-29.5 -62q-18 -38 -39 -81q-17 -37 -29 -65q-11 -25 -19 -45t-6 -22q3 -2 12 4.5t20 17t22 22t17 19.5l2 2q2 2 5 1q2 -1 4.5 -5.5t-7.5 -15.5q-17 -21 -33.5 -36.5t-22.5 -20.5q-13 -10 -22.5 -11.5t-14.5 -0.5q-17 3 -22 16
t-2.5 30t9.5 36t14 33zM121 34q3 9 7 18q3 8 6 17t5 17l3 13l-6 -13q-3 -7 -9.5 -23.5t-8.5 -27.5l-1 -10zM151 12q-1 -1 -3 -2q-4 -2 -7 -2q-6 0 -9 9l-2 9l-1 -9v-5q0 -5 3 -8q4 -2 6 -2q5 0 15 8l-1 1l1 -1l-2 2l1 -1zM198 171l6 12q2 5 5 12t5 14l-3 1q-4 -7 -7 -14
q-3 -6 -5 -12.5t-4 -11.5zM282 385q1 -1 3 -4q4 -5 5 -11q1 -3 0.5 -7t-1.5 -7q-1 -4 -3 -8l3 -1l1 1q2 3 4 9.5t1 11.5q-1 6 -5.5 12t-5.5 6zM257 395q-3 -9 -6 -17q-2 -7 -5.5 -14.5t-5.5 -13.5l3 -1q1 1 8.5 17t8.5 29v10zM261 354q-5 -7 -11.5 -20t-12 -26t-9 -22.5
t-3.5 -10.5l2 -1q1 3 7 15.5t12.5 26.5t12 25.5l5.5 11.5zM172 168q-3 -8 -7 -16q-3 -7 -6.5 -14.5t-5.5 -13.5l2 -1q1 1 9.5 16.5t10.5 28.5l1 10zM103 205q-5 0 -9.5 -2.5t-8.5 -4.5q-4 -4 -9 -7l2 -3q11 8 23 8q7 0 12.5 -2t9.5 -4q2 -2 4 -2q1 -1 2 -1l1 2q-1 0 -2 1
q-2 2 -4 3q-2 2 -5.5 4.5t-8.5 5.5q-4 2 -7 2zM63 158q0 -1 -4.5 -7t-9.5 -14.5t-11 -18t-9 -16.5l-5 -13l8 11q0 1 4.5 7.5t10.5 15.5t11.5 18t7.5 15l3 10zM-1 48l4 10.5t11.5 26t18.5 35t25 39.5l-3 2q-1 -1 -10 -11.5t-19.5 -27t-19.5 -36t-10 -37.5v-11zM18 7
q8 0 17 12l-3 2q-2 -2 -5 -4q-6 -4 -11 -4q-3 0 -5 2l-5 3l2 -5q1 -1 3 -3.5t7 -2.5zM36 60q-5 -9 -3.5 -12.5t3.5 -3.5t3 1q1 0 2 1q8 6 25.5 25.5t34.5 40.5q20 25 42 53q-14 9 -26.5 3t-21.5 -17q-4 -6 -11.5 -15.5t-15.5 -21.5t-16.5 -26t-15.5 -28z" />
    <glyph glyph-name="e" unicode="e" horiz-adv-x="162" 
d="M-17 34q-4 18 -0.5 36.5t11 35.5t16.5 30.5t17 22.5q13 14 25 24.5t20 16.5q10 7 18 11q21 12 32 4q8 -6 13.5 -11t10.5 -9l1 -1q1 -2 3 -5t2 -8q0 -22 -11 -41t-28 -34q-20 -18 -42.5 -25t-34.5 -3q-8 -18 -8 -29t2 -18q3 -8 8 -12q12 -8 27 -2.5t29 16.5t27 23.5
t22 20.5q2 2 5 3q7 2 9 -1q2 -1 2 -3q0 -5 -4 -9q-26 -27 -44.5 -46t-26.5 -21q-27 -9 -45 -8t-29.5 7.5t-17.5 16t-9 17.5v1zM4 31q0 1 -1 6q-2 6 -3.5 18t0.5 22v2l-2 1v-3q-2 -5 -2.5 -17t4.5 -24q1 -6 2 -6zM55 -3l-11 2q-1 0 -11 2.5t-13 4.5q0 1 -1 1l-3 -3h1
q2 -2 8.5 -5t15.5 -3h1zM112 135q13 15 17 23t2.5 11t-5 3h-4.5q-8 -2 -18 -8q-8 -5 -18.5 -14.5t-21.5 -23.5q-5 -7 -9 -13l-8 -12q7 -1 19.5 2t27.5 15q4 3 7.5 6t7.5 8zM136 191q5 -3 7 -10q1 -4 2 -7l2 -12l1 12q1 10 -4 16q-3 3 -6 4zM128 181q-4 0 -7.5 -1t-5.5 -2
l-6 -3l-10 -7l11 4q21 7 26 1q2 -4 1.5 -8t-0.5 -5h3q3 8 0 13t-3 6q-3 2 -9 2zM111 208q-10 0 -19 -6.5t-10 -7.5l1 -2q8 5 14 6.5t10 3.5q4 1 7 2v1v-1v3q-1 1 -3 1zM41 143l8 9q17 20 35 30.5t19 10.5l-1 3q-16 -6 -26.5 -13t-17 -13.5t-9.5 -11l-3 -4.5zM33 126l-1 -1
q-2 -1 -8 -11.5t-8 -22.5l-3 -13l5 12q4 8 9 19.5t7 14.5z" />
    <glyph glyph-name="f" unicode="f" horiz-adv-x="121" 
d="M-66 -33q5 14 11 25q5 12 16 36.5t24 53l26 57t22 48.5h-42q2 8 6 14q3 5 7.5 10t12.5 5h29q27 60 41.5 96t22.5 53q4 9 8 21t6 23v2l3 2q5 0 8 -3q6 -4 14 -10t14 -14t8.5 -17t-2.5 -18q-2 -3 -3.5 -7t-6.5 -14q-4 -8 -19 -40.5t-34 -73.5h38q-4 -8 -8 -14q-4 -5 -9 -10
t-11 -5h-24q-1 -1 -1 -2q-2 -17 -7 -52.5t-12.5 -76t-18 -79t-22.5 -60.5q-11 -20 -23.5 -29t-23.5 -11q-13 -3 -26 1l1 -1h-1l-2 2q-4 1 -22 10q-10 6 -12 17q-2 9 -1 19t4 19t5.5 15.5t3.5 7.5zM17 -84l-4 -4q-5 -5 -14 -12.5t-14 -7.5v-4q1 1 13 4.5t17 17.5zM11 -62
q9 19 16 44t12.5 49t9 44.5t5.5 32.5q-8 -16 -14 -29t-11 -23q-5 -11 -9 -21q-12 -27 -23 -51q-9 -20 -18 -40.5t-12 -31.5v-1q-1 -1 -1 -3q-1 -3 0 -5q0 -6 6 -6q3 -1 6 0q9 1 17 12t16 29zM-33 -34q-2 -2 1 -2q1 0 2 1q0 4 2 10l66 157q2 3 3.5 5.5t2.5 4.5l2 4q0 2 -1 2
h-2l-9 -17.5t-21.5 -44t-25.5 -58.5t-20 -62zM135 342l-4 -9l-5 -10.5t-11.5 -25.5t-13.5 -31t-10 -28l3 -2q0 1 6 13t13 27.5t13 31t8 24.5zM140 389l11 -8l1 -1q3 -4 3.5 -15t0.5 -17l-1 -7l4 7q7 14 2.5 23t-7.5 11l-2 2zM77 228q0 -2 1 -2t2 1q2 8 3 11l49 117
q2 3 3.5 6l2.5 5q1 3 2 4q0 2 -1 2l-2 -1q-13 -23 -24 -48q-10 -21 -20.5 -46.5t-15.5 -48.5zM11 199q2 0 13 -0.5t22 -0.5q16 0 24.5 0.5t12.5 1t4.5 1t0.5 1.5q0 2 -8 3q-5 1 -11 1h-12q-10 0 -18 -0.5t-14 -1.5l-14 -2l-9 -1zM9 93l6 13q0 1 4.5 9t9.5 19t9.5 22.5
t5.5 17.5l1 9l-4 -8q0 -1 -4 -9t-8.5 -18.5t-9.5 -22t-7 -18.5zM-20 32l-16 -36q-7 -15 -13.5 -31t-10.5 -28l3 -1q1 1 7 13t13 27t13 30.5t7 24.5l2 11z" />
    <glyph glyph-name="g" unicode="g" horiz-adv-x="226" 
d="M-13 -124q-16 -1 -29 3q-11 3 -21 10.5t-11 21.5q-1 9 3.5 19.5t13.5 17.5q17 12 36 16t35.5 3t28.5 -4.5t17 -4.5q5 9 8.5 16t9 19t13 30.5t20.5 49.5l13 34q-11 -13 -25.5 -29.5t-29 -32t-26 -28t-14.5 -16.5q-6 -7 -23 -2t-26 16q-9 10 -5 39t29 68q13 21 28.5 40
t30.5 32t29 18.5t23 -0.5t16 -11.5t12 -9.5q6 -4 11 -8q2 6 5 11q2 5 3.5 10t1.5 9q0 1 1 2l2 2q5 0 8 -3q6 -3 13 -9t13 -13.5t8 -15.5t-3 -17v-1q-3 -6 -9 -19.5t-14 -30.5t-17 -36l-18 -38q-1 -1 -1 -3q-5 -13 -3 -15q3 -2 12 4.5t20 17t21.5 22t16.5 19.5q0 1 2 2
q3 3 6 1q2 -1 4 -5.5t-7 -15.5q-17 -21 -33.5 -36.5t-22.5 -20.5q-12 -9 -21 -11t-15 -1v-1q-1 -2 -4 -9t-7.5 -15t-8.5 -15t-6 -10q5 -2 13 -4t22 -6q21 -5 44 -8.5t47 -2.5q4 0 23.5 2.5t42.5 9.5t43 18.5t25 30.5q2 2 3 2h1q1 0 3 -4q1 -1 1 -2t1 -2q2 -8 3 -17t-2 -20
q-3 -15 -16 -31q-8 -8 -18 -14t-24 -10q-17 -5 -38 -7t-47.5 0.5t-59 12t-73.5 27.5q-6 3 -11 5q-20 -19 -41 -32t-56 -14zM360 -52q-2 -8 -5.5 -16t-7.5 -13q-4 -7 -10 -12l-8 -9l10 6q11 6 15.5 13.5t6.5 14.5q2 8 2 16l-1 9zM234 -93q1 -1 5 -1h15q11 0 24.5 2t27.5 7
l-1 3l-22 -4q-10 -2 -21 -3t-21 -1q-5 0 -7 1v-4zM124 -84l10 -3t26 -6t36 -6t41 -3q24 0 46 5l-1 3l-10 -2t-12 -1h-16q-18 0 -47.5 3t-71.5 13zM35 -95l1 -1l-1 1q-1 0 -14.5 -6.5t-36.5 -6.5q-5 0 -11 0.5t-12 1.5l-11 2l10 -5q1 0 8 -2.5t19 -2.5q25 0 50 17l-1 1l1 -1z
M172 145l-5.5 -10.5t-12.5 -26t-14 -33.5t-10 -34l3 -1l5.5 12.5t12.5 29.5t14 34.5t10 27.5zM166 167q-4 -5 -8 -12q-9 -14 -13 -35l-2 -9l5 8l7 14q3 7 7 15.5t7 17.5l2 7zM100 205q-9 0 -17.5 -7t-9.5 -7l2 -3q11 8 24 8q7 0 12 -2t9 -4q2 -2 4 -2q1 -1 2 -1l2 2
q1 0 -7 4q-2 2 -5.5 4.5t-8.5 5.5q-4 2 -7 2zM60 158q0 -1 -4.5 -7t-9.5 -14.5t-11 -18t-9 -16.5l-5 -13l8 11q0 1 5 7.5t10.5 15.5l11 18t7.5 15l3 10zM-3 48l3.5 10.5t11 26t18.5 35t25 39.5l-2 2q-1 -1 -10 -11.5t-20 -27t-20 -36t-10 -37.5v-11zM15 7q8 0 17 12l-2 2
q-2 -2 -5 -4q-6 -4 -11 -4q-2 0 -6 2l-5 3l3 -5q0 -1 2 -3.5t7 -2.5zM39 46q9 6 26.5 25.5t34.5 40.5q20 25 44 53q-14 9 -27.5 3t-22.5 -17q-4 -6 -11.5 -15.5t-16 -21.5t-17 -26t-14.5 -28q-5 -9 -3.5 -12.5t3.5 -3.5t3 1q1 0 1 1zM110 9l-2 -5t-4.5 -11t-4 -11.5
t-1.5 -7.5v-2l1 -1q1 0 2.5 1.5t5.5 12.5q1 3 3 10t3 13l1 11zM80 -43l3 -1v1q2 4 10 19t9 26l1 11l-4 -10l-2.5 -6.5t-5.5 -14t-6 -14.5t-4 -10zM58 -70q0 -1 -7.5 -5.5t-12.5 -11.5l-4 -5l6 3q1 0 7.5 4.5t12.5 11.5l6 7zM48 -65q-20 7 -34.5 7t-25.5 -2q-12 -3 -22 -8
q-5 -2 -8.5 -7t-2.5 -12q0 -7 9 -10.5t22.5 -1.5t30 10t31.5 24zM-64 -92l3 9q4 12 12 19t16 10.5t14 5l6 1.5l-1 3q-19 -2 -28.5 -8t-14.5 -13q-5 -8 -7 -17v-10z" />
    <glyph glyph-name="h" unicode="h" horiz-adv-x="221" 
d="M48 229q26 59 40.5 94t21.5 53q4 10 8.5 23t6.5 21v2l3 2q3 0 8 -3q6 -4 13.5 -10t13.5 -14t8.5 -17t-2.5 -18q-2 -4 -2.5 -6.5t-2.5 -5.5l-5 -9q-3 -7 -11 -24t-18 -38t-20.5 -43.5t-19.5 -40.5q-12 -26 -22 -48q-8 -19 -16 -35.5t-10 -21.5q7 9 22.5 27.5t34 39
t38.5 39t35 28.5q15 -6 26 -13q9 -6 14 -14.5t0 -18.5q-8 -13 -24 -40t-29 -56q-4 -10 -6 -14q-8 -17 -12.5 -29.5t-2.5 -13.5q1 -1 4 0q5 2 14.5 9.5t19 17t18.5 19t14 17.5q0 1 2 2q1 1 6 1q2 -1 4 -6t-7 -16q-17 -20 -33.5 -36t-22.5 -20q-14 -10 -23 -12t-14 0h-1
q-5 0 -9 3q-12 5 -14.5 18t0.5 29q0 4 2 14l2 8q5 20 15.5 44.5t27.5 56.5q-23 -26 -46 -54q-20 -25 -42 -56t-41 -65q-15 1 -26 7q-9 5 -14 17.5t2 35.5q1 3 3 8t9 21.5l21 49.5t39 91zM114 34l4 9q3 9 7 18q3 8 6 17t5 17l2 13l-5 -12l-1 -1q-2 -7 -8.5 -23.5t-8.5 -27.5z
M139 16q-1 -1 -3 -2q-4 -2 -7 -2q-6 0 -9 9l-2 9l-1 -9v-5q0 -5 3 -8q2 -2 5 -2q6 0 16 8l-1 1l1 -1l-2 2l1 -1zM133 60l3.5 7.5t9 19.5t11.5 27.5t12 33.5l-3 1l-4 -8t-9.5 -20.5t-12 -28.5t-10.5 -31zM180 209l8 -6q6 -4 8 -8.5t3 -9.5q0 -5 -1 -10l3 -2q6 14 2 22
q-3 6 -8 8.5t-6 2.5zM168 177q-3 -8 -7 -16q-3 -7 -6 -14.5t-6 -13.5l3 -1q1 1 9.5 16.5t9.5 28.5l1 10zM151 391q2 -1 4 -4q4 -5 5 -11q1 -3 0.5 -7t-1.5 -7q-1 -4 -3 -8l3 -1v1q2 3 4.5 9.5t1.5 11.5q-1 6 -6 12t-5 7zM66 165q2 6 6 12q2 5 5.5 12t5.5 14l-3 1l-7 -14
q-3 -6 -5.5 -12.5t-4.5 -11.5zM126 389l-2 -5t-4.5 -11.5t-5 -14.5t-5.5 -14l3 -2q0 1 2.5 6t5.5 12t6 14.5t3 13.5v11zM119 308l-8 -16.5t-18.5 -39t-21 -47.5t-16.5 -42l3 -1l9 19t20 43.5t21.5 48t13.5 33.5zM5 45q6 12 12 26q5 12 11.5 28t12.5 34l-3 1l-4 -8t-9.5 -21
t-12 -28.5t-10.5 -30.5zM5 81l-1 -2q-1 -3 -3.5 -9t-5.5 -13.5t-5 -15t-3 -12.5l-1 -10l4 9q3 8 7 17q3 8 6 17t5 18l2 13z" />
    <glyph glyph-name="i" unicode="i" horiz-adv-x="101" 
d="M89 289q11 -5 20 -19t1 -29q-2 -4 -3 -7t-6 -11q-2 -4 -9 -4q-3 0 -6 2q-2 2 -8 7.5t-11 9.5q-8 6 -7 13q4 7 8.5 17t9.5 20q0 1 2 2q3 2 9 -1zM78 239q1 0 3.5 3.5t5.5 9t5.5 11t2.5 8.5v8l-3 -7q-1 -1 -7 -13t-8 -17q-1 -1 0 -2v-1h1zM92 245q3 2 6 8t2 12v5l-3 -4
q0 -1 -3.5 -7.5t-5.5 -11.5v-3q0 -1 1 -1t3 2zM-19 12q-5 7 -4.5 20t4 29t9.5 34t13 36q16 41 40 89q1 2 1 2.5t1 2.5q0 1 2 2q3 1 9 0q6 -3 12.5 -9t11.5 -13.5t6.5 -16.5t-2.5 -16q-6 -13 -21 -37.5t-26 -53.5q-5 -8 -6 -14q-7 -17 -10.5 -29t-1.5 -14h4q5 2 13.5 9.5
t18 17t18 19.5t14.5 17l2 2q1 1 5 1q3 -1 5 -6t-7 -16q-15 -20 -31.5 -35.5t-22.5 -20.5q-13 -10 -22 -11.5t-14 -0.5h-1q-4 0 -8 3q-8 3 -12 9zM28 19q-5 -4 -11 -4q-3 0 -5 2l-2 2l-3 7v-8q-1 -7 1.5 -8.5t4.5 -1.5q5 0 10.5 3.5t6.5 4.5l10 10zM64 186q-6 -10 -11 -21
q-5 -9 -9.5 -19.5t-6.5 -18.5q-1 -2 -1 -4v-1l1 -1h1q1 0 3 3.5t12 25.5q5 10 9 20.5t5 14.5l1 10zM51 182l-13 -26t-16 -35.5t-14.5 -41t-9.5 -41.5l2 -1l6.5 18t15 42t17.5 47.5t14 35.5q1 2 2 3.5t2 3.5q1 1 1 2l5 9l-8 -7q0 -1 -1 -2.5t-3 -6.5zM-1 84l-2 -6.5t-4 -15
t-3.5 -18t-1.5 -15.5q0 -4 2 -4q1 0 1.5 0.5t1.5 5t2.5 14.5t3.5 28q1 4 1 7t1 4h-2z" />
    <glyph glyph-name="j" unicode="j" horiz-adv-x="102" 
d="M168 -113q-18 -5 -39 -7t-47 0.5t-57.5 12t-70.5 27.5q-4 2 -5.5 3t-5.5 3q-21 -19 -43.5 -32.5t-57.5 -14.5q-16 -2 -28 2q-11 3 -19.5 10t-10.5 23q-2 9 4.5 19.5t16.5 17.5q19 13 37.5 16.5t34 3t26.5 -4t16 -4.5q1 -1 16 23.5t36 63t43.5 86.5t39.5 93q1 1 1.5 2
t2.5 1q2 1 3.5 0t3.5 -2q5 -3 11.5 -8.5t12 -12t8.5 -14.5t0 -16l-2 -4l-11 -22t-19 -37t-24.5 -45t-27.5 -48v-2q2 -2 12 4.5t22 16.5t24 21.5t19 20.5q0 1 2 2q1 1 6 1q2 -2 4 -6.5t-9 -15.5q-19 -21 -37.5 -36.5t-24.5 -19.5q-12 -8 -20.5 -10.5t-14.5 -2.5
q-7 -11 -13.5 -21t-13.5 -19l-6 -9h-1q5 -2 13 -4t22 -6q41 -13 89 -11q4 0 24 2.5t43.5 9t45 18t28.5 30.5q0 3 2 3q1 0 2 -1l2 -4q1 -1 1 -4q5 -16 -2 -37q-5 -16 -20 -30q-16 -18 -43 -25h-1zM-31 11l5 8l4 5.5t9.5 13.5t11 18t8.5 18q2 5 1 6h-1q-1 0 -4 -3.5t-14 -23.5
q-5 -9 -10.5 -19t-6.5 -14zM-91 -62q-19 7 -34 7.5t-26 -1.5q-13 -3 -23 -8q-5 -3 -9 -8t-4 -11q0 -8 8.5 -11.5t22.5 -1.5t31 10t34 24zM-202 -81q4 11 12 18.5t16 11.5q10 4 20 6v3q-19 -2 -29 -8t-15 -13q-6 -8 -7 -17v-10zM-104 -95h1l-2 3v-1v1l1 -2l-1 2
q-1 -1 -14.5 -7.5t-36.5 -6.5q-6 0 -12 0.5t-11 1.5l-11 3l10 -5q0 -1 7 -3.5t19 -2.5q25 0 50 17v1l1 -1h-1zM-75 -64l-7 -4q-1 -1 -8 -5.5t-12 -10.5l-4 -6l6 3q0 1 7 5t13 11zM-57 -41q1 2 4.5 7t7.5 11.5t7 13t4 12.5l1 10l-4 -9l-3 -6t-7 -13.5t-7.5 -14.5l-4.5 -9
l-1 -1l3 -2v1zM-16 2q1 0 2 2t2.5 4.5t3.5 7.5q2 3 4 9.5t4 12.5v1l5 4l2 2t4 6q6 9 15.5 24t19 33.5t18.5 39t14 40.5l-3 1l-8 -17.5t-19 -40l-22 -45t-18 -33.5l-4 -6q-1 -1 -1 -2l-3 -4l2 8l-5 -10l-2.5 -4.5t-5 -10.5t-5 -11.5t-2.5 -7.5v-2l1 -1h1zM223 -42
q-4 -17 -13.5 -29t-9.5 -13l-8 -8l9 6q11 6 16 13.5t7 14.5q3 8 2 16l-1 9zM200 -74l-7 -3q-8 -5 -25.5 -13t-39.5 -11v-3q1 0 9 1t19 3.5t22 7t18 10.5q6 6 5 7v1h-1zM93 -90q1 0 6.5 -0.5t14.5 -0.5q11 0 24.5 1.5t27.5 6.5l-1 3l-22 -4q-10 -2 -21.5 -2.5t-21.5 -0.5h-6z
M-16 -82q18 -5 36 -9q16 -4 36 -6.5t40 -2.5q26 0 46 6v3q-1 -1 -10 -2.5t-29 -1.5q-17 0 -46.5 3t-71.5 13zM95 301q5 -3 11 -8.5t11 -12t7 -14t-1 -15.5h1h-1q0 -2 -1 -4q-2 -3 -4.5 -8.5t-7.5 -13.5q-2 -3 -6 -2.5t-7 2.5q-4 2 -13.5 9t-12.5 11q-5 6 -3 13q5 11 8.5 21
t7.5 21h1q0 3 3 3q2 1 3.5 0t3.5 -2zM86 249q3 0 9.5 12.5t6.5 20.5l1 7l-4 -7q0 -1 -6 -13t-8 -17v-2zM100 255q8 6 8 20l-1 6l-2 -5q-1 0 -4 -7t-5 -12v-3q1 0 1 -0.5t1 -0.5z" />
    <glyph glyph-name="k" unicode="k" horiz-adv-x="220" 
d="M54 100l-6 -12t-5 -12q-11 -23 -18.5 -42t-10.5 -28q-2 -5 -4.5 -6t-4.5 -1q-5 1 -12 3.5t-12.5 9t-7 17.5t3.5 29q3 10 8 22q6 18 13 32q5 12 14 31.5t17 38.5q10 22 20 46q2 6 5 12l6 12q1 3 3 7q2 3 2.5 6t2.5 6q-12 -6 -21 -15.5t-15 -24.5l-2 -2q-3 -3 -4 3
q0 2 -0.5 12.5t4.5 23.5t17 24.5t37 14.5q4 15 11 31.5t14 30.5q4 7 12 18t24 21q1 1 2 1t2 1q19 9 40.5 9.5t41.5 -8.5q24 -10 27 -35q1 -16 -7 -29t-20 -22.5t-25.5 -16t-23.5 -10.5l-7.5 -3t-4.5 -1q-2 -2 -5 -2.5t-5 -1.5q-7 -2 -13.5 -4t-13.5 -4v-1q-5 -9 -9.5 -18.5
t-9.5 -20.5q-4 -9 -8 -17.5t-8 -16.5q15 11 35.5 16t43.5 -5l2 -1q4 -2 16 -12t12 -29q0 -7 -2 -15t-9 -17t-20.5 -17.5t-36.5 -17.5q-8 -2 -17 -4.5t-20 -5.5q-1 -18 2 -34q2 -14 8.5 -26t18.5 -16q1 0 5.5 -0.5t9.5 1.5q6 3 15 10.5t18 16.5t17 18t13 16q0 1 2 2q3 3 6 1
q2 -1 4 -5.5t-7 -15.5q-17 -21 -33.5 -36.5t-22.5 -20.5q-11 -8 -19 -10t-13 -2q-18 0 -33 11q-13 9 -24.5 29.5t-14.5 60.5zM76 58q0 1 -0.5 5.5t-8.5 29.5l-4 11l1 -12q0 -5 1 -10q2 -11 6 -21l3 -4h1zM102 38v-1q1 -2 5 -9.5t15 -12.5l7 -3l-5 6l-11.5 11.5t-7.5 8.5v1z
M132 10q-5 0 -12 2.5t-15 12t-15.5 27t-11.5 47.5l-3 -1q0 -1 1.5 -15.5t7 -31.5t15.5 -31t27 -14q4 0 12 2l-1 3q0 -1 -1 -1h-4zM101 117q1 0 12 3t24.5 10t25 18t13.5 26l-3 1l-2 -5t-9.5 -13t-21.5 -17.5t-39 -19.5v-3zM166 139q8 5 13 11q5 5 6.5 13t-2.5 18l-3 -1
q1 0 0.5 -12t-16.5 -26l-10 -9zM128 213h13q14 0 24 -3.5t16 -8.5q7 -5 10 -12l2 1v-2v2h1q-7 17 -20 22t-22 5q-5 0 -8 -0.5t-4 -0.5zM147 195q-4 5 -12.5 4t-18 -5t-19 -10.5t-16.5 -12.5q-2 -4 -2 -5q-2 -5 -7 -17t-12 -28q9 3 24 9t29.5 14.5t25 18.5t10.5 21q1 6 -2 11
zM239 390q6 -10 5.5 -19t-3.5 -15.5t-7 -11l-4 -4.5l2 -3q1 1 9 10.5t9 23.5q0 12 -9 21l-9 9zM192 406q-6 0 -13.5 -4.5t-12.5 -20.5l3 -1q2 6 6 11q3 4 8 7.5t12 3.5q4 0 6 -1l12 -3l-11 6q-1 0 -3 1q-2 0 -3.5 0.5t-3.5 0.5zM158 335q-1 -3 -8 -17q2 1 4.5 2t4.5 2
q10 5 17.5 10t12.5 9q6 4 10 7q2 1 2.5 2t1.5 2l2 2l4 6q5 8 8 19.5t-11 17.5h-1q-5 1 -10 -2q-5 -2 -11 -8.5t-11 -19.5q-1 -1 -1 -2q-2 -3 -2.5 -5t-2.5 -7q-2 -2 -2 -3l-2 -4q0 -1 -1 -2zM140 370q0 -1 -6.5 -12.5t-8.5 -21.5l-3 -10l5 9q1 0 7.5 12t8.5 22l2 9zM115 360
q-5 -13 -9.5 -25t-4.5 -13l3 -1l3.5 8t8.5 19t10.5 22t10.5 19l6 6l-2 2q-3 -2 -6 -6q-5 -6 -10.5 -14.5t-9.5 -16.5zM220 346q-11 -11 -30 -22q-17 -9 -44 -18.5t-69 -14.5v-3q2 0 20 2t41.5 8t47.5 17.5t37 29.5zM68 295l-8 -3q-8 -3 -13 -8t-8 -10.5t-4 -9.5l-1 -4l-2 -9
l4 8q9 15 17 22.5t8 8.5zM67 243q-5 -10 -9 -20q-4 -8 -7.5 -17.5t-6.5 -17.5l3 -1l3.5 6.5t7.5 15t7.5 18t4.5 15.5l3 13zM2 5l-9 11q-1 3 -3 7q-4 8 -3 19l1 9l-4 -9q-2 -5 -2 -10t2 -9.5t7 -8.5zM5 56q1 3 13.5 32t28 64.5t29 67.5t16.5 42l-3 1q0 -1 -5.5 -13.5
t-14.5 -32.5t-19 -44t-20 -46.5t-17.5 -41.5t-10.5 -28z" />
    <glyph glyph-name="l" unicode="l" horiz-adv-x="100" 
d="M137 421q6 -4 14 -10t14 -14t8 -17t-3 -18q-21 -52 -46 -102.5t-51 -102.5v-1q-17 -36 -29 -64q-11 -24 -19 -44.5t-6 -22.5q3 -2 12 4.5t20 16.5t22 21.5t17 20.5l2 2q1 1 5 1q2 -1 4.5 -6t-7.5 -16q-17 -20 -33.5 -36t-22.5 -20q-14 -10 -23 -12t-14 0q-18 3 -23 15.5
t-3 29.5t9 35.5t14 32.5q7 16 14.5 33t14.5 33t12.5 28.5t8.5 18.5q27 60 42 95.5t22 53.5q4 10 7 21t7 23v2l3 2q3 0 8 -3zM-8 40q3 8 7 17q3 8 6 17t5 18l3 13l-6 -14q-3 -6 -9.5 -22.5t-8.5 -27.5l-1 -11zM22 18q-1 -2 -3 -3q-4 -2 -7 -2q-6 0 -9 10l-2 9l-1 -10v-5
q0 -4 3 -7t6 -3q6 0 15 9l-1 1l1 -1l-1 1zM7 57q6 12 12 26q5 12 11.5 28t12.5 34l-3 1l-4 -8t-9.5 -21t-12 -28.5t-10.5 -30.5zM128 401q0 -1 -6 -17t-11 -28l3 -2l2.5 5t5.5 12t6 15t3 14v11zM68 177q1 0 6.5 12t10.5 26l-3 1q-4 -7 -7 -14q-3 -6 -5 -12.5t-4 -11.5z
M60 174l9 19t20 43.5t21.5 48t13.5 33.5l-3 1l-8 -16.5t-18.5 -39t-21 -47t-16.5 -41.5zM98 279q1 3 7 15.5t12.5 27t12 25.5l5.5 11l-3 2q-5 -8 -11.5 -21t-12 -25.5t-9.5 -22.5t-4 -11zM161 353q2 3 4 9.5t1 12.5t-5.5 12t-5.5 6l-2 -2q1 -2 3 -5q4 -6 5 -10
q2 -7 -1 -14.5t-3 -8.5l3 -1q0 1 1 1z" />
    <glyph glyph-name="m" unicode="m" horiz-adv-x="336" 
d="M225 2q-14 7 -15.5 23t3.5 35q4 20 14.5 48t30.5 65q-23 -25 -46 -54q-20 -25 -42.5 -56.5t-41.5 -64.5q-15 1 -26 7q-9 5 -14 17.5t3 35.5q1 3 3 8.5t4.5 12.5t5 12.5t3.5 8.5q11 32 34 73q-23 -25 -46 -54q-20 -25 -42.5 -56.5t-41.5 -64.5q-15 1 -26 7q-9 5 -14 17.5
t3 35.5q8 29 25.5 59.5t28.5 58.5q5 13 9.5 24t6.5 24v1v1q0 2 3 2q1 0 8 -2q3 -3 5 -4q6 -4 12.5 -10t11.5 -12.5t7 -14.5t-1 -16q-11 -23 -25 -43.5t-31 -43.5q25 32 50 59q21 23 44 46.5t41 35.5q15 -7 26 -14q9 -6 14 -14.5t0 -17.5q-6 -11 -19 -33t-25 -46
q10 12 25 29.5t32 36t34 34.5t31 25q14 -7 25 -14q9 -6 14.5 -14.5t0.5 -17.5q-8 -13 -24.5 -40.5t-28.5 -56.5q-4 -6 -6 -14q-8 -17 -12.5 -29t-2.5 -14q2 0 4 1q5 2 14.5 9t19 16.5t18.5 19.5t14 17q0 1 2 2q3 3 6 1q2 -1 4 -5.5t-7 -15.5q-17 -21 -34 -36.5t-22 -20.5
q-14 -10 -23 -11.5t-14 -0.5h-1zM293 208l8 -6q6 -4 8 -8.5t3 -9.5q0 -5 -1 -10l3 -2q6 14 2 22q-3 6 -8 8.5t-6 2.5zM60 199l7 -5q12 -8 11 -18t-1 -11l3 -1q6 12 2 21q-2 7 -7.5 9t-6.5 2zM48 168l-2 -5t-5 -12t-6 -14.5t-6 -13.5l2 -1l3 5t6.5 12t6.5 14.5t4 13.5l1 10z
M45 139q-8 -13 -14 -28q-6 -13 -11.5 -28.5t-10.5 -30.5l3 -1q6 12 12 26q5 12 11.5 27.5t12.5 33.5zM-7 24l4 9q0 1 7.5 18t10.5 34l3 13l-6 -12v-1q-3 -6 -9.5 -23t-8.5 -28zM12 5l-11 5q-3 1 -6 4q-7 6 -11 14l-4 9l1 -9q0 -1 2.5 -10t16.5 -11zM69 106l-10 -11
q-3 -3 -6.5 -7.5t-6.5 -9.5l-8 -10l-4 -5l6 3q8 4 14.5 15t7.5 12zM166 175q-3 -8 -7 -16q-3 -7 -6 -14.5t-6 -13.5l3 -2l3 5t6.5 12t6.5 14.5t3 13.5l1 11zM164 147l-4 -8t-9.5 -21t-12 -28.5t-10.5 -30.5l3 -1q6 12 12 26q5 12 11 28t12 34zM111 32l5 9q3 8 7 17q3 8 6 17
t5 18l2 13l-5 -12l-1 -2q-1 -3 -3.5 -9t-5.5 -13.5t-5 -15t-3 -12.5zM131 5l-11 5q-3 1 -6 4q-7 6 -11 14l-3 9v-9q0 -1 2.5 -10t16.5 -11zM252 15l1 -1l-1 1q-1 -1 -3 -2q-4 -2 -7 -2q-6 0 -9 9l-2 9l-1 -9v-5q0 -5 3 -8q2 -2 5 -2q6 0 16 8l-1 1l1 -1zM281 176
q-3 -8 -7 -16q-3 -7 -6 -14.5t-6 -13.5l3 -1q1 1 9.5 16.5t9.5 28.5l1 10zM261 191l-10 -10q-3 -3 -6.5 -7.5t-7.5 -8.5l-8 -10l-5 -5l6 3q8 3 15.5 14t8.5 12zM279 148l-4 -8t-9.5 -20.5t-12 -28t-10.5 -30.5l3 -2l3.5 7.5t9 19.5t11.5 27.5t12 33.5zM227 33l4 9q3 9 7 18
q3 8 6 17t5 17l2 13l-5 -12l-1 -1q-2 -7 -8.5 -23.5t-8.5 -27.5z" />
    <glyph glyph-name="n" unicode="n" horiz-adv-x="220" 
d="M36 82q25 32 50 59q21 23 44 46.5t41 35.5q15 -7 26 -14q9 -6 14 -14.5t0 -17.5q-8 -13 -24 -40.5t-29 -56.5q-2 -4 -6 -14q-8 -17 -12.5 -29t-2.5 -14q2 0 4 1q5 2 14.5 9t19 16.5t18.5 19.5t14 17q0 1 2 2q3 3 6 1q2 -1 4.5 -5.5t-7.5 -15.5q-17 -21 -33.5 -36.5
t-22.5 -20.5q-14 -10 -23 -11.5t-14 -0.5q-4 1 -10 3q-14 7 -15.5 23t3.5 35q4 20 14.5 48t30.5 65q-23 -25 -46 -54q-20 -25 -42 -56.5t-41 -64.5q-15 1 -26 7q-9 5 -14 17.5t2 35.5q9 29 26 59.5t28 58.5q1 4 4.5 12.5t6.5 17t4.5 14t0.5 4.5v1v1q0 2 3 2q2 1 4 0l4 -2
t3 -2t3 -2q12 -8 24 -22t5 -31q-1 -2 -3 -7t-13 -22q-12 -17 -23 -33.5t-16 -24.5zM49 175q-3 -8 -7 -16q-3 -7 -6.5 -14.5t-5.5 -13.5l2 -2l3 5t6.5 12t6.5 14.5t4 13.5l1 11zM46 147l-4 -8t-9.5 -21t-12 -28.5t-10.5 -30.5l3 -1q6 12 12 26q5 12 11.5 28t12.5 34zM-6 32
l4 9l2.5 5t5.5 12.5t5.5 16.5t4.5 18l3 13l-6 -12v-2q-2 -5 -9 -22t-9 -28zM13 5l-11 5q-3 1 -6 4q-2 2 -5 5.5t-5 8.5l-4 9l1 -9q0 -1 2.5 -10t16.5 -11zM144 191l-10 -10q-3 -3 -7 -7.5t-8 -8.5l-8 -10l-5 -5l7 3q8 3 15.5 14t7.5 12zM109 33l5 9q3 9 7 18q3 8 6 17t5 17
l2 13l-5 -12l-1 -1q-3 -7 -9 -23.5t-8 -27.5zM136 13h1l-2 2l1 -1l-1 1q-1 0 -4 -2t-7 -2q-7 0 -8 9l-2 9l-1 -9v-5q0 -5 3 -8q2 -2 5 -2q5 0 16 8l-1 1l1 -1h-1zM128 59l3.5 7.5t9 19.5t11.5 27.5t12 33.5l-3 1q-8 -13 -14 -28q-6 -13 -11.5 -28.5t-10.5 -30.5zM168 186
l-4 -10q-3 -8 -7 -16q-3 -7 -6.5 -14.5t-5.5 -13.5l3 -1l3 5t6.5 11.5t6.5 14.5t3 14zM176 208l7 -6q6 -4 8 -8.5t3 -9.5q0 -5 -1 -10l3 -2q6 13 3 22q-2 3 -4.5 4.5t-4.5 3.5q-3 2 -5 3z" />
    <glyph glyph-name="o" unicode="o" horiz-adv-x="196" 
d="M151 223q15 -1 20.5 -10.5t7.5 -20.5q2 -13 -1 -31q-2 -7 -5.5 -21t-5.5 -21q8 0 18.5 7.5t16.5 14.5q3 3 5 4.5t7 -1.5q3 -3 5.5 -7.5t-6.5 -13.5q-12 -11 -30.5 -21.5t-29.5 -12.5q-25 -43 -51.5 -68t-63.5 -23q-24 2 -36 15t-15.5 30t-1 35t6.5 29t10 23t12.5 23
t13.5 19.5t13 13.5q16 12 28 12.5t20 1.5q25 23 62 23zM145 209q-9 -5 -15.5 -13t-10.5 -16.5t-5.5 -15t-1.5 -7.5h3q12 29 21 38t15 9q4 0 8 -4q2 -2 3 -4l4 -8l-1 9q-2 8 -6 10.5t-7 2.5q-2 0 -3 -0.5t-2 -0.5h-2zM93 148l-1 -5t-1 -11t2 -12t9 -10l13 -7l-11 10
q-1 0 -6 8t-2 26zM89 173q0 -1 -3 -8t-5 -16.5t-2 -20.5t5 -19q9 -15 33 -15h2h3v4q-1 -1 -3 -1q-5 0 -14 2.5t-16 11.5q-12 18 3 61zM7 114l5 9t13 21t17.5 23.5t18.5 16.5l6 3h-7l-5 -1.5t-12.5 -8.5t-17.5 -21.5t-21 -39.5zM44 133q0 -1 -8 -17t-10 -33l-1 -11l4 11l3 7
t6 15.5t6 16t3 10.5l1 8zM45 9l-5 1.5t-10.5 5.5t-9.5 11t-4 18q1 25 7 47.5t9 29.5l-3 1q0 -1 -5 -11t-9 -24.5t-5.5 -30.5t4.5 -29q7 -17 30 -22l1 1v2zM87 21l-8 -2q0 -1 -7 -3t-11 -4l-8 -4l9 1q1 0 7.5 1t11.5 6zM54 19q20 1 38 21t32 46q0 -1 -1 -1q-26 -3 -40.5 7
t-19.5 26q-10 -12 -16.5 -29t-8.5 -32.5t1.5 -26.5t14.5 -11zM128 111q6 0 9 1q8 19 13 35t6 24q3 24 -7.5 21t-19.5 -20q-5 -8 -8.5 -19t-4 -20.5t2 -15.5t9.5 -6z" />
    <glyph glyph-name="p" unicode="p" horiz-adv-x="246" 
d="M-74 -69q23 58 51 118.5t51 128.5q2 5 5 16t10 28v2l1 1q1 0 1 0.5t1 0.5q3 0 8 -3q3 -2 7 -5t9 -7q8 -6 13.5 -14t6.5 -16v-1q8 9 17.5 18t19.5 15t20.5 8t20.5 -2l21 -10q8 -6 14 -15q5 -8 8 -19t1 -28q-3 -15 -14.5 -45t-30.5 -58l-6 -12t0 -9q3 0 5 1t11 6
q11 8 24.5 22t23.5 26q2 2 3.5 4t3.5 4l2 2q2 2 5 1q2 0 4 -2t1 -6.5t-7 -12.5q-2 -2 -4 -4.5t-4 -4.5q-15 -18 -29 -31t-19 -17q-14 -10 -23.5 -11.5t-14.5 -0.5q-4 1 -10 3q-1 1 -1.5 1t-1.5 1q-20 -15 -40 -15q-15 0 -27 4q-11 4 -21.5 13.5t-14.5 28.5q-4 -8 -7.5 -15.5
t-6.5 -15.5q-5 -9 -9 -17q-4 -7 -7.5 -14t-5.5 -12q-6 -12 -11 -24q-5 -11 -10 -25l-10 -28q-4 -9 -8.5 -10t-6.5 0q-11 4 -19.5 16t0.5 41zM78 -1q13 0 24 8.5t19 19t13 19.5t5 10l-3 2q-18 -34 -33.5 -44t-26.5 -10q-6 0 -11 1.5t-8 3.5q-1 2 -2 2.5t-2 1.5l-2 -2l1 -1
q2 -2 4 -3q11 -8 22 -8zM125 21q1 1 12 14t16 38l-3 1q-5 -11 -9 -21q-4 -8 -8.5 -16.5t-9.5 -13.5zM159 18q-3 0 -4 3q-1 1 -1 3l-3 1q-2 -8 1 -11q0 -1 3 -1q7 0 7 3l8 5l-9 -3h-2zM173 94q1 1 9 14t10 33l-3 1q-1 -7 -4 -14q-2 -6 -6 -14.5t-9 -17.5zM139 207
q-13 -3 -13 -5l1 -2q4 1 7 2l6 2q5 2 9 2h8q16 0 23 -10q15 -21 -9 -83l3 -1q0 1 4.5 11.5t8 24t4.5 28t-5 23.5q-8 12 -24 12q-5 0 -11 -1t-12 -3zM68 195q1 -2 3 -5q4 -5 5 -11q2 -6 -0.5 -14t-3.5 -8l3 -1l1 1q2 3 4.5 9.5t1.5 11.5q-2 7 -6.5 12.5t-5.5 6.5zM70 125
q-11 -19 -17 -39t-4 -43q2 -20 12.5 -24t27.5 9q9 7 23.5 29t28 48t21 50t1.5 35q-5 5 -12 7q-6 1 -15.5 -2t-21.5 -16q-17 -17 -28 -31.5t-16 -22.5zM-23 -43q2 6 6 12q2 5 5.5 12t5.5 14l-3 1l-7 -14q-3 -6 -5.5 -12.5t-4.5 -11.5zM42 192q-3 -9 -6 -17q-2 -7 -5 -14.5
t-5 -13.5l2 -1l3 5t6 12t5.5 15t2.5 14l1 10zM40 140q-5 -7 -11 -20t-11.5 -26t-9.5 -22.5t-4 -10.5l3 -2q1 3 7 15.5t12.5 27t11.5 26l5 11.5zM30 100l-8 -16.5t-18.5 -39t-21 -47.5t-16.5 -42l2 -1l9 19t20.5 43.5t22 48t13.5 33.5zM-51 -45l-2.5 -5t-5.5 -12.5t-5 -15.5
t-2 -14l1 -10l3 10q2 9 5 17q2 7 4 14.5t4 14.5z" />
    <glyph glyph-name="q" unicode="q" horiz-adv-x="236" 
d="M29 0q-3 -3 -9.5 -3.5t-14.5 2t-15.5 6.5t-12.5 9q-9 10 -5 39t30 68q14 21 30.5 40t32.5 32t30.5 18.5t23.5 -0.5q14 -8 23.5 -15t14.5 -11q4 10 4 12q1 0 1 1q2 5 4.5 12t2.5 12v2l3 2q5 0 8 -3q9 -6 21.5 -17t15.5 -25q5 -13 -1 -23q-7 -11 -19 -34t-23.5 -46.5
t-19 -42t-4.5 -20.5t12.5 4.5t21.5 17t23.5 22t17.5 19.5l2 2q2 2 5 1t5.5 -5.5t-7.5 -16.5q-18 -20 -36 -35.5t-23 -20.5q-14 -10 -24.5 -11.5t-15.5 -0.5h-1q-3 -5 -5 -9.5t-4 -6.5q-7 -15 -13 -31q-5 -14 -11.5 -30.5t-11.5 -32.5q-2 -7 -6 -7.5t-6 -0.5q-6 2 -12 6
t-10 10.5t-4.5 17t5.5 24.5q14 35 32.5 78t38.5 89q-12 -13 -27 -28t-28.5 -29.5t-24.5 -25.5t-14 -15zM21 9q8 0 17 12l-2 2q-2 -2 -5 -4q-6 -4 -11 -4q-2 0 -6 2l-5 3l3 -5q0 -2 2 -3q1 -3 7 -3zM99 -40l-6 -14q-2 -6 -8.5 -23t-8.5 -28l-2 -10l5 9l2 5.5t5 13t6 16.5
t5 18zM75 -83l5.5 12.5t12.5 29.5l14 34t10 27l-3 1q-9 -18 -17 -36q-7 -16 -14 -34t-11 -33zM125 39q3 8 7 17q3 8 6 17t5 18l2 13l-6 -14q-3 -6 -9 -23t-8 -28l-2 -10zM148 0q-4 0 -8 1l-6 2t-5 3l-4 4l1 -5q0 -3 2 -5q4 -4 11 -4q6 0 9 1l15 4zM178 147q-9 -18 -17 -36
q-7 -16 -14 -34t-11 -33l3 -1l5.5 12.5t12.5 29.5l14 34t10 27zM172 170q0 -1 -8 -12.5t-13 -34.5l-2 -10l5 8q0 1 7.5 15t13.5 32l2 7zM149 161q0 2 1 3q-15 8 -29 2.5t-23 -16.5q-5 -6 -13 -15.5t-17 -21.5t-17.5 -26t-15.5 -28q-5 -9 -3.5 -12.5t3.5 -3.5t3 1q1 0 2 1
q8 6 24.5 22.5t33.5 35.5t31.5 35.5t19.5 22.5zM106 207q-9 0 -17.5 -6.5t-9.5 -7.5l2 -2q11 7 24 7q7 0 12 -1.5t9 -3.5q2 -1 4 -3q1 -1 2 -1l2 3l-6 4q-6 3 -15 9q-2 2 -7 2zM66 160l-4.5 -6t-9.5 -14.5t-10.5 -18t-8.5 -17.5l-6 -13l8 12l5 6.5t10.5 15.5t11 18.5
t7.5 15.5l4 10zM-1 40l4 11q6 18 15 36q8 16 18.5 35t24.5 39l-2 2q-1 -1 -10 -11.5t-19.5 -26.5t-19.5 -35.5t-10 -38.5z" />
    <glyph glyph-name="r" unicode="r" horiz-adv-x="177" 
d="M174 90q2 -1 4.5 -5.5t-6.5 -15.5q-17 -21 -34 -36.5t-22 -20.5q-14 -10 -23.5 -11.5t-14.5 -0.5q-9 0 -14.5 5t-8 13t-2.5 16.5t1 16.5q0 2 1 6l2 8l2 8v-1q5 19 14 42.5t25 53.5q1 4 4 8q2 4 5 8.5t6 9.5q-10 -2 -19 -3t-17 -2q-5 -1 -9 -1t-9 -1q-7 -25 -17 -46
t-20.5 -37.5t-20.5 -28.5t-16 -19q-6 -6 -9 -4q-2 0 -4 2q-4 4 -2 7q0 2 2 4q11 12 32.5 42t36.5 76q1 1 1 3h-1q-4 -1 -9.5 -1.5t-11.5 0.5q-10 1 -17.5 5t-8.5 14q0 15 6 25t14 16t16.5 8.5t12.5 3.5h1q10 2 15.5 -2t7.5 -10q3 -7 2 -16q0 -5 -2 -15l-1 -6q18 2 36 7t25 7
h2h5q5 -2 13 -6t14.5 -10t9.5 -13t-1 -15q-7 -13 -23.5 -40.5t-29.5 -56.5q-2 -4 -6 -14q-8 -17 -12.5 -29t-2.5 -14q3 0 5 1q5 2 14 9t18.5 16.5t19 19.5t14.5 17l2 2q2 2 5 1zM44 240q-2 -2 -5 -6t-5.5 -9t-2.5 -9.5t3 -6.5q6 -4 15 -3q5 19 4 25q0 4 -2 7.5t-7 1.5z
M7 221q0 1 5 8.5t16 14.5l12 7l-14 -5q-6 -2 -10 -6q-4 -3 -7.5 -7.5t-4.5 -10.5l-1 -9zM43 194q11 0 18.5 0.5t7.5 1.5v3q-2 -1 -5 -1h-12q-29 0 -36 10q-3 5 1 14l-3 1q-2 -3 -3 -7q-1 -3 -1.5 -7t1.5 -7q3 -6 13 -7q5 -1 9.5 -1h9.5zM136 163l-6 -10l-2.5 -5.5t-6 -13
t-7.5 -15.5t-6 -14l3 -1l3.5 6.5t7.5 15t7.5 16t3.5 10.5zM124 216q-3 0 -4 -1v-4q1 1 3 1q11 0 19.5 -5t11.5 -8l1 -1h2v1q0 2 -1 2l-1 1q-5 5 -12 9.5t-11 4.5h-8zM70 26q0 8 1 18q1 8 3.5 20t7.5 27l-3 1q0 -1 -3 -8t-5.5 -17t-4 -21t0.5 -20h3zM80 47q8 22 17 43
q8 18 15.5 38t15.5 35l10 20l-3 2q-2 -3 -4.5 -8t-5.5 -12q-6 -12 -13.5 -27.5t-14.5 -32t-12.5 -32t-7.5 -26.5h3zM93 9q6 0 13 4l-2 3q-2 -1 -3 -1q-2 -1 -5 -1q-6 0 -8 4l-3 7v-7q0 -2 1.5 -5.5t6.5 -3.5z" />
    <glyph glyph-name="s" unicode="s" horiz-adv-x="138" 
d="M124 106q-10 -2 -14.5 -3.5t-23.5 -6.5q5 -17 7.5 -34.5t-2 -32t-18.5 -25t-42 -13.5q-23 -1 -41 3q-15 3 -27.5 11.5t-12.5 25.5q0 14 16 29q7 9 14 22t13 26.5t10.5 25.5t7.5 17q-5 19 1 36.5t18 31t27 22.5t29 12q20 4 36 4.5t27 -0.5q1 0 2 -1q3 -3 3 -4
q0 -2 -0.5 -3.5t-5.5 -5.5q-10 -7 -23 -17.5t-24 -23t-18.5 -26.5t-7.5 -28q1 -7 3 -16.5t4 -18.5q7 2 11 3l8 2t9 2t14 3h6q7 0 7 -5q0 -6 -5.5 -8.5t-7.5 -3.5zM-5 60q-10 -7 -14 -13q-4 -5 -4 -11t9 -11q13 -5 25 -5q10 0 20.5 5.5t15.5 22.5q2 4 2 9q0 11 -4 27
q-16 -5 -29 -11t-21 -13zM22 128q-3 -6 -9 -17t-11 -25q8 4 16.5 8t19.5 8q-5 11 -8.5 15t-7.5 11zM65 208l-3.5 -4t-7.5 -11t-6.5 -17.5t-0.5 -23.5q3 -21 6 -29q2 -4 3 -7l7 -12l-4 13l-2.5 9.5t-3.5 22.5t1.5 28.5t12.5 27.5zM133 246q-11 -3 -22 -9q-10 -5 -20.5 -15
t-18.5 -27l3 -1q5 9 14 18q7 8 18 16.5t27 14.5l13 5zM20 1q15 0 25.5 5.5t17.5 12t10.5 12l3.5 5.5l-3 1q-12 -20 -28.5 -26t-29.5 -6q-9 0 -12 1q-3 0 -4 1l-1 -3q10 -3 21 -3zM55 48q-2 -11 -7 -17.5t-11 -9.5t-10.5 -4.5t-5.5 -1.5l1 -3h1q16 0 25 10q8 8 9 16.5t1 9.5
h-3zM39 187l-2.5 -3t-4 -9.5t-0.5 -17t8 -25.5l3 1l-2 5.5t-3.5 13t-1 16.5t4.5 17l4 7zM67 79q5 -22 2 -36q-2 -7 -5 -12l2 -2q6 8 7.5 16.5t1 16t-2.5 13l-2 5.5zM-24 10l-5 9q-4 6 -4 11t1.5 9.5t3.5 7.5t3 4h-1h-4q-9 -9 -9 -19q0 -7 3 -11q2 -3 4 -4z" />
    <glyph glyph-name="t" unicode="t" horiz-adv-x="104" 
d="M205 360q8 2 14 2q5 0 9.5 -1t6.5 -6q2 -10 -1.5 -16t-17.5 -7h-58q-8 -17 -21.5 -46t-27.5 -58q-16 -33 -34 -71q-17 -37 -29 -65q-11 -25 -19 -45t-6 -22q3 -2 12 4.5t20 17t22 22t17 19.5l2 2q1 1 5 1q2 -1 4.5 -6t-7.5 -16q-17 -20 -33.5 -35.5t-22.5 -20.5
q-13 -10 -22.5 -11.5t-14.5 -0.5q-18 3 -23 15.5t-3 29.5t9 35.5t14 32.5q7 16 14.5 33t14.5 33t12.5 28.5t8.5 18.5q15 34 26.5 59.5t19.5 45.5q-37 0 -74 0.5t-65 1.5q-61 2 -110 -1.5t-69 -18.5q-9 -7 -13 -10t-6.5 -4.5t-3.5 -1t-4 0.5q-2 1 -3 2q-3 1 -3 7q0 3 1 14
t11.5 22t36 19t75.5 4q69 -5 125 -11t110 -5q7 16 12.5 32.5t11.5 36.5v2l3 2q3 0 8 -3q6 -4 14 -10t14 -14t8 -17t-3 -18q-1 -3 -3 -7l18 2t18 3zM-247 320q3 8 7.5 13t9.5 8q5 4 10 6l-1 3q-9 -2 -14.5 -6.5t-8.5 -9.5q-4 -6 -6 -13zM-174 347h10.5t25.5 -0.5t31 -0.5h27
h12v4h-25q-11 0 -24 0.5t-25 0.5h-19t-13 -1v-3zM7 341q31 0 49.5 0.5t25.5 0.5v4h-19.5t-47.5 -0.5t-58.5 -0.5h-52.5h-33v-3q22 -1 45 -1h91zM-6 37q3 8 7 17q3 8 6 17t5 18l2 13l-6 -14q-2 -6 -8.5 -23t-8.5 -28l-1 -10zM24 15q-2 -2 -4 -3q-4 -2 -7 -2q-5 0 -8 10l-2 9
l-1 -10v-5q0 -4 3 -7q1 -3 5 -3q5 0 16 9l-1 1l1 -1l-2 2l1 -1zM9 54q6 12 12 26q5 12 11.5 27.5t12.5 33.5l-3 2l-4 -8t-9.5 -21t-12 -28.5t-10.5 -30.5zM48 180l-4 -9q-3 -8 -7 -16q-3 -7 -6 -14.5t-6 -13.5l3 -2l3 5t6.5 12t6.5 14.5t3 13.5zM70 174q2 6 6 12
q2 5 5.5 11.5t5.5 14.5l-3 1l-7 -14q-3 -6 -5.5 -12.5t-4.5 -11.5zM62 171l9 19t20 43.5t21.5 48t13.5 33.5l-3 1l-8 -16.5t-18.5 -39t-21 -47t-16.5 -41.5zM133 407l-3 -9q-1 -1 -6.5 -17t-10.5 -29l3 -1l2.5 5t5.5 12t6 15t3 14v10zM165 355q2 3 4.5 9.5t1.5 11.5
q-1 7 -6 12.5t-5 6.5l-2 -2q1 -2 3 -5q4 -5 5 -11q1 -3 0.5 -7t-1.5 -7q-1 -4 -3 -8l3 -1v1z" />
    <glyph glyph-name="u" unicode="u" horiz-adv-x="223" 
d="M220 85q2 -2 4 -6.5t-7 -15.5q-17 -21 -33.5 -36.5t-22.5 -19.5q-14 -10 -23 -12t-14 -1q-18 3 -22.5 16t-2.5 30t9.5 36t13.5 33q-5 -5 -9.5 -10.5t-10.5 -12.5l-22 -24t-21.5 -23.5t-18.5 -20.5t-12 -13q-7 -5 -12.5 -5.5t-13.5 0.5q-17 3 -21 15q-5 9 -4.5 21.5
t4.5 26.5t9.5 27.5t10.5 24.5l9 21q8 20 17.5 41t13.5 44v2l3 2q4 0 7 -3q5 -3 11 -7t11 -10q8 -8 12 -17.5t-2 -20.5q-4 -7 -10.5 -19.5t-13.5 -27t-14 -30.5t-13 -29q-4 -8 -2.5 -11.5t3.5 -3.5t3 1q1 0 1 1q9 6 26.5 25.5t34.5 40.5q20 25 44 53q5 7 9 15t6 16q3 9 5 18
l1 1l2 2q1 0 8 -2q6 -4 13 -9.5t13 -13t8 -16t-3 -17.5q-6 -11 -17.5 -34t-22.5 -46.5t-18 -42t-4 -19.5q2 -2 11 4.5t20.5 16.5t22 21.5t16.5 19.5q0 1 2 2q2 2 6 2zM176 194l8 -5q6 -4 8 -8.5t3 -9.5q0 -5 -1 -10l3 -2q6 14 2 22q-3 6 -8 8.5t-6 2.5zM51 177q-3 -8 -7 -16
q-3 -7 -6 -14.5t-6 -13.5l3 -2l3 5t6.5 12t6.5 14.5t3 13.5l1 11zM-3 34l4 9q3 8 7 17q3 8 6 17t5 18l2 13l-5 -12l-1 -2q-2 -5 -8.5 -22t-8.5 -28zM16 7l-11 5q-3 1 -6 4q-7 6 -11 14l-3 9v-9q0 -1 2.5 -10t16.5 -11zM16 60q6 12 12 26q5 12 11 28t12 34l-2 1l-4 -8
t-9.5 -21t-12 -28.5t-10.5 -30.5zM167 167q-1 -1 -7.5 -16.5t-12.5 -28.5l3 -1l3 5t6.5 12t6.5 14.5t4 13.5v10zM116 32l2 5.5t5 13t6 16.5t5 18l3 12l-6 -12v-1q-3 -6 -9.5 -23t-8.5 -28l-1 -10zM131 50q6 12 12 26q5 12 11.5 27.5t12.5 33.5l-3 2l-4 -8t-9.5 -21
t-12 -28.5t-10.5 -30.5zM150 16l1 -1l-1 1q-1 -1 -3 -2q-4 -2 -7 -2q-6 0 -9 9l-2 9l-1 -9q0 -1 0.5 -5.5t2.5 -7.5q2 -2 6 -2q7 0 15 8l-1 1l1 -1z" />
    <glyph glyph-name="v" unicode="v" horiz-adv-x="193" 
d="M134 324q18 8 33.5 2t26 -19.5t15.5 -31t2 -31.5q-5 -24 -22.5 -54t-51.5 -65q-17 -18 -27.5 -28.5t-21.5 -22t-27 -28t-44 -45.5q-15 1 -25 7q-9 5 -14 17.5t2 35.5q9 29 25 60t29 58q2 4 5 12t5.5 15.5t4.5 14t1 7.5v2l3 2q8 0 17.5 -6t16.5 -15t10 -19.5t-1 -18.5
q-9 -15 -18 -28q-8 -11 -16 -24t-15 -22q-14 -19 -25 -38t-9 -26q0 -2 0.5 -2.5t0.5 -1.5t1 -1q6 6 17.5 18t31.5 33q39 40 64 86t33 81q4 17 0.5 31t-9.5 24q-7 11 -18 21zM67 210l9 -7q13 -10 9.5 -21.5t-5.5 -16.5h-1l3 -2l1 1q11 17 6 29q-2 7 -6.5 10t-5.5 3zM8 38
q0 8 3 18q2 8 6.5 19t13.5 24l-3 1l-4.5 -6.5t-9 -16t-8 -20.5t-1.5 -20l3 -14v15zM59 180q-1 -2 -8.5 -16.5t-17.5 -32.5t-18.5 -35l-11.5 -23l3 -1q1 1 9 16.5t18 34t18.5 35t10.5 21.5l4 14zM9 8q-3 2 -7 5q-8 6 -9 13l-3 10v-10q0 -3 2 -7q2 -3 5 -7t11 -7zM49 53
q4 3 10.5 9t12.5 13t10.5 12t4.5 6l10 11l-12 -9q-5 -4 -11.5 -10.5t-12 -12.5t-10 -11l-4.5 -5l-7 -8zM136 143q8 11 14.5 21.5t10.5 18.5q4 10 8 19l-2 1q-2 -3 -5.5 -10t-8 -14.5l-9 -15t-8.5 -11.5q-3 -5 -10.5 -14.5t-14.5 -19.5t-13 -18l-6 -8l3 -2q0 1 12 16.5
t29 36.5zM180 221q5 7 7 14q2 6 1 13.5t-7 13.5l-11 10l9 -12q2 -5 3 -10q2 -12 -5 -28l-5 -12zM196 224q9 18 8 33.5t-5.5 27t-9.5 18.5l-5 7l-3 -3q11 -16 15 -30.5t3 -25.5q-1 -13 -6 -26z" />
    <glyph glyph-name="w" unicode="w" horiz-adv-x="291" 
d="M233 323q18 8 33.5 2t26 -19.5t15 -31t1.5 -31.5q-5 -24 -22.5 -54t-50.5 -65q-17 -18 -27.5 -28.5t-21.5 -22t-27 -28t-44 -45.5q-15 1 -26 7q-9 5 -14 17.5t3 35.5q0 2 1 3q-11 -11 -25 -25.5t-37 -37.5q-15 1 -26 7q-9 5 -14 17.5t3 35.5q9 29 26 59.5t28 58.5
q1 2 1 2.5t1 2.5q0 1 3 7.5t5.5 14.5t4.5 14.5t1 6.5v1v2l3 2q3 0 8 -3q7 -3 14.5 -9t13 -13.5t8 -16t-0.5 -17.5q-9 -15 -18 -28q-8 -11 -16.5 -24t-14.5 -22q-14 -19 -25 -38t-9 -26q0 -2 0.5 -2.5t0.5 -1.5t1 -1q6 6 17.5 18t31.5 33q33 34 55 70q3 5 8.5 15t10.5 21.5
t8 22.5t2 17v1v2l3 2q3 0 8 -3q2 -1 5 -4q12 -8 24.5 -22t5.5 -30q-9 -15 -18 -28q-8 -11 -16.5 -24t-15.5 -22q-13 -19 -24 -38t-9 -26q0 -5 2 -5q5 6 17 18t32 33q38 40 63.5 86t33.5 81q4 17 0 31t-10 24q-7 11 -17 21zM8 37q0 8 3 18q2 8 6.5 19t13.5 24l-3 1l-4.5 -6.5
t-9.5 -16t-8.5 -20.5t-1.5 -20l4 -14v15zM67 209l9 -7q13 -10 9.5 -21.5t-5.5 -16.5h-1l3 -2v1q12 16 7 29q-2 7 -6.5 10t-5.5 3zM59 179q-1 -2 -8.5 -16.5t-17.5 -32.5t-18.5 -35l-11.5 -23l3 -1q1 1 9 16.5t18 34t18.5 35t10.5 21.5l4 14zM9 7q-3 2 -7 5q-8 6 -9 13l-3 10
l-1 -10q0 -3 2 -7q2 -3 5.5 -7t11.5 -7zM173 187l-3.5 -7.5t-8.5 -18t-10.5 -21.5t-8.5 -20l3 -1l5 7.5t10.5 18t10 22t5.5 19.5l1 8zM157 179q-1 -2 -9 -16.5t-17.5 -32.5t-18.5 -35t-11 -23l3 -1q1 1 9 16.5t18 34t18.5 35t9.5 21.5l5 14zM105 37q0 8 3 18q2 8 7 19t13 24
l-2 1l-4.5 -6.5t-9.5 -16t-8.5 -20.5t-1.5 -20l3 -14v15zM149 52q4 3 10.5 9t12.5 13t10.5 12t4.5 6l10 11l-12 -9q-5 -4 -11.5 -10.5t-12 -12.5t-10 -11l-4.5 -5l-7 -8zM236 142q8 11 14.5 21.5t10.5 18.5q4 10 8 19l-3 1q-1 -3 -4.5 -10t-8 -14.5l-9 -15t-8.5 -11.5
q-3 -5 -10.5 -14.5t-15 -19.5t-13 -18l-5.5 -8l3 -2q0 1 12 16.5t29 36.5zM280 220q5 7 7 14q2 6 1 13.5t-7 13.5l-11 10l9 -12q2 -5 3 -10q2 -12 -5 -28l-5 -12zM296 223q9 18 8 33.5t-5.5 27t-10 18.5l-5.5 7l-2 -3q11 -16 15 -30.5t3 -25.5q-1 -13 -6 -26z" />
    <glyph glyph-name="x" unicode="x" horiz-adv-x="205" 
d="M200 85q2 -1 4.5 -6t-6.5 -16q-17 -20 -34 -35.5t-23 -20.5q-13 -10 -22.5 -11.5t-14.5 -0.5q-3 0 -5.5 1t-4.5 2q-7 3 -12 7t-9 8t-8 10q-5 6 -8 13.5t-6 15.5q0 1 -0.5 2t-0.5 2q-14 -8 -26 -15t-23 -13q-9 -5 -16.5 -9t-12.5 -7q-6 -4 -11 -6q-11 -6 -17.5 -6t-10.5 3
q-4 4 -6 10q36 21 64 40.5t50 37.5q-1 4 -1 7.5t-1 6.5q-2 6 -2.5 11.5t-2.5 11.5q-3 11 -5 21.5t-4 18.5q-2 9 -4 17l-2 12q-1 5 -2.5 10t-3.5 9q-1 0 -1 1q0 2 1 3q2 2 8 2h12t15 -2q11 -2 19.5 -8t10.5 -18q1 -10 3 -26.5t4 -35.5q18 18 29.5 32t17.5 24t8 15.5t3 7.5
q0 2 0.5 2.5t0.5 1.5v2v2l3 2h1q8 0 16 -4q7 -3 14.5 -9.5t12.5 -17.5q1 -5 1 -10q0 -11 -11 -23q-16 -18 -39 -37t-49 -36q2 -15 6 -27q3 -11 7.5 -21.5t10.5 -14.5q4 -2 6 -2h4q5 2 14 9.5t19 17t19 19t14 17.5l2 2q1 1 5 1zM159 203q-5 -10 -12 -21q-6 -9 -14.5 -19.5
t-19.5 -19.5l1 -3l6 3.5t13.5 11t15.5 19t13 28.5zM41 207q4 -1 8.5 -5t8.5 -9q4 -6 9 -13l3 -6v7q-2 11 -6.5 17t-9.5 9q-6 4 -13 4v-4zM65 46q-2 17 -5 34q-2 14 -4.5 28.5t-5.5 23.5l-5 15l2 -15l1 -9.5t3 -22.5t5 -28t6 -27zM89 26l-3 9q-1 5 -2.5 11t-3.5 13
q-6 23 -13.5 54t-12.5 63l-3 -1q0 -2 3 -20t7 -41.5t10 -46.5t12 -33zM98 115q-2 -1 -4 -3l-1 -1l2 -2q1 0 2 1t3 2q6 4 15.5 11.5t19 16.5t18 18t13.5 17l6 10l-8 -8l-8 -8t-19 -18t-22 -20.5t-17 -15.5zM116 4q7 0 12 4t6 4l-2 2q-6 -3 -11 -3q-7 0 -12 5q-3 2 -4 5l-5 10
l2 -11q2 -10 6 -13t8 -3z" />
    <glyph glyph-name="y" unicode="y" horiz-adv-x="224" 
d="M370 -17q0 -1 0.5 -1.5t0.5 -2.5q2 -7 3.5 -16.5t-1.5 -20.5q-2 -7 -5.5 -14.5t-11.5 -15.5q-15 -17 -41 -25h-1q-17 -5 -38 -7t-47 1t-58.5 12t-73.5 27q-4 2 -5.5 3t-5.5 3q-20 -19 -41 -32t-56 -15q-16 -2 -28 2q-11 3 -21 10t-13 23q-2 9 3.5 19.5t14.5 17.5
q20 14 41 17.5t38 1.5q20 -3 40 -10q4 6 9.5 20t11.5 30t11.5 31t8.5 24q4 12 8.5 23.5t9.5 21.5v-1q-5 -5 -10 -10.5t-10 -11.5q-11 -12 -22 -24.5t-21.5 -24t-18.5 -20t-12 -12.5q-10 -5 -15 -5q-7 -1 -11 0q-16 1 -22 14q-5 9 -4 22t4.5 26.5t9.5 27t11 24.5h-1
q2 5 4.5 11t4.5 11q5 11 8.5 20.5t6.5 17.5q4 9 7 16q3 6 5 12q3 9 5 19v1l3 2q2 1 3.5 0t3.5 -2q5 -3 10.5 -7.5t10.5 -9.5q8 -8 12 -18t-2 -21q-4 -7 -10 -19.5t-13 -27t-14.5 -30t-13.5 -28.5h1q-4 -9 -2.5 -12t3.5 -3t3 1q1 0 1 1q8 6 26 25t35 40q20 24 44 53q5 7 9 15
t6 16q3 9 5 18v1q0 2 3 2q3 1 8 -2t12 -8.5t12.5 -12.5t8 -15t-0.5 -16l-20 -45q-9 -20 -20.5 -45t-22.5 -48q-2 -6 0 -8t11 4.5t20 17t22 22t17 19.5l2 2q1 1 5 1q3 -1 5 -6t-7 -16q-17 -20 -34 -35.5t-22 -20.5q-12 -8 -20.5 -10.5t-13.5 -1.5l-5.5 -11t-5.5 -10
q-5 -11 -9 -18.5t-6 -9.5q5 -2 13.5 -4t22.5 -6q44 -12 90 -11q4 0 24 2.5t43 9t43 18.5t25 31q0 2 2 2q1 0 2 -1q2 -2 3 -4zM176 199l8 -5q12 -8 11 -18t-2 -11l3 -1q7 12 3 21q-2 3 -4.5 5t-4.5 4q-3 2 -5 3zM51 182q0 -1 -6.5 -17t-12.5 -28l3 -1l3 5t6.5 12t6.5 14.5
t3 13.5l1 10zM-4 38l5 9q0 1 7.5 18t10.5 34l2 13l-5 -12l-1 -1q-1 -2 -3.5 -8.5t-5 -14l-5 -15t-3.5 -13.5zM16 12l-11 4q-3 1 -6 4q-7 5 -11 15l-4 8l1 -9q0 -6 3 -10q4 -10 16 -11zM15 65l3.5 7t9 19t11.5 27.5t12 33.5l-3 1q-7 -13 -13 -28q-5 -13 -11 -28.5t-11 -30.5z
M166 171q-3 -8 -7 -16q-3 -7 -6 -14.5t-6 -13.5l3 -1q1 1 9.5 16.5t9.5 28.5l1 10zM164 143l-4 -8t-9.5 -20.5t-12 -28.5t-10.5 -31l3 -1l3.5 7.5t8.5 19.5t11 27.5t12 33.5zM112 28l4 9q3 9 7 18q3 8 6 17t5 17l2 13l-5 -12l-1 -1q-2 -7 -8.5 -23.5t-8.5 -27.5zM50 -62
q-20 7 -35 7.5t-26 -1.5q-12 -3 -22 -8q-4 -3 -8 -7.5t-3 -11.5q1 -8 10 -11.5t22.5 -1.5t30 10t31.5 24zM-61 -84q4 11 12 18.5t16 11.5q10 4 20 6v3q-18 -2 -28.5 -8t-15.5 -13t-6 -12.5l-1 -5.5v-9zM36 -96v-1v1q-1 0 -14.5 -6.5t-36.5 -6.5q-6 0 -12 0.5t-11 1.5l-12 2
l11 -5q3 -2 7 -3q8 -2 19 -2q26 0 49 18l1 -1zM66 -67l-8 -5q-3 -2 -7 -5q-3 -2 -6.5 -5t-5.5 -6l-5 -6l7 4q3 2 7 5q3 2 6 4.5t6 6.5zM84 -45q2 5 9.5 20t9.5 26l1 11l-4 -11l-2.5 -6t-5.5 -13.5t-6.5 -14.5t-4.5 -10v-1l2 -1h1zM100 -30q1 0 2 1.5t5 12.5q2 3 3.5 10
t2.5 13l1 11l-4 -10l-1.5 -5t-4 -11t-4.5 -11.5t-2 -7.5t1 -2v-1h1zM234 -94q2 -1 6 -1h14q11 0 25 2t28 7l-1 3l-6.5 -1.5t-16 -3t-21 -2.5t-21.5 -1h-6zM237 -103q14 0 25 1t21 4l-1 3q-4 -1 -9 -2t-12 -1h-17q-17 0 -46.5 3t-71.5 13l-1 -3q18 -5 36 -9q16 -4 36 -6.5
t40 -2.5zM269 -107q1 0 9 1t19 3.5t22 6.5t18 11q4 3 4.5 4t0.5 2l-1 1h-1h-2q-1 0 -1.5 -1t-2.5 -2q-8 -4 -25.5 -12t-40.5 -11zM339 -97q11 6 16 13.5t7 14.5q3 8 2 16l-1 9l-2 -9q-4 -17 -14 -29t-10 -13l-8 -8z" />
    <glyph glyph-name="z" unicode="z" horiz-adv-x="185" 
d="M395 -21q2 -7 3 -16.5t-1 -20.5q-2 -7 -6 -14.5t-11 -15.5q-15 -16 -41 -25h-1q-17 -5 -38 -7t-47.5 1t-59 12t-72.5 27l-6 3l-6 3q-19 -19 -40 -32t-56 -15q-16 -2 -28 2q-11 3 -21 10t-13 23q-2 9 3 19.5t15 17.5q19 14 40.5 17.5t38.5 1.5q20 -3 40 -10v1q15 28 7 46
q-8 15 -32 20q-1 1 -4 1q-16 3 -21 8q-5 4 -5 11v5q3 11 9.5 25.5t13.5 27.5q13 30 37 59q4 6 8 11t8 9.5t8 9.5q-9 -2 -18.5 -3t-17.5 -2q-5 -1 -9 -1t-9 -1q-7 -25 -17 -46t-20.5 -37.5t-20 -28.5t-15.5 -19q-6 -6 -10 -4q-2 0 -3 2q-2 2 -2 3.5v3.5t1 4q11 11 33 42.5
t37 75.5q0 2 1 3h-2q-3 -1 -8.5 -1.5t-12.5 0.5q-9 1 -16.5 5t-9.5 14q0 15 6 25t14 16t16.5 8.5t12.5 3.5h1q10 2 15.5 -2t7.5 -10q3 -7 2 -16q0 -4 -0.5 -8.5t-2.5 -12.5q18 2 36 7t25 7h2h6l12 -6t15 -10t10 -13t-2 -15q-7 -13 -30.5 -35t-42.5 -61q-4 -10 -6 -14t-3 -7
l-2 -6q14 -3 25 -9l6 -3q18 -12 21.5 -27.5t0.5 -30.5t-9.5 -26t-7.5 -13q5 -2 13.5 -4t22.5 -6q42 -12 90 -11q4 0 23.5 2.5t42.5 9t43 18.5t25 31q2 2 3 2l1 -1q2 -2 3 -4zM48 240q-2 -2 -5 -6t-5.5 -8.5t-2.5 -9t4 -7.5q4 -4 15 -3q2 7 4 15t-2 16q-2 6 -8 3zM11 205
q0 13 5 21.5t16 17.5l13 7l-14 -5q-1 0 -10.5 -5t-11.5 -17q-3 -9 -2 -20zM48 194q11 0 18.5 0.5t7.5 1.5v3q-2 -1 -5 -1h-12q-30 0 -36 10q-3 5 1 14l-3 1q-2 -3 -3 -7q-1 -3 -1.5 -7t1.5 -7q3 -5 12 -7q5 -1 10 -1h10zM73 -62q-20 7 -34.5 7.5t-25.5 -1.5q-12 -3 -22 -8
q-4 -3 -8 -7.5t-3 -11.5q1 -8 10 -11.5t22.5 -1.5t29.5 10t31 24zM-42 -84q4 11 12 18.5t16 11.5q9 4 19 6v3q-18 -2 -28.5 -8t-15 -13t-5.5 -12.5l-1 -5.5l-1 -9zM54 -96l1 -1l-1 1q-1 0 -14.5 -6.5t-36.5 -6.5q-6 0 -11.5 0.5t-11.5 1.5l-11 2l10 -5q3 -2 7 -3q8 -2 19 -2
q26 0 50 18l1 -1zM84 -67l-7 -5q-1 0 -8 -4.5t-12 -11.5l-4 -6l6 4q1 0 7.5 4.5t12.5 11.5zM146 180l-7 -9q-1 0 -10 -12t-17 -27l-7 -14l10 12l3 4.5t7.5 10.5t9 13t6.5 12zM129 216q-3 0 -4 -1v-4q1 1 3 1q11 0 19 -5t12 -8q0 -1 1 -1h1l1 1q0 1 -1 2l-1 1q-5 5 -12 9.5
t-11 4.5h-8zM57 73l2.5 4t5.5 9t5.5 11t3.5 11l3 10l-6 -9q0 -1 -6.5 -12t-9.5 -23l-4 -12zM66 60l6.5 12t16 29.5t20 36t19.5 32.5q3 4 5 7.5t4 5.5q2 3 4 5l-3 2l-5 -7.5l-7 -10.5q-8 -11 -17.5 -25.5t-18.5 -30t-16.5 -30t-10.5 -25.5zM100 -40q9 9 10.5 22.5t1.5 14.5
l-3 1q-1 -7 -2.5 -13t-3.5 -11q-3 -6 -5 -12l-4 -8zM122 -13q3 19 -6 34q-6 7 -13.5 11t-15 6.5t-13 3.5l-5.5 1l-1 -4q19 -4 29.5 -10.5t15.5 -14t6 -14.5t0 -13q-1 -2 -1.5 -5t-2.5 -6l3 -1q0 1 1 3zM253 -94q1 -1 5 -1h15q11 0 24.5 2t27.5 7l-1 3l-6.5 -1.5t-16 -3
t-21 -2.5t-21.5 -1h-6v-3zM255 -103q14 0 25.5 1t21.5 4l-1 3l-10 -2t-12 -1h-16q-18 0 -47.5 3t-71.5 13l-1 -3l10 -3t26 -6t36 -6t40 -3zM287 -107q1 0 9 1t19 3.5t22.5 6.5t17.5 11q6 5 5 6v1h-1q-1 0 -2 -0.5l-5 -2.5q-8 -4 -25.5 -12t-39.5 -11v-3zM357 -97
q11 6 16 13.5t7 14.5q3 8 2 16l-1 9l-2 -9q-4 -17 -13.5 -29t-10.5 -13l-8 -8z" />
    <glyph glyph-name="space" unicode=" " horiz-adv-x="198" 
 />
    <glyph glyph-name="hyphen" unicode="-" horiz-adv-x="304" 
d="M42 139q1 4 11 6.5t25 4t34 2.5t39 1q46 1 104 0q5 0 8 -0.5t4 -6.5q0 -10 -10.5 -21.5t-27.5 -11.5h-15.5h-35.5t-45 0.5t-44.5 1.5t-35 3t-15.5 5q-2 3 0.5 8.5t3.5 7.5zM233 129q-13 1 -24 1h-21t-20 -1h-5l-1 -2l1 -1q0 -1 4.5 -1h28.5q11 0 22 0.5t15 1.5l10 2h-10z
M224 138q-11 0 -29 0.5t-39 -0.5t-43 -3.5t-41 -6.5v-2l19 1t44 3l50 4t38 2q3 -1 7 -1h3l10 -1l-9 4h-10zM114 142l-7.5 -0.5t-17 -2.5l-19 -4t-15.5 -5l2 -1l1 -0.5t5.5 0.5t14 3t26.5 7q4 1 6.5 2t4.5 0z" />
    <glyph glyph-name="equal" unicode="=" horiz-adv-x="304" 
d="M42 191q1 4 11 7.5t25 5.5t34 3.5t39 1.5q47 1 105 -1q5 0 8 -0.5t4 -7.5q0 -13 -10.5 -27.5t-27.5 -13.5h-15.5h-35.5t-45.5 0.5t-45 2t-35 3.5t-15.5 6q-2 4 0.5 10.5t3.5 9.5zM234 179q-13 1 -24 1h-21t-20 -1q-2 -1 -4 -1h-1l-1 -2l1 -1q0 -1 4.5 -1h28.5
q11 0 22 0.5t15 1.5l10 3h-10zM225 189q-11 1 -29 1t-39 -1t-43.5 -3.5t-41.5 -8.5v-2l19 1.5t44 3.5t50.5 4.5t38.5 2.5q3 -1 7 -1h3l10 -1l-9 4q-1 0 -3 0.5t-7 -0.5zM114 195l-7.5 -1t-17 -3t-19 -5t-15.5 -6l2 -1q0 -1 1 -1t5.5 1t14 3.5t26.5 8.5q4 1 6.5 2t4.5 0z
M42 118q1 4 11 7.5t25 5.5t34 3.5t39 1.5q47 1 105 -1q5 0 8 -0.5t4 -7.5q0 -13 -10.5 -27.5t-27.5 -13.5h-15.5h-35.5t-45.5 0.5t-45 2t-35 3.5t-15.5 6q-2 4 0.5 10.5t3.5 9.5zM234 106q-13 1 -24 1h-21t-20 -1q-2 -1 -4 -1h-1l-1 -2l1 -1q0 -1 4.5 -1h28.5q11 0 22 0.5
t15 1.5l10 3h-10zM225 116q-11 1 -29 1t-39 -1t-43.5 -3.5t-41.5 -8.5v-2l19 1.5t44 3.5t50.5 4.5t38.5 2.5q3 -1 7 -1h3l10 -1l-9 4q-1 0 -3 0.5t-7 -0.5zM114 122l-7.5 -1t-17 -3t-19 -5t-15.5 -6l2 -1q0 -1 1 -1t5.5 1t14 3.5t26.5 8.5q4 1 6.5 2t4.5 0z" />
    <glyph glyph-name="greater" unicode="&#x3e;" horiz-adv-x="299" 
d="M80 77q0 4 9 9.5t22.5 11.5t30.5 12t34 11q-15 5 -34 11t-35 12t-27 11.5t-11 8.5q-1 4 2 8t5 6q2 3 10 3t20 -2t26 -5.5t29 -7.5q34 -10 77 -24q8 -2 7 -7q2 -10 -2.5 -22.5t-15.5 -15.5q-2 -1 -24 -8t-48 -14.5t-48 -12t-25 -1.5q-2 3 -2 8.5v7.5zM211 135
q-17 6 -50.5 15.5t-65.5 10.5l-1 -1l14.5 -3.5t33.5 -7.5t38.5 -8t29.5 -7q2 -2 3 -2t1.5 0.5t2.5 0.5zM225 112q-9 -2 -18 -5q-8 -2 -16 -4.5t-14 -5.5q-2 -1 -3 -1t-1 -1v-1l1 -1q1 -1 4 0.5t21 6.5q8 2 16 5t11 4l7 6zM130 165l-5.5 1t-13 1.5t-15.5 0.5t-13 -1
q-1 -1 0 -0.5t1 -0.5t0.5 -1.5t4 -0.5h11.5h22q3 -1 5 -0.5t4 -0.5zM166 98q-9 -3 -17 -7q-7 -3 -14 -6.5t-11 -6.5q-1 -1 0 -0.5t1 -0.5q1 -2 5.5 0t28.5 16q4 1 5.5 2t3.5 0zM215 125q-8 3 -17 6q-8 2 -16 4.5t-15 4.5q-2 0 -2 0.5t-1 0.5h-1l-1 -2q0 -1 3.5 -2t20.5 -7
q8 -2 16.5 -4t11.5 -3h9zM193 116q-7 -2 -18.5 -5t-25 -8t-27 -11.5t-25.5 -13.5v-1l12 5t27.5 11t31.5 12.5t25 9.5h5l8 3h-7q-3 0 -6 -2z" />
    <glyph glyph-name="colon" unicode=":" horiz-adv-x="98" 
d="M62 203q11 -5 17.5 -19t-4.5 -29q-3 -4 -4.5 -7t-7.5 -11q-3 -4 -9 -4q-3 0 -6 2q-2 2 -7 7.5t-9 9.5q-8 5 -5 13q5 7 11 17t13 20q1 1 3 2q3 1 8 -1zM43 153q1 0 4.5 3.5t7 9t6.5 11t4 8.5l1 8l-4 -7q-1 -1 -9 -13t-11 -17q-1 -1 0 -2v-1h1zM58 159q3 2 7 8t4 12l1 5
l-4 -4q0 -1 -5 -7.5t-7 -11.5v-3q-1 -1 0 -1q2 0 4 2zM46 110q11 -5 17.5 -19t-4.5 -29q-2 -4 -4 -7t-8 -11q-3 -4 -9 -4q-3 0 -6 2q-2 2 -7 7.5t-9 9.5q-8 6 -5 13q5 7 11 17t13 20q1 1 3 2q3 1 8 -1zM27 60q1 0 4.5 3.5t7 9t6.5 11t4 8.5l2 8l-4 -7q-2 -1 -9.5 -13
t-10.5 -17q-2 -1 -1 -2v-1h1zM42 66q4 2 7.5 8t3.5 12l1 5l-3 -4q-1 -1 -6 -7.5t-7 -11.5v-3q0 -1 1 -1t3 2z" />
    <glyph glyph-name="semicolon" unicode=";" horiz-adv-x="110" 
d="M74 203q11 -5 17.5 -19t-4.5 -29q-3 -4 -4.5 -7t-7.5 -11q-3 -4 -9 -4q-3 0 -6 2q-2 2 -7 7.5t-9 9.5q-8 5 -5 13q5 7 11 17t13 20q1 1 3 2q3 1 8 -1zM55 153q1 0 4.5 3.5t7 9t6.5 11t4 8.5l1 8l-4 -7q-1 -1 -9 -13t-11 -17q-1 -1 0 -2v-1h1zM70 159q3 2 7 8t4 12l1 5
l-4 -4q0 -1 -5 -7.5t-7 -11.5v-3q-1 -1 0 -1q2 0 4 2zM15 12q-4 0 -4 3v3q0 6 3.5 18t8 25.5t8 25.5t4.5 16q3 7 12 7q8 2 15.5 3.5t10.5 2.5q2 -1 5 -2l3.5 -3.5t0.5 -4.5q-2 -9 -2.5 -12t-2.5 -8q-5 -12 -13 -25.5t-17 -24.5t-17.5 -17.5t-14.5 -6.5zM55 104q-2 -1 -2 -2
q0 -3 -3.5 -12t-7.5 -18.5t-6.5 -17.5t-2.5 -9l-3 -7l6 7q1 3 5 12.5t7.5 19.5t6 18t1.5 9h-1zM62 95h-1q-2 -1 -2 -3q-2 -2 -4.5 -9t-5.5 -14.5t-5.5 -14l-2.5 -6.5v-5l2 4q2 3 5.5 9.5t6.5 14t5.5 13.5t1.5 8v3z" />
    <glyph glyph-name="slash" unicode="/" horiz-adv-x="240" 
d="M220 379q9 -8 4.5 -19t-11.5 -23q-2 -3 -5.5 -9.5t-9.5 -19t-16.5 -33.5t-25.5 -54q-20 -42 -37 -83.5t-29 -77t-18 -63t-4 -41.5q1 -8 6.5 -17t10.5 -15q2 -3 -1 -6q0 -2 -3 -2q-1 0 -1.5 0.5t-1.5 0.5l-6 1.5t-14.5 6.5t-17 14t-14.5 26q-8 19 -5.5 53.5t14.5 72.5
q6 18 18 47t27 61t29.5 62.5t25.5 51.5q5 11 12 24q5 11 13 27l17 34q0 1 0.5 1.5t0.5 1.5t1 1q3 3 7 1q1 -1 14 -9.5t20 -14.5zM55 -54q-1 1 -7 11t-6.5 36.5t10 71.5t42.5 116l-3 1q-7 -14 -14 -30q-6 -14 -13 -32t-13 -38q-33 -106 2 -138v-1h1v2zM66 76l4 10.5t9 24.5
t10 29t7 24l-3 1q0 -1 -4.5 -12t-9.5 -25t-10 -28.5t-6 -22.5zM127 227q0 1 5 11t11 22.5t11.5 25t7.5 18.5l2 11l-5 -10l-4.5 -8t-10 -20t-11.5 -25.5t-9 -23.5zM199 362l-5 -10l-6.5 -12.5t-15.5 -31.5t-18.5 -40.5t-16.5 -39.5l3 -1q1 1 9 17.5t18 37t19 40.5t11 29z
M207 347q9 9 7 18q-1 6 -6 11l-6 4l-9 4l7 -7q12 -11 8.5 -19t-3.5 -9z" />
    <glyph glyph-name="plus" unicode="+" horiz-adv-x="250" 
d="M155 247q7 -4 5 -28t-7 -55q15 0 28.5 -0.5t24.5 -0.5h23q5 0 8 -0.5t4 -7.5q0 -13 -10.5 -27.5t-27.5 -13.5h-60q-8 -34 -14 -56q-4 -12 -6 -23q-2 -5 -3 -8t-8 -2q-6 1 -12.5 5.5t-11.5 11t-7 14t0 15.5q0 2 2.5 14t7.5 30q-31 1 -54.5 3.5t-25.5 7.5q-2 4 0.5 10.5
t3.5 9.5q2 8 28 11.5t60 5.5q9 35 18 63t15 29q5 1 10.5 -2.5t8.5 -5.5zM207 134q-10 1 -21 1h-19.5t-19.5 -1q-1 -2 -1 -5h24q11 0 22 0.5t15 1.5l10 3h-10zM45 130q0 -1 14.5 0.5t35.5 3.5q2 4 2 8q-14 -2 -27 -4.5t-25 -5.5v-2zM198 144q-8 0 -21 0.5t-28 0.5
q0 -2 -0.5 -3t-0.5 -3l49 3q3 -1 7 -1h3l10 -1l-9 4q-1 0 -3 0.5t-7 -0.5zM87 150l-7.5 -1t-17 -3t-19 -5t-15.5 -6l2 -1q0 -1 1 -1t5.5 1t14 3.5t26.5 8.5q4 1 6.5 2t4.5 0zM142 176q1 0 1.5 7.5t0.5 17t-0.5 20t-2.5 16.5q-1 1 -0.5 0t-0.5 -2q-1 0 -1.5 -0.5t-0.5 -5
t0.5 -14.5t2.5 -28q0 -4 0.5 -7t-1.5 -5zM100 63l6 22q2 10 4.5 21t3.5 20v5l-1 2l-1 -1q-1 0 -2.5 -4.5t-6.5 -27.5q-2 -11 -4 -21.5t-2 -15.5v-10z" />
    <glyph glyph-name="period" unicode="." horiz-adv-x="138" 
d="M53 51q11 -5 20 -19t1 -29q-2 -4 -3 -7t-6 -11q-2 -4 -9 -4q-3 0 -6 2q-2 2 -8 7.5t-11 9.5q-8 6 -7 13q4 7 8.5 17t9.5 20q0 1 2 2q3 2 9 -1zM42 1q1 0 3.5 3.5t5.5 9t5.5 11t2.5 8.5v8l-3 -7q-1 -1 -7 -13t-8 -17q-1 -1 0 -2v-1h1zM56 7q3 2 6 8t2 12v5l-3 -4
q0 -1 -3.5 -7.5t-5.5 -11.5v-3q0 -1 1 -1t3 2z" />
    <glyph glyph-name="comma" unicode="," horiz-adv-x="83" 
d="M15 -57q-4 0 -7 3q-1 1 -1 3q0 6 2.5 18t5.5 25.5t5.5 25.5t2.5 16q2 7 12 7q5 2 11.5 3.5t9.5 2.5q3 -1 5 -2q4 -4 4 -8q0 -9 -0.5 -12t-1.5 -8q0 -8 -6 -21t-13.5 -25t-15.5 -20t-13 -8zM41 35q-2 -1 -1 -2q0 -3 -2.5 -12t-4.5 -18.5t-3.5 -17.5t-1.5 -9l-2 -7l4 7
q1 3 3.5 12.5t4.5 19.5t3 18t0 9zM49 23l-1 2v1h-2v-3q-1 -2 -3 -9t-4 -14.5t-4 -14l-2 -6.5l1 -5l2 4q1 3 3.5 9.5t5 14t4 13.5t0.5 8z" />
    <glyph glyph-name="parenleft" unicode="(" horiz-adv-x="192" 
d="M110 -112q-19 3 -32 20t-21.5 43t-12.5 58.5t-6 65.5q-4 78 3 177q4 49 10 76t14 48q6 20 12.5 33t12.5 21q10 13 18.5 18t15.5 7q8 2 15 -1q11 -4 24.5 -13t17.5 -35q2 -11 -8 -18t-20 1q-24 10 -39 -10t-25 -55q-8 -26 -12 -56.5t-6 -56.5q-3 -31 -3 -61q1 -58 5 -95
t10.5 -59.5t13.5 -32.5t14 -14q11 -7 19 -7t12.5 -0.5t6 -4t-0.5 -16.5q-5 -10 -11 -17q-5 -7 -12 -12t-15 -4zM126 -77q-2 -2 -6 -4q-6 -3 -14 -3h-6v-6q1 -1 3 -2q4 -2 8 -2q8 0 15 10l7 16zM76 -36l4 -8q2 -6 5 -10q2 -4 4.5 -7t4.5 -5l6 -2l-5 8q-1 2 -7 12t-8 10z
M170 414q-5 6 -7 9q-2 2 -1.5 -0.5t7.5 -14.5zM134 426q-6 0 -13 -3t-14.5 -11.5t-14.5 -24.5t-13 -41v-3l1 -2q0 2 3 14t10.5 26t18.5 25t28 11h5l1 2l-1 -2v6q-1 0 -3 1q-4 2 -8 2zM102 417q-10 -7 -17 -22t-12 -31q-6 -18 -11 -40l1 -5q5 24 11.5 41.5t12.5 28.5
q7 13 15 22v6zM53 215q0 -1 -0.5 -8.5t-1 -19.5t-0.5 -26v-27l1 -28l1 28v19.5v25t0.5 23t0.5 13.5h-1zM48 163v-29t3 -63q2 -34 9.5 -72.5t23.5 -61.5q3 -6 5.5 -7t3.5 -1v3v-3v3v5q-5 2 -8 6q-5 7 -11 22t-11 40.5t-9 64t-4 93.5h-2z" />
    <glyph glyph-name="parenright" unicode=")" horiz-adv-x="192" 
d="M70 -112q-8 -1 -14.5 4t-11.5 12t-10 17q-2 13 0 16.5t6.5 4t12.5 0.5t19 7q7 4 14.5 14t14.5 32.5t13 59.5t9 95q0 30 -1 61q-2 26 -4.5 56.5t-9.5 56.5q-8 35 -22.5 55t-38.5 10q-11 -8 -20 -1t-7 18q4 26 18 35t25 13q7 3 15 1q7 -2 15.5 -7t17.5 -18q6 -8 12 -21
t11 -33q7 -21 12 -48t8 -76q3 -99 -4 -177q-3 -33 -8.5 -65.5t-15 -58.5t-23.5 -43t-33 -20zM49 -68l6 -16q7 -10 15 -10q4 0 8 2q2 1 3 2v6h-6q-10 0 -14 3q-3 2 -5 4zM103 -38q-1 0 -3.5 -3t-5 -7t-5 -7.5t-2.5 -4.5l-5 -8l6 2q5 3 10 12q3 4 5 10l4 8zM32 408
q7 12 8 14.5t-1 0.5q-3 -3 -8 -9zM67 426q-4 0 -8 -2q-2 -1 -3 -1v-6l-1 2l1 -2h5q16 0 27 -11t18 -25t9.5 -26t2.5 -14l1 2v3q-5 25 -11.5 41t-13.5 24.5t-14 11.5t-13 3zM99 411q7 -9 14 -22q5 -11 11 -28.5t10 -41.5l1 5q-4 22 -9 40q-5 16 -11.5 31t-15.5 22v-6z
M139 215v-13.5t-0.5 -23l-1 -25t-0.5 -19.5v-28l2 28q1 13 1 27v26v19.5v8.5h-1zM141 163q-3 -55 -8 -93.5t-11.5 -64t-13 -40.5t-11.5 -22q-3 -4 -8 -6v-5v-3v3v-3q1 0 3.5 1t5.5 7q17 23 26 61.5t12 72.5q5 36 6 63t1 29h-2z" />
    <glyph glyph-name="asterisk" unicode="*" horiz-adv-x="338" 
d="M298 423q1 -6 -19 -21h22q4 0 6.5 -0.5t4.5 -6.5q0 -11 -9.5 -24t-23.5 -13h-21q6 -7 11 -12.5t9 -9.5q4 -5 8 -9l3 -6t-2 -7q-9 -8 -24 -9t-25 10l-18 20q-3 -10 -5 -18t-4 -14q-2 -7 -3 -13q-2 -4 -3 -7t-7 -2q-11 3 -21 14.5t-6 25.5q0 1 1 6t3 13q-8 -4 -14 -7.5
t-11 -5.5q-6 -3 -11 -5q-4 -1 -6.5 -2t-7.5 3q-4 8 -3.5 19.5t6.5 20.5q-8 1 -12.5 3t-5.5 3q-2 4 0.5 10t2.5 8q1 5 15.5 8t35.5 5q-14 18 -23 31.5t-7 17.5q3 3 8.5 5t7.5 4q6 2 18 -7.5t28 -25.5q7 23 13 40t11 17q3 2 8.5 -1.5t7.5 -5.5q5 -2 5 -17.5t-4 -36.5
q21 10 36.5 16t18.5 4q4 -3 4.5 -9t1.5 -9zM253 323q-5 6 -9 12q-4 5 -9.5 11t-10.5 11q0 -2 -0.5 -4t-0.5 -3l5 -5q7 -6 14 -13t10 -9l7 -5zM188 314q1 6 3 12q2 5 3 11.5t3 13.5l-6 -2v-2q-2 -10 -4 -19t-2 -14v-9zM281 377h-38h-1l4 -5h3q9 0 19 0.5t13 1.5l9 3h-9z
M165 421l9 -9t11 -10h6v3q-9 7 -17 13.5t-15 11.5l-1 -2zM186 417q2 -2 3.5 -2.5t2.5 -2.5q0 1 1 2q-2 1 -7 5.5t-11.5 9t-13 8.5t-10.5 6q-2 0 -1 -0.5t1 -1.5v-0.5t3 -3t10.5 -7.5t21.5 -13zM127 377q0 -1 0.5 -1t4.5 0.5t12.5 3t23.5 7.5l6 2q-1 0 -1 2q-7 -2 -23.5 -5.5
t-25.5 -8.5h3zM223 415h2q1 7 1 24t-3 28v-2q-1 1 -1.5 -5t1.5 -37v-8zM281 427q0 1 -0.5 1t-3.5 -2.5t-8.5 -7.5t-15.5 -15h7q7 5 13.5 12t9.5 12h-2zM236 358h-6l22 -22q1 -3 4 -6l2 -2l4 -7l-2 9l-5 5zM257 385q-5 0 -6 -3l21 2q3 -1 7 -1h2l9 -1l-8 3q-1 0 -2.5 0.5
t-5.5 -0.5h-17zM145 354q1 0 4 1l10 5h-10q-2 -2 -3.5 -2.5t-2.5 -1.5l-7 -6zM184 378q0 1 1 2l-10 -4q4 0 9 1v1zM140 373l1 -1l8 5l-9 -2v-2z" />
    <glyph glyph-name="backslash" unicode="\" horiz-adv-x="240" 
d="M20 379q7 6 20 14.5t14 9.5q4 2 7 -1q1 0 1 -1q0 -2 1 -3q9 -18 16.5 -34t13.5 -27q6 -13 12 -24q10 -21 25 -51.5t30 -62.5t27 -61t18 -47q12 -38 14.5 -72.5t-5.5 -53.5q-6 -17 -14.5 -26t-17 -14t-14.5 -6.5l-6 -1.5q-1 0 -1.5 -0.5t-1.5 -0.5q-3 0 -3 2q-3 3 -1 6
q5 6 10.5 15t6.5 17q2 14 -4 41.5t-18 63t-29 77t-37 83.5q-15 33 -25.5 54t-16.5 33.5t-9.5 19t-5.5 9.5q-7 12 -11.5 23t4.5 19zM186 -55v-2h1v1q35 32 2 138q-6 20 -13 38t-13 32q-7 16 -14 30l-3 -1q32 -71 42.5 -116t10 -71.5t-6.5 -36.5t-7 -11zM177 77
q-2 8 -6.5 22.5t-9.5 28.5t-9.5 25t-4.5 12l-3 -1q2 -9 7 -24t10 -29t9 -24.5l4 -10.5zM116 228q-3 10 -9 23.5t-11.5 25.5t-10 20l-4.5 8l-5 10l2 -11q1 -6 7 -18.5l12 -25t11 -22.5t5 -11zM43 351q2 -9 11 -29t19 -40.5t18 -37t9 -17.5l3 1q-7 18 -16.5 39.5t-18.5 40.5
t-15.5 31.5l-6.5 12.5l-5 10zM35 349q0 1 -3.5 9t8.5 19l7 7l-9 -4l-6 -4q-6 -6 -6 -11q-2 -9 7 -18z" />
    <glyph glyph-name="bracketleft" unicode="[" horiz-adv-x="120" 
d="M19 412q5 29 15.5 56t22.5 41q19 25 34 30t16 6q1 0 1 0.5t1 0.5q3 0 1 -2v-4q-5 -5 -12 -11.5t-10 -13.5q-12 -16 -18 -56t-9 -89t-4 -97.5t-2 -80.5q0 -32 1 -63.5t4 -58.5t7.5 -47.5t10.5 -31.5q3 -6 10 -12.5t12 -11.5v-4q2 -2 -1 -2q-1 0 -1 0.5t-1 0.5q-1 1 -16 6
t-34 30q-11 14 -20 40.5t-13 55.5q-2 13 -2.5 37t0 62.5t2.5 92t5 126.5zM82 524v1h-1q-34 -24 -47 -105q-3 -15 -4 -28.5t-2 -24.5q-1 -12 -1 -23l3 1q2 54 10 88t17 54t16.5 28t8.5 8v1zM72 -16q-1 0 -8 8t-15.5 28t-15.5 54t-7 88h-3q-1 -11 0 -23q0 -11 1.5 -24t3.5 -28
q10 -81 44 -105v-1h1l-1 2v1zM39 82l-0.5 8t-1.5 18.5t-2 22t-2 18.5l-3 1q0 -1 1 -9.5t1.5 -19t1.5 -21.5t3 -17zM43 424q-2 -6 -3 -17t-2.5 -22t-2.5 -19t-1 -9l3 1q1 7 2.5 18.5t3 22t2.5 18.5l1 8zM40 299v-8l-0.5 -9.5t-1 -24t0 -30.5t1.5 -30h3q0 1 0.5 13t0.5 27.5
t-0.5 30.5t-1.5 22zM34 309q-1 -8 -1.5 -18t-1 -19t0 -15l0.5 -6v-7l2 8q1 4 1.5 13.5t0.5 19t0.5 17t0.5 8.5z" />
    <glyph glyph-name="bracketright" unicode="]" horiz-adv-x="120" 
d="M101 412q3 -73 5 -126.5t2.5 -92t-0.5 -62.5t-2 -37q-4 -29 -13 -55.5t-20 -40.5q-19 -25 -34 -30t-16 -6q-1 0 -1 -0.5t-1 -0.5q-3 0 -1 2v4q5 5 12 11.5t10 12.5q6 11 10 31.5t7 47.5t4.5 58.5t1.5 63.5q-1 32 -2 80.5t-4 97.5t-9 89t-18 56q-3 7 -10 13.5t-12 11.5v4
q-2 2 1 2q1 0 1 -0.5t1 -0.5q1 -1 16 -6t34 -30q12 -14 22.5 -41t15.5 -56zM38 523q1 0 8 -8t16 -28t17.5 -54t10.5 -88l3 -1q0 11 -1 23q-1 11 -2.5 24.5t-3.5 28.5q-13 81 -47 105h-1v-1v-1zM48 -17l-1 -2h1v1q34 24 44 105q2 15 3 28t2 24v23h-3q0 -54 -7 -88t-15.5 -54
t-15.5 -28t-8 -8v-1zM83 83q1 6 2.5 17t2 21.5t1.5 19t1 9.5l-3 -1q-1 -7 -2 -18.5t-2 -22t-1.5 -18.5l-0.5 -8zM74 425l1 -8t2.5 -18.5t2.5 -22t3 -18.5l3 -1q0 1 -1 9t-2.5 19l-3 22t-2.5 17zM78 290q-2 -7 -2 -22v-30.5t0.5 -27.5t0.5 -13h3q1 14 1.5 30t0 30.5t-1 24
l-0.5 9.5v8zM83 310q0 -1 0.5 -8.5t0.5 -17t0.5 -19t1.5 -13.5l2 -8v7l0.5 6t0 15t-1 19t-1.5 18z" />
    <glyph glyph-name="multiply" unicode="&#xd7;" horiz-adv-x="198" 
d="M154 43q-7 -2 -23 16t-34 44q-11 -11 -20.5 -20t-17.5 -17l-16 -16q-4 -3 -6.5 -5t-7.5 2q-9 9 -12 27t9 29l43 43q-9 14 -16.5 26.5l-13.5 22.5q-7 11 -12 21q-2 4 -3 7t4 8q11 6 28.5 4.5t25.5 -15.5q2 -2 8.5 -12t15.5 -26q23 21 41.5 36t23.5 13q4 -2 6.5 -8.5
t4.5 -8.5q5 -8 -11 -28.5t-39 -46.5q18 -31 31.5 -57t10.5 -31q-3 -4 -9.5 -5t-10.5 -3zM38 86q7 7 15 14q7 6 14 13.5t13 15.5q-2 3 -3 4l-17 -17q-7 -8 -14.5 -16t-9.5 -12l-5 -9zM149 204q-4 -5 -9 -11q-5 -5 -10.5 -12.5t-12.5 -15.5q2 -4 4 -7q9 11 16 22l14 22zM51 86
q6 5 15.5 13.5t20.5 19.5q-2 2 -2.5 3t-1.5 2l-32 -36q-3 -2 -6 -5l-2 -2l-8 -6l9 3q1 1 3 2.5t4 5.5zM134 160l4.5 6t9.5 14t10 17t7 15q0 2 -0.5 0.5t-1.5 -1.5q0 1 -1 0.5t-3.5 -4t-7.5 -12.5t-13 -25q-5 -9 -6 -9zM113 103q0 -1 5 -6.5t11.5 -12.5t14 -14t13.5 -10
q2 0 1 0.5t-1 1.5q1 0 0.5 1t-3.5 4t-10.5 9.5t-21.5 18.5l-5.5 5.5t-2.5 4.5zM63 212q5 -10 11 -20q5 -8 11.5 -17.5t12.5 -16.5q1 -2 2 -2t1 -1v-1l3 -1v2q0 1 -2 5t-15 24l-12 18t-10 12l-7 7z" />
    <glyph glyph-name="grave" unicode="`" horiz-adv-x="181" 
d="M160 266q10 -1 9 -6.5t-9 -12.5q-6 -4 -12 -7t-13.5 -4t-18 0t-26.5 5q-45 12 -66 38q-8 12 -10.5 22.5t-3.5 17.5v1v2q0 2 1 2l2 2h1v-1q0 -2 1 -2q11 -17 41.5 -28t78.5 -24zM68 264q6 -2 9 -2h3v2q-2 1 -3 1t-3 1q-8 2 -14 5t-11 7q-6 4 -11 9l-2 -1q9 -11 17.5 -15.5
t14.5 -6.5zM107 251q4 -1 13 -3t17 -2l1 2q-1 0 -13.5 3t-18.5 2h-6l6 -2h1zM106 259q10 -3 17.5 -4t12.5 -2q6 -1 11 0v3q-14 0 -33 6q-23 6 -43 14t-21 8v-3q28 -15 56 -22z" />
    <glyph glyph-name="circumflex" unicode="&#x2c6;" horiz-adv-x="205" 
d="M34 295q32 2 53.5 6.5t34.5 19.5l2 2v-1l1 1v-3q0 -20 14 -37t37 -39l12 -11q5 -3 3 -8t-9 -10q-10 -5 -18.5 -5.5t-24.5 13.5q-21 22 -24 51q-1 7 -1 14.5t2 12.5q-5 -12 -15 -22q-21 -20 -51 -24q-22 -1 -28 5t-11 16q-2 8 -0.5 14t7.5 4zM155 238q9 -9 15 -12l6 -3
l1 3q-3 2 -7 5t-9 8q-6 5 -11 11.5t-9 11.5q-4 6 -9 12l-1 -3q5 -10 10.5 -18.5t13.5 -14.5zM47 277q17 0 39 10l1 2q-7 -1 -14 -3q-13 -3 -30 -5q-14 -2 -21 1l-1 -3q2 -1 6 -2q6 -2 20 0zM135 250q1 -2 2 -2t2 -1t2 -1v2l-3 3q-7 6 -10 17q-2 5 -3 11l-1 -1
q1 -12 4.5 -18.5t6.5 -9.5zM70 273q4 1 11 4t16 11l-1 2l-10 -6q-5 -2 -9 -4.5t-9 -3.5h-5v-2q1 -1 2 -1h5zM152 230q2 -2 7 -5.5t9 -5.5l2 1q-1 1 -7 6t-10 6l-4 1zM48 270l-3 1q-4 2 -12 2h-9v-2q5 -2 11 -2h9z" />
    <glyph glyph-name="dieresis" unicode="&#xa8;" horiz-adv-x="187" 
d="M172 251q-8 -10 -24 -15t-28 6q-3 4 -5.5 5.5t-9.5 8.5q-3 2 -1 9q1 3 3 6q2 2 9 6t12 8q7 7 14 3q6 -5 14.5 -12t16.5 -15q1 -1 2 -3q0 -4 -3 -7zM126 274q0 -1 2.5 -4.5t7 -7.5t9.5 -8t8 -5l7 -2l-6 5q0 1 -10.5 10t-14.5 12q-1 1 -2 1h-1v-1zM128 259q2 -4 7 -8t11 -5
l4 -1l-3 4q-1 0 -6 5.5t-10 7.5q-1 0 -1 1t-2 0q-1 0 -1 -1t0.5 -1.5t0.5 -1.5zM82 274q-8 -10 -24 -15t-28 7q-3 3 -5.5 4.5t-9.5 8.5q-3 3 -1 10q1 3 3 5t9 6.5t12 7.5q7 7 14 4q6 -5 14.5 -12t16.5 -15q1 -1 2 -3q0 -5 -3 -8zM36 297q0 -1 2.5 -4.5t7 -7.5t9.5 -7.5
t8 -4.5l7 -2l-6 4q0 2 -10.5 10.5t-14.5 11.5q-1 2 -2 1h-1v-1zM38 282q2 -3 7 -7.5t11 -5.5l4 -1l-3 4q-1 0 -6 5.5t-10 8.5q-1 0 -1 0.5t-2 -0.5q-1 1 -1 0t0.5 -2t0.5 -2z" />
    <glyph glyph-name="acute" unicode="&#xb4;" horiz-adv-x="181" 
d="M46 271q48 13 78.5 24t41.5 28v2q0 1 1 1h1l2 -2l1 -2v-2v-1q-1 -7 -3.5 -17.5t-10.5 -22.5q-21 -26 -66 -38q-16 -4 -26.5 -5t-18 0t-13.5 4t-12 7q-8 7 -9 12.5t9 6.5zM113 264q6 2 14.5 6.5t17.5 15.5l-2 1q-5 -5 -11 -9q-5 -4 -11.5 -7t-13.5 -5q-2 -1 -3 -1t-3 -1
v-2h3q1 0 9 2zM75 251l6 2h-6q-6 1 -18.5 -2t-13.5 -3l1 -2q8 0 17 2t13 3h1zM75 259q28 7 56 22v3q-1 0 -21 -8t-43 -14q-20 -6 -33 -6v-3q5 -1 11 0q5 1 12.5 2t17.5 4z" />
    <glyph glyph-name="ring" unicode="&#x2da;" horiz-adv-x="97" 
d="M72 295q7 -1 9 -5.5t1 -10.5t-4 -12t-5 -9q-9 -12 -18 -19t-23 -6q-17 1 -17.5 12t2.5 18q2 6 7 13t10 9q5 4 13 8t25 2zM68 294q-5 0 -8.5 -1t-5.5 -2q-3 -2 -4 -3v-1q8 5 12 5.5t8 0.5q1 0 3 -2q0 -1 1 -1l3 -1v1q-1 3 -7 3q-1 1 -2 1zM22 264q0 2 6 9.5t12 11.5h2h-2
q-1 0 -6.5 -2.5t-13.5 -16.5zM34 270q-2 -2 -3 -5q-1 -2 -2 -4.5t-1 -4.5l-1 -3l2 3q0 1 3.5 7t3.5 7v2zM34 236q-3 1 -5 2q-5 3 -4 8q0 6 2 12.5t4 9.5h-2l-5 -10q-4 -11 0 -17q4 -5 10 -6v1zM50 238h-4q-1 -1 -2 -1t-2 -0.5t-2 -0.5h-2h3h2q3 0 4 1zM44 266
q-4 -5 -5 -11.5t4 -6.5q7 1 14 11t8 15q0 5 -5.5 3.5t-15.5 -11.5z" />
    <glyph glyph-name="caron" unicode="&#x2c7;" horiz-adv-x="205" 
d="M171 232q-32 -2 -53.5 -6.5t-34.5 -19.5l-2 -2v1l-1 -1v3q0 20 -14 37t-37 39l-12 11q-5 3 -3 8t9 10q10 5 18.5 5.5t24.5 -13.5q21 -22 24 -51q1 -7 1 -14.5t-2 -12.5q5 12 15 22q21 19 51 24q22 1 28 -5t11 -16q2 -8 0.5 -14t-7.5 -4zM50 289q-9 9 -15 12l-6 3l-1 -3
q8 -4 16 -13q5 -6 10.5 -12t9.5 -11q4 -6 9 -12l1 3q-5 10 -10.5 18.5t-13.5 14.5zM158 250q-17 0 -39 -10l-1 -2q7 1 14 3q14 4 30 5q14 2 21 -1l1 3q-2 1 -6 2q-6 2 -20 0zM70 277q-2 1 -4 3q-1 1 -2 1v-2l3 -3q6 -7 9 -17q2 -5 4 -11l1 1q-1 12 -4.5 18.5t-6.5 9.5z
M135 254q-4 -1 -11 -4t-16 -11l1 -2q4 3 9 6l9 4.5t10 3.5h5v2h-2q-1 0 -2 0.5t-3 0.5zM53 297q-2 2 -7 5.5t-9 5.5l-2 -1q1 -1 7 -6t10 -6l4 -1zM157 257l3 -1q4 -2 12 -2h9v2q-5 2 -11 2h-9z" />
    <glyph glyph-name="tilde" unicode="&#x2dc;" horiz-adv-x="223" 
d="M77 308q11 -6 21.5 -14t20.5 -13q1 -2 11 -6.5t23.5 -7.5t29 -1.5t28.5 11.5q0 2 1 2t1 -1l-2 -4q0 -1 -0.5 -1.5t-0.5 -1.5q-5 -9 -11 -16q-5 -7 -13 -13t-18 -8q-11 -4 -22 -2q-10 2 -22 8.5t-24 23.5q-8 8 -17 14q-8 5 -16.5 8t-16.5 -1q-14 -6 -17.5 -13.5t-3.5 -9.5
q-2 -2 -3 -2h-1v-1q-3 0 -4 1l-2 2q-4 5 -2 11.5t7 11.5q5 6 13 12q11 9 21.5 11t18.5 0zM28 283q5 5 9.5 8.5t8.5 5.5q4 3 9 4v1q-7 -1 -11.5 -3.5t-8.5 -5.5q-4 -4 -8 -9l-6 -9zM191 264h1h1q1 0 5 0.5t6 4.5q1 0 1 0.5t-1 0.5l-1 -1q-3 -3 -11 -5h-1zM186 248q-2 0 -2 -1
q-2 -2 -9 -4.5t-17 -2.5h-11l-1 -2q1 -1 3 -1q2 -1 9 -1q14 0 26 8l3 3zM132 250q1 0 8 -4t19 -4q5 0 12 1t12 5v2v-1v1v-2v2q0 -1 -6 -3.5t-16 -2.5q-15 0 -26 8zM119 267q-5 0 -12.5 6t-14.5 12q-2 2 -8 6q-6 5 -16 5h-2q-2 0 -3 -0.5t-2 -0.5h-1l-7 -4l7 3h7
q4 0 9.5 -2.5t11.5 -10.5q12 -11 20.5 -13.5t10.5 -2.5v2z" />
    <glyph glyph-name="fraction" unicode="&#x2044;" horiz-adv-x="240" 
d="M220 379q9 -8 4.5 -19t-11.5 -23q-2 -3 -5.5 -9.5t-9.5 -19t-16.5 -33.5t-25.5 -54q-20 -42 -37 -83.5t-29 -77t-18 -63t-4 -41.5q1 -8 6.5 -17t10.5 -15q2 -3 -1 -6q0 -2 -3 -2q-1 0 -1.5 0.5t-1.5 0.5l-6 1.5t-14.5 6.5t-17 14t-14.5 26q-8 19 -5.5 53.5t14.5 72.5
q6 18 18 47t27 61t29.5 62.5t25.5 51.5q5 11 12 24q5 11 13 27l17 34q0 1 0.5 1.5t0.5 1.5t1 1q3 3 7 1q1 -1 14 -9.5t20 -14.5zM55 -54q-1 1 -7 11t-6.5 36.5t10 71.5t42.5 116l-3 1q-7 -14 -14 -30q-6 -14 -13 -32t-13 -38q-33 -106 2 -138v-1h1v2zM66 76l4 10.5t9 24.5
t10 29t7 24l-3 1q0 -1 -4.5 -12t-9.5 -25t-10 -28.5t-6 -22.5zM127 227q0 1 5 11t11 22.5t11.5 25t7.5 18.5l2 11l-5 -10l-4.5 -8t-10 -20t-11.5 -25.5t-9 -23.5zM199 362l-5 -10l-6.5 -12.5t-15.5 -31.5t-18.5 -40.5t-16.5 -39.5l3 -1q1 1 9 17.5t18 37t19 40.5t11 29z
M207 347q9 9 7 18q-1 6 -6 11l-6 4l-9 4l7 -7q12 -11 8.5 -19t-3.5 -9z" />
    <glyph glyph-name="exclam" unicode="!" horiz-adv-x="323" 
d="M157 -31q-5 2 -10 6.5t-8 10.5t-4 13t3 14q2 3 3 5.5t5 10.5q2 3 8 3q3 0 6 -1q2 -2 7.5 -7t10.5 -9q7 -5 6 -12q-4 -6 -7.5 -15.5t-8.5 -17.5q-1 -1 -3 -2q-3 -2 -8 1zM168 14q-2 0 -8.5 -11.5t-7.5 -17.5v-7l3 6q1 1 6 12t7 16q1 1 0 2zM155 9q-3 -2 -6 -7.5t-2 -10.5
v-5l3 4q0 1 3.5 7t4.5 10v3q0 1 -1 1zM172 56q-4 8 -1 16.5t8 17.5q1 3 3.5 8.5t7 15.5t11 27t17.5 44q13 34 25 67.5t21 63t13.5 52.5t3.5 36q1 8 -1.5 16t-5.5 14q0 4 2 5q0 2 1 2l1 -1q0 -1 1 -1q1 -1 11.5 -9.5t17.5 -38.5q2 -18 -1 -48t-12 -61q-5 -15 -13.5 -39
t-19 -50t-21 -50.5t-17.5 -41.5q-4 -9 -8 -20q-4 -9 -9 -21.5t-11 -26.5q-1 -2 -1 -3v-1q-3 -1 -5 0q0 1 -7 10t-11 17zM290 411q1 -1 4 -10.5t1.5 -32.5t-10 -61.5t-30.5 -95.5l1 -1q5 11 10 24q5 11 9.5 25.5t9.5 31.5q12 45 14.5 75t-8.5 47h1h-1v-1zM277 299
q0 -1 -3 -9.5t-6.5 -20t-7.5 -23.5t-6 -19l3 -2q0 1 3 10t7 20t7.5 23t4.5 19zM233 176q0 -1 -3 -9t-7 -18.5t-7.5 -21t-4.5 -15.5l-3 -9l4 8l3 6.5t7 16.5t7.5 21t5.5 19zM186 68l4 7l4 10l10 25t12.5 33t11.5 33l-2 1q0 -1 -5.5 -14t-12.5 -29.5t-13 -33t-7 -23.5zM182 81
q-5 -7 -5 -14t4 -11q2 -3 3 -4l5 -5l-5 8q-5 11 -2.5 17t1.5 7z" />
    <glyph glyph-name="dollar" unicode="$" horiz-adv-x="396" 
d="M263 393q4 -4 1 -12q29 -4 45.5 -15.5t20.5 -22.5q6 -17 -0.5 -35t-37.5 -39q-25 -19 -51.5 -25.5t-41.5 -8.5q-2 -5 -3.5 -9.5t-3.5 -9.5q8 -2 17 -5t16.5 -7.5t12 -10.5t4.5 -13v-2q0 -12 -14.5 -28t-46.5 -25q-5 -2 -9 -2.5t-8 -1.5v-7q1 -5 3.5 -9t4.5 -7q2 -2 0 -4
q-1 -1 -2 -1q-1 -1 -2 -1h-3.5t-8 2t-8.5 6.5t-6 13.5q-2 2 -2 6q-22 2 -31 12.5t-4 21.5q1 2 4 3.5t11 3.5q4 0 2.5 -1.5t-3.5 -4.5t-2 -6t7 -6q4 -1 7.5 -0.5t7.5 0.5q2 11 4 23t7 26l5 15l-26 11q-56 21 -52 65q1 10 8.5 24t22.5 28.5t38.5 26.5t55.5 17q8 1 15 2t14 1
l8 17q1 0 1 1v1q2 2 4 1q1 0 8 -3.5zM118 275q-2 -22 9 -31.5t35 -18.5l7 16q-8 6 -13 14t-7 12q0 2 1 2h2h1q7 -1 14 -1h13l33 72q0 1 1 4l5 10q-43 -7 -71 -31t-30 -48zM316 335q-7 22 -64 22l-30 -69q-2 -5 -4 -9t-4 -9q27 4 47 13t33 19t18 19t4 14zM185 196
q-5 -13 -9 -24.5t-6 -21.5q10 4 18.5 8.5t14.5 9.5l7 7t-1 10l-9 5zM303 293l-1 1q-1 -1 -7.5 -6t-18.5 -12t-29.5 -13t-39.5 -9q-1 -1 -1 -2q16 1 44 8.5t53 31.5v1zM136 333q5 5 25 16t62 16l1 1h-2q-3 0 -13 -0.5t-23 -3.5t-26.5 -9.5t-25.5 -18.5l-1 -1l1 -1zM218 151
q10 9 13.5 16t3.5 8h-2q-11 -23 -31 -33t-37 -13v-2q20 3 32.5 10t20.5 14zM139 233q-1 0 -5.5 3t-9.5 8t-9 12.5t-3 17.5l1 6l-3 -6q-3 -8 0 -15q3 -16 28 -28l2 1zM310 361l-2 1q-10 7 -22.5 10t-23.5 4q0 -1 -0.5 -1.5t-0.5 -1.5q20 -2 30.5 -6t15.5 -6q0 -2 2 -2z
M223 167q-9 -12 -21 -19q-6 -4 -13 -7v-2q9 3 15.5 7t11.5 9t9 11zM247 266q-1 0 -12.5 -2t-25.5 -4q0 -2 -1 -3q9 1 19 2.5t20 4.5v2zM320 310q-7 -12 -17 -22q-5 -6 -11 -11l1 -1q16 11 22 22t7 12h-2zM100 261q-2 4 -3 9t-1 10t3 12l-1 1q-1 0 -4.5 -11t5.5 -22zM158 263
q1 -3 3 -7q3 -6 10 -11q0 1 1 2l-12 17zM205 197q-2 0 -5 2q-2 1 -5.5 2.5t-6.5 3.5q-1 -1 -1 -3l17 -7zM116 134l-3 3q-4 4 -3 10v4l-1 -3q-3 0 -1 -6q0 -6 7 -9zM225 374h2q1 0 1 2q-1 -1 -2 -1h-1v-1zM157 213q1 0 1 2zM157 106q-1 0 -4 5.5t-2.5 21.5t7.5 45t27 77h-1
q-5 -9 -9 -20q-4 -9 -8.5 -21t-8.5 -25q-21 -69 -3 -84l-1 -1l1 1v1h2zM167 187l2.5 7t5.5 16.5t6.5 19t4.5 15.5h-1q0 -1 -3 -8t-6 -16.5t-6.5 -19t-4.5 -14.5h2zM205 288q1 0 4 6.5t7 15t7.5 17t5.5 12.5l1 6l-4 -5l-2.5 -6t-6 -14t-7 -17t-6.5 -15h1zM251 380l-4 -7
l-4 -8.5t-9.5 -21t-11.5 -27t-10 -26.5l1 -1q0 1 5.5 12t11.5 25t11.5 27t7.5 19zM255 372q6 7 4 12q0 3 -3 6q-2 1 -3 1l-5 1l4 -3q7 -5 3.5 -10t-2.5 -6z" />
    <glyph glyph-name="Euro" unicode="&#x20ac;" horiz-adv-x="369" 
d="M51 207q2 4 19 6t41 3l2 12q-26 1 -45 2.5t-20 3.5q-2 2 0 5.5t3 5.5q2 4 21.5 5.5t46.5 2.5q8 26 22 46t28 34q16 17 34 29q26 17 47.5 17.5t37.5 -5.5q18 -7 32 -21q9 -13 6.5 -28.5t-11.5 -29.5q-17 -24 -34 -30.5t-30 -4.5q-16 2 -29 12q-1 0 -1 0.5t1 0.5l1 1h1
q11 1 24 6.5t24 12.5t19 14t10 12q4 7 4.5 11.5t-0.5 7.5q-1 4 -4 6q-16 8 -33 -1.5t-32 -24.5q-18 -18 -35 -43q-4 -6 -7.5 -11t-5.5 -10q10 -1 18 -1h14h13h6.5t3.5 -4q0 -6 -9 -13.5t-23 -7.5h-36l-3 -12h61q9 0 10 -4q0 -7 -9 -14.5t-23 -6.5h-43q0 -11 2.5 -18t5.5 -12
q4 -5 8 -9q14 -9 31 -3t34 18.5t32 27t25 22.5l6 4q5 4 10 -1q1 -2 1 -4q0 -6 -2 -10l-38 -38t-26 -23q-12 -11 -20 -15q-44 -13 -68.5 -5t-37.5 22q-15 17 -19 42v2q-25 0 -44 1.5t-20 4.5q-2 2 0 5t3 5zM184 313q10 11 21 19t20 14q11 7 21 12l-1 4q-18 -6 -30.5 -14.5
t-20 -15.5t-10.5 -12.5l-3 -5.5l-4 -11zM181 142q-5 3 -9 7q-4 3 -8 6.5t-6 5.5l-8 9l5 -12q0 -1 5.5 -7.5t19.5 -11.5l11 -3q-9 1 -21 6l-11 6l10 -9q3 -2 7 -4q10 -4 21 -4t16 1l-1 4h-19zM312 315q-2 0 -8.5 -12t-17.5 -23l2 -2q1 0 12 11t15 25l2 16zM142 254h1l5 10
q3 8 9 21t10 16l-2 3q-2 -2 -10 -14t-11 -26zM230 359l14 6q8 5 18 5h11l16 -1l-15 4q-4 1 -12 1q-5 0 -8.5 -1t-6.5 -2q-4 -1 -6 -2zM279 269h-19h-9.5t-10.5 1l-9 2l7 -6q1 -1 4 -2t11 -1q3 0 11 2zM189 125l-11 6q-1 0 -11.5 5t-14.5 8l-1 1l-2 -3l1 -1q2 -2 9 -6.5
t17 -6.5zM216 238q-10 1 -20 1h-17.5t-17.5 -1h-4l-1 -1l1 -1h28h18.5t12.5 1l9 1h-9zM209 244q-10 0 -25 0.5t-33 -0.5t-37 -2.5t-35 -4.5v-1q27 1 53 3q21 2 43 2.5t33 1.5q2 -1 6 -1h2h9l-8 2h-8zM114 247l-6 -0.5t-14.5 -2t-16.5 -3t-13 -2.5l2 -1q0 -1 5.5 0t34.5 7
q3 0 5 0.5t4 0.5zM216 201h-20h-35q-2 -1 -3 -1h-1l-1 -1h1q0 -1 4 -1h24q9 0 18.5 0.5t12.5 0.5l9 2h-9zM209 206q-10 0 -25 0.5t-33 0t-37 -2t-35 -4.5v-1l16 0.5t37.5 1.5t43 2.5t32.5 1.5q2 -1 6 -1h2h9l-8 2q-1 0 -2.5 0.5t-5.5 -0.5zM114 209l-6 -0.5t-14.5 -1.5
t-16.5 -3t-13 -3h2q0 -1 5.5 -0.5t34.5 6.5q7 2 9 1z" />
    <glyph glyph-name="perthousand" unicode="&#x2030;" horiz-adv-x="513" 
d="M158 405q18 -2 22 -16.5t1 -33t-10.5 -36t-11.5 -25.5q-20 -35 -42 -56t-53 -19q-20 1 -30 12t-13 25t-0.5 29t5.5 24q6 19 18.5 38.5t22.5 27.5q6 5 14.5 11.5t19 11t25 7t32.5 0.5zM148 401q-11 0 -19.5 -2.5t-13.5 -6.5q-6 -4 -11 -10l3 -1q17 13 28 15.5t19 0.5
q4 -1 8 -5q1 -2 2 -3l5 -5v5q-1 5 -5.5 7.5t-7.5 3.5q-2 0 -3.5 0.5t-2.5 0.5h-2zM38 315l4 7.5t11 17.5t14.5 19t15.5 14l5 2h-6l-4 -1t-10 -7t-14.5 -18t-17.5 -33zM69 331q0 -1 -6.5 -14.5t-8.5 -27.5l-1 -9l4 9l2 6t5 13t5.5 13.5t2.5 8.5v6zM70 228l-4 1t-8.5 4.5
t-8 9.5t-3.5 15q1 20 6 39t7 24l-2 1l-4 -8.5t-7.5 -20.5t-5 -25.5t3.5 -23.5q6 -14 25 -19l1 1v2zM105 238l-7 -2q0 -1 -6 -2.5t-9 -3.5l-7 -3l8 1q1 0 6 1t10 5zM85 318q-8 -10 -14 -24t-7.5 -27t1.5 -22t12 -9q15 1 29.5 16t26.5 35.5t20 41t9 33.5q1 10 -4.5 14
t-16 -0.5t-25 -18.5t-31.5 -39zM203 -76q-18 2 -22 16.5t-1 33t10 36t12 25.5q20 35 42 56t53 19q20 -2 30 -12.5t13 -24.5t0.5 -29t-5.5 -24q-6 -19 -18.5 -38.5t-22.5 -27.5q-6 -5 -14.5 -11.5t-19 -11t-25 -7t-32.5 -0.5zM213 -72q11 -1 19.5 2t13.5 7q6 4 11 10l-3 1
q-17 -13 -28 -15.5t-19 -0.5q-6 2 -8 5q-2 2 -2 3l-5 5v-5q1 -5 5.5 -7.5t7.5 -3.5q2 -1 6 -1h2zM323 14l-4 -7.5t-11 -17.5t-15 -19.5t-15 -13.5l-5 -2h6l4 1t10 7t14.5 18t17.5 33zM292 -2q0 1 6.5 14.5t8.5 27.5l1 9l-4 -9l-2 -6t-5 -13t-5.5 -13.5t-2.5 -8.5v-6z
M291 101l4 -1t8.5 -4.5t8 -9.5t3.5 -15q-1 -20 -6 -39t-7 -24l2 -1l4 8.5t7.5 20.5t5 25t-3.5 24q-6 14 -25 19l-1 -1v-2zM256 91l7 2q0 1 6 2.5t9 3.5l7 3l-8 -1q-1 0 -6 -1t-10 -5zM276 11q8 10 14 24t7.5 26.5t-1.5 22t-12 9.5q-15 -1 -29.5 -16t-26.5 -35.5t-20 -41
t-9 -33.5q-1 -10 4.5 -14t16 0.5t25 18.5t31.5 39zM356 -76q-18 2 -22 16.5t-1 33t10 36t12 25.5q20 35 42 56t53 19q20 -2 30 -12.5t13 -24.5t0.5 -29t-5.5 -24q-6 -19 -18.5 -38.5t-22.5 -27.5q-6 -5 -14.5 -11.5t-19 -11t-25 -7t-32.5 -0.5zM366 -72q11 -1 19.5 2t13.5 7
q6 4 11 10l-3 1q-17 -13 -28 -15.5t-19 -0.5q-6 2 -8 5q-2 2 -2 3l-5 5v-5q1 -5 5.5 -7.5t7.5 -3.5q2 -1 6 -1h2zM476 14l-4 -7.5t-11 -17.5t-15 -19.5t-15 -13.5l-5 -2h6l4 1t10 7t14.5 18t17.5 33zM445 -2q0 1 6.5 14.5t8.5 27.5l1 9l-4 -9l-2 -6t-5 -13t-5.5 -13.5
t-2.5 -8.5v-6zM444 101l4 -1t8.5 -4.5t8 -9.5t3.5 -15q-1 -20 -6 -39t-7 -24l2 -1l4 8.5t7.5 20.5t5 25t-3.5 24q-6 14 -25 19l-1 -1v-2zM409 91l7 2q0 1 6 2.5t9 3.5l7 3l-8 -1q-1 0 -6 -1t-10 -5zM429 11q8 10 14 24t7.5 26.5t-1.5 22t-12 9.5q-15 -1 -29.5 -16
t-26.5 -35.5t-20 -41t-9 -33.5q-1 -10 4.5 -14t16 0.5t25 18.5t31.5 39zM289 379q9 -8 4.5 -19t-11.5 -23q-2 -3 -5.5 -9.5t-9.5 -19t-16.5 -33.5t-25.5 -54q-20 -42 -37 -83.5t-29 -77t-18 -63t-4 -41.5q1 -8 6.5 -17t10.5 -15q2 -3 -1 -6q0 -2 -3 -2q-1 0 -1.5 0.5
t-1.5 0.5l-6 1.5t-14.5 6.5t-17 14t-14.5 26q-8 19 -5.5 53.5t14.5 72.5q6 18 18 47t27 61t29.5 62.5t25.5 51.5q5 11 12 24q5 11 13 27l17 34q0 1 0.5 1.5t0.5 1.5t1 1q3 3 7 1q1 -1 14 -9.5t20 -14.5zM124 -54q-1 1 -7 11t-6.5 36.5t10 71.5t42.5 116l-3 1q-7 -14 -14 -30
q-6 -14 -13 -32t-13 -38q-33 -106 2 -138v-1h1v2zM135 76l4 10.5t9 24.5t10 29t7 24l-3 1q0 -1 -4.5 -12t-9.5 -25t-10 -28.5t-6 -22.5zM196 227q0 1 5 11t11 22.5t11.5 25t7.5 18.5l2 11l-5 -10l-4.5 -8t-10 -20t-11.5 -25.5t-9 -23.5zM268 362l-5 -10l-6.5 -12.5
t-15.5 -31.5t-18.5 -40.5t-16.5 -39.5l3 -1q1 1 9 17.5t18 37t19 40.5t11 29zM276 347q9 9 7 18q-1 6 -6 11l-6 4l-9 4l7 -7q12 -11 8.5 -19t-3.5 -9z" />
    <glyph glyph-name="percent" unicode="%" horiz-adv-x="361" 
d="M158 405q18 -2 22 -16.5t1 -33t-10.5 -36t-11.5 -25.5q-20 -35 -42 -56t-53 -19q-20 1 -30 12t-13 25t-0.5 29t5.5 24q6 19 18.5 38.5t22.5 27.5q6 5 14.5 11.5t19 11t25 7t32.5 0.5zM148 401q-11 0 -19.5 -2.5t-13.5 -6.5q-6 -4 -11 -10l3 -1q17 13 28 15.5t19 0.5
q4 -1 8 -5q1 -2 2 -3l5 -5v5q-1 5 -5.5 7.5t-7.5 3.5q-2 0 -3.5 0.5t-2.5 0.5h-2zM38 315l4 7.5t11 17.5t14.5 19t15.5 14l5 2h-6l-4 -1t-10 -7t-14.5 -18t-17.5 -33zM69 331q0 -1 -6.5 -14.5t-8.5 -27.5l-1 -9l4 9l2 6t5 13t5.5 13.5t2.5 8.5v6zM70 228l-4 1t-8.5 4.5
t-8 9.5t-3.5 15q1 20 6 39t7 24l-2 1l-4 -8.5t-7.5 -20.5t-5 -25.5t3.5 -23.5q6 -14 25 -19l1 1v2zM105 238l-7 -2q0 -1 -6 -2.5t-9 -3.5l-7 -3l8 1q1 0 6 1t10 5zM85 318q-8 -10 -14 -24t-7.5 -27t1.5 -22t12 -9q15 1 29.5 16t26.5 35.5t20 41t9 33.5q1 10 -4.5 14
t-16 -0.5t-25 -18.5t-31.5 -39zM203 -76q-18 2 -22 16.5t-1 33t10 36t12 25.5q20 35 42 56t53 19q20 -2 30 -12.5t13 -24.5t0.5 -29t-5.5 -24q-6 -19 -18.5 -38.5t-22.5 -27.5q-6 -5 -14.5 -11.5t-19 -11t-25 -7t-32.5 -0.5zM213 -72q11 -1 19.5 2t13.5 7q6 4 11 10l-3 1
q-17 -13 -28 -15.5t-19 -0.5q-6 2 -8 5q-2 2 -2 3l-5 5v-5q1 -5 5.5 -7.5t7.5 -3.5q2 -1 6 -1h2zM323 14l-4 -7.5t-11 -17.5t-15 -19.5t-15 -13.5l-5 -2h6l4 1t10 7t14.5 18t17.5 33zM292 -2q0 1 6.5 14.5t8.5 27.5l1 9l-4 -9l-2 -6t-5 -13t-5.5 -13.5t-2.5 -8.5v-6z
M291 101l4 -1t8.5 -4.5t8 -9.5t3.5 -15q-1 -20 -6 -39t-7 -24l2 -1l4 8.5t7.5 20.5t5 25t-3.5 24q-6 14 -25 19l-1 -1v-2zM256 91l7 2q0 1 6 2.5t9 3.5l7 3l-8 -1q-1 0 -6 -1t-10 -5zM276 11q8 10 14 24t7.5 26.5t-1.5 22t-12 9.5q-15 -1 -29.5 -16t-26.5 -35.5t-20 -41
t-9 -33.5q-1 -10 4.5 -14t16 0.5t25 18.5t31.5 39zM295 379q9 -8 4.5 -19t-11.5 -23q-2 -3 -5.5 -9.5t-9.5 -19t-16.5 -33.5t-25.5 -54q-20 -42 -37 -83.5t-29 -77t-18 -63t-4 -41.5q1 -8 6.5 -17t10.5 -15q2 -3 -1 -6q0 -2 -3 -2q-1 0 -1.5 0.5t-1.5 0.5l-6 1.5t-14.5 6.5
t-17 14t-14.5 26q-8 19 -5.5 53.5t14.5 72.5q6 18 18 47t27 61t29.5 62.5t25.5 51.5q5 11 12 24q5 11 13 27l17 34q0 1 0.5 1.5t0.5 1.5t1 1q3 3 7 1q1 -1 14 -9.5t20 -14.5zM130 -54q-1 1 -7 11t-6.5 36.5t10 71.5t42.5 116l-3 1q-7 -14 -14 -30q-6 -14 -13 -32t-13 -38
q-33 -106 2 -138v-1h1v2zM141 76l4 10.5t9 24.5t10 29t7 24l-3 1q0 -1 -4.5 -12t-9.5 -25t-10 -28.5t-6 -22.5zM202 227q0 1 5 11t11 22.5t11.5 25t7.5 18.5l2 11l-5 -10l-4.5 -8t-10 -20t-11.5 -25.5t-9 -23.5zM274 362l-5 -10l-6.5 -12.5t-15.5 -31.5t-18.5 -40.5
t-16.5 -39.5l3 -1q1 1 9 17.5t18 37t19 40.5t11 29zM282 347q9 9 7 18q-1 6 -6 11l-6 4l-9 4l7 -7q12 -11 8.5 -19t-3.5 -9z" />
    <glyph glyph-name="numbersign" unicode="#" horiz-adv-x="559" 
d="M537 339q-5 -11 -16.5 -10.5t-25.5 3.5q-5 0 -17.5 2.5t-44.5 6.5l-6 -14q-18 -38 -33 -74.5t-27 -69.5q37 1 64 4t40 10q8 3 14.5 11.5t10.5 14.5q3 3 6 1q3 0 3 -2v-3l0.5 -6.5t-1.5 -15.5t-8 -20.5t-19 -22.5q-16 -14 -49.5 -22.5t-72.5 -10.5h-7q-5 -20 -7 -35t0 -24
q1 -8 6.5 -17t10.5 -15q2 -3 -1 -6q0 -2 -3 -2q-1 0 -1.5 0.5t-1.5 0.5l-6 1.5t-14.5 6t-17 13.5t-14.5 26q-5 9 -6.5 23t0.5 31q-36 2 -76 6t-74 9q-8 -26 -11.5 -46t-1.5 -31q1 -8 6.5 -17t10.5 -15q2 -3 -1 -6q0 -2 -3 -2q-1 0 -1.5 0.5t-1.5 0.5l-6 1.5t-14.5 6.5
t-17 14t-14.5 26q-5 12 -6 32t3 44l-67 9h-4q-4 1 -4 6q0 1 1.5 5.5t3 11t3.5 13t4 10.5q5 11 16.5 10.5t25.5 -2.5q4 -1 11.5 -2.5t23.5 -3.5q10 27 29 69.5t38 83.5q-27 -2 -47.5 -5t-30.5 -8q-8 -3 -14 -11.5t-11 -14.5q-1 -3 -6 -1q-1 0 -3 2v3q0 1 -0.5 7t1.5 15.5
t8 20.5t20 22q14 13 45 21.5t69 10.5q1 2 12.5 26t29.5 59q0 1 0.5 1.5t0.5 1.5t1 1q3 3 7 1q1 -1 14 -9.5t20 -14.5q9 -8 4.5 -19t-11.5 -23q-2 -3 -5 -9t-9 -17q32 -2 68 -5.5t68 -8.5l8 16q5 11 11 24q5 11 13 27l17 34q0 1 0.5 1.5t0.5 1.5t1 1q4 4 7 2q1 -1 14 -9.5
t20 -14.5q9 -8 4.5 -19t-10.5 -23q-3 -5 -8.5 -15t-16.5 -34q12 -2 33.5 -4t49.5 -6h5q3 -2 3 -6q0 -1 -1.5 -5.5t-3 -11t-3.5 -13t-4 -10.5zM192 193q29 -3 57 -5t54 -4l4 12q3 12 10 29t15.5 37.5t18 42.5t19.5 43h-3q-35 4 -69.5 6t-65.5 3q-4 -7 -7 -14.5t-7 -15.5
q-16 -34 -30.5 -67t-25.5 -64zM485 188q0 -1 -5 -7.5t-18.5 -14t-39 -14t-67.5 -8.5q-2 -4 -2 -5h5q110 4 130 47l1 1l-1 1l-2 -1zM74 353q0 1 4 6.5t16 12.5t34 13.5t57 9.5l3 6q-99 -6 -116 -46l-1 -1v-1l2 1zM117 52q-1 0 -4 5t-5.5 15.5t-3.5 28t4 43.5q-4 0 -6 1
q-15 -70 13 -95v-1h1v2zM327 184q6 22 15 46.5t23 56.5l-3 1q-7 -14 -14 -30q-6 -14 -13 -32.5t-12 -38.5q-1 -1 -1 -3h5zM364 271q0 -1 -4.5 -11.5t-9.5 -24.5t-9.5 -28t-5.5 -23h3q1 3 5 14t8.5 24l9 26t6.5 22zM468 469l-5 -10l-29 -60q3 -1 8 -1q8 18 15 35t9 25z
M328 51q-1 1 -8.5 16.5t-4.5 54.5h-7q-6 -51 18 -73v-1h1v2zM514 353l-11 1q-1 0 -19 2.5t-42 5.5l-3 -7q20 -2 38 -4t26 0zM117 202q1 0 2 -0.5t3 -0.5q6 19 14.5 39.5t19.5 46.5l-3 1q-6 -11 -12 -25q-5 -12 -12 -28t-12 -33zM155 271q0 -1 -3 -8.5t-7 -18t-8.5 -22.5
t-7.5 -22q2 0 3 -0.5t2 -0.5q6 16 13.5 37t10.5 34zM261 468l-5 -10q-1 -1 -6.5 -12l-13.5 -27h8q6 12 9.5 22t5.5 16zM294 389q-2 0 -15.5 0.5t-30.5 0.5l-3 -6h27t22 2v3zM45 188l11 -1q0 -1 10.5 -2.5t25.5 -3.5q2 6 2 7q-13 2 -23 2.5t-15 -0.5zM309 396q-7 1 -16 2
q-8 1 -18.5 1.5t-21.5 1.5q-1 -1 -1 -2t-1 -3q25 0 58 -3v3zM196 164q-2 0 -14.5 1.5t-28.5 3.5q-2 -4 -2 -5q24 -3 45 -3v3zM476 454q9 9 7 18q-1 6 -6 11l-6 4l-9 4l7 -7q12 -11 8.5 -19t-3.5 -9zM269 453q9 9 7 18q-1 6 -6 11l-6 4l-9 4l7 -7q12 -11 8.5 -19t-3.5 -9z
M56 201q-10 4 -19 0q-4 -2 -5.5 -5l-2.5 -5q-1 -4 -2 -6l-1 -10l4 9q7 15 15.5 14.5t9.5 -0.5zM503 340q11 -5 19 0q7 3 8 9q1 3 2 7l1 10l-4 -9q-7 -15 -15.5 -14.5t-9.5 0.5zM192 176q-2 0 -11.5 1.5t-23.5 3.5q-2 -4 -2 -6q10 -1 19 -1.5t18 -0.5v3zM250 145q6 -1 13 -2
q13 -2 31 -3q0 1 0.5 2t0.5 3q-21 0 -45 3v-3zM266 152q1 0 9.5 -0.5t20.5 -0.5q0 3 1 5h-18t-13 -1v-3zM202 333q0 1 3.5 7.5t8.5 16.5h-6l-9 -23zM189 333q0 1 3.5 7.5t8.5 16.5h-6q-6 -11 -9 -23zM363 377q3 0 20 -3q1 2 1 3t1 2q-6 1 -11.5 1h-10.5v-3zM423 400
q2 0 2.5 -0.5t2.5 -0.5q2 3 2.5 6t1.5 5l2 11l-5 -10q-1 0 -6 -11zM397 333q0 1 5 11q-1 0 -2 0.5t-2 0.5q-2 -3 -2.5 -6t-1.5 -5zM226 397h8l2 5h-8zM419 364l-3 -7h6l3 7h-6zM368 365q1 -1 3 -1t3.5 -0.5t3.5 -0.5q0 2 2 4q-5 1 -12 1v-3zM223 390l-3 -5h8l3 5h-8z
M404 359q4 0 6 -1l3 7h-7zM410 333q0 1 1 3q2 4 4 7h-5l-3 -9zM112 186q0 -2 -2 -6q2 0 3 -0.5t3 -0.5q0 1 2 7h-6zM418 376q-2 0 -3.5 0.5t-3.5 0.5l-2 -6h6zM319 150q0 2 0.5 3t0.5 3h-6q0 -2 -0.5 -3t-0.5 -3h6zM431 374q-2 1 -7 1q-2 -2 -2 -5q2 0 3 -0.5t3 -0.5z
M210 390l-3 -5h7l2 5h-6zM219 397q2 4 2 5h-5l-3 -5h6zM317 139q0 3 1 5h-6q-1 -2 -1 -5h6zM447 372q-1 -1 -1 -3h2l11 2zM112 169l1 -1q0 3 1 4h-2l-4 -1l-1 -2h5zM128 184q-1 0 -1.5 0.5t-1.5 0.5v-2l3 -1v2zM358 156q0 -2 -0.5 -2.5t-0.5 -2.5l2 1v4h-1zM225 420h1v1z
" />
    <glyph glyph-name="less" unicode="&#x3c;" horiz-adv-x="198" 
d="M177 77v-7.5t-2 -8.5q-3 -3 -25 1.5t-48 12t-48 14.5t-24 8q-11 3 -15.5 15.5t-2.5 22.5q-1 5 7 7q43 14 77 24q15 4 29 7.5t26 5.5t20 2t10 -3q2 -2 5 -6t2 -8q0 -3 -11 -8.5t-27 -11.5t-35 -12t-34 -11q16 -5 33.5 -11t31 -12t22.5 -11.5t9 -9.5zM40 133q2 0 2.5 -0.5
t1.5 -0.5t3 2q10 3 29.5 7t38.5 8t33.5 7.5l14.5 3.5l-1 1q-32 -1 -65.5 -10.5t-50.5 -15.5zM24 115l7 -6q3 -1 11 -4t16 -5q18 -5 21 -6.5t4 -0.5l1 1v1q0 1 -1 1q-2 0 -3 1q-7 3 -14.5 5.5t-15.5 4.5q-9 3 -18 5zM126 163q2 1 4 0.5t5 0.5q28 -1 33 -0.5t5 2.5q0 1 1 0.5
t0 0.5q-5 1 -13 1t-15.5 -0.5t-13 -1.5l-5.5 -1zM89 95q2 1 3.5 0t5.5 -2q24 -14 28.5 -16t5.5 0q0 1 1 0.5t0 0.5q-4 3 -11 6.5t-14 6.5q-8 4 -17 7zM34 123h9q3 1 11.5 3t16.5 4q17 6 20.5 7t3.5 2l-1 2h-1q-1 0 -1.5 -0.5t-1.5 -0.5q-8 -2 -15.5 -4.5t-15.5 -4.5
q-9 -3 -17 -6zM64 116q-3 2 -6 2h-7l8 -3h5q9 -3 24.5 -9.5t31.5 -12.5t28 -11l12 -5v1q-12 7 -25.5 13.5t-27 11.5t-25 8t-18.5 5z" />
    <glyph glyph-name="guilsinglleft" unicode="&#x2039;" horiz-adv-x="198" 
d="M177 77v-7.5t-2 -8.5q-3 -3 -25 1.5t-48 12t-48 14.5t-24 8q-11 3 -15.5 15.5t-2.5 22.5q-1 5 7 7q43 14 77 24q15 4 29 7.5t26 5.5t20 2t10 -3q2 -2 5 -6t2 -8q0 -3 -11 -8.5t-27 -11.5t-35 -12t-34 -11q16 -5 33.5 -11t31 -12t22.5 -11.5t9 -9.5zM40 133q2 0 2.5 -0.5
t1.5 -0.5t3 2q10 3 29.5 7t38.5 8t33.5 7.5l14.5 3.5l-1 1q-32 -1 -65.5 -10.5t-50.5 -15.5zM24 115l7 -6q3 -1 11 -4t16 -5q18 -5 21 -6.5t4 -0.5l1 1v1q0 1 -1 1q-2 0 -3 1q-7 3 -14.5 5.5t-15.5 4.5q-9 3 -18 5zM126 163q2 1 4 0.5t5 0.5q28 -1 33 -0.5t5 2.5q0 1 1 0.5
t0 0.5q-5 1 -13 1t-15.5 -0.5t-13 -1.5l-5.5 -1zM89 95q2 1 3.5 0t5.5 -2q24 -14 28.5 -16t5.5 0q0 1 1 0.5t0 0.5q-4 3 -11 6.5t-14 6.5q-8 4 -17 7zM34 123h9q3 1 11.5 3t16.5 4q17 6 20.5 7t3.5 2l-1 2h-1q-1 0 -1.5 -0.5t-1.5 -0.5q-8 -2 -15.5 -4.5t-15.5 -4.5
q-9 -3 -17 -6zM64 116q-3 2 -6 2h-7l8 -3h5q9 -3 24.5 -9.5t31.5 -12.5t28 -11l12 -5v1q-12 7 -25.5 13.5t-27 11.5t-25 8t-18.5 5z" />
    <glyph glyph-name="guilsinglright" unicode="&#x203a;" horiz-adv-x="198" 
d="M21 77q0 4 9 9.5t22.5 11.5t30.5 12t34 11q-15 5 -34 11t-35 12t-27 11.5t-11 8.5q-1 4 2 8t5 6q2 3 10 3t20 -2t26 -5.5t29 -7.5q34 -10 77 -24q8 -2 7 -7q2 -10 -2.5 -22.5t-15.5 -15.5q-2 -1 -24 -8t-48 -14.5t-48 -12t-25 -1.5q-2 3 -2 8.5v7.5zM152 135
q-17 6 -50.5 15.5t-65.5 10.5l-1 -1l14.5 -3.5t33.5 -7.5t38.5 -8t29.5 -7q2 -2 3 -2t1.5 0.5t2.5 0.5zM166 112q-9 -2 -18 -5q-8 -2 -16 -4.5t-14 -5.5q-2 -1 -3 -1t-1 -1v-1l1 -1q1 -1 4 0.5t21 6.5q8 2 16 5t11 4l7 6zM71 165l-5.5 1t-13 1.5t-15.5 0.5t-13 -1
q-1 -1 0 -0.5t1 -0.5t0.5 -1.5t4 -0.5h11.5h22q3 -1 5 -0.5t4 -0.5zM107 98q-9 -3 -17 -7q-7 -3 -14 -6.5t-11 -6.5q-1 -1 0 -0.5t1 -0.5q1 -2 5.5 0t28.5 16q4 1 5.5 2t3.5 0zM156 125q-8 3 -17 6q-8 2 -16 4.5t-15 4.5q-2 0 -2 0.5t-1 0.5h-1l-1 -2q0 -1 3.5 -2t20.5 -7
q8 -2 16.5 -4t11.5 -3h9zM134 116q-7 -2 -18.5 -5t-25 -8t-27 -11.5t-25.5 -13.5v-1l12 5t27.5 11t31.5 12.5t25 9.5h5l8 3h-7q-3 0 -6 -2z" />
    <glyph glyph-name="endash" unicode="&#x2013;" horiz-adv-x="279" 
d="M16 139q1 4 11 6.5t25 4t34 2.5t39 1q46 1 104 0q5 0 8 -0.5t4 -6.5q0 -10 -10.5 -21.5t-27.5 -11.5h-15.5h-35.5t-45 0.5t-44.5 1.5t-35 3t-15.5 5q-2 3 0.5 8.5t3.5 7.5zM207 129q-13 1 -24 1h-21t-20 -1h-5l-1 -2l1 -1q0 -1 4.5 -1h28.5q11 0 22 0.5t15 1.5l10 2h-10z
M198 138q-11 0 -29 0.5t-39 -0.5t-43 -3.5t-41 -6.5v-2l19 1t44 3l50 4t38 2q3 -1 7 -1h3l10 -1l-9 4h-10zM88 142l-7.5 -0.5t-17 -2.5l-19 -4t-15.5 -5l2 -1l1 -0.5t5.5 0.5t14 3t26.5 7q4 1 6.5 2t4.5 0z" />
    <glyph glyph-name="emdash" unicode="&#x2014;" horiz-adv-x="496" 
d="M21 140q2 3 20.5 5.5t47 4.5t64.5 3t74 1q87 1 198 -1q9 0 15 -0.5t8 -5.5q0 -10 -20 -21t-52 -11h-30.5h-67t-85 0.5t-84.5 1.5t-66 2.5t-29 4.5q-3 3 1 8.5t6 7.5zM383 130q-22 1 -44 1h-40.5t-38.5 -1h-9l-2 -2l2 -1l1 -0.5t7 -0.5h18.5h35.5q20 0 41.5 0.5t28.5 1.5
l19 2h-19zM366 139q-21 0 -54.5 0.5t-73 -0.5t-81.5 -3.5t-79 -6.5v-2l17 0.5t43.5 1.5t58.5 2.5t64 2.5t59 2t44 1q5 -1 8.5 -1h5.5h5l19 -1l-17 4h-19zM158 143q-1 0 -14.5 -0.5t-31.5 -2.5t-37 -4t-29 -5q-2 -1 0 -0.5t4 -0.5l1.5 -0.5t10 0.5t26.5 3t51 7q7 1 12.5 2
t8.5 0z" />
    <glyph glyph-name="underscore" unicode="_" horiz-adv-x="458" 
d="M21 -41q2 3 20.5 5.5t47 4.5t64.5 3t74 1q87 1 198 -1q9 0 15 -0.5t8 -5.5q0 -10 -20 -21t-52 -11h-30.5h-67t-85 0.5t-84.5 1.5t-66 2.5t-29 4.5q-3 3 1 8.5t6 7.5zM383 -51q-22 1 -44 1h-40.5t-38.5 -1h-9l-2 -2l2 -1l1 -0.5t7 -0.5h18.5h35.5q20 0 41.5 0.5t28.5 1.5
l19 2h-19zM366 -42q-21 0 -54.5 0.5t-73 -0.5t-81.5 -3.5t-79 -6.5v-2l17 0.5t43.5 1.5t58.5 2.5t64 2.5t59 2t44 1q5 -1 8.5 -1h5.5h5l19 -1l-17 4h-19zM158 -38q-1 0 -14.5 -0.5t-31.5 -2.5t-37 -4t-29 -5q-2 -1 0 -0.5t4 -0.5l1.5 -0.5t10 0.5t26.5 3t51 7q7 1 12.5 2
t8.5 0z" />
    <glyph glyph-name="minus" unicode="&#x2212;" horiz-adv-x="251" 
d="M16 139q1 4 11 6.5t25 4t34 2.5t39 1q46 1 104 0q5 0 8 -0.5t4 -6.5q0 -10 -10.5 -21.5t-27.5 -11.5h-15.5h-35.5t-45 0.5t-44.5 1.5t-35 3t-15.5 5q-2 3 0.5 8.5t3.5 7.5zM207 129q-13 1 -24 1h-21t-20 -1h-5l-1 -2l1 -1q0 -1 4.5 -1h28.5q11 0 22 0.5t15 1.5l10 2h-10z
M198 138q-11 0 -29 0.5t-39 -0.5t-43 -3.5t-41 -6.5v-2l19 1t44 3l50 4t38 2q3 -1 7 -1h3l10 -1l-9 4h-10zM88 142l-7.5 -0.5t-17 -2.5l-19 -4t-15.5 -5l2 -1l1 -0.5t5.5 0.5t14 3t26.5 7q4 1 6.5 2t4.5 0z" />
    <glyph glyph-name="quotesingle" unicode="'" horiz-adv-x="145" 
d="M181 326q-5 0 -8 3q-1 1 -1 3q0 6 2 18t5 25.5t5 25.5t2 16q3 7 13 7q6 2 14 3.5t11 2.5l6 -2q6 -4 6 -8q0 -9 -0.5 -12t-0.5 -8q0 -8 -6.5 -21t-15 -25t-17.5 -20t-15 -8zM207 418q-2 -1 -1 -2q0 -3 -2.5 -12t-4.5 -18.5t-3.5 -17.5t-1.5 -9l-1 -7l4 7q1 3 3.5 12.5
t4.5 19.5t3 18t0 9h-1zM217 406l-1 2v1h-2q-1 -1 -1 -3q-1 -2 -2.5 -9t-3.5 -14.5t-4 -14l-2 -6.5l1 -5l2 4q2 3 4.5 9.5t4.5 14t3.5 13.5t0.5 8z" />
    <glyph glyph-name="quoteright" unicode="&#x2019;" horiz-adv-x="146" 
d="M181 326q-5 0 -8 3q-1 1 -1 3q0 6 2 18t5 25.5t5 25.5t2 16q3 7 13 7q6 2 14 3.5t11 2.5l6 -2q6 -4 6 -8q0 -9 -0.5 -12t-0.5 -8q0 -8 -6.5 -21t-15 -25t-17.5 -20t-15 -8zM207 418q-2 -1 -1 -2q0 -3 -2.5 -12t-4.5 -18.5t-3.5 -17.5t-1.5 -9l-1 -7l4 7q1 3 3.5 12.5
t4.5 19.5t3 18t0 9h-1zM217 406l-1 2v1h-2q-1 -1 -1 -3q-1 -2 -2.5 -9t-3.5 -14.5t-4 -14l-2 -6.5l1 -5l2 4q2 3 4.5 9.5t4.5 14t3.5 13.5t0.5 8z" />
    <glyph glyph-name="quotedblright" unicode="&#x201d;" horiz-adv-x="146" 
d="M181 326q-5 0 -8 3q-1 1 -1 3q0 6 2 18t5 25.5t5 25.5t2 16q3 7 13 7q6 2 14 3.5t11 2.5l6 -2q6 -4 6 -8q0 -9 -0.5 -12t-0.5 -8q0 -8 -6.5 -21t-15 -25t-17.5 -20t-15 -8zM207 418q-2 -1 -1 -2q0 -3 -2.5 -12t-4.5 -18.5t-3.5 -17.5t-1.5 -9l-1 -7l4 7q1 3 3.5 12.5
t4.5 19.5t3 18t0 9h-1zM217 406l-1 2v1h-2q-1 -1 -1 -3q-1 -2 -2.5 -9t-3.5 -14.5t-4 -14l-2 -6.5l1 -5l2 4q2 3 4.5 9.5t4.5 14t3.5 13.5t0.5 8zM255 326q-5 0 -8 3q-1 1 -1 3q0 6 2 18t5 25.5t5 25.5t2 16q3 7 13 7q6 2 14 3.5t11 2.5l6 -2q6 -4 6 -8q0 -9 -0.5 -12
t-0.5 -8q0 -8 -6.5 -21t-15 -25t-17.5 -20t-15 -8zM281 418q-2 -1 -1 -2q0 -3 -2.5 -12t-4.5 -18.5t-3.5 -17.5t-1.5 -9l-1 -7l4 7q1 3 3.5 12.5t4.5 19.5t3 18t0 9h-1zM291 406l-1 2v1h-2q-1 -1 -1 -3q-1 -2 -2.5 -9t-3.5 -14.5t-4 -14l-2 -6.5l1 -5l2 4q2 3 4.5 9.5
t4.5 14t3.5 13.5t0.5 8z" />
    <glyph glyph-name="quotedblleft" unicode="&#x201c;" horiz-adv-x="145" 
d="M301 429q7 -2 8 -3t1 -3q0 -6 -2 -18.5t-5 -26t-5 -25t-2 -15.5q-4 -7 -13 -7q-6 -2 -14 -3.5t-11 -2.5q-3 0 -6 2q-6 2 -6 8q0 9 0.5 12t0.5 8q0 8 6.5 21t15 25t17.5 20t15 8zM275 337q2 1 1 2q0 3 2 12t4.5 18.5t4 17.5t1.5 9l1 7l-4 -7q-1 -3 -3.5 -12.5t-4.5 -19.5
t-3 -18t0 -9h1zM265 347q0 -1 1 -1h2q1 1 1 3q1 2 2.5 9t3.5 14.5t4 14l2 6.5l-1 5l-2 -4q-2 -3 -4.5 -9.5t-4.5 -14t-3.5 -13.5t-0.5 -8v-2zM227 429q7 -2 8 -3t1 -3q0 -6 -2 -18.5t-5 -26t-5 -25t-2 -15.5q-4 -7 -13 -7q-6 -2 -14 -3.5t-11 -2.5q-3 0 -6 2q-6 2 -6 8
q0 9 0.5 12t0.5 8q0 8 6.5 21t15 25t17.5 20t15 8zM201 337q2 1 1 2q0 3 2 12t4.5 18.5t4 17.5t1.5 9l1 7l-4 -7q-1 -3 -3.5 -12.5t-4.5 -19.5t-3 -18t0 -9h1zM191 347q0 -1 1 -1h2q1 1 1 3q1 2 2.5 9t3.5 14.5t4 14l2 6.5l-1 5l-2 -4q-2 -3 -4.5 -9.5t-4.5 -14t-3.5 -13.5
t-0.5 -8v-2z" />
    <glyph glyph-name="trademark" unicode="&#x2122;" horiz-adv-x="568" 
d="M204 374q8 -5 5.5 -11.5t-5.5 -14.5q-3 -4 -10 -16.5t-24 -51.5q-23 -52 -31.5 -88t-3.5 -53q2 -5 6.5 -10t8.5 -9q0 -1 1 -2t-1 -2q0 -1 -2 -1h-3l-4 1t-10.5 4t-14 8.5t-13.5 15.5q-8 11 -9.5 32.5t4.5 44.5q3 10 8.5 24.5t12.5 30t14.5 31t13.5 27.5q3 7 7 15
q3 7 7 16.5t9 20.5l2 2q1 1 5 1l12 -6t15 -9zM126 133l-5.5 6.5t-8 22.5t1.5 43.5t22 70.5h-2q-4 -8 -8 -18q-4 -8 -8 -19.5t-7 -24.5q-15 -63 14 -83v2v-2v2h1zM124 211l2 6.5t4.5 15l5 17t3.5 14.5l-3 1l-2 -6.5t-4.5 -15.5t-5 -17.5t-3.5 -13.5zM148 283q0 1 3 6.5
t6.5 13t6.5 15t4 11.5v7l-2 -7l-3 -5t-6 -12t-6.5 -15t-5.5 -14h3zM190 364l-2 -7l-12 -26q-5 -11 -10.5 -24t-9.5 -24h2q0 1 5 10.5t11 22t11 24.5t5 17v7zM198 355q5 5 5 11q-4 4 -7 6t-5 3l-7 3l6 -5q5 -4 6.5 -7t1.5 -5q0 -3 -2 -5zM557 460q-3 -7 -16 -23t-30 -26
q-20 -11 -48 -18t-63 -7q-29 0 -62 3q-55 5 -87.5 9t-56.5 4q-31 0 -50 -3.5t-32 -11.5q-12 -7 -19.5 -22t-11.5 -29q0 -1 -1 -6t-1 -11.5v-12.5t2 -9q2 -5 3 -9t4 -8q0 -2 1 -4.5t0 -3.5t-5 -1q-13 1 -29 8t-22 26q0 2 -0.5 4t-0.5 4q-2 20 1.5 33.5t8.5 22.5q30 56 135 59
q36 1 86 0.5t102 1.5t101 9.5t84 25.5q2 0 2.5 0.5t1.5 0.5h1h2v-1q1 -2 0.5 -3t-0.5 -2zM51 302q-4 9 -5 20q-1 10 0.5 22.5t9.5 29.5l-3 1l-4 -7.5t-7 -18.5t-2.5 -24t10.5 -24zM540 453q-4 -2 -11.5 -4.5l-15 -5l-13.5 -4.5l-6 -2l1 -3q14 3 27.5 8.5t18.5 8.5q3 1 4 2
l-1 3q0 -1 -1 -1q-1 -1 -1.5 -1t-1.5 -1zM246 419q7 -2 18 -2h24h26t24 1q12 0 23 1v2h-39h-76v-2zM363 396h11.5t10.5 1v3l-11 0.5t-27.5 1t-37 1.5t-41.5 2h-3q-42 6 -75 6h-1q-5 1 -9.5 1h-8.5q-32 0 -45.5 -6.5t-15.5 -8.5l2 -1q7 3 17 6q8 2 21 4.5t31 2.5h8h10
q11 -2 28.5 -3.5t40.5 -3.5q24 -2 49.5 -4t45.5 -2zM387 406q74 0 113 17v2q-12 -4 -30 -8q-15 -3 -37.5 -5t-53.5 -2q-17 0 -35 1t-38 3v-3q2 0 25 -2.5t56 -2.5zM402 147q-13 5 -14 20t4 32q3 17 12 42t27 58q-21 -22 -41 -48q-17 -22 -37 -50.5t-36 -57.5q-14 0 -23 6
q-8 5 -12.5 16t1.5 31q1 3 3 8t4 11t4 11.5t3 7.5q5 14 12.5 30t18.5 35q-22 -22 -42 -48q-18 -22 -37.5 -50.5t-36.5 -57.5q-14 0 -23 6q-8 5 -12.5 16t2.5 31q8 26 22.5 53.5t25.5 51.5q3 6 6 14t5 14.5t3 11t0 4.5v1v1h1l2 1q3 0 7 -2l4 -4q11 -7 22 -19.5t5 -26.5
q-3 -4 -9 -14q-5 -8 -14.5 -23.5t-26.5 -40.5q22 28 44 53q19 21 39.5 41.5t36.5 30.5q13 -6 23 -12q8 -5 13 -13t0 -16q-6 -9 -17.5 -29t-22.5 -41q9 10 22.5 26t28.5 32t30.5 30.5t27.5 22.5q13 -6 23 -12q8 -5 13 -13t0 -16q-7 -11 -21.5 -35.5t-25.5 -49.5
q-2 -3 -3 -6.5t-3 -6.5q-7 -15 -8.5 -26t-3.5 -12t2 -4.5t5.5 -7.5t-2.5 -7t-22 -3h-1q-2 1 -4 1t-4 2zM463 331l7 -6q5 -3 7 -7.5t3 -8.5q0 -4 -1 -9l2 -1q6 11 3 19q-3 5 -7.5 7.5t-5.5 2.5zM255 322l7 -4q5 -4 7 -8.5t3 -8.5q0 -4 -1 -9l2 -1q6 12 3 19q-3 5 -8 7
q-3 1 -5 2zM245 295q0 -1 -6.5 -15t-10.5 -25l2 -1q1 1 8.5 15t9.5 25l1 8zM242 269q-6 -12 -12 -25q-5 -11 -10.5 -25t-9.5 -28l3 -1q6 11 11 23q5 11 10.5 25t10.5 30zM195 167l4 8q3 8 7 16q7 16 10 30l2 11l-5 -10v-1q-3 -6 -9 -20.5t-8 -25.5zM213 149l-10 5q-3 0 -6 3
q-6 4 -9 13l-4 9l1 -9q0 -5 2 -9q2 -3 5.5 -6t9.5 -3zM263 240l-9 -10l-5 -7.5t-6 -8.5q-4 -4 -7 -9l-4 -3l5 2q7 3 13 13t8 11zM350 301l-6 -14q-2 -6 -5.5 -13t-5.5 -12l3 -2l2.5 4.5t5.5 10.5t5.5 13t2.5 12l2 10zM348 276l-3.5 -7t-8.5 -18.5t-10 -25.5t-9 -27l2 -2
q6 10 11 23q5 11 10 25.5t10 31.5h-2zM301 173l4 8q3 8 7 16q7 16 10 31l1 12l-4 -12l-1 -1q-2 -6 -8 -20.5t-8 -24.5zM319 149l-10 5q-3 0 -6 3q-6 4 -9 13l-3 9v-9q0 -5 2 -9q2 -3 5.5 -6t9.5 -3zM426 158h2h-2q-1 -1 -3 -2q-4 -2 -6 -2q-5 0 -7 9l-3 8v-8v-5q0 -5 3 -6
q0 -3 4 -3q6 0 14 9v-1zM452 301l-6 -14q-5 -14 -11 -24l3 -1q1 1 8.5 14.5t7.5 24.5l2 9zM434 315l-9 -9q-2 -3 -5.5 -6.5t-6.5 -7.5q-4 -4 -7 -9l-5 -5l6 3q7 3 14 13t7 11zM451 277q-1 0 -4.5 -7t-8.5 -18t-10 -25t-9 -28l2 -1q0 1 10.5 23.5t21.5 54.5zM405 175l2 7
q3 8 7 16q7 16 10 30l1 12l-4 -10l-1 -2q-2 -5 -7.5 -20t-7.5 -24v-9zM554 207q-1 -12 -10 -25.5t-26 -11.5h-8t-12 1q-5 0 -7 7q-1 3 -1 6q1 3 3.5 11t4.5 13q3 11 10 12q8 -2 19 -1.5t22 -1.5q2 -1 3 -2q2 -2 2 -8zM504 198q1 -2 15 -3.5t21 0.5l7 3h-8l-4.5 0.5t-10 1
t-10.5 0.5h-8q-1 1 -2 0l-1 -1zM514 188q4 -2 10.5 -2.5t11.5 2.5l5 2l-5 1q-1 0 -8.5 1t-12.5 0q-2 0 -3 -1q-1 0 -1 -1q2 -2 3 -2zM11 207q-1 5 2 8q1 1 3 2q11 2 22 1.5t19 1.5q7 -1 10 -12q2 -5 4.5 -13t3.5 -11q0 -3 -1 -6q-2 -7 -7 -7q-9 -1 -12 -1h-8
q-17 -2 -26 11.5t-10 25.5zM62 199l-1 1q-1 1 -2 0h-8t-10.5 -0.5t-10 -1l-4.5 -0.5h-8l7 -3q7 -2 21 -0.5t15 3.5zM51 188q1 0 3 2l-1 1t-3 1q-5 1 -12.5 0t-8.5 -1l-5 -1l5 -2q5 -3 11.5 -2.5t10.5 2.5z" />
    <glyph glyph-name="ellipsis" unicode="&#x2026;" horiz-adv-x="380" 
d="M76 51q11 -5 20 -19t1 -29q-2 -4 -3 -7t-6 -11q-2 -4 -9 -4q-3 0 -6 2q-2 2 -8 7.5t-11 9.5q-8 6 -7 13q4 7 8.5 17t9.5 20q0 1 2 2q3 2 9 -1zM65 1q1 0 3.5 3.5t5.5 9t5.5 11t2.5 8.5v8l-3 -7q-1 -1 -7 -13t-8 -17q-1 -1 0 -2v-1h1zM79 7q3 2 6 8t2 12v5l-3 -4
q0 -1 -3.5 -7.5t-5.5 -11.5v-3q0 -1 1 -1t3 2zM167 51q11 -5 20 -19t1 -29q-2 -4 -3 -7t-6 -11q-2 -4 -9 -4q-3 0 -6 2q-2 2 -8 7.5t-11 9.5q-8 6 -7 13q4 7 8.5 17t9.5 20q0 1 2 2q3 2 9 -1zM156 1q1 0 3.5 3.5t5.5 9t5.5 11t2.5 8.5v8l-3 -7q-1 -1 -7 -13t-8 -17
q-1 -1 0 -2v-1h1zM170 7q3 2 6 8t2 12v5l-3 -4q0 -1 -3.5 -7.5t-5.5 -11.5v-3q0 -1 1 -1t3 2zM263 51q11 -5 20 -19t1 -29q-2 -4 -3 -7t-6 -11q-2 -4 -9 -4q-3 0 -6 2q-2 2 -8 7.5t-11 9.5q-8 6 -7 13q4 7 8.5 17t9.5 20q0 1 2 2q3 2 9 -1zM252 1q1 0 3.5 3.5t5.5 9t5.5 11
t2.5 8.5v8l-3 -7q-1 -1 -7 -13t-8 -17q-1 -1 0 -2v-1h1zM266 7q3 2 6 8t2 12v5l-3 -4q0 -1 -3.5 -7.5t-5.5 -11.5v-3q0 -1 1 -1t3 2z" />
    <glyph glyph-name="question" unicode="?" horiz-adv-x="447" 
d="M330 293q1 1 2 1q2 0 2 -2l-9 -15t-14 -21t-17.5 -20t-19.5 -13q-23 -7 -47 -10q-20 -2 -44 -0.5t-44 12.5q-35 17 -40 41.5t8 53.5q6 14 20.5 31.5t38 34.5t54.5 31t70 21q43 7 71.5 0t45 -22t23 -33t5.5 -33q-2 -32 -21 -70t-61 -68q-43 -33 -65 -66t-32 -58.5
t-12.5 -39.5t-6.5 -8l-10 7q-1 -2 -2.5 0.5t-2.5 5.5l-2 6l-1 3q1 10 2.5 16.5t4.5 14t7.5 18t11.5 28.5q11 28 32.5 53t43 47t38.5 42t20 38q2 18 -5.5 33.5t-23 26t-38.5 14t-51 -1.5q-57 -11 -92.5 -33t-43.5 -43q-4 -10 4.5 -24.5t33 -23t65.5 -5t101 30.5h1zM293 242
q12 11 19.5 25t8.5 15h-3q-1 -2 -5 -8t-8.5 -13t-8 -12t-3.5 -6l-6 -7zM401 305q8 11 10.5 20.5t2.5 16.5t-1.5 10.5l-1.5 3.5l-3 -3q2 -8 1 -16t-3 -15q-3 -8 -7 -16zM268 162q-8 -15 -13.5 -30t-10.5 -28q-5 -15 -9 -28h3q3 9 8.5 23t10.5 28q6 16 14 34zM337 243l2 -1
q20 17 30.5 31.5t14.5 25.5q4 12 4 22l-2 8v-8q-2 -15 -9 -28t-14.5 -23.5t-14.5 -17t-9 -7.5zM371 398l2 3l-2 1q-12 12 -29.5 15t-34.5 1.5t-30.5 -5.5t-17.5 -5q-1 0 -2 -1v-3q29 7 49 8.5t33 -0.5t20 -6t10 -6zM140 356q3 0 3 2q8 8 29.5 23.5t63.5 30.5q6 2 11 3t11 3
v3l-8 -2q-4 -2 -10 -3.5t-13 -3.5q-17 -7 -40.5 -19t-44.5 -32q-2 -4 -2 -3l-1 -1zM280 261l-1 -1l-9 -3q-10 -3 -21.5 -5.5t-22 -4.5t-18 -3.5l-7.5 -1.5l-2 -2q18 0 38 5t32 9q2 1 4 1t4 1q1 0 3 2v3zM109 274l1.5 -4.5t5.5 -10.5t10 -12.5t15 -10.5l2 2l-4.5 3t-9.5 8.5
t-10 12t-7 13.5zM132 256q15 -15 35 -19.5t39.5 -3.5t35.5 5.5t24 7.5h3q1 0 1 1v3q-35 -12 -60.5 -12t-42.5 4.5t-25 10t-9 6.5l-1 -2v-1zM213 40q10 -2 19 -12.5t4 -26.5q-2 -5 -2 -7.5t-3 -11.5q-2 -4 -7 -6q-3 -1 -5 0q-3 2 -8.5 5t-10.5 5q-7 4 -8 11q3 8 5 18t5 21
q0 1 2 2q4 2 9 2zM209 -10q2 1 6 14.5t4 20.5v7l-2 -7q-1 -1 -4.5 -14t-3.5 -18q-1 -1 0 -2l-1 -1h1zM219 -1q4 3 5.5 10t-0.5 12l-1 5l-1 -4q0 -1 -2 -8.5t-2 -12.5q-2 -1 -2.5 -2t1.5 -1q0 -1 1 -1q3 0 1 2z" />
    <glyph glyph-name="ampersand" unicode="&#x26;" horiz-adv-x="515" 
d="M287 110q2 6 30 9.5t62 5.5q40 2 89 2q4 0 6 -0.5t4 -5.5q0 -8 -8.5 -18t-22.5 -11q-2 0 -11 -0.5t-23 -0.5q-23 -26 -43 -42t-35 -25q-18 -11 -33 -16q-11 -4 -23 -8q-11 -3 -25 -5.5t-30 -1.5q-41 1 -69 9t-47 20t-30 27t-16 30q-12 36 0 81q10 29 36 50.5t60 31.5
q19 6 37.5 8t32.5 3q17 1 31 0l-11 13q-3 4 -5.5 8t-4.5 8q-6 2 -12 3.5t-12 3.5l-9 4q-51 20 -67 41.5t-8 43.5q5 -5 14.5 -11t14.5 -9l12 -6q1 0 1 -0.5t1 -0.5q24 -14 48 -21q2 -2 5 -2.5t5 -1.5q2 8 5 15t8 14q14 20 31.5 32t30.5 18q23 13 43.5 17.5t37.5 3.5t30.5 -6
t22.5 -11q4 0 14 -10q4 -5 8 -11t6 -14q1 -6 0.5 -13.5t-2.5 -15.5q-4 -15 -14.5 -26.5t-25 -20t-31.5 -14.5t-32 -9q-5 -1 -9 -1.5t-9 -0.5q-1 0 -1.5 -0.5t-1.5 -0.5q-12 -1 -24.5 -1t-25.5 2q5 -11 18 -18t16 -8q6 -2 14 -5.5t15.5 -7t13 -6.5t6.5 -4q3 -6 -22.5 -6
t-60.5 5q-51 5 -82.5 -4.5t-49.5 -25.5q-15 -12 -23 -26t-11 -26q-4 -14 -4 -28q4 -27 16 -44t27 -27.5t31.5 -14.5t31.5 -4q32 0 55 4.5t40.5 13.5t33 21.5t32.5 27.5h-35.5t-33.5 0.5t-25 2t-11 3.5q-2 3 0 7.5t3 6.5zM441 375q-2 1 -2.5 2t-1.5 2t-2 1q-23 11 -47.5 3.5
t-45.5 -21.5q-25 -17 -48 -41l-4 -8q39 -6 80 0q22 4 39 10q14 5 26 14.5t11 23.5q-1 3 -1.5 6t-3.5 8zM81 119q0 -1 0.5 -13t8.5 -29q8 -16 25.5 -33.5t52.5 -28.5q7 -2 11 -2.5t5 -0.5v3q2 -1 5 -1l13 -1l-12 4q-1 0 -5.5 2t-10 3.5t-10 3t-6.5 1.5l-9 1l8 -4q1 0 8 -3.5
t15 -5.5l-11 3q-11 3 -24 10t-25.5 19t-22.5 29.5t-13 42.5h-3zM260 330q18 25 37 39.5t36.5 22t31.5 9.5t22 2q3 0 4 -1h3l1 3h-1q-2 0 -3 1h-9q-30 0 -53.5 -11.5t-39 -25t-24 -25.5l-8.5 -12zM250 240q-11 0 -26 -1.5t-31 -5t-30.5 -11t-25.5 -19.5l2 -2q0 1 7 6.5
t21.5 12t38 11.5t58.5 5h10v3h-7q-3 0 -7.5 0.5t-9.5 0.5zM322 286q8 0 21 0.5t27.5 3.5t29.5 8.5t26 15.5l-2 2q-10 -7 -26 -13q-14 -5 -34.5 -9.5t-48.5 -4.5v-3h7zM182 236q-20 -3 -34.5 -10t-24.5 -15q-11 -9 -19 -18l2 -2q9 11 22 19t25 13t21 7.5l9 2.5zM140 354
q9 -10 19 -16t19 -9.5t15 -4.5t7 -1v3q-11 3 -21.5 8t-18.5 10q-10 5 -17 12zM409 398q-2 0 -5 1q-6 2 -13 2t-17.5 -2.5t-22.5 -9.5l2 -3q5 2 12 4q6 2 14.5 3.5t19.5 1.5h10l12 -1zM157 331q7 -6 17 -10q8 -5 19 -9t25 -7l1 3l-7 3t-17 6.5t-20 8t-16 8.5zM255 9
q-5 -1 -11 -2q-5 -1 -12.5 -1h-15.5h-14l-1 -3q1 0 7.5 -1t16.5 -1q18 0 31 5l14 7zM326 235q-11 4 -21 8q-8 4 -16.5 9t-11.5 12l-3 -1q1 -1 11 -13t40 -18zM435 393l9 -8q6 -6 8 -13t2 -13q0 -7 -2 -15l3 -1q5 13 4 21.5t-4 13.5q-4 6 -9 10zM348 114l-6 -0.5t-14.5 -2
t-16.5 -4t-13 -4.5l2 -1q0 -1 5.5 0t34.5 9q3 1 5 2t4 0zM89 143q0 -1 -1.5 -13t1.5 -24l3 -13v13q0 7 -0.5 20.5t0.5 16.5h-3zM227 296q-1 0 -10 4t-17 6l-15 4l14 -7l8 -4t9 -3t10 -3zM182 15h-2h2zM449 106h-20q-8 0 -17.5 -0.5t-17.5 -1.5h-4l-1 -2l1 -1q0 -1 4 -1t24 1
q9 1 18.5 1.5t12.5 1.5l9 2h-9zM442 113q-10 0 -25 -0.5t-32.5 -1.5t-36.5 -3.5t-35 -6.5v-1l16 1.5t37 3.5t42.5 4t32.5 2h8l9 -1l-8 3h-8z" />
    <glyph glyph-name="Ccedilla" unicode="&#xc7;" horiz-adv-x="244" 
d="M88 230q-63 26 -73 81q-7 28 -3.5 51t11.5 40.5t18 30t17 18.5q8 10 17 15h1q1 0 3 0.5t4 0.5q4 0 6 -1l53 -26h1v-3q0 -3 -7 -5q-13 -2 -32.5 -11t-33.5 -34q-6 -13 -9.5 -25t-3.5 -24v-8t1 -9q2 -15 9 -27t14.5 -20t14.5 -13t10 -6q66 85 146 129q41 22 73.5 28.5
t53.5 6.5q27 0 47 -7.5t27 -20.5q14 -24 -6 -61q-4 -7 -8 -12.5t-7 -9.5q-4 -5 -8 -9q-29 -28 -61.5 -45t-64 -26t-60 -12t-49.5 -3q-13 0 -23 0.5t-15 1.5q-34 -47 -48.5 -89.5t-8.5 -76.5q10 -46 38 -64q16 -9 40 -13.5t62 -4.5q30 0 72.5 2.5t110.5 9.5q20 2 39.5 3
t36.5 1q89 0 139 -24q20 -11 30 -21.5t15 -18.5v-1q1 -1 1.5 -3t-0.5 -3l-2 -2q-2 0 -6 2q-29 17 -90.5 20t-155.5 3q-45 1 -97 1t-112 2q-58 3 -95 16q-1 -4 -2.5 -11t-6.5 -15q11 -1 20 -5q8 -4 14.5 -10.5t7.5 -18.5q1 -5 -2.5 -11.5t-8.5 -11.5q-10 -8 -17.5 -9t-13.5 0
q-7 1 -12 5q-14 9 -16 21.5t0 26.5q-1 0 -2.5 -0.5t-3.5 -0.5q-50 1 -71.5 11t-29.5 23h1q-5 6 -5.5 11t0.5 11q0 10 10 20q9 14 19 17q0 3 4 3l2 2l1 -1q-8 -11 -6 -22t7.5 -20t12 -15t7.5 -7q8 -6 18.5 -9.5t21.5 -5.5l12 -1.5t9 -2.5q-2 2 2.5 14t9.5 20q-37 19 -53 49
q-10 17 -14.5 50t12.5 83q5 15 10 28t10 23q5 11 11 21zM399 391q-16 0 -36 -7.5t-37 -16.5t-29 -17l-12 -8q-30 -20 -59 -45.5t-53 -54.5h10q55 5 99.5 22.5t75.5 37.5t48 38.5t19 26.5q2 10 -3 15q-8 9 -23 9zM297 383q-44 -16 -73.5 -36.5t-48 -38.5t-27 -30.5
l-8.5 -12.5l3 -2q22 30 49 52t50.5 36.5t39.5 21.5l16 7zM188 -48q-13 1 -33.5 5.5t-40.5 16t-36 32t-20 54.5h-3q0 -1 1.5 -17t13.5 -36q11 -18 38 -36.5t80 -21.5h15v3h-15zM473 -42q-20 0 -34.5 -1t-24.5 -2q-11 -2 -20 -3v-3q25 3 66 3q22 0 44.5 -1t40.5 -1.5
t29.5 -1.5l11.5 -1v3q-30 5 -58 6.5t-55 1.5zM105 -88q-2 -12 0 -19.5t6.5 -11.5t10 -4.5t10.5 3.5l6 12q-1 6 -5 10q-7 9 -28 10zM31 342q0 -19 9 -43t38 -46q1 -1 2 -1l1 1l1 2q-1 0 -2 1q-4 3 -14 12.5t-18.5 26t-11 40t7.5 53.5l-3 1q0 -1 -5 -14t-5 -33zM239 231
q11 3 26.5 7t32.5 10t33.5 13.5t30.5 16.5l-1 2l-11 -5t-28.5 -12.5t-39.5 -15.5t-44 -13q-5 -1 -8 -1.5t-5 -0.5q-3 -1 -5 -1v-3zM545 -36q-6 0 -10.5 -0.5t-7.5 -0.5q-4 -1 -6 -1v-3h13q28 0 52 -6.5t25 -6.5l1 3q-21 10 -38.5 12.5t-28.5 2.5zM408 399v-4q5 0 10 -1
q10 -2 15 -10q5 -11 -8 -30l3 -2l2.5 3.5t5.5 9t4.5 11.5t-0.5 11q-6 12 -30 12h-2zM394 299q11 8 20 17t15 17q7 10 12 19l-2 2q-3 -5 -10.5 -13.5t-15.5 -17t-14.5 -15l-6.5 -6.5l-10 -11zM115 -16l6 -7q1 -1 17 -10.5t59 -10.5v3q-1 0 -24.5 3t-49.5 17zM101 209
q-7 -11 -13 -23q-5 -11 -11 -24t-8 -27l3 -1l2.5 7t6.5 17.5t10 23.5t13 25zM234 335q3 0 10.5 4.5t16 10t15 10.5t8.5 6l11 8l-12 -5q-11 -5 -20 -10.5t-16 -10.5q-8 -6 -14 -11l-4 -4zM73 107q4 12 8 25q4 11 9 24t12 25l-2 2l-4 -6.5t-9 -17t-10 -24t-7 -27.5zM466 -33
q-7 0 -25.5 -0.5t-33.5 -3.5v-3h9t18 0.5t20 1.5t15 2l11 3h-14zM67 446q-1 -2 -2.5 -4.5t-3.5 -4.5l-5 -5l2 -2q2 2 6 5q4 4 12 10q3 3 7 3q5 0 9 -2t5 -2l1 2q-11 8 -18 8q-5 0 -7.5 -2.5l-4.5 -4.5q0 -1 -1 -1zM10 -64q8 -5 17.5 -8.5t17.5 -5.5q10 -3 19 -4l2 3
q-22 3 -35 8t-21 10q-4 2 -5.5 4t-3.5 3t-3 2l-3 1q2 -5 6.5 -8t8.5 -5zM239 226q3 0 1 2l-1 1q-8 -2 -12 -2l-34 -2h-8q-2 0 -3 1l-1 -2q-1 0 -0.5 -0.5t1.5 -0.5q2 -1 5 -1q3 -1 13 -1q8 0 18 1t21 4zM340 275q6 3 12 6.5t11 7.5l10 8l-2 2l-30 -18q-7 -5 -8 -5.5t-1 -1.5
v-2h1q1 0 1.5 0.5t5.5 2.5zM69 32q0 -1 3 -10.5t11 -19.5l7 -9l-4 11l-2 4l-4.5 9t-4.5 9.5t-3 6.5l-5 6zM49 317q0 1 -3.5 12t-1.5 25l-3 1q-1 -1 -2 -14.5t7 -24.5l7 -10zM-2 -57q-8 6 -10.5 14t-2.5 12q0 1 -1 2h-4l2 -4q-2 -11 5 -19.5t8 -8.5zM17 -59l-1 2
q-8 4 -15.5 11t-6.5 8l-1 -2q1 -5 5.5 -10t9.5 -7q2 -2 3 -2t2 -1t2 -1zM135 -130l3 4q1 0 3.5 3t4 8t0.5 10.5t-7 11.5v-3q2 -4 3 -8q2 -9 -4 -20zM-25 -45v7q1 5 3 9q3 7 9 18l6 4l-8 -3q-3 -5 -6 -9l-4.5 -9t-1.5 -10zM107 -127q-8 5 -10 10.5t-3 7.5q0 -16 9 -20
q2 -2 4.5 -2.5t4.5 -1.5t4 -1h2q-5 3 -6.5 4.5t-4.5 2.5zM96 -91q-2 -8 -2 -9v-4l1 -5v5q2 6 2 9v4l-2 3zM104 -59q7 13 4.5 12t-3.5 -4l-2 -9zM101 -71h1v1q3 7 3.5 8.5t-0.5 0t-2.5 -4.5t-1.5 -4v-1z" />
    <glyph glyph-name="ccedilla" unicode="&#xe7;" horiz-adv-x="168" 
d="M79 127q9 1 20.5 5.5t21.5 10.5t17 12.5t9 10.5q5 10 3 17q-1 3 -3 5q-14 8 -29 -1t-29 -22q-16 -16 -31 -37q-21 -32 -25.5 -52.5t-2.5 -33.5q3 -15 13 -23q12 -8 27.5 -2.5t30.5 16.5t28 23.5t22 20.5q2 2 5 3q6 2 9 -1q1 -1 1 -3v-4.5t-2 -4.5q-20 -20 -34 -32.5
t-23 -20.5q-11 -9 -17 -14q-33 -9 -53 -6q1 -4 1.5 -8.5t0.5 -10.5q9 4 18 5q8 1 15.5 -1.5t12.5 -11.5q2 -4 2.5 -10.5t-1.5 -11.5q-5 -10 -10 -13.5t-10 -5.5t-11 -1q-14 1 -20.5 9.5t-11.5 20.5q-1 -1 -1.5 -2t-2.5 -2q-39 -20 -59.5 -20.5t-31.5 5.5v1q-6 2 -8 6t-4 9
q-5 7 -1 18q2 14 8 22q-1 2 1 3q0 2 2 2h1q-2 -12 4 -19.5t14 -12t15 -6t9 -2.5q18 -1 37 5q10 5 15 5q-2 2 -2.5 14t0.5 18q-14 5 -21.5 14t-11.5 18q-4 10 -6 21q-5 35 7.5 62.5t28.5 47.5q18 23 44 42q23 14 42 15t33 -4q16 -6 28 -19q8 -11 6 -24.5t-10 -26.5
q-16 -21 -30.5 -27t-25.5 -4q-13 2 -26 11q-1 0 -1 0.5t1 0.5l1 1h1zM41 -38q6 -20 18 -22t15 8q2 6 0 11q-4 4 -8 6q-9 4 -25 -3zM43 161q8 10 18 17.5t18 12.5q10 6 19 10l-1 3q-16 -6 -27 -13t-17.5 -13.5t-9 -11l-2.5 -4.5l-4 -10zM33 17q-8 4 -13 10l-7 8l5 -10
q0 -1 4.5 -6.5t17.5 -10.5l9 -3q-8 1 -18 6l-10 5l9 -8q2 -2 6 -4q6 -3 19 -3q9 0 14 1l-1 3h-17l-10 6zM-1 39q1 1 0 6q-1 7 -2 19t1 21v2l-3 1v-3q-2 -5 -3 -17t4 -24q1 -5 2 -5h1zM156 163q-1 0 -6.5 -10.5t-16.5 -20.5l2 -2q1 0 11 10t13 22l2 14zM21 100q1 0 5 11.5
t13 22.5l-2 2q-1 -1 -9.5 -12t-9.5 -24l1 -13zM-41 -59q8 -1 16.5 0t15.5 3q8 2 16 5v3q-17 -6 -29 -7.5t-20 -1.5q-10 2 -11 2h-3h-2q4 -3 8 -3.5t9 -0.5zM84 202l12 5q7 4 16 4h10l14 -1l-13 4q-4 1 -11 1q-5 0 -8 -1t-5 -2q-3 -1 -5 -2zM5 105l6 13q3 7 8.5 18.5
t8.5 14.5l-2 2q-2 -2 -9 -12.5t-9 -22.5zM127 122h-17h-7.5t-9.5 1l-8 2l6 -5q1 -1 3 -2t10 -1q2 0 10 2zM48 -4l-10 5q-1 0 -10.5 4.5t-12.5 6.5l-1 1l-2 -2l1 -1q2 -2 8.5 -6t14.5 -6zM-54 -59q-8 2 -13 7t-7 8q-1 1 -2 1l-2 -1q-1 0 2 -3q3 -9 12 -12.5t10 -3.5v4z
M59 -67q-9 0 -12.5 3t-5.5 5q6 -12 15 -12q4 -1 9 1q2 1 3 1l5 3l-4 -2q-4 0 -6 0.5t-4 0.5zM-38 -52h-1q-8 0 -16 2t-9 4v-2q6 -7 19 -7h6zM81 -54q2 1 2 11.5t-14 13.5l1 -2l5 -5q6 -6 6 -17v-1zM-76 -59l-3 5q-1 4 -1 8t-0.5 8.5t0.5 9.5l2 6l-4 -6q-2 -5 -2 -9t0.5 -8.5
t3.5 -8.5zM35 -45q0 -3 2 -7q1 -2 2 -3l3 -4l-2 4q0 4 -2 8q-1 2 -2 3l-3 2zM28 -17q0 13 -1 11t-1 -4l2 -8v1zM31 -28l1 1l-1 1q0 7 -0.5 8t-0.5 -0.5v-4.5v-4z" />
    <glyph glyph-name="guillemotright" unicode="&#xbb;" horiz-adv-x="484" 
d="M99 77q0 4 9 9.5t22.5 11.5t30.5 12t34 11q-15 5 -34 11t-35 12t-27 11.5t-11 8.5q-1 4 2 8t5 6q2 3 10 3t20 -2t26 -5.5t29 -7.5q34 -10 77 -24q8 -2 7 -7q2 -10 -2.5 -22.5t-15.5 -15.5q-2 -1 -24 -8t-48 -14.5t-48 -12t-25 -1.5q-2 3 -2 8.5v7.5zM230 135
q-17 6 -50.5 15.5t-65.5 10.5l-1 -1l14.5 -3.5t33.5 -7.5t38.5 -8t29.5 -7q2 -2 3 -2t1.5 0.5t2.5 0.5zM244 112q-9 -2 -18 -5q-8 -2 -16 -4.5t-14 -5.5q-2 -1 -3 -1t-1 -1v-1l1 -1q1 -1 4 0.5t21 6.5q8 2 16 5t11 4l7 6zM149 165l-5.5 1t-13 1.5t-15.5 0.5t-13 -1
q-1 -1 0 -0.5t1 -0.5t0.5 -1.5t4 -0.5h11.5h22q3 -1 5 -0.5t4 -0.5zM185 98q-9 -3 -17 -7q-7 -3 -14 -6.5t-11 -6.5q-1 -1 0 -0.5t1 -0.5q1 -2 5.5 0t28.5 16q4 1 5.5 2t3.5 0zM234 125q-8 3 -17 6q-8 2 -16 4.5t-15 4.5q-2 0 -2 0.5t-1 0.5h-1l-1 -2q0 -1 3.5 -2t20.5 -7
q8 -2 16.5 -4t11.5 -3h9zM212 116q-7 -2 -18.5 -5t-25 -8t-27 -11.5t-25.5 -13.5v-1l12 5t27.5 11t31.5 12.5t25 9.5h5l8 3h-7q-3 0 -6 -2zM247 77q0 4 9 9.5t22.5 11.5t30.5 12t34 11q-15 5 -34 11t-35 12t-27 11.5t-11 8.5q-1 4 2 8t5 6q2 3 10 3t20 -2t26 -5.5t29 -7.5
q34 -10 77 -24q8 -2 7 -7q2 -10 -2.5 -22.5t-15.5 -15.5q-2 -1 -24 -8t-48 -14.5t-48 -12t-25 -1.5q-2 3 -2 8.5v7.5zM378 135q-17 6 -50.5 15.5t-65.5 10.5l-1 -1l14.5 -3.5t33.5 -7.5t38.5 -8t29.5 -7q2 -2 3 -2t1.5 0.5t2.5 0.5zM392 112q-9 -2 -18 -5q-8 -2 -16 -4.5
t-14 -5.5q-2 -1 -3 -1t-1 -1v-1l1 -1q1 -1 4 0.5t21 6.5q8 2 16 5t11 4l7 6zM297 165l-5.5 1t-13 1.5t-15.5 0.5t-13 -1q-1 -1 0 -0.5t1 -0.5t0.5 -1.5t4 -0.5h11.5h22q3 -1 5 -0.5t4 -0.5zM333 98q-9 -3 -17 -7q-7 -3 -14 -6.5t-11 -6.5q-1 -1 0 -0.5t1 -0.5q1 -2 5.5 0
t28.5 16q4 1 5.5 2t3.5 0zM382 125q-8 3 -17 6q-8 2 -16 4.5t-15 4.5q-2 0 -2 0.5t-1 0.5h-1l-1 -2q0 -1 3.5 -2t20.5 -7q8 -2 16.5 -4t11.5 -3h9zM360 116q-7 -2 -18.5 -5t-25 -8t-27 -11.5t-25.5 -13.5v-1l12 5t27.5 11t31.5 12.5t25 9.5h5l8 3h-7q-3 0 -6 -2z" />
    <glyph glyph-name="guillemotleft" unicode="&#xab;" horiz-adv-x="459" 
d="M368 77v-7.5t-2 -8.5q-3 -3 -25 1.5t-48 12t-48 14.5t-24 8q-11 3 -15.5 15.5t-2.5 22.5q-1 5 7 7q43 14 77 24q15 4 29 7.5t26 5.5t20 2t10 -3q2 -2 5 -6t2 -8q0 -3 -11 -8.5t-27 -11.5t-35 -12t-34 -11q16 -5 33.5 -11t31 -12t22.5 -11.5t9 -9.5zM231 133q2 0 2.5 -0.5
t1.5 -0.5t3 2q10 3 29.5 7t38.5 8t33.5 7.5l14.5 3.5l-1 1q-32 -1 -65.5 -10.5t-50.5 -15.5zM215 115l7 -6q3 -1 11 -4t16 -5q18 -5 21 -6.5t4 -0.5l1 1v1q0 1 -1 1q-2 0 -3 1q-7 3 -14.5 5.5t-15.5 4.5q-9 3 -18 5zM317 163q2 1 4 0.5t5 0.5q28 -1 33 -0.5t5 2.5q0 1 1 0.5
t0 0.5q-5 1 -13 1t-15.5 -0.5t-13 -1.5l-5.5 -1zM280 95q2 1 3.5 0t5.5 -2q24 -14 28.5 -16t5.5 0q0 1 1 0.5t0 0.5q-4 3 -11 6.5t-14 6.5q-8 4 -17 7zM225 123h9q3 1 11.5 3t16.5 4q17 6 20.5 7t3.5 2l-1 2h-1q-1 0 -1.5 -0.5t-1.5 -0.5q-8 -2 -15.5 -4.5t-15.5 -4.5
q-9 -3 -17 -6zM255 116q-3 2 -6 2h-7l8 -3h5q9 -3 24.5 -9.5t31.5 -12.5t28 -11l12 -5v1q-12 7 -25.5 13.5t-27 11.5t-25 8t-18.5 5zM220 77v-7.5t-2 -8.5q-3 -3 -25 1.5t-48 12t-48 14.5t-24 8q-11 3 -15.5 15.5t-2.5 22.5q-1 5 7 7q43 14 77 24q15 4 29 7.5t26 5.5t20 2
t10 -3q2 -2 5 -6t2 -8q0 -3 -11 -8.5t-27 -11.5t-35 -12t-34 -11q16 -5 33.5 -11t31 -12t22.5 -11.5t9 -9.5zM83 133q2 0 2.5 -0.5t1.5 -0.5t3 2q10 3 29.5 7t38.5 8t33.5 7.5l14.5 3.5l-1 1q-32 -1 -65.5 -10.5t-50.5 -15.5zM67 115l7 -6q3 -1 11 -4t16 -5q18 -5 21 -6.5
t4 -0.5l1 1v1q0 1 -1 1q-2 0 -3 1q-7 3 -14.5 5.5t-15.5 4.5q-9 3 -18 5zM169 163q2 1 4 0.5t5 0.5q28 -1 33 -0.5t5 2.5q0 1 1 0.5t0 0.5q-5 1 -13 1t-15.5 -0.5t-13 -1.5l-5.5 -1zM132 95q2 1 3.5 0t5.5 -2q24 -14 28.5 -16t5.5 0q0 1 1 0.5t0 0.5q-4 3 -11 6.5t-14 6.5
q-8 4 -17 7zM77 123h9q3 1 11.5 3t16.5 4q17 6 20.5 7t3.5 2l-1 2h-1q-1 0 -1.5 -0.5t-1.5 -0.5q-8 -2 -15.5 -4.5t-15.5 -4.5q-9 -3 -17 -6zM107 116q-3 2 -6 2h-7l8 -3h5q9 -3 24.5 -9.5t31.5 -12.5t28 -11l12 -5v1q-12 7 -25.5 13.5t-27 11.5t-25 8t-18.5 5z" />
    <glyph glyph-name="cent" unicode="&#xa2;" horiz-adv-x="446" 
d="M189 114q-2 2 0 13q-24 1 -38 11t-21 22q-9 14 -11 31q-5 38 8 68.5t31 52.5q20 26 49 46q19 12 35 15t30 1q4 10 5 13t2 5q2 6 4 10.5t7 3.5q5 -2 8 -13.5t1 -27.5q5 -3 8.5 -6t6.5 -5q4 -3 6 -5q9 -12 7 -27t-11 -29q-15 -20 -29 -27t-26 -7q-10 -27 -20.5 -55
t-20.5 -51q12 4 24.5 12.5t24 18.5t21.5 19.5t17 15.5q3 3 6 4q5 2 9 -2l2 -4q0 -5 -3 -9q-43 -43 -62 -59q-11 -10 -19 -15q-8 -2 -15.5 -4t-14.5 -3q-5 -11 -8.5 -17.5t-4.5 -6.5q-3 -1 -5 4t-3 7zM228 274q2 0 4 0.5t4 0.5l20 57q-11 -8 -20 -17.5t-16 -18.5
q-8 -11 -15 -21q-23 -35 -28 -57.5t-3 -36.5q3 -17 14 -26q3 -3 7 -3q6 23 16.5 53t21.5 61q-2 1 -3 2l-2 2t-2 1q-2 0 -2 1t2 1l1 1h1zM293 344q-2 -7 -7 -21t-12 -31q11 6 18.5 12.5t9.5 11.5q4 7 4.5 11.5t-0.5 7.5q-1 4 -4 6zM247 261q-2 0 -4 1q-9 -27 -17.5 -56
t-15.5 -55h2zM188 311q9 11 20 19.5t20 13.5q11 6 21 11l-2 3q-35 -12 -48 -28.5t-13 -17.5l-4 -11zM186 146q-5 3 -9 7l-8 6t-6 5l-8 9l6 -11q0 -1 5 -7.5t19 -11.5l7 -3q-6 1 -17 6l-11 6l10 -9q1 -1 4 -3q6 -4 13 -5l2 7zM140 177q1 1 1 1.5t-1 5.5q-1 8 -2 20.5t1 23.5
v2l-3 1v-3q-2 -6 -3.5 -19t4.5 -26q1 -5 1 -5.5t1 -0.5h1zM312 313q-1 0 -7.5 -11.5t-17.5 -22.5l2 -2q1 0 12 11t15 24l2 15zM164 244q1 0 5.5 12.5t14.5 24.5l-2 3q-1 -2 -10.5 -14t-10.5 -26l1 -14zM274 341q-2 0 -3 -1q-4 -12 -10 -27.5t-12 -33.5q4 2 5 2zM282 344
q-2 0 -3 -1q-5 -11 -10.5 -27.5t-10.5 -32.5q1 0 3 2l9 24zM147 250l6 14q3 8 9 20.5t10 15.5l-2 2q-2 -2 -10 -13.5t-10 -24.5zM220 207q-1 0 -6 -19l-10 -38h4l10 42q1 5 1 9.5t2 6.5zM190 130v1l-7 4q-1 0 -11.5 5t-14.5 7l-1 2l-2 -3l1 -1q2 -2 9 -6.5t17 -6.5zM233 356
l13 5q5 3 11.5 4t11.5 1q0 1 0.5 1.5t0.5 2.5h-6q-5 0 -9 -1t-6 -2q-4 -1 -5 -2zM280 268h-15l-2 -4q1 0 1.5 0.5t1.5 0.5zM244 264q3 0 4 -1l2 5h-5q0 -2 -1 -4zM203 135q0 1 2 5h-3q-1 -2 -1 -5h2zM215 140q-2 -4 -2 -5q1 0 1.5 0.5t2.5 0.5l-1 4h-1zM255 267v1h-2l-1 -3z
M283 367l-1 -2h2v1zM287 372l-1 -2zM289 365h-1h1zM234 271v-1v1z" />
    <glyph glyph-name="at" unicode="@" horiz-adv-x="556" 
d="M509 318q6 -24 6 -48q0 -47 -22 -97t-54.5 -91t-68 -67.5t-62.5 -26.5q-21 0 -29 13t-8 30q0 23 10 51.5t21 49.5q-14 -16 -32.5 -36.5t-36.5 -40t-32.5 -34.5t-18.5 -21q-5 -5 -13 -5q-20 0 -38 12t-18 39q0 26 17.5 64t42.5 73t53.5 60t49.5 25q5 0 13 -4
q11 -8 20.5 -14.5t16.5 -11.5q8 -6 13 -11q1 0 3.5 6.5t5 14.5t4.5 15t3 7q3 0 11.5 -5t17.5 -13t16.5 -18.5t7.5 -21.5q0 -8 -4 -15q-8 -13 -21 -40.5t-26 -56t-22.5 -52t-9.5 -28.5q0 -1 1 -1q31 11 54 40t39 64t24 70t8 59q0 15 -3 24q-7 19 -17.5 31.5t-21.5 20.5
q-12 9 -26 14l-23 4q-59 -2 -101.5 -26t-70.5 -52q-33 -33 -55 -74q-26 -44 -35.5 -79t-9.5 -63q0 -34 10.5 -57.5t24.5 -37.5q15 -17 35 -27q19 -11 44 -11q18 0 35.5 5.5t34.5 14.5q1 0 5 -2t8.5 -5t8.5 -7.5t4 -8.5q0 -10 -16.5 -16t-36.5 -10q-24 -4 -53 -7
q-56 0 -92.5 31.5t-54 78t-16 100t21.5 97.5q27 59 65 102.5t80 72t85 42.5t80 14q33 0 58.5 -9.5t43.5 -24t29.5 -33t16.5 -36.5zM195 56q11 8 33 32t44 50q26 30 54 66q-10 7 -21 7q-20 0 -52 -34.5t-64 -102.5q-4 -8 -4 -14t5 -6q2 0 3 1q1 0 2 1zM463 365l8 -14
q9 -14 12 -32t2 -34q-1 -18 -5 -37l5 -2q8 29 7.5 49t-4.5 33t-9 19l-5 6zM71 9q-6 20 -7 41t0.5 39t4 29.5t2.5 12.5l-4 1q-8 -26 -9 -48t1 -39q3 -19 8 -36h4zM334 373q42 15 74 6q25 -8 37 -24t17 -28q1 -2 1 -5t2 -5l3 1v3q0 2 -0.5 3.5l-1.5 4.5q-16 46 -57 57
q-14 3 -28 2t-25 -3.5t-18 -5.5l-7 -3zM281 375q-16 -2 -29.5 -8.5t-23 -13.5t-15.5 -12.5l-6 -5.5l2 -3q10 9 23 16.5t24 12.5q13 6 27 11zM212 357l-17.5 -13t-41.5 -40t-50.5 -67.5t-44.5 -96.5l4 -1q1 0 10 21t27.5 52.5t47 69t68.5 71.5zM116 -70q-13 8 -24 19
q-10 9 -20 23t-16 32h-4l3 -9t10.5 -21t19.5 -25t30 -22zM168 -87l-17 7q0 1 -5.5 4t-14.5 8t-19.5 12.5t-19.5 17.5l-4 -2q0 -1 4.5 -6.5t13 -12t19.5 -13.5t24 -10zM279 -91q1 0 1.5 0.5t1.5 0.5t1 1l-2 4q-2 0 -2.5 -0.5t-1.5 -0.5q-8 -5 -29.5 -12t-53.5 -7h-10t-10 2
l-19 1l17 -5q3 -1 7 -2q10 -2 20 -2q14 0 34 4t46 16zM372 32q35 19 54.5 51t27.5 60q5 16 7 29.5t4 23.5q2 11 3 21l-4 1q-5 -53 -20 -87.5t-31 -55.5t-29 -30t-14 -9v-2v2v-2v2zM161 7q6 0 11 3.5t12 11.5l-4 3q-2 -3 -6 -5q-7 -5 -14 -5q-4 0 -6 2l-6 4l2 -6q0 -1 3 -4.5
t8 -3.5zM293 41q5 11 9 22q8 21 13 44l4 16l-7 -16q-2 -4 -5.5 -12t-7 -17.5t-6.5 -19t-4 -15.5l-1 -13zM331 14q-2 -2 -4 -3q-6 -2 -9 -2q-8 0 -11 11l-3 11l-1 -11v-6q0 -7 4 -10q1 -3 7 -3t19 10l-1 1l1 -1l-1 1zM353 175q-9 -18 -17 -36q-7 -16 -15 -35.5t-13 -39.5
l4 -1l4.5 9.5t11 24.5t14.5 35t15 42zM270 257q-6 0 -12 -3t-11 -6q-6 -4 -11 -9l2 -3q15 10 29 10q9 0 16 -2.5t12 -5.5q2 -1 4 -3q1 -1 2 -1l3 3q-1 0 -2 1t-2.5 1.5t-3.5 2.5t-7 5t-10 8q-6 2 -9 2zM220 198q-1 -1 -6 -9t-12 -18.5t-14 -22.5t-11 -21l-7 -16l10 14
q1 1 6.5 9t13 19t14 22.5t9.5 19.5l4 13zM209 202q-1 -1 -12 -14.5t-24.5 -34t-25 -45.5t-12.5 -48v-14l4 13l5 13t14 33t23 44.5t32 49.5z" />
    <glyph glyph-name="questiondown" unicode="&#xbf;" horiz-adv-x="447" 
d="M198.04 102.036q-1 -1 -1.99902 -1q-2 0 -2 1.99902q2.99902 5 8.99902 14.999q5.99902 9.99805 13.998 20.9971t17.498 19.998q9.49902 8.99805 19.4971 12.998q22.9971 6.99902 46.9941 9.99902q19.998 1.99902 43.9951 0.5q23.9971 -1.5 43.9941 -12.499
q34.9961 -16.998 39.9951 -41.4951q5 -24.4971 -7.99902 -53.4932q-5.99902 -13.998 -20.4971 -31.4961t-37.9951 -34.4961t-54.4932 -30.9961q-30.9971 -13.998 -69.9922 -20.9971q-42.9941 -6.99902 -71.4912 0q-28.4961 6.99902 -44.9941 21.9971t-22.9971 32.9961
q-6.5 17.998 -5.5 32.9961q2 31.9961 20.998 69.9912q18.9971 37.9951 60.9922 67.9912q42.9951 32.9961 64.9922 65.9922t31.9961 58.4932t12.498 39.4951q2.5 13.998 6.5 7.99902l9.99805 -6.99902q1 2 2.5 -0.5t2.5 -5.49902l2 -6l0.999023 -2.99902
q-0.999023 -9.99902 -2.49902 -16.498t-4.5 -13.998q-2.99902 -7.5 -7.49902 -17.998q-4.49902 -10.499 -11.498 -28.4971q-10.999 -27.9961 -32.4961 -52.9932q-21.498 -24.9971 -42.9951 -46.9941t-38.4951 -41.9951q-16.998 -19.9971 -19.998 -37.9951
q-1.99902 -17.998 5.5 -33.4961t22.9971 -25.9971q15.498 -10.498 38.4951 -13.998q22.9971 -3.49902 50.9941 1.5q56.9932 10.999 92.4883 32.9961q35.4961 21.9971 43.4951 42.9941q3.99902 9.99902 -4.5 24.4971t-32.9961 22.9971t-65.4922 5
q-40.9941 -3.5 -100.987 -30.4961h-1zM235.036 153.029q-11.999 -10.998 -19.498 -24.9971q-7.49902 -13.998 -8.49902 -14.998h3q1 2 4.99902 7.99902q4 6 8.49902 12.999q4.5 6.99902 7.99902 11.998q3.5 4.99902 3.5 5.99902l5.99902 7zM127.049 90.0371
q-7.99902 -10.998 -10.499 -20.4971q-2.49902 -9.49902 -2.49902 -16.498t1.5 -10.499l1.49902 -3.5l3 3q-2 7.99902 -1 15.998t3 14.998q2.99902 7.99902 6.99902 15.998zM260.033 233.02q7.99805 14.998 13.498 29.9961q5.49902 14.999 10.498 27.9971
q5 14.998 8.99902 27.9971h-2.99902q-3 -8.99902 -8.49902 -22.998q-5.49902 -13.998 -10.499 -27.9961q-5.99902 -15.998 -13.998 -33.9961zM191.041 152.029l-2 1q-19.9971 -16.998 -30.4961 -31.4961q-10.498 -14.498 -14.498 -25.4971q-4 -11.998 -4 -21.9971
l2 -7.99902v7.99902q2 14.998 8.99902 27.9971q6.99902 12.998 14.498 23.4971q7.49902 10.498 14.499 16.998q6.99902 6.49902 8.99805 7.49902zM157.045 -2.95117l-1.99902 -3l1.99902 -1q11.999 -11.998 29.4971 -14.998q17.4971 -3 34.4951 -1.5t30.4971 5.5
q13.498 3.99902 17.4971 4.99902q1 0 2 1v2.99902q-28.9961 -6.99902 -48.9941 -8.49805q-19.9971 -1.5 -32.9961 0.5q-12.998 1.99902 -19.9971 5.99902q-6.99902 3.99902 -9.99902 5.99902zM388.018 39.043q-3 0 -3 -1.99902q-7.99902 -7.99902 -29.4961 -23.4971
q-21.498 -15.498 -63.4922 -30.4961q-6 -2 -10.999 -3t-10.999 -3v-2.99902q4 0.999023 7.99902 1.99902q4 2 9.99902 3.5t12.998 3.5q16.998 6.99902 40.4951 18.9971q23.4971 11.999 44.4951 31.9961q2 4 2 3l0.999023 1zM248.034 134.032l1 0.999023l8.99902 3
q9.99805 3 21.4971 5.49902q11.499 2.5 21.9971 4.5q10.499 2 17.998 3.49902l7.49902 1.5l2 2q-17.998 0 -37.9951 -4.99902q-19.998 -5 -31.9961 -8.99902q-2 -1 -4 -1t-3.99902 -1q-1 0 -3 -2v-2.99902zM419.014 121.033l-1.5 4.5q-1.5 4.49902 -5.5 10.498
q-3.99902 6 -9.99805 12.499q-6 6.49902 -14.998 10.499l-2 -2l4.49902 -3q4.5 -3 9.49902 -8.49902q5 -5.49902 9.99902 -11.998t6.99902 -13.499zM396.016 139.031q-14.998 14.998 -34.9951 19.498q-19.998 4.49902 -39.4951 3.49902q-19.498 -1 -35.4961 -5.49902
q-15.998 -4.5 -23.9971 -7.49902h-2.99902q-1 0 -1 -1v-3q34.9951 11.999 60.4922 11.999t42.4951 -4.5q16.998 -4.49902 24.9971 -9.99805q7.99902 -5.5 8.99902 -6.5l0.999023 2v1zM315.026 355.005q-9.99902 2 -18.998 12.498q-8.99902 10.499 -3.99902 26.4971
q1.99902 5 1.99902 7.49902q0 2.5 3 11.499q2 3.99902 6.99902 5.99902q3 1 4.99902 0q3 -2 8.49902 -4.99902q5.5 -3 10.499 -5q6.99902 -3.99902 7.99902 -10.998q-3 -7.99902 -4.99902 -17.998q-2 -9.99902 -5 -20.998q0 -0.999023 -1.99902 -1.99902q-4 -2 -8.99902 -2z
M319.025 404.999q-2 -1 -5.99902 -14.498q-4 -13.499 -4 -20.498v-6.99902l2 6.99902q1 1 4.5 13.998q3.49902 12.999 3.49902 17.998q1 1 0 2l1 1h-1zM309.026 396q-3.99902 -3 -5.49902 -9.99902t0.5 -11.998l1 -5l1 4q0 1 2 8.49902q1.99902 7.49902 1.99902 12.498
q2 1 2.5 2t-1.5 1q0 1 -1 1q-2.99902 0 -1 -2z" />
    <glyph glyph-name="exclamdown" unicode="&#xa1;" horiz-adv-x="323" 
d="M285.02 419.996q4.99902 -2 9.99805 -6.49902q5 -4.49902 7.99902 -10.499q3 -5.99902 4 -12.998t-3 -13.998q-1.99902 -3 -2.99902 -5.5q-1 -2.49902 -5 -10.498q-2 -3 -7.99902 -3q-2.99902 0 -5.99902 1q-2 2 -7.49902 6.99902t-10.499 8.99902
q-6.99902 4.99902 -5.99902 11.998q3.99902 6 7.49902 15.498q3.5 9.49902 8.49902 17.498q1 1 3 2q2.99902 2 7.99902 -1zM274.021 375.002q2 0 8.49902 11.498q6.49902 11.499 7.49902 17.498v6.99902l-3 -5.99902q-0.999023 -1 -5.99902 -11.998
q-4.99902 -10.999 -6.99902 -15.998q-1 -1 0 -2zM287.019 380.001q3 2 6 7.49902q2.99902 5.5 1.99902 10.499v4.99902l-2.99902 -3.99902q0 -1 -3.5 -6.99902q-3.49902 -6 -4.49902 -9.99902v-3q0 -1 1 -1zM270.021 333.007q3.99902 -7.99902 0.999023 -16.498
q-2.99902 -8.49902 -7.99902 -17.498q-1 -2.99902 -3.49902 -8.49902q-2.5 -5.49902 -6.99902 -15.498q-4.5 -9.99805 -10.999 -26.9961t-17.498 -43.9951q-12.998 -33.9961 -24.9971 -67.4912q-11.998 -33.4961 -20.9971 -62.9932q-8.99902 -29.4961 -13.498 -52.4932
q-4.5 -22.9971 -3.5 -35.9961q-1 -7.99805 1.5 -15.998q2.5 -7.99805 5.49902 -13.998q0 -3.99902 -2 -4.99902q0 -2 -0.999023 -2l-1 1q0 1 -1 1q-1 1 -11.499 9.49902q-10.498 8.49902 -17.498 38.4951q-1.99902 17.998 1 47.9941q3 29.9961 11.999 60.9922
q4.99902 14.998 13.498 38.9951t18.998 49.9941t20.9971 50.4941q10.499 24.4971 17.498 41.4951q4 8.99902 7.99902 19.9971q3.99902 8.99902 8.99902 21.4971q4.99902 12.499 10.998 26.4971q1 2 1 3v1q3 1 5 0q0 -1 6.99902 -9.99902t10.999 -16.998zM152.035 -21.9502
q-1 1 -3.99902 10.499q-3 9.49902 -1.5 32.4961t9.99902 61.4922q8.49902 38.4961 30.4961 95.4883l-1 1q-4.99902 -10.998 -9.99902 -23.9971q-4.99902 -10.998 -9.49902 -25.4971q-4.49902 -14.498 -9.49805 -31.4961q-11.999 -44.9941 -14.499 -74.9902
q-2.49902 -29.9961 8.49902 -46.9941h-1h1v1zM165.034 90.0361q0 1 2.99902 9.49902q3 8.49902 6.49902 19.998q3.5 11.498 7.49902 23.4971q4 11.998 6 18.9971l-3 2q0 -1 -3 -9.99902q-2.99902 -8.99902 -6.99902 -19.9971q-3.99902 -10.999 -7.49902 -22.9971
q-3.49902 -11.999 -4.49902 -18.998zM209.028 213.021q0 1 3 8.99902q2.99902 7.99902 6.99902 18.498q3.99902 10.498 7.49902 20.9971q3.49902 10.499 4.49902 15.498l3 8.99902l-4 -7.99902l-2.99902 -6.49902q-3 -6.49902 -6.99902 -16.498
q-4 -9.99902 -7.49902 -20.998q-3.5 -10.998 -5.5 -18.9971zM256.022 321.008l-3.99902 -6.99902l-4 -9.99805q-3.99902 -9.99902 -9.99805 -24.9971q-6 -14.998 -12.499 -32.9961t-11.499 -32.9961l2 -1q0 1 5.5 13.998q5.49902 12.999 12.498 29.4971t12.998 32.9961
q6 16.4971 7 23.4971zM260.022 308.01q4.99902 6.99902 4.99902 13.998q0 7 -3.99902 10.999q-2 3 -3 3.99902l-4.99902 5l4.99902 -7.99902q4.99902 -10.999 2.5 -16.998q-2.5 -5.99902 -1.5 -6.99902z" />
    <glyph glyph-name="quotesinglbase" unicode="&#x201a;" horiz-adv-x="93" 
d="M33 -57q-4 0 -7 3q-1 1 -1 3q0 6 2.5 18t5.5 25.5t5.5 25.5t2.5 16q2 7 12 7q5 2 11.5 3.5t9.5 2.5q3 -1 5 -2q4 -4 4 -8q0 -9 -0.5 -12t-1.5 -8q0 -8 -6 -21t-13.5 -25t-15.5 -20t-13 -8zM59 35q-2 -1 -1 -2q0 -3 -2.5 -12t-4.5 -18.5t-3.5 -17.5t-1.5 -9l-2 -7l4 7
q1 3 3.5 12.5t4.5 19.5t3 18t0 9zM67 23l-1 2v1h-2v-3q-1 -2 -3 -9t-4 -14.5t-4 -14l-2 -6.5l1 -5l2 4q1 3 3.5 9.5t5 14t4 13.5t0.5 8z" />
    <glyph glyph-name="quotedblbase" unicode="&#x201e;" horiz-adv-x="146" 
d="M19 -57q-4 0 -7 3q-1 1 -1 3q0 6 2.5 18t5.5 25.5t5.5 25.5t2.5 16q2 7 12 7q5 2 11.5 3.5t9.5 2.5q3 -1 5 -2q4 -4 4 -8q0 -9 -0.5 -12t-1.5 -8q0 -8 -6 -21t-13.5 -25t-15.5 -20t-13 -8zM45 35q-2 -1 -1 -2q0 -3 -2.5 -12t-4.5 -18.5t-3.5 -17.5t-1.5 -9l-2 -7l4 7
q1 3 3.5 12.5t4.5 19.5t3 18t0 9zM53 23l-1 2v1h-2v-3q-1 -2 -3 -9t-4 -14.5t-4 -14l-2 -6.5l1 -5l2 4q1 3 3.5 9.5t5 14t4 13.5t0.5 8zM85 -57q-4 0 -7 3q-1 1 -1 3q0 6 2.5 18t5.5 25.5t5.5 25.5t2.5 16q2 7 12 7q5 2 11.5 3.5t9.5 2.5q3 -1 5 -2q4 -4 4 -8q0 -9 -0.5 -12
t-1.5 -8q0 -8 -6 -21t-13.5 -25t-15.5 -20t-13 -8zM111 35q-2 -1 -1 -2q0 -3 -2.5 -12t-4.5 -18.5t-3.5 -17.5t-1.5 -9l-2 -7l4 7q1 3 3.5 12.5t4.5 19.5t3 18t0 9zM119 23l-1 2v1h-2v-3q-1 -2 -3 -9t-4 -14.5t-4 -14l-2 -6.5l1 -5l2 4q1 3 3.5 9.5t5 14t4 13.5t0.5 8z" />
    <glyph glyph-name="cedilla" unicode="&#xb8;" horiz-adv-x="95" 
d="M37 4q1 0 1.5 -6.5t0.5 -12.5q9 4 18 5q8 1 15.5 -1.5t12.5 -11.5q2 -4 2.5 -10.5t-1.5 -11.5q-5 -10 -10 -13.5t-10 -5.5t-11 -1q-14 1 -20.5 9.5t-11.5 20.5q-1 -1 -1.5 -2t-2.5 -2q-11 -5 -26.5 -11.5t-31.5 -8.5t-29 2t-17 19q-2 6 -1 14.5t3 15.5t5 11.5t5 3.5
q-2 -12 4 -19.5t14 -12t15 -6t9 -2.5q18 -1 37 5q6 2 9.5 3.5t7.5 1.5q-2 0 -2 5t-1 11q-1 7 -1 16q5 -2 9 -3q8 -2 9 -2zM41 -28q6 -20 18 -22t15 8q2 6 0 11q-4 4 -8 6q-9 4 -25 -3zM-41 -49q8 -1 16.5 0t15.5 3q8 2 16 5v3q-17 -6 -29 -7.5t-20 -1.5q-10 2 -11 2h-3h-2
q4 -3 8 -3.5t9 -0.5zM-54 -49q-8 2 -13 7t-7 8l-2 1l-2 -1q-1 0 2 -3q3 -9 12 -12.5t10 -3.5v4zM59 -57q-9 0 -12.5 3t-5.5 5q6 -12 15 -12q4 -1 9 1q2 1 3 1l5 3l-4 -2q-4 0 -6 0.5t-4 0.5zM-38 -42h-1q-8 0 -16 2t-9 4v-2q6 -7 19 -7h6zM81 -44q2 1 2 11.5t-14 13.5l1 -2
l5 -5q6 -6 6 -17v-1zM-76 -49l-3 5q-1 4 -1 8t-0.5 8.5t0.5 9.5l2 6l-4 -6q-2 -5 -2 -9t0.5 -8.5t3.5 -8.5zM35 -35q0 -3 2 -7q1 -2 2 -3l3 -4l-2 4q0 4 -2 8q-1 2 -2 3l-3 2zM28 -7q0 13 -1 11t-1 -4l2 -8v1zM31 -18l1 1l-1 1q0 7 -0.5 8t-0.5 -0.5v-4.5v-4z" />
    <glyph glyph-name="quoteleft" unicode="&#x2018;" horiz-adv-x="165" 
d="M142 429q7 -2 8 -3t1 -3q0 -6 -2 -18.5t-5 -26t-5 -25t-2 -15.5q-4 -7 -13 -7q-6 -2 -14 -3.5t-11 -2.5q-3 0 -6 2q-6 2 -6 8q0 9 0.5 12t0.5 8q0 8 6.5 21t15 25t17.5 20t15 8zM116 337q2 1 1 2q0 3 2 12t4.5 18.5t4 17.5t1.5 9l1 7l-4 -7q-1 -3 -3.5 -12.5t-4.5 -19.5
t-3 -18t0 -9h1zM106 347q0 -1 1 -1h2q1 1 1 3q1 2 2.5 9t3.5 14.5t4 14l2 6.5l-1 5l-2 -4q-2 -3 -4.5 -9.5t-4.5 -14t-3.5 -13.5t-0.5 -8v-2z" />
    <glyph glyph-name="fi" unicode="&#xfb01;" horiz-adv-x="222" 
d="M93 11q-6 11 -3 32.5t11 47t18.5 51.5t19.5 45h-47q-1 -1 -1 -2q-2 -17 -7 -52.5t-12.5 -76t-18 -79t-22.5 -60.5q-11 -20 -23.5 -29t-23.5 -11q-13 -3 -26 1l1 -1h-1l-2 2q-4 1 -22 10q-10 6 -12 17q-2 9 -1 19t4 19t5.5 15.5t3.5 7.5q5 14 11 25q5 12 16 36.5t24 53
l26 57t22 48.5h-42q2 8 6 14q3 5 7.5 10t12.5 5h29q27 60 41.5 96t22.5 53q4 9 8 21t6 23v2l3 2q5 0 8 -3q6 -4 14 -10t14 -14t8.5 -17t-2.5 -18l-10 -21l-53 -114h47q0 1 0.5 1t0.5 1l1 1l2 5q0 1 2 2q3 1 9 0q6 -3 12.5 -9t11.5 -13.5t6.5 -16.5t-2.5 -16
q-6 -13 -21 -37.5t-26 -53.5q-5 -8 -6 -14q-7 -17 -10.5 -29t-1.5 -14h4q5 2 13.5 9.5t18 17t18 19.5t14.5 17l2 2q1 1 5 1q3 -1 5 -6t-7 -16q-15 -20 -31.5 -35.5t-22.5 -20.5q-13 -10 -22 -11.5t-14 -0.5h-1q-4 0 -8 3q-8 3 -12 9zM11 -62q9 19 16 44t12.5 49t9 44.5
t5.5 32.5q-8 -16 -14 -29t-11 -23q-5 -11 -9 -21q-12 -27 -23 -51q-9 -20 -18 -40.5t-12 -31.5v-1q-1 -1 -1 -3q-1 -3 0 -5q0 -6 6 -6q3 -1 6 0q9 1 17 12t16 29zM201 288q11 -5 20 -19t1 -29l-9 -18q-2 -4 -9 -4q-3 0 -6 2q-2 2 -8 7.5t-11 9.5q-8 6 -7 13q4 7 8.5 17
t9.5 20q0 1 2 2q3 2 9 -1zM-33 -34q-2 -2 1 -2q1 0 2 1q0 4 2 10l66 157q2 3 3.5 5.5t2.5 4.5l2 4q0 2 -1 2h-2l-9 -17.5t-21.5 -44t-25.5 -58.5t-20 -62zM163 181l-13 -26t-16 -35.5t-14.5 -41t-9.5 -41.5l2 -1l6.5 18t15 42t17.5 47.5t14 35.5q1 2 2 3.5t2 3.5q1 1 1 2
l5 9l-8 -7q0 -1 -1 -2.5t-3 -6.5zM77 228q0 -2 1 -2t2 1l3 11l49 117q2 3 3.5 6l2.5 5q1 3 2 4q0 2 -1 2l-2 -1q-13 -23 -24 -48q-10 -21 -20.5 -46.5t-15.5 -48.5zM-20 32l-16 -36q-7 -15 -13.5 -31t-10.5 -28l3 -1q1 1 7 13t13 27t13 30.5t7 24.5l2 11zM135 342l-4 -9
l-5 -10.5t-11.5 -25.5t-13.5 -31t-10 -28l3 -2q0 1 6 13t13 27.5t13 31t8 24.5zM11 199q2 0 13 -0.5t22 -0.5q16 0 24.5 0.5t12.5 1t4.5 1t0.5 1.5q0 2 -8 3q-5 1 -11 1h-12q-10 0 -18 -0.5t-14 -1.5l-14 -2l-9 -1zM9 93l6 13q0 1 4.5 9t9.5 19t9.5 22.5t5.5 17.5l1 9l-4 -8
q0 -1 -4 -9t-8.5 -18.5t-9.5 -22t-7 -18.5zM176 185q-6 -10 -11 -21q-5 -9 -9.5 -19.5t-6.5 -18.5q-1 -2 -1 -4v-1l1 -1h1q1 0 3 3.5t12 25.5q5 10 9 20.5t5 14.5l1 10zM111 83l-2 -6.5t-4 -15t-3.5 -18t-1.5 -15.5q0 -4 2 -4q1 0 1.5 0.5t1.5 5t2.5 14.5t3.5 28q1 4 1 7
t1 4h-2zM140 389l11 -8l1 -1q3 -4 3.5 -15t0.5 -17l-1 -7l4 7q7 14 2.5 23t-7.5 11l-2 2zM17 -84l-4 -4q-5 -5 -14 -12.5t-14 -7.5v-4q1 1 13 4.5t17 17.5zM140 18q-5 -4 -11 -4q-3 0 -5 2l-2 2l-3 7v-8q-1 -7 1.5 -8.5t4.5 -1.5q5 0 10.5 3.5t6.5 4.5l10 10zM190 238
q1 0 3.5 3.5t5.5 9t5.5 11t2.5 8.5v8l-3 -7l-15 -30q-1 -1 0 -2v-1h1zM204 244q3 2 6 8t2 12v5l-3 -4q0 -1 -3.5 -7.5t-5.5 -11.5v-3q0 -1 1 -1t3 2z" />
    <glyph glyph-name="fl" unicode="&#xfb02;" horiz-adv-x="221" 
d="M243 421q6 -4 14 -10t14 -14t8 -17t-3 -18q-21 -52 -46 -102.5t-51 -102.5v-1q-17 -36 -29 -64q-11 -24 -19 -44.5t-6 -22.5q3 -2 12 4.5t20 16.5t22 21.5t17 20.5l2 2q1 1 5 1q2 -1 4.5 -6t-7.5 -16q-17 -20 -33.5 -36t-22.5 -20q-14 -10 -23 -12t-14 0q-18 3 -23 15.5
t-3 29.5t9 35.5t14 32.5l32 73h-44q-1 -1 -1 -2q-2 -17 -7 -52.5t-12.5 -76t-18 -79t-22.5 -60.5q-11 -20 -23.5 -29t-23.5 -11q-13 -3 -26 1l1 -1h-1l-2 2q-4 1 -22 10q-10 6 -12 17q-2 9 -1 19t4 19t5.5 15.5t3.5 7.5q5 14 11 25q5 12 16 36.5t24 53l26 57t22 48.5h-42
q2 8 6 14q3 5 7.5 10t12.5 5h29q27 60 41.5 96t22.5 53q4 9 8 21t6 23v2l3 2q5 0 8 -3q6 -4 14 -10t14 -14t8.5 -17t-2.5 -18l-10 -21l-53 -114h43q2 3 2.5 6t2.5 5q27 60 42 95.5t22 53.5q4 10 7 21t7 23v2l3 2q3 0 8 -3zM11 -62q9 19 16 44t12.5 49t9 44.5t5.5 32.5
q-8 -16 -14 -29t-11 -23q-5 -11 -9 -21q-12 -27 -23 -51q-9 -20 -18 -40.5t-12 -31.5v-1q-1 -1 -1 -3q-1 -3 0 -5q0 -6 6 -6q3 -1 6 0q9 1 17 12t16 29zM-33 -34q-2 -2 1 -2q1 0 2 1q0 4 2 10l66 157q2 3 3.5 5.5t2.5 4.5l2 4q0 2 -1 2h-2l-9 -17.5t-21.5 -44t-25.5 -58.5
t-20 -62zM166 174l9 19t20 43.5t21.5 48t13.5 33.5l-3 1l-8 -16.5t-18.5 -39t-21 -47t-16.5 -41.5zM77 228q0 -2 1 -2t2 1l3 11l49 117q2 3 3.5 6l2.5 5q1 3 2 4q0 2 -1 2l-2 -1q-13 -23 -24 -48q-10 -21 -20.5 -46.5t-15.5 -48.5zM-20 32l-16 -36q-7 -15 -13.5 -31
t-10.5 -28l3 -1q1 1 7 13t13 27t13 30.5t7 24.5l2 11zM135 342l-4 -9l-5 -10.5t-11.5 -25.5t-13.5 -31t-10 -28l3 -2q0 1 6 13t13 27.5t13 31t8 24.5zM113 57q6 12 12 26q5 12 11.5 28t12.5 34l-3 1l-4 -8t-9.5 -21t-12 -28.5t-10.5 -30.5zM11 199q2 0 13 -0.5t22 -0.5
q16 0 24.5 0.5t12.5 1t4.5 1t0.5 1.5q0 2 -8 3q-5 1 -11 1h-12q-10 0 -18 -0.5t-14 -1.5l-14 -2l-9 -1zM9 93l6 13q0 1 4.5 9t9.5 19t9.5 22.5t5.5 17.5l1 9l-4 -8q0 -1 -4 -9t-8.5 -18.5t-9.5 -22t-7 -18.5zM204 279q1 3 7 15.5t12.5 27t12 25.5l5.5 11l-3 2
q-5 -8 -11.5 -21t-12 -25.5t-9.5 -22.5t-4 -11zM98 40q3 8 7 17q3 8 6 17t5 18l3 13l-6 -14q-3 -6 -9.5 -22.5t-8.5 -27.5l-1 -11zM234 401q0 -1 -6 -17t-11 -28l3 -2l2.5 5t5.5 12t6 15t3 14v11zM140 389l11 -8l1 -1q3 -4 3.5 -15t0.5 -17l-1 -7l4 7q7 14 2.5 23t-7.5 11
l-2 2zM17 -84l-4 -4q-5 -5 -14 -12.5t-14 -7.5v-4q1 1 13 4.5t17 17.5zM267 353q2 3 4 9.5t1 12.5t-5.5 12t-5.5 6l-2 -2q1 -2 3 -5q4 -6 5 -10q2 -7 -1 -14.5t-3 -8.5l3 -1q0 1 1 1zM174 177q1 0 6.5 12t10.5 26l-3 1q-4 -7 -7 -14q-3 -6 -5 -12.5t-4 -11.5zM128 18
q-1 -2 -3 -3q-4 -2 -7 -2q-6 0 -9 10l-2 9l-1 -10v-5q0 -4 3 -7t6 -3q6 0 15 9z" />
    <glyph glyph-name="Lslash" unicode="&#x141;" horiz-adv-x="322" 
d="M156 101q0 3 6 8t17 11t25.5 12t30.5 12l46 105l8 18q4 11 10 26t12.5 31.5t13 32.5t11.5 29q2 5 6 12.5t7 10.5l10 9l-3 5l-6 -2q-8 -2 -28 -12l-5 -3q-41 -23 -65.5 -41.5t-36.5 -30.5l-15 -16l-12 -16q-2 -4 -3.5 -11.5t5.5 -12.5q6 -4 19 -5t38 3q1 0 3 -1q3 -3 2 -5
l-20 -39q-1 -1 -3 -2.5t-7 -0.5q-7 2 -18 8t-22 15l-3 3h-1q-13 12 -17 29q-8 30 7 57t41 44q36 26 75.5 40.5t83.5 30.5h3q12 3 23 -0.5t19.5 -10t15 -14.5t10.5 -14q1 -3 1 -5q0 -4 -6 -7q-7 -2 -13.5 -5.5t-11.5 -8.5q-11 -11 -17 -24t-9 -21q-5 -11 -13 -31.5t-17.5 -45
t-19.5 -50t-18 -45.5q14 5 26 9q6 2 11 4t8 2t6 -5q3 -9 -3 -23.5t-22 -20.5q-2 -1 -16 -6t-34 -12l-43 -91l-10 -18q-5 -8 -10 -17.5t-10 -17.5q6 -3 16.5 -8t27.5 -12q27 -11 57.5 -19t62.5 -11q6 0 33 -0.5t59 4.5t61 17.5t40 37.5q2 2 3 2q2 1 3 0l3 -6q2 -14 3 -26.5
t-6 -28.5q-5 -10 -16 -18q-9 -8 -25 -14.5t-42 -10.5q-24 -3 -52.5 -4.5t-63.5 4t-79 20t-99 42.5q-1 0 -2 1t-2 1t-2 1q-13 -19 -43.5 -36.5t-62.5 -23.5t-58 3.5t-29 43.5q-2 11 6 24t20 21q16 11 35.5 15.5t39 5t35.5 -2t24 -4.5q7 9 19.5 36t29.5 65q-23 -7 -39 -10.5
t-18 -0.5q-2 2 -1.5 8t0.5 8zM151 -34q-23 8 -40.5 9t-29.5 -2q-14 -4 -25 -11q-5 -3 -10.5 -9t-5.5 -14q0 -9 10.5 -13t27 -1.5t36 12.5t37.5 29zM315 278q-2 -4 -3 -6.5t-2 -4.5q-1 -3 -2 -5l3 -1l7 16l36 92q3 10 10.5 26.5t12.5 20.5l-2 3v-1q-2 -2 -9.5 -9t-12.5 -21
q-2 -5 -4.5 -14.5t-7.5 -20.5zM206 347q15 17 38 32t44 26t36.5 17.5l15.5 6.5l-1 3q-32 -9 -57 -22.5t-42.5 -27t-26.5 -23.5l-9 -10zM330 -84l10 -3t26 -6t36 -6t41 -3q24 0 46 5l-1 3l-10 -2t-12 -1h-16q-18 0 -47.5 3t-71.5 13zM223 -52q-4 2 -5 3l-1 1l-2 -3l7 -4
q7 -4 18 -9.5t24 -11.5t26 -10.5t24 -6.5l15 -3l-14 6l-11 4t-26 10t-30.5 12.5t-24.5 11.5zM200 -15q1 0 15.5 21.5t33.5 60.5l-3 2l-6 -10t-14 -23.5t-16 -27.5l-12 -21zM546 -77q-2 0 -6 -3q-8 -4 -26 -12t-40 -11v-3q1 0 9 1t19.5 3.5t22.5 6.5t18 11q5 5 4 6v1h-1z
M188 265q0 1 -6 5t-9 14q-5 20 10 45l-2 2l-3.5 -4.5t-6.5 -10.5t-5 -14t0 -16q3 -16 21 -23zM124 -74q-1 -1 -14.5 -7.5t-36.5 -6.5q-11 0 -23 3l-11 2l10 -5q0 -1 7 -3.5t19 -2.5q26 0 50 18l1 -1zM440 -93q1 -1 5 -1h15q11 0 24.5 2t27.5 7l-1 3l-22 -4q-10 -2 -21.5 -3
t-21.5 -1q-4 0 -6 1v-4zM28 -55q4 11 12 18t16 11q10 4 20 7v3q-18 -2 -28.5 -8t-15.5 -13t-6 -12.5l-1 -5.5v-9zM185 343q6 6 15.5 14t18.5 15t16 11.5l7 4.5l-2 3q-22 -11 -36.5 -25t-20.5 -21q-2 -2 -2 -3l2 -2q1 0 1 1zM570 -44q-2 -8 -6 -15.5t-8 -13.5q-4 -7 -10 -13
l-8 -8l10 6q11 6 16 13.5t7 14.5q3 8 2 16l-2 9zM317 250q-3 -12 -7 -23q-3 -9 -7 -19t-6 -16l3 -1l3 6t7 15t7 19t3 19l1 11zM412 413q-4 0 -15.5 -4.5t-22.5 -24.5l3 -2q5 7 11 13q5 5 11.5 9.5t13.5 5.5l11 2l-11 1h-1zM174 -16l-14 6q-16 4 -31 6q-8 1 -15 0v-4
q3 0 18.5 -1.5t26.5 -3.5zM200 270l5 -4q8 -7 18 -7q7 0 10.5 2t4.5 2l4 3h-10h-9t-8 1l-8 2zM154 -46l-7 -4q-1 0 -8 -5t-12 -11l-4 -6l6 4q1 0 7.5 4t12.5 11zM339 156q-11 -3 -22 -7q-10 -3 -20.5 -7t-18.5 -8q-2 -1 -4 -1q-1 0 -1 -1v-2h1q1 -1 5 0.5t27 9.5
q10 3 20.5 7.5t13.5 6.5l9 5zM328 161q-11 -3 -28 -9t-36 -13.5t-39 -17t-37 -20.5l1 -2l17.5 7.5t40 17.5t46 20t35.5 15q2 0 3.5 0.5t3.5 0.5q1 0 2 1l10 3l-10 1q-1 -1 -9 -4zM223 128l-6.5 -3t-15 -7.5t-17.5 -10.5t-13 -10q0 -1 0.5 0t1.5 0h1t5 2t12 7.5t23 15.5
q4 2 6 4t4 2h-1zM290 210q-38 -102 -63 -146.5t-25 -45.5l2 -1q16 18 32 50t28.5 63.5t20 55l7.5 23.5z" />
    <glyph glyph-name="lslash" unicode="&#x142;" horiz-adv-x="100" 
d="M137 421q6 -4 14 -10t14 -14t8 -17t-3 -18q-19 -46 -40.5 -90.5t-44.5 -89.5q7 2 13 3.5t11 3.5l9 3q4 1 7 1.5t5 -3.5q2 -8 -3 -19.5t-18 -16.5l-44 -14q-6 -12 -14.5 -31.5t-16 -37.5t-12.5 -31.5t-3 -14.5q3 -2 12 4.5t20 16.5t22 21.5t17 20.5l2 2q1 1 5 1
q2 -1 4.5 -6t-7.5 -16q-17 -20 -33.5 -36t-22.5 -20q-14 -10 -23 -12t-14 0q-18 3 -23 15.5t-3 29.5t9 35.5t14 32.5l3 6q-17 -5 -29 -7t-14 0q-2 3 -1 7.5t1 6.5q0 5 18 13.5t42 17.5q10 23 17.5 41.5t12.5 27.5q27 60 42 95.5t22 53.5q4 10 7 21t7 23v2l3 2q3 0 8 -3z
M60 174l9 19t20 43.5t21.5 48t13.5 33.5l-3 1l-8 -16.5t-18.5 -39t-21 -47t-16.5 -41.5zM98 279q1 3 7 15.5t12.5 27t12 25.5l5.5 11l-3 2q-5 -8 -11.5 -21t-12 -25.5t-9.5 -22.5t-4 -11zM-8 40q3 8 7 17q3 8 6 17t5 18l3 13l-6 -14q-3 -6 -9.5 -22.5t-8.5 -27.5l-1 -11z
M128 401q0 -1 -6 -17t-11 -28l3 -2l2.5 5t5.5 12t6 15t3 14v11zM161 353q2 3 4 9.5t1 12.5t-5.5 12t-5.5 6l-2 -2q1 -2 3 -5q4 -6 5 -10q2 -7 -1 -14.5t-3 -8.5l3 -1q0 1 1 1zM68 177q1 0 6.5 12t10.5 26l-3 1q-4 -7 -7 -14q-3 -6 -5 -12.5t-4 -11.5zM22 18q-1 -2 -3 -3
q-4 -2 -7 -2q-6 0 -9 10l-2 9l-1 -10v-5q0 -4 3 -7t6 -3q6 0 15 9zM108 168q-10 -2 -19 -5q-8 -2 -16.5 -5.5t-15.5 -6.5q-2 -1 -3 -1h-1v-2l1 -1q1 0 4 1t22 8q8 2 17 5t11 5l7 4zM98 173l-22.5 -7.5t-29.5 -10.5t-32 -13.5t-30 -15.5v-1l14 5.5t33 13t38 15.5t29 11
q4 0 6 2q1 1 2 1l8 1l-8 1q-2 -2 -8 -2zM13 147q-1 0 -6.5 -2t-12 -6t-13.5 -8t-11 -8q0 -1 0.5 0t1.5 0h0.5t4 1.5t10.5 6t19 12.5l4.5 3t3.5 1h-1zM7 57q6 12 12 26q5 12 11.5 28t12.5 34l-3 1l-4 -8t-9.5 -21t-12 -28.5t-10.5 -30.5z" />
    <glyph glyph-name="Zcaron" unicode="&#x17d;" horiz-adv-x="377" 
d="M327 76q1 -2 1 -6q3 -12 0 -29q-10 -32 -34.5 -46.5t-56 -18t-65 1t-60.5 10.5q-14 4 -25 7t-19 5q-2 1 -2.5 1t-2.5 1h-2q-30 11 -39 29t-8 35q0 14 6.5 28t14.5 26q10 14 22 28q14 17 31.5 34t34.5 31q12 10 32.5 24.5t44.5 31t49.5 33t46.5 28.5l1 1l4 2q-31 2 -68 9
t-79 24q-19 9 -31 22q-11 11 -16.5 27t2.5 39q5 10 13 15q7 5 17 5.5t26 -7.5q-7 -13 -8 -24t4 -22t22 -21t42.5 -15.5t55 -6.5t60.5 2.5t60 12.5l15 5q7 2 15.5 5.5t17.5 7.5h4q3 0 5 -3q1 0 1 -1q2 -2 2 -3q1 -1 6 -14t7 -23q0 -2 1 -3q2 -13 -8 -20t-23 -12l-20 -10
t-40 -21t-54.5 -30.5t-62.5 -37.5q-50 -30 -92.5 -59.5t-71.5 -55.5q-18 -16 -31 -30.5t-18 -19.5q-2 -4 -4 -7t-3 -6q-2 -5 -1 -8t3 -5q2 -3 5 -4q12 -5 31 -7t38.5 -2.5t35 0.5t20.5 1h2q13 0 27 1t29 3q27 5 50 15.5t32 30.5q3 3 4 2q1 1 2 0zM455 344v2q0 1 -2 1
q-10 -4 -24 -11l-27 -13.5t-22 -12l-9 -5.5q-1 0 -1 -2q1 0 1 -0.5t1 -0.5l1 1q15 9 30 17q13 7 27 13.5t25 10.5zM451 401q-2 0 -3 -0.5t-3 -0.5q-2 -1 -3 -1v-3h2q5 0 9 -4.5t6 -9.5l4 -12h3q0 1 -1 4.5t-3 8.5q-5 13 -5 15q-2 3 -6 3zM424 378l-8 -2t-20.5 -5t-29 -6
t-33.5 -4v-3l9 0.5t22.5 2t29.5 5t31 9.5zM213 380q-43 11 -56 34q-7 11 -7.5 21t1.5 16q2 4 2 6l-3 1q-1 -1 -1 -2t-0.5 -1.5t-0.5 -2.5q-8 -27 6 -45q6 -10 16 -16t19 -9t16 -4l7 -1l1 1v-1v1v2zM221 356l7.5 -2t19.5 -4.5t28 -4t34 -1.5q42 0 72 12l-1 1l1 -1l-1 3v-1v1
v-2v2q-1 -1 -19 -5.5t-53 -4.5q-20 0 -42.5 2.5t-45.5 7.5v-3zM348 325q-1 0 -31.5 -16.5t-73 -42.5t-87.5 -59t-75 -66l2 -2l16.5 15t49.5 40.5t83 58.5t117 69zM124 167l-8 -6t-19 -16t-23 -22.5t-21 -25.5l2 -2l9.5 10t21.5 22l23 23t16 15zM129 10q16 -3 37 -3
q17 0 29 1.5t13 1.5l-1 3q-4 -1 -11 -1h-18h-33q-9 0 -16 1v-3zM77 28q-27 3 -34 16q-3 6 -1 13q1 4 2 6l-3 2q-9 -15 -3 -25q3 -5 9 -8t12.5 -4.5t11.5 -2t6 -0.5v1v-1v3zM188 -5q50 0 85 15l-1 3h-1q-4 -2 -25 -7.5t-60 -5.5q-48 0 -102 12l-1 -3l9 -2t23.5 -5t33 -5
t39.5 -2zM235 -19q25 2 41 11t26 18q11 11 17 23l-3 2q-10 -16 -23 -25.5t-25 -15t-21.5 -8t-12.5 -2.5h-1l1 -3h1zM388 447q-32 -2 -53.5 -6.5t-34.5 -19.5l-2 -2v1l-1 -1v3q0 20 -14 37t-37 39l-12 11q-5 3 -3 8t9 10q10 5 18.5 5.5t24.5 -13.5q21 -22 24 -51
q1 -7 1 -14.5t-2 -12.5q5 12 15 22q21 19 51 24q22 1 28 -5t11 -16q2 -8 0.5 -14t-7.5 -4zM267 504q-9 9 -15 12l-6 3l-1 -3q8 -4 16 -13q5 -6 10.5 -12t9.5 -11q4 -6 9 -12l1 3q-5 10 -10.5 18.5t-13.5 14.5zM375 465q-17 0 -39 -10l-1 -2q7 1 14 3q14 4 30 5q14 2 21 -1
l1 3q-2 1 -6 2q-6 2 -20 0zM287 492q-2 1 -4 3q-1 1 -2 1v-2l3 -3q6 -7 9 -17q2 -5 4 -11l1 1q-1 12 -4.5 18.5t-6.5 9.5zM352 469q-4 -1 -11 -4t-16 -11l1 -2q4 3 9 6l9 4.5t10 3.5h5v2h-2q-1 0 -2 0.5t-3 0.5zM270 512q-2 2 -7 5.5t-9 5.5l-2 -1q1 -1 7 -6t10 -6l4 -1z
M374 472l3 -1q4 -2 12 -2h9v2q-5 2 -11 2h-9z" />
    <glyph glyph-name="zcaron" unicode="&#x17e;" horiz-adv-x="185" 
d="M395 -21q2 -7 3 -16.5t-1 -20.5q-2 -7 -6 -14.5t-11 -15.5q-15 -16 -41 -25h-1q-17 -5 -38 -7t-47.5 1t-59 12t-72.5 27l-6 3l-6 3q-19 -19 -40 -32t-56 -15q-16 -2 -28 2q-11 3 -21 10t-13 23q-2 9 3 19.5t15 17.5q19 14 40.5 17.5t38.5 1.5q20 -3 40 -10v1q15 28 7 46
q-8 15 -32 20q-1 1 -4 1q-16 3 -21 8q-5 4 -5 11v5q3 11 9.5 25.5t13.5 27.5q13 30 37 59q4 6 8 11t8 9.5t8 9.5q-9 -2 -18.5 -3t-17.5 -2q-5 -1 -9 -1t-9 -1q-7 -25 -17 -46t-20.5 -37.5t-20 -28.5t-15.5 -19q-6 -6 -10 -4q-2 0 -3 2q-2 2 -2 3.5v3.5t1 4q11 11 33 42.5
t37 75.5q0 2 1 3h-2q-3 -1 -8.5 -1.5t-12.5 0.5q-9 1 -16.5 5t-9.5 14q0 15 6 25t14 16t16.5 8.5t12.5 3.5h1q10 2 15.5 -2t7.5 -10q3 -7 2 -16q0 -4 -0.5 -8.5t-2.5 -12.5q18 2 36 7t25 7h2h6l12 -6t15 -10t10 -13t-2 -15q-7 -13 -30.5 -35t-42.5 -61q-4 -10 -6 -14t-3 -7
l-2 -6q14 -3 25 -9l6 -3q18 -12 21.5 -27.5t0.5 -30.5t-9.5 -26t-7.5 -13q5 -2 13.5 -4t22.5 -6q42 -12 90 -11q4 0 23.5 2.5t42.5 9t43 18.5t25 31q2 2 3 2l1 -1q2 -2 3 -4zM48 240q-2 -2 -5 -6t-5.5 -8.5t-2.5 -9t4 -7.5q4 -4 15 -3q2 7 4 15t-2 16q-2 6 -8 3zM11 205
q0 13 5 21.5t16 17.5l13 7l-14 -5q-1 0 -10.5 -5t-11.5 -17q-3 -9 -2 -20zM48 194q11 0 18.5 0.5t7.5 1.5v3q-2 -1 -5 -1h-12q-30 0 -36 10q-3 5 1 14l-3 1q-2 -3 -3 -7q-1 -3 -1.5 -7t1.5 -7q3 -5 12 -7q5 -1 10 -1h10zM73 -62q-20 7 -34.5 7.5t-25.5 -1.5q-12 -3 -22 -8
q-4 -3 -8 -7.5t-3 -11.5q1 -8 10 -11.5t22.5 -1.5t29.5 10t31 24zM-42 -84q4 11 12 18.5t16 11.5q9 4 19 6v3q-18 -2 -28.5 -8t-15 -13t-5.5 -12.5l-1 -5.5l-1 -9zM54 -96l1 -1l-1 1q-1 0 -14.5 -6.5t-36.5 -6.5q-6 0 -11.5 0.5t-11.5 1.5l-11 2l10 -5q3 -2 7 -3q8 -2 19 -2
q26 0 50 18l1 -1zM84 -67l-7 -5q-1 0 -8 -4.5t-12 -11.5l-4 -6l6 4q1 0 7.5 4.5t12.5 11.5zM146 180l-7 -9q-1 0 -10 -12t-17 -27l-7 -14l10 12l3 4.5t7.5 10.5t9 13t6.5 12zM129 216q-3 0 -4 -1v-4q1 1 3 1q11 0 19 -5t12 -8q0 -1 1 -1h1l1 1q0 1 -1 2l-1 1q-5 5 -12 9.5
t-11 4.5h-8zM57 73l2.5 4t5.5 9t5.5 11t3.5 11l3 10l-6 -9q0 -1 -6.5 -12t-9.5 -23l-4 -12zM66 60l6.5 12t16 29.5t20 36t19.5 32.5q3 4 5 7.5t4 5.5q2 3 4 5l-3 2l-5 -7.5l-7 -10.5q-8 -11 -17.5 -25.5t-18.5 -30t-16.5 -30t-10.5 -25.5zM100 -40q9 9 10.5 22.5t1.5 14.5
l-3 1q-1 -7 -2.5 -13t-3.5 -11q-3 -6 -5 -12l-4 -8zM122 -13q3 19 -6 34q-6 7 -13.5 11t-15 6.5t-13 3.5l-5.5 1l-1 -4q19 -4 29.5 -10.5t15.5 -14t6 -14.5t0 -13q-1 -2 -1.5 -5t-2.5 -6l3 -1q0 1 1 3zM253 -94q1 -1 5 -1h15q11 0 24.5 2t27.5 7l-1 3l-6.5 -1.5t-16 -3
t-21 -2.5t-21.5 -1h-6v-3zM255 -103q14 0 25.5 1t21.5 4l-1 3l-10 -2t-12 -1h-16q-18 0 -47.5 3t-71.5 13l-1 -3l10 -3t26 -6t36 -6t40 -3zM287 -107q1 0 9 1t19 3.5t22.5 6.5t17.5 11q6 5 5 6v1h-1q-1 0 -2 -0.5l-5 -2.5q-8 -4 -25.5 -12t-39.5 -11v-3zM357 -97
q11 6 16 13.5t7 14.5q3 8 2 16l-1 9l-2 -9q-4 -17 -13.5 -29t-10.5 -13l-8 -8zM195 267q-32 -2 -53.5 -6.5t-34.5 -19.5l-2 -2v1l-1 -1v3q0 20 -14 37t-37 39l-12 11q-5 3 -3 8t9 10q10 5 18.5 5.5t24.5 -13.5q21 -22 24 -51q1 -7 1 -14.5t-2 -12.5q5 12 15 22q21 19 51 24
q22 1 28 -5t11 -16q2 -8 0.5 -14t-7.5 -4zM74 324q-9 9 -15 12l-6 3l-1 -3q8 -4 16 -13q5 -6 10.5 -12t9.5 -11q4 -6 9 -12l1 3q-5 10 -10.5 18.5t-13.5 14.5zM182 285q-17 0 -39 -10l-1 -2q7 1 14 3q14 4 30 5q14 2 21 -1l1 3q-2 1 -6 2q-6 2 -20 0zM94 312q-2 1 -4 3
q-1 1 -2 1v-2l3 -3q6 -7 9 -17q2 -5 4 -11l1 1q-1 12 -4.5 18.5t-6.5 9.5zM159 289q-4 -1 -11 -4t-16 -11l1 -2q4 3 9 6l9 4.5t10 3.5h5v2h-2q-1 0 -2 0.5t-3 0.5zM77 332q-2 2 -7 5.5t-9 5.5l-2 -1q1 -1 7 -6t10 -6l4 -1zM181 292l3 -1q4 -2 12 -2h9v2q-5 2 -11 2h-9z" />
    </font>
</defs>
</svg>
