<?xml version="1.0" standalone="no"?>
<!DOCTYPE svg PUBLIC "-//W3C//DTD SVG 1.1//EN" "http://www.w3.org/Graphics/SVG/1.1/DTD/svg11.dtd" >
<svg>
<metadata>
Created by FontForge 20090622 at Mon Feb 15 08:57:04 2016
 By deploy user
Copyright (c) 2016 by polem. All rights reserved.
</metadata>
<defs>
<font id="Ambarella" horiz-adv-x="445" >
  <font-face 
    font-family="Ambarella"
    font-weight="400"
    font-stretch="normal"
    units-per-em="1000"
    panose-1="0 0 0 0 0 0 0 0 0 0"
    ascent="800"
    descent="-200"
    x-height="419"
    cap-height="700"
    bbox="-950.043 -828.618 1684.51 1149.74"
    underline-thickness="50"
    underline-position="-50"
    unicode-range="U+000D-U+E0DE"
  />
<missing-glyph horiz-adv-x="402" 
 />
    <glyph glyph-name="b_r" unicode="br" horiz-adv-x="809" 
d="M676 393q-33 -40 -94.5 -178t-76.5 -218q-11 -53 13 -53t53 31q97 94 240 304q6 8 13 3q8 -5 4 -13q-86 -128 -141 -198q-155 -193 -199 -136q-14 18 -15.5 52.5t9.5 77t26.5 87t37 92l39 83l34.5 67.5q-48 -20 -76 -7q-38 -74 -137.5 -146t-167.5 -66
q-64 -107 -144 -153q-38 -21 -71.5 -23t-55.5 22t-17 74q7 81 69 222.5t141.5 272.5t165 223t134.5 80q97 -23 -123 -282q-119 -139 -238 -249q-11 -10 -16 -14q-2 -2 -3 -2q-69 -142 -90 -226q-18 -65 9 -80.5t80 24.5q57 41 112 121q-77 33 -65 113q9 61 59 104t87 17
q8 -6 14 -15q21 -35 10 -90t-46 -119q64 -2 151.5 67t125.5 140q-16 21 -11 57t18.5 71t37 61t45.5 27q82 4 -63 -214q21 -10 60 8q2 0 9 3.5t12 5.5q8 6 19.5 3t19.5 -13t2 -18zM463 869q-55 -3 -160 -147.5t-199 -328.5q50 47 112 113t128 143.5t101.5 139t17.5 80.5z
M202 201q45 66 63.5 120t-0.5 77q-28 26 -70 -12q-43 -39 -50 -94q-8 -67 57 -91zM539 420q124 187 77 178q-33 -7 -63 -74.5t-14 -103.5z" />
    <glyph glyph-name="b_s" unicode="bs" horiz-adv-x="821" 
d="M554 436q-35 80 17 151q32 44 69 50q32 4 32 -31v-2q0 -44 -78 -152l61 -121q31 10 64 13t52 1t63 -7q10 -2 8 -11q-2 -10 -11 -8q-90 10 -129 4q-19 -3 -38 -9q40 -91 12.5 -161t-85 -112.5t-108.5 -40.5q-35 1 -49 22q-31 49 -4.5 109.5t80.5 114.5t103 73
q-12 22 -49 96q-57 -105 -141.5 -167.5t-184.5 -72.5q-64 -107 -144 -153q-38 -21 -71.5 -23t-55.5 22t-17 74q7 81 69 222.5t141.5 272.5t165 223t134.5 80q97 -23 -123 -282q-119 -139 -238 -249q-11 -10 -16 -14q-2 -2 -3 -2q-69 -142 -90 -226q-18 -65 9 -80.5t80 24.5
q57 41 112 121q-77 33 -65 113q9 61 59 104t87 17q8 -6 14 -15q21 -35 10 -90t-46 -119q50 9 95 31t74.5 45t59 58t43 55.5zM622 301q-42 -16 -92 -62t-78 -104t-4 -97q15 -24 59 -12q42 11 79 50t53 97.5t-17 127.5zM463 869q-55 -3 -160 -147.5t-199 -328.5q50 47 112 113
t128 143.5t101.5 139t17.5 80.5zM202 201q45 66 63.5 120t-0.5 77q-28 26 -70 -12q-43 -39 -50 -94q-8 -67 57 -91zM585 475q92 129 63 144q-9 5 -30 -11t-35 -48t2 -85z" />
    <glyph glyph-name="b_z" unicode="b&#x7a;" horiz-adv-x="1030" 
d="M-10 120q-18 -65 9 -80.5t80 24.5q57 41 112 121q-77 33 -65 113q9 61 59 104t87 17q8 -6 14 -15q21 -35 10 -90t-46 -119q45 4 78.5 14t56.5 21.5t47.5 37.5t40 47l46.5 66l13 19l9 14l8 13l6.5 10.5t6.5 8l5.5 4.5t5 2t4.5 -3q20 -23 168 -18q129 3 149 -4.5t-4 -26.5
l-80 -61l-137.5 -106t-127.5 -106.5t-81 -85.5l20.5 14l26 17.5l27 17t30 17t29 12.5t30.5 8t27.5 0.5t26.5 -8t21 -19.5l68 55.5t77 58l63 45l79 54.5t72 50q8 6 14 -3q6 -8 -3 -14l-91.5 -63.5l-96.5 -67.5l-79.5 -58.5t-91.5 -73.5q23 -53 -9.5 -162.5t-95 -217.5
t-152.5 -191t-169 -85q-40 -1 -49 29t13 88.5t61.5 120.5t75 111t60.5 79q94 110 216 213q-18 27 -54.5 21.5t-69.5 -24t-61.5 -37.5t-31.5 -18q-109 29 350 363q46 34 51 38q-22 3 -83.5 -1.5t-115.5 -2t-80 21.5q-65 -123 -141.5 -188t-189.5 -66q-64 -107 -144 -153
q-38 -21 -71.5 -23t-55.5 22t-17 74q7 81 69 222.5t141.5 272.5t165 223t134.5 80q97 -23 -123 -282q-119 -139 -238 -249q-11 -10 -16 -14q-2 -2 -3 -2q-69 -142 -90 -226zM673 50q-119 -103 -211 -212q-27 -32 -80.5 -109.5t-88.5 -143.5q-41 -76 -34 -119q8 -47 88 4
q72 46 157.5 164t136.5 240t32 176zM463 869q-55 -3 -160 -147.5t-199 -328.5q50 47 112 113t128 143.5t101.5 139t17.5 80.5zM202 201q45 66 63.5 120t-0.5 77q-28 26 -70 -12q-43 -39 -50 -94q-8 -67 57 -91z" />
    <glyph glyph-name="g_r" unicode="gr" horiz-adv-x="801" 
d="M668 393q-33 -40 -94.5 -178t-76.5 -218q-11 -53 13 -53t53 31q97 94 240 304q6 8 13 3q8 -5 4 -13q-86 -128 -141 -198q-155 -193 -199 -136q-14 18 -15.5 52.5t9.5 77t26.5 87t37 92l39 83l34.5 67.5q-48 -20 -76 -7q-39 -70 -103 -136t-170.5 -154t-125.5 -105
q-46 -98 -85 -173t-88.5 -158t-91.5 -135t-87 -82t-83 -20q-99 26 130 291q120 139 236 246l65 133q-114 -111 -168 -91q-61 22 -35 131q24 102 98 194q77 97 139 88q51 -6 76 -91q32 67 50 99q7 7 19 4t20.5 -13t2.5 -18q-10 -14 -24 -38.5t-33 -64.5l-34.5 -72.5
l-43.5 -93l-44 -95.5l53.5 43.5l61 50l56.5 48t60.5 56l50 53.5t48 60t34.5 58q-16 21 -11 57t18.5 71t37 61t45.5 27q82 4 -63 -214q21 -10 60 8q2 0 9 3.5t12 5.5q8 6 19.5 3t19.5 -13t2 -18zM158 147l72 153q-3 2 -3 5q-16 64 -46 83q-35 24 -108 -72q-71 -95 -105 -197
q-32 -99 14 -99q32 1 86 43q16 13 90 84zM-303 -552q114 6 345 462l-113 -116t-122.5 -138t-94.5 -132t-15 -76zM531 420q124 187 77 178q-33 -7 -63 -74.5t-14 -103.5z" />
    <glyph glyph-name="g_s" unicode="gs" horiz-adv-x="813" 
d="M546 436q-35 80 17 151q32 44 69 50q32 4 32 -31v-2q0 -44 -78 -152l61 -121q31 10 64 13t52 1t63 -7q10 -2 8 -11q-2 -10 -11 -8q-90 10 -129 4q-19 -3 -38 -9q40 -91 12.5 -161t-85 -112.5t-108.5 -40.5q-35 1 -49 22q-31 49 -4.5 109.5t80.5 114.5t103 73
q-12 22 -49 96q-18 -41 -179.5 -209t-240.5 -214q-46 -98 -85 -173t-88.5 -158t-91.5 -135t-87 -82t-83 -20q-99 26 130 291q120 139 236 246l65 133q-114 -111 -168 -91q-61 22 -35 131q24 102 98 194q77 97 139 88q51 -6 76 -91q32 67 50 99q7 7 19 4t20.5 -13t2.5 -18
q-10 -14 -24 -38.5t-33 -64.5l-34.5 -72.5l-43.5 -93l-44 -95.5q74 53 150 128t124 132zM158 147l72 153q-3 2 -3 5q-16 64 -46 83q-35 24 -108 -72q-71 -95 -105 -197q-32 -99 14 -99q32 1 86 43q16 13 90 84zM614 301q-42 -16 -92 -62t-78 -104t-4 -97q15 -24 59 -12
q42 11 79 50t53 97.5t-17 127.5zM-303 -552q114 6 345 462l-113 -116t-122.5 -138t-94.5 -132t-15 -76zM577 475q92 129 63 144q-9 5 -30 -11t-35 -48t2 -85z" />
    <glyph glyph-name="g_z" unicode="g&#x7a;" horiz-adv-x="1022" 
d="M67 -39l65 133q-114 -111 -168 -91q-61 22 -35 131q24 102 98 194q77 97 139 88q51 -6 76 -91q32 67 50 99q7 7 19 4t20.5 -13t2.5 -18q-10 -14 -24 -38.5t-33 -64.5l-34.5 -72.5l-43.5 -93l-44 -95.5q77 67 148 139.5t113 122.5l75.5 90.5t51.5 56t26 7.5
q20 -23 168 -18q129 3 149 -4.5t-4 -26.5l-80 -61l-137.5 -106t-127.5 -106.5t-81 -85.5l20.5 14l26 17.5l27 17t30 17t29 12.5t30.5 8t27.5 0.5t26.5 -8t21 -19.5l68 55.5t77 58l63 45l79 54.5t72 50q8 6 14 -3q6 -8 -3 -14l-91.5 -63.5l-96.5 -67.5l-79.5 -58.5
t-91.5 -73.5q23 -53 -9.5 -162.5t-95 -217.5t-152.5 -191t-169 -85q-40 -1 -49 29t13 88.5t61.5 120.5t75 111t60.5 79q94 110 216 213q-18 27 -54.5 21.5t-69.5 -24t-61.5 -37.5t-31.5 -18q-109 29 350 363q46 34 51 38q-22 3 -83.5 -1.5t-115.5 -2t-80 21.5
q-80 -98 -218.5 -244t-206.5 -193q-46 -98 -85 -173t-88.5 -158t-91.5 -135t-87 -82t-83 -20q-99 26 130 291q120 139 236 246zM665 50q-119 -103 -211 -212q-27 -32 -80.5 -109.5t-88.5 -143.5q-41 -76 -34 -119q8 -47 88 4q72 46 157.5 164t136.5 240t32 176zM158 147
l72 153q-3 2 -3 5q-16 64 -46 83q-35 24 -108 -72q-71 -95 -105 -197q-32 -99 14 -99q32 1 86 43q16 13 90 84zM-303 -552q114 6 345 462l-113 -116t-122.5 -138t-94.5 -132t-15 -76z" />
    <glyph glyph-name="j_r" unicode="jr" horiz-adv-x="583" 
d="M71 427q7 7 19 4t20.5 -13t2.5 -18q-10 -14 -23.5 -38t-33.5 -65.5l-34.5 -72l-44 -94.5l-43.5 -95q41 41 124 105.5t143 125t100 136.5q-16 21 -11 57t18.5 71t37 61t45.5 27q82 4 -63 -214q21 -10 60 8q2 0 9 3.5t12 5.5q8 6 19.5 3t19.5 -13t2 -18q-33 -40 -94.5 -178
t-76.5 -218q-11 -53 13 -53t53 31q97 94 240 304q6 8 13 3q8 -5 4 -13q-86 -128 -141 -198q-155 -193 -199 -136q-14 18 -15.5 52.5t9.5 77t26.5 87t37 92l39 83l34.5 67.5q-48 -20 -76 -7q-43 -78 -108.5 -142.5t-157.5 -136t-136 -114.5l-85 -172.5t-88.5 -158
t-91.5 -134.5t-87 -82t-83 -20q-98 25 125 286q119 139 237 247l5 5l88.5 183.5l83.5 175.5t52 103zM-524 -549q114 5 345 462l-113 -116t-122.5 -138t-94.5 -132t-15 -76zM313 420q124 187 77 178q-33 -7 -63 -74.5t-14 -103.5zM121 486q-10 13 -4.5 30.5t22 29t28.5 2.5
q10 -12 2 -28t-24.5 -28t-23.5 -6z" />
    <glyph glyph-name="j_s" unicode="js" horiz-adv-x="595" 
d="M71 427q7 7 19 4t20.5 -13t2.5 -18q-10 -14 -23.5 -38t-33.5 -65.5l-34.5 -72l-44 -94.5l-43.5 -95q41 38 107.5 93l104 88t88 91.5t94.5 128.5q-35 80 17 151q32 44 69 50q32 4 32 -31v-2q0 -44 -78 -152l61 -121q31 10 64 13t52 1t63 -7q10 -2 8 -11q-2 -10 -11 -8
q-90 10 -129 4q-19 -3 -38 -9q40 -91 12.5 -161t-85 -112.5t-108.5 -40.5q-35 1 -49 22q-31 49 -4.5 109.5t80.5 114.5t103 73q-12 22 -49 96q-33 -52 -71 -99t-84 -90.5t-82.5 -75l-94 -79l-91.5 -77.5l-85 -172.5t-88.5 -158t-91.5 -134.5t-87 -82t-83 -20q-98 25 125 286
q119 139 237 247l5 5l88.5 183.5l83.5 175.5t52 103zM396 301q-42 -16 -92 -62t-78 -104t-4 -97q15 -24 59 -12q42 11 79 50t53 97.5t-17 127.5zM-524 -549q114 5 345 462l-113 -116t-122.5 -138t-94.5 -132t-15 -76zM359 475q92 129 63 144q-9 5 -30 -11t-35 -48t2 -85z
M121 486q-10 13 -4.5 30.5t22 29t28.5 2.5q10 -12 2 -28t-24.5 -28t-23.5 -6z" />
    <glyph glyph-name="j_z" unicode="j&#x7a;" horiz-adv-x="804" 
d="M71 427q7 7 19 4t20.5 -13t2.5 -18q-10 -14 -23.5 -38t-33.5 -65.5l-34.5 -72l-44 -94.5l-43.5 -95q55 39 120 109.5t112 130.5t98.5 111.5t86.5 62.5q23 -23 172 -18q127 3 146 -5q18 -7 -5 -26l-80 -61l-137.5 -106t-127.5 -106.5t-81 -85.5l20.5 14l26 17.5l27 17
t30 17t29 12.5t30.5 8t27.5 0.5t26.5 -8t21 -19.5l68 55.5t77 58l63 45l79 54.5t72 50q8 6 14 -3q6 -8 -3 -14l-91.5 -63.5l-96.5 -67.5l-79.5 -58.5t-91.5 -73.5q23 -53 -9.5 -162.5t-95 -217.5t-152.5 -191t-169 -85q-40 -1 -49 29t13 88.5t61.5 120.5t75 111t60.5 79
q94 110 216 213q-18 27 -54.5 21.5t-69.5 -24t-61.5 -37.5t-31.5 -18q-109 29 350 363q46 34 51 38q-22 3 -83.5 -1.5t-115.5 -2t-80 21.5q-37 -29 -121.5 -126l-170 -189t-136.5 -120l-85 -172.5t-88.5 -158t-91.5 -134.5t-87 -82t-83 -20q-98 25 125 286q119 139 237 247
l5 5l88.5 183.5l83.5 175.5t52 103zM447 50q-119 -103 -211 -212q-27 -32 -80.5 -109.5t-88.5 -143.5q-41 -76 -34 -119q8 -47 88 4q72 46 157.5 164t136.5 240t32 176zM-524 -549q114 5 345 462l-113 -116t-122.5 -138t-94.5 -132t-15 -76zM121 486q-10 13 -4.5 30.5t22 29
t28.5 2.5q10 -12 2 -28t-24.5 -28t-23.5 -6z" />
    <glyph glyph-name="o_r" unicode="or" horiz-adv-x="699" 
d="M566 393q-33 -40 -94.5 -178t-76.5 -218q-11 -53 13 -53t53 31q97 94 240 304q6 8 13 3q8 -5 4 -13q-86 -128 -141 -198q-155 -193 -199 -136q-14 18 -15.5 52.5t9.5 77t26.5 87t37 92l39 83l34.5 67.5q-48 -20 -76 -7q-16 -15 -31 -39t-25 -45.5t-24 -41.5t-28 -31
t-36.5 -10.5t-50.5 17.5q-39 -107 -106 -177t-128 -59q-78 14 -69 122q8 96 72 195q56 87 109 98q9 0 11 -9q0 -13 -5 -14q-41 -30 -92 -130q-70 -134 -53 -201q9 -39 49 -42q53 7 108 73t87 157q-51 42 -72.5 96.5t-13 93t35.5 46.5q38 10 60 -14.5t25.5 -66.5t-0.5 -82
t-12 -66q30 -17 48 -18t30.5 14t21.5 35t28.5 53.5t44.5 60.5q-16 21 -11 57t18.5 71t37 61t45.5 27q82 4 -63 -214q21 -10 60 8q2 0 9 3.5t12 5.5q8 6 19.5 3t19.5 -13t2 -18zM228 270q15 50 11 118q-5 85 -50 80q-6 -1 -13 -3q-20 -7 -24.5 -38.5t15 -76.5t61.5 -80z
M429 420q124 187 77 178q-33 -7 -63 -74.5t-14 -103.5z" />
    <glyph glyph-name="o_s" unicode="os" horiz-adv-x="711" 
d="M122 393q-41 -30 -92 -130q-70 -134 -53 -201q9 -39 49 -42q53 7 108 73t87 157q-51 42 -72.5 96.5t-13 93t35.5 46.5q38 10 60 -14.5t25.5 -66.5t-0.5 -82t-12 -66q15 -14 29.5 -15t28 9t26 25.5t26 37.5l27 43t30.5 43t33 36q-35 80 17 151q32 44 69 50q32 4 32 -31v-2
q0 -44 -78 -152l61 -121q31 10 64 13t52 1t63 -7q10 -2 8 -11q-2 -10 -11 -8q-90 10 -129 4q-19 -3 -38 -9q40 -91 12.5 -161t-85 -112.5t-108.5 -40.5q-35 1 -49 22q-31 49 -4.5 109.5t80.5 114.5t103 73q-12 22 -49 96q-19 -16 -37.5 -38.5t-32 -43l-28 -41.5t-27 -35.5
t-26.5 -24t-30.5 -8.5t-34.5 13q-39 -107 -106 -177t-128 -59q-78 14 -69 122q8 96 72 195q56 87 109 98q9 0 11 -9q0 -13 -5 -14zM512 301q-42 -16 -92 -62t-78 -104t-4 -97q15 -24 59 -12q42 11 79 50t53 97.5t-17 127.5zM228 270q15 50 11 118q-5 85 -50 80q-6 -1 -13 -3
q-20 -7 -24.5 -38.5t15 -76.5t61.5 -80zM475 475q92 129 63 144q-9 5 -30 -11t-35 -48t2 -85z" />
    <glyph glyph-name="o_z" unicode="o&#x7a;" horiz-adv-x="920" 
d="M122 393q-41 -30 -92 -130q-70 -134 -53 -201q9 -39 49 -42q53 7 108 73t87 157q-51 42 -72.5 96.5t-13 93t35.5 46.5q38 10 60 -14.5t25.5 -66.5t-0.5 -82t-12 -66q56 -40 92 -14q18 13 45.5 71l50 101.5t35.5 33.5q23 -18 170 -15q132 3 151 -8q14 -8 -8 -26l-80 -61
l-137.5 -106t-127.5 -106.5t-81 -85.5l20.5 14l26 17.5l27 17t30 17t29 12.5t30.5 8t27.5 0.5t26.5 -8t21 -19.5l68 55.5t77 58l63 45l79 54.5t72 50q8 6 14 -3q6 -8 -3 -14l-91.5 -63.5l-96.5 -67.5l-79.5 -58.5t-91.5 -73.5q23 -53 -9.5 -162.5t-95 -217.5t-152.5 -191
t-169 -85q-40 -1 -49 29t13 88.5t61.5 120.5t75 111t60.5 79q94 110 216 213q-18 27 -54.5 21.5t-69.5 -24t-61.5 -37.5t-31.5 -18q-109 29 350 363q46 34 51 38q-22 3 -83.5 -1.5t-115.5 -2t-80 21.5q-15 -20 -29 -51.5t-23.5 -58t-24.5 -52t-32 -39t-45.5 -12.5t-66.5 21
q-39 -107 -106 -177t-128 -59q-78 14 -69 122q8 96 72 195q56 87 109 98q9 0 11 -9q0 -13 -5 -14zM563 50q-119 -103 -211 -212q-27 -32 -80.5 -109.5t-88.5 -143.5q-41 -76 -34 -119q8 -47 88 4q72 46 157.5 164t136.5 240t32 176zM228 270q15 50 11 118q-5 85 -50 80
q-6 -1 -13 -3q-20 -7 -24.5 -38.5t15 -76.5t61.5 -80z" />
    <glyph glyph-name="s_s" unicode="ss" horiz-adv-x="765" 
d="M3 277l119 159q-35 80 17 151q32 44 69 50q32 4 32 -31v-2q0 -44 -78 -152l61 -121q33 9 73 11t68 2.5t55.5 6t47 26t31.5 59.5q-35 80 17 151q32 44 69 50q32 4 32 -31v-2q0 -44 -78 -152l61 -121q31 10 64 13t52 1t63 -7q10 -2 8 -11q-2 -10 -11 -8q-90 10 -129 4
q-19 -3 -38 -9q40 -91 12.5 -161t-85 -112.5t-108.5 -40.5q-35 1 -49 22q-31 49 -4.5 109.5t80.5 114.5t103 73q-12 22 -49 96q-16 -41 -42.5 -62.5t-57 -25.5t-60.5 -2.5t-62.5 0.5t-53.5 -11q40 -91 12.5 -161t-85 -112.5t-108.5 -40.5q-35 1 -49 22q-31 49 -4.5 109.5
t80.5 114.5t103 73q-12 22 -49 96l-113 -149q-5 -9 -13 -3q-8 7 -3 14zM190 301q-42 -16 -92 -62t-78 -104t-4 -97q15 -24 59 -12q42 11 79 50t53 97.5t-17 127.5zM566 301q-42 -16 -92 -62t-78 -104t-4 -97q15 -24 59 -12q42 11 79 50t53 97.5t-17 127.5zM153 475
q92 129 63 144q-9 5 -30 -11t-35 -48t2 -85zM529 475q92 129 63 144q-9 5 -30 -11t-35 -48t2 -85z" />
    <glyph glyph-name="t_t" unicode="tt" horiz-adv-x="580" 
d="M597 652q-13 -18 -74 -120q32 -12 48 -16t35 0t29 23q3 8 12 5q10 -4 6 -13q-8 -16 -20.5 -25t-24 -11.5t-30.5 1t-30.5 7t-34.5 11.5q-175 -307 -233 -511q-17 -62 17 -52q36 12 105 85q5 5 8 9q74 89 174 239q5 8 14 3q8 -4 3 -13q-18 -31 -56 -85.5t-96 -129
t-110 -112t-76 -7.5q-41 52 24 226l-53 -65.5t-61 -69.5t-64 -64t-60.5 -48.5t-51 -23t-35.5 12.5q-81 105 191 578q5 9 7 13q-72 18 -109 -31q-5 -9 -13 -3q-8 5 -3 14q45 60 135 38q55 98 70 120q1 4 16.5 4t19.5 -2q1 0 4 -2.5l5.5 -4.5t5.5 -4t4.5 -4.5t0.5 -3.5
q-13 -18 -74 -120q32 -12 48 -16t35 0t29 23v1l1 2q1 0 1 1q45 60 135 38q55 98 70 120q1 4 16.5 4t19.5 -2q1 0 4 -2.5l5.5 -4.5t5.5 -4t4.5 -4.5t0.5 -3.5zM352 500v-1q-8 -16 -20.5 -25t-24 -11.5t-30.5 1t-30.5 7t-34.5 11.5q-197 -333 -233 -511q-9 -45 7.5 -52.5
t43.5 12.5q162 132 286 306q53 127 145 294q-72 18 -109 -31z" />
    <glyph glyph-name="T_h" unicode="Th" horiz-adv-x="984" 
d="M591 288q182 158 216 130q8 -6 9 -22t-5 -40t-15 -51.5t-22 -63.5l-25.5 -69l-27.5 -73.5t-25 -72.5q-27 -84 6 -78q39 7 128 116q47 59 96.5 129t61.5 90q5 8 14 3q9 -3 3 -13q-59 -99 -146 -207q-148 -185 -191 -127q-20 31 -14.5 83.5t27 117t46 120.5l42.5 95t16 39
q-11 4 -39 -13q-71 -42 -176 -138q-64 -137 -89 -236q-8 -12 -19.5 -11t-14.5 12q18 163 227 534q-66 13 -95 23q-44 -62 -107 -215.5t-117 -224.5q7 0 10.5 -0.5t8 -1t10.5 -0.5q11 0 9 -11q0 -10 -11 -8q-20 1 -43 1q-121 -155 -256 -189q-84 -22 -127 13q-17 13 -19 33
q-3 19 2.5 37.5t27.5 40.5t59.5 39t106 29.5t159.5 15.5q61 80 136 245.5t112 211.5q-111 36 -180.5 26t-175.5 -74q-8 -6 -13 3q-6 7 2 13q113 69 187.5 78.5t196.5 -31.5q6 6 20 -2t14 -12q24 -8 94 -22q88 147 173.5 239t135.5 80q46 -12 17 -92q-31 -86 -113 -165
q-93 -91 -175 -88q-72 -117 -132 -246zM276 104q-318 -15 -318 -138q0 -24 37 -32q67 -13 158 51q64 44 123 119zM998 856q-41 -2 -112.5 -87t-151.5 -216q87 2 183 123q66 83 84 147q8 30 -3 33z" />
    <glyph glyph-name=".notdef" horiz-adv-x="402" 
 />
    <glyph glyph-name=".null" horiz-adv-x="0" 
 />
    <glyph glyph-name="nonmarkingreturn" horiz-adv-x="333" 
 />
    <glyph glyph-name="NULL" horiz-adv-x="0" 
 />
    <glyph glyph-name="NULL" horiz-adv-x="0" 
 />
    <glyph glyph-name="CR" unicode="&#xd;" horiz-adv-x="402" 
 />
    <glyph glyph-name="space" unicode=" " horiz-adv-x="402" 
 />
    <glyph glyph-name="exclam" unicode="!" horiz-adv-x="399" 
d="M480 636q-58 -86 -239.5 -327.5t-221.5 -298.5q-5 -7 -14 -2q-7 7 -2 14l448 625q2 3 8 3.5t9 -1.5q14 -10 12 -13zM-27 -7q8 3 12.5 -5t1.5 -19v-1q-9 -32 -27 -27q-14 4 -13 22q1 20 26 30z" />
    <glyph glyph-name="quotedbl" unicode="&#x22;" horiz-adv-x="344" 
d="M263 624q20 -1 27 -63.5t-2 -124t-28 -61.5q-14 0 -23 26t-10 63t2.5 73.5t12.5 62t21 24.5zM95 626q20 -1 27 -63.5t-2 -124t-28 -61.5q-14 0 -23 26t-10 63t2.5 73.5t12.5 62t21 24.5z" />
    <glyph glyph-name="numbersign" unicode="#" horiz-adv-x="498" 
d="M34 241q48 3 124 3l89 140q-103 0 -139 1q-10 0 -10 10t10 10q76 -2 152 -2l119 180q7 7 14 1q9 -6 1 -14l-111 -167q91 0 133 1l136 205q8 7 14 1q9 -6 1 -14q-27 -38 -127 -192q42 0 94 2q10 0 10 -10t-9 -10q-58 -2 -108 -2l-90 -140q98 -2 126 -2q9 0 9 -10
q0 -9 -10 -9q-16 0 -62 0.5t-75 0.5l-136 -215q-3 -8 -13 -4q-8 5 -4 13l130 206q-68 2 -134 0l-152 -241q-3 -8 -13 -4q-8 5 -4 13l146 232q-22 0 -109 -3q-11 0 -11 10t9 10zM314 244l89 140h-132l-90 -140h133z" />
    <glyph glyph-name="dollar" unicode="$" horiz-adv-x="591" 
d="M664 537q88 43 126 112q25 46 6 60q-2 2 -5 3q-23 8 -65.5 -47.5t-96 -146.5l-112 -187.5t-128 -183t-128.5 -120.5q-120 -68 -197 -12q-64 47 -64 150q-1 126 93 239q19 23 40 43q34 32 89.5 59.5t113.5 35.5t92 -28q46 -49 -21 -156q-6 -8 -14 -2q-7 5 -2 14
q68 113 7 142q-60 28 -138 -12t-131 -102q-95 -110 -104 -230q-7 -99 50 -139q62 -45 168 11q63 33 129 120t119 184l104 189t101.5 149t94.5 50q33 -5 31 -45q-1 -57 -69 -115q-35 -30 -83 -53q-9 -3 -13 6q-2 10 7 12zM833 762q-169 -198 -446.5 -488t-331.5 -350
q-6 0 -17 3t-12 6l126.5 128l193 197l219.5 233.5l254 284.5q5 9 14 0q6 -6 0 -14z" />
    <glyph glyph-name="percent" unicode="%" horiz-adv-x="549" 
d="M490 619q-353 -611 -383 -614q-9 0 -11 9q46 69 190.5 310t189.5 309q7 7 14 0t0 -14zM221 600q27 -15 29 -50t-17 -73.5t-45.5 -73.5t-59.5 -52t-58 -6q-46 21 -21 102q23 74 78 125q53 48 94 28zM74 354q20 -8 54 22.5t60 74.5t38.5 85.5t-9.5 55.5q-35 13 -92 -61
q-54 -72 -65 -133q-6 -36 14 -44zM489 259q27 -15 29 -50t-17 -73.5t-45.5 -73.5t-59.5 -52t-58 -6q-46 21 -21 102q23 74 78 125q53 48 94 28zM342 13q20 -8 54 22.5t60 74.5t38.5 85.5t-9.5 55.5q-35 13 -92 -61q-54 -72 -65 -133q-6 -36 14 -44z" />
    <glyph glyph-name="ampersand" unicode="&#x26;" horiz-adv-x="781" 
d="M113 -62q-38 75 -36.5 139t40.5 138q27 51 75 105.5t76.5 79.5l98.5 86q-32 47 -36 98.5t26 101.5q24 39 68.5 50t73.5 -24q16 -18 12.5 -44t-13 -48t-29.5 -47.5t-35.5 -42t-32.5 -31.5l-17 -12q17 -24 37 -45.5t35.5 -35l42.5 -36t43 -37.5q37 37 58 60t45.5 58.5
t31.5 64t3.5 65.5t-25.5 74l-14 19q-6 6 2 9q5 1 7 -1l14 -23q22 -39 26.5 -77.5t-3 -68t-32 -66t-46 -60t-59.5 -61.5q51 -46 79 -95t31 -123q4 -88 -29 -166.5t-105 -123.5q-66 -42 -144.5 -31t-131.5 71q-33 38 -53 91q-34 95 -12 191q16 63 57 103.5t103 46.5
q59 4 113 -43q17 20 73 76l-124 114q-1 1 -14 16t-20 24q-58 -48 -94.5 -81t-80.5 -84t-70 -101q-39 -72 -41 -134t34 -135q3 -4 -2 -7q-2 -3 -6 3zM465 239q42 -43 56.5 -98.5t5.5 -98.5q-5 -44 -28.5 -78t-61.5 -37t-59.5 20.5t-26.5 60.5q-3 21 2 61q9 69 96 170
q-48 46 -104 39q-45 -4 -77.5 -36.5t-47 -80.5t-13.5 -104.5t17 -108t51 -92t82 -54.5q63 -18 125 14.5t101 94t45 129.5q7 100 -13.5 163t-74.5 113q-50 -50 -75 -77zM459 231q-50 -55 -76 -111.5t-22 -91.5q0 -86 66 -89q37 -3 59.5 29t29.5 76q4 24 2 56q-1 30 -17 67
t-42 64zM380 498l6 4l7 7q32 28 64 68.5t41 76.5q8 29 -4 44q-5 7 -10.5 12.5t-7.5 7t-8.5 5.5t-8.5 5q-37 9 -67 -32t-33.5 -95.5t21.5 -102.5z" />
    <glyph glyph-name="quotesingle" unicode="'" horiz-adv-x="162" 
d="M93 624q20 -1 27 -63.5t-2 -124t-28 -61.5q-14 0 -23 26t-10 63t2.5 73.5t12.5 62t21 24.5z" />
    <glyph glyph-name="parenleft" unicode="(" horiz-adv-x="497" 
d="M471 648q-116 -74 -222.5 -202.5t-168.5 -275t-49 -258.5q4 -11 0 -12q-9 -3 -12 7q-25 133 38 291.5t175.5 282.5t234.5 178q9 4 14 -4q1 -2 0 -3.5t-5 -2.5t-5 -1z" />
    <glyph glyph-name="parenright" unicode=")" horiz-adv-x="457" 
d="M-20 -89q116 74 222.5 202.5t168.5 275t49 258.5q-4 11 0 12q9 3 12 -7q25 -133 -38 -291.5t-175.5 -282.5t-234.5 -178q-9 -4 -14 4q-1 2 0 3.5t5 2.5t5 1z" />
    <glyph glyph-name="asterisk" unicode="*" horiz-adv-x="353" 
d="M177 614q-3 -69 -3 -136l118 106q7 7 13 0q7 -7 0 -13l-122 -112l122 -111q7 -6 0 -13q-6 -7 -13 0l-118 106q0 -45 2 -137q0 -10 -10 -10t-10 9q-1 44 -1 131l-118 -100q-7 -5 -14 2t2 14q78 63 129 109l-129 110q-9 7 -2 14t14 2l118 -100q0 41 2 129q0 10 10 10
t10 -10z" />
    <glyph glyph-name="plus" unicode="+" horiz-adv-x="434" 
d="M225 503q2 -88 -1 -176q77 0 177 -2q9 0 9 -10q0 -9 -10 -9q-23 0 -83 0.5t-94 0.5q-1 -17 -7 -179q0 -9 -10 -9q-9 0 -9 10l6 178q-126 0 -175 -3q-11 0 -11 10t9 10q50 3 178 3q2 125 0 174q2 11 11 11q10 0 10 -9z" />
    <glyph glyph-name="comma" unicode="," horiz-adv-x="223" 
d="M123 0q-9 8 -19 20.5t-19 28.5t-7 33t17 28q32 23 55 -11q25 -38 10 -92q-16 -55 -70 -84q-15 -8 -19 -0.5t8 18.5q46 40 44 59z" />
    <glyph glyph-name="hyphen" unicode="-" horiz-adv-x="331" 
d="M40 278q78 4 259 1q9 0 9 -10q0 -9 -10 -9q-190 2 -256 -2q-11 0 -11 10t9 10z" />
    <glyph glyph-name="period" unicode="." horiz-adv-x="156" 
d="M81 126q24 2 34.5 -29.5t0 -64t-37.5 -32.5q-22 0 -31 32.5t1 64t33 29.5z" />
    <glyph glyph-name="slash" unicode="/" horiz-adv-x="300" 
d="M391 610l-298.5 -515t-59.5 -90q-9 0 -11 9q46 68 177.5 304t177.5 306q7 7 14 0t0 -14z" />
    <glyph glyph-name="zero" unicode="0" horiz-adv-x="472" 
d="M400 585q81 -42 41 -186q-36 -128 -138 -253q-100 -123 -185 -142q-33 -7 -59 5q-77 37 -46 173q28 126 123 252q97 129 189 154q41 11 75 -3zM68 28q30 -12 77 16.5t92 82.5t88.5 121.5t67.5 132t28 115.5t-30 72q-65 23 -170 -95q-96 -108 -153 -246q-60 -144 -17 -188
q7 -7 17 -11z" />
    <glyph glyph-name="one" unicode="1" horiz-adv-x="400" 
d="M158 417q56 32 140 98t105 81q8 7 15.5 1t2.5 -15q-53 -108 -190 -304t-178 -266q-8 -11 -20 -10.5t-23.5 7t-9.5 10.5q54 89 187 263.5t187 263.5l-59 -46.5t-78 -59.5t-70 -44q-9 -5 -15 5q-4 9 6 16z" />
    <glyph glyph-name="two" unicode="2" horiz-adv-x="438" 
d="M119 412q8 94 99 146q79 45 161 31q78 -15 94 -79l2 -8q8 -46 -25 -96.5t-90 -93t-108 -72t-95 -49.5q-37 -16 -102 -56t-100 -75q36 8 95 -7.5t110 -32.5t68 -13q11 3 19.5 8.5t15 17t9 17t8 22t6.5 18.5q5 10 15 5q11 -4 5 -15q-1 -4 -4.5 -13.5l-5 -13.5l-4.5 -12
t-6 -13t-7 -11t-9 -11t-11 -9q-18 -17 -53.5 -12.5t-65 16.5t-72.5 25t-75 13q-15 0 -35.5 -9.5t-35 -18t-16.5 -5.5q-18 21 34.5 70t114 88.5t88.5 51.5q29 12 64.5 32t77.5 50t75 61.5t53 68.5t14 70q-7 39 -41.5 57.5t-78.5 12.5q-61 -6 -110 -48t-55 -108q0 -9 -12 -11
q-9 0 -11 11z" />
    <glyph glyph-name="three" unicode="3" horiz-adv-x="398" 
d="M89 419q5 71 52 117t110 57q86 16 130 -33q39 -45 13 -104q-35 -79 -163 -117q-16 -5 -34 -9q87 -25 89 -103q3 -71 -62 -139q-77 -80 -180 -83q-30 0 -59 6q-37 8 -56 25.5t-23 54.5q0 4 3.5 8t7.5 4q12 0 12 -12q4 -45 49 -59q95 -27 180 50q64 58 80 131q16 74 -36 97
q-5 2 -11 4q-17 5 -37.5 7t-36 1.5t-16.5 -0.5q-18 6 -8 16q3 7 27 7q158 19 216 98q37 50 12 93q-24 43 -88 35q-11 -1 -23 -4q-50 -13 -85.5 -51.5t-39.5 -96.5q0 -4 -3.5 -8t-7.5 -4q-5 0 -8.5 3.5t-3.5 8.5z" />
    <glyph glyph-name="four" unicode="4" horiz-adv-x="381" 
d="M362 207q-15 1 -94 1q-22 -35 -56 -99t-59 -102q-2 -4 -25.5 -6t-27.5 1q-10 5 -3 16l118 191q-203 6 -206 22q-3 13 171.5 151.5l273.5 212.5q3 3 4 3h2t3 -2t6 -4q-12 -31 -87.5 -176.5t-99.5 -182.5l80 -2q12 0 12 -12q0 -5 -4 -8.5t-8 -3.5zM231 234q112 189 188 306
l-91 -69.5l-103 -79l-90.5 -72.5t-89.5 -77q122 -4 186 -8z" />
    <glyph glyph-name="five" unicode="5" horiz-adv-x="492" 
d="M544 553q-34 -26 -74 -32t-71 3.5l-63 19l-50 14.5t-32 -10q-27 -36 -63 -97t-50 -99q59 37 109 43q98 12 140 -62q37 -67 6 -155q-34 -98 -129 -145q-69 -34 -157 -30q-51 2 -81 25t-29 70q2 12 13 10q11 -3 11 -13q-2 -27 14 -45.5t44 -23.5q141 -20 222 73
q59 67 56 152q-3 78 -59 107q-27 13 -62 10q-26 -2 -48.5 -13t-38 -23t-19.5 -13q-49 -10 34 135q51 88 76 119q15 19 39 21t52.5 -6.5t58.5 -16t66 -2.5t67 29q9 7 16 -1q4 -3 4.5 -21.5t-2.5 -22.5z" />
    <glyph glyph-name="six" unicode="6" horiz-adv-x="405" 
d="M435 434q26 24 29.5 58t-18.5 59t-61 24q-64 -4 -148.5 -90t-137.5 -192q90 104 173 107q80 2 96 -77q15 -78 -34 -176q-35 -70 -87 -107t-114.5 -37t-94.5 51q-21 34 -25 78t7.5 89t33.5 92.5t53.5 89.5t67 79.5t75 63.5t76 40t71.5 10.5t61 -25.5q31 -26 29.5 -73.5
t-38.5 -82.5q-12 -6 -16 3q-5 7 2 16zM69 71q17 -30 48 -38.5t61.5 0t57.5 26.5q57 37 93 128q39 98 11 152q-18 37 -65 37q-36 0 -72 -21t-56.5 -42.5t-50.5 -58.5q-6 -8 -15 -2h-1q-47 -118 -11 -181z" />
    <glyph glyph-name="seven" unicode="7" horiz-adv-x="400" 
d="M127 468q9 22 18 38t16.5 27t20 17.5t20 10t25.5 3.5h27.5t36 -2.5t40.5 -3.5q76 -6 118 -5l37 -2q14 -3 3 -10q-46 -18 -96.5 -64t-102 -114t-89.5 -124l-86.5 -133.5t-65.5 -102.5q-5 -6 -35 -2q-13 4 -13 9q1 1 43.5 65l57.5 85.5l57.5 82t69.5 92l66 76.5t73.5 74.5
t66.5 48.5q-16 0 -146 7q-45 5 -71 2t-40 -19t-32 -61q-3 -10 -13 -7q-9 4 -6 12z" />
    <glyph glyph-name="eight" unicode="8" horiz-adv-x="403" 
d="M211 68q-22 -25 -53 -40.5t-62 -19.5t-63 -0.5t-56.5 17.5t-42 34.5t-20.5 49.5t9 63q8 24 29 46t56 44t54 32.5t57 28.5l12 6q-13 26 -17 41q-14 56 -3 102.5t43.5 76t70 42.5t76.5 2t62 -45q21 -37 11.5 -71.5t-43.5 -66t-72 -53.5t-74 -34l19 -33t16.5 -32.5t16 -38.5
l8 -35.5t2 -40.5t-11.5 -36.5t-24 -38.5zM-57 165q-17 -46 1.5 -80.5t56.5 -48t86.5 -7.5t85.5 34q25 20 32 48.5t-6.5 69t-24 63t-33.5 66.5q-175 -84 -198 -145zM175 342h2q45 15 95.5 51t76 79.5t-17.5 78.5q-29 22 -66 18t-64.5 -30t-42 -67.5t1.5 -94.5q5 -17 15 -35z
" />
    <glyph glyph-name="nine" unicode="9" horiz-adv-x="402" 
d="M-30 161q-26 -24 -29.5 -58t18.5 -59t61 -24q64 4 148.5 90t137.5 192q-90 -104 -173 -107q-80 -2 -96 77q-15 78 34 176q35 70 87 107t114.5 37t94.5 -51q21 -34 25 -78t-7.5 -89t-33.5 -92.5t-53.5 -89.5t-67 -79.5t-75 -63.5t-76 -40t-71.5 -10.5t-61 25.5
q-31 26 -29.5 73.5t38.5 82.5q12 6 16 -3q5 -7 -2 -16zM336 524q-17 30 -48 38.5t-61.5 0t-57.5 -26.5q-57 -37 -93 -128q-39 -98 -11 -152q18 -37 65 -37q36 0 72 21t56.5 42.5t50.5 58.5q6 8 15 2h1q47 118 11 181z" />
    <glyph glyph-name="colon" unicode=":" horiz-adv-x="167" 
d="M92 127q24 2 34.5 -29.5t0 -64t-37.5 -32.5q-22 0 -31 32.5t1 64t33 29.5zM92 459q24 2 34.5 -29.5t0 -64t-37.5 -32.5q-22 0 -31 32.5t1 64t33 29.5z" />
    <glyph glyph-name="semicolon" unicode=";" horiz-adv-x="162" 
d="M95 458q24 2 34.5 -29.5t0 -64t-37.5 -32.5q-22 0 -31 32.5t1 64t33 29.5zM99 3q-9 8 -19 20.5t-19 28.5t-7 33t17 28q32 23 55 -11q25 -38 10 -92q-16 -55 -70 -84q-15 -8 -19 -0.5t8 18.5q46 40 44 59z" />
    <glyph glyph-name="less" unicode="&#x3c;" horiz-adv-x="404" 
d="M379 528q-13 -11 -49 -44t-59.5 -52.5t-60.5 -46t-75.5 -43t-78.5 -23.5q89 -29 176 -89.5t153 -135.5q1 -10 -6 -11t-14 6q-35 34 -164.5 109t-166.5 108q-13 9 -4 20q37 24 109.5 66t128 78t101.5 75q8 2 12.5 -4t-2.5 -13z" />
    <glyph glyph-name="equal" unicode="=" horiz-adv-x="547" 
d="M66 282q120 7 429 1q9 0 9 -10q0 -9 -10 -9q-336 3 -426 -2q-11 0 -11 10t9 10zM64 446q75 -2 213 -1.5t213 2.5q10 0 10 -10t-9 -10q-134 -4 -427 -1q-10 0 -10 10t10 10z" />
    <glyph glyph-name="greater" unicode="&#x3e;" horiz-adv-x="432" 
d="M46 528q-7 7 -2.5 13t12.5 4q46 -39 101.5 -75t128 -78t109.5 -66q9 -11 -4 -20q-37 -33 -166.5 -108t-164.5 -109q-5 -5 -10 -6t-8 1.5t-2 9.5q66 75 153 135.5t176 89.5q-40 7 -78.5 23.5t-75.5 43t-60.5 46t-59.5 52.5t-49 44z" />
    <glyph glyph-name="question" unicode="?" horiz-adv-x="503" 
d="M216 376q-31 75 -10.5 133.5t76.5 93.5t126 36q64 0 98.5 -39.5t21 -96.5t-74.5 -101q-50 -36 -106 -61.5t-87.5 -37.5t-70.5 -54t-76 -119q-3 -11 -15 -7q-11 4 -7 15q32 66 59 105t54.5 59.5t51.5 31.5t67.5 33t86.5 53q51 37 68.5 84t-5 79.5t-75.5 32.5
q-61 -1 -109 -31t-64.5 -80.5t10.5 -117.5q7 -11 -4 -15q-9 -7 -15 4zM57 60q11 4 15.5 -6t0.5 -23q-10 -35 -31 -31q-17 4 -18 23q-2 26 33 37z" />
    <glyph glyph-name="at" unicode="@" horiz-adv-x="602" 
d="M498 545q-58 17 -121.5 6t-117 -44t-101 -81t-75.5 -106t-39 -118.5t8 -118.5q17 -58 64 -83.5t105 -21.5t121.5 24.5t116.5 49.5t88 59q11 11 21 0t0 -21q-41 -34 -100 -66t-128 -52t-131.5 -22.5t-113.5 28.5t-71 96q-15 57 -10.5 117t32 117t65.5 107.5t91 88.5
t108 60t116 21.5t116 -26.5q66 -31 87.5 -84t2.5 -109.5t-59 -111.5t-96 -96t-109 -56q-35 -10 -44 12t3 88q-25 -30 -55.5 -47t-55.5 0q-19 16 -22 49.5t8.5 69t31 66.5t49.5 46.5t60 4.5q21 -9 41 -51q4 8 22 41q6 9 33 -6q16 -9 11 -13q-19 -24 -48 -74.5t-42 -91.5
q-22 -68 -2 -69h3q64 9 142 88q89 90 105 178q17 114 -110 152zM373 318q-12 36 -31 46q-34 19 -76 -44q-40 -59 -42 -113q-2 -41 28 -38q29 3 87 70q16 42 34 79z" />
    <glyph glyph-name="A" unicode="A" horiz-adv-x="707" 
d="M494 365q-70 -78 -107 -116q3 0 9.5 -0.5t9.5 -0.5q10 -2 8 -11q0 -9 -10 -9l-36 2q-68 -71 -131.5 -120.5t-110 -72.5t-84 -29.5t-59.5 2t-30 28.5q-9 21 -0.5 48t38.5 56.5t77 54t124 39.5t170 14q35 36 107 116q-41 -2 -67 -32q-7 -7 -14 -2q-9 5 -2 14q40 44 100 39
l125 138t105 101.5t110 80.5q5 3 10.5 -2t3.5 -11q-5 -10 -38 -58.5l-81.5 -122t-86.5 -137.5q29 5 61 22q8 6 13 -3q5 -7 -2 -14q-40 -22 -85 -27q-191 -326 -57 -332q47 -2 65 44q2 9 12 7q9 -3 7 -13q-12 -31 -38.5 -47t-58.5 -9q-160 30 28 350q-17 2 -45.5 7t-39.5 6z
M343 230q-82 -1 -150 -14.5t-110.5 -33.5t-71 -44.5t-37.5 -47t-3 -39.5q5 -14 23.5 -19t52 2t75.5 27t100 63.5t121 105.5zM792 662q-37 -27 -90.5 -78.5t-85.5 -86l-106 -114.5q76 -12 80 -12q78 129 202 291z" />
    <glyph glyph-name="B" unicode="B" horiz-adv-x="724" 
d="M656 694q-28 -29 -61 -75q106 81 162 81q67 0 64 -57q-2 -63 -72 -145q-58 -66 -124 -98q26 -21 34.5 -60t-1 -82.5t-29.5 -90t-51 -83t-67 -61t-76 -24t-78 27.5q-66 51 7 160q6 9 13 2q9 -5 3 -13q-63 -96 -11 -133q29 -19 62 -15.5t64 27t58.5 57t46 75t28 80
t3.5 72.5t-28 52q-35 -14 -60 -16.5t-35.5 3.5t-10.5 16q1 13 15 22.5t38.5 11t57.5 -15.5q51 26 119 109q80 97 70 140q-6 26 -52 19q-10 -2 -23.5 -7t-25 -11t-27 -16l-25.5 -16.5t-26 -19t-22.5 -17t-20.5 -16.5t-15 -12q-2 -2 -4 -2l-60.5 -93l-81 -123t-70.5 -98
q7 0 10.5 -0.5t8 -1t11.5 -0.5q10 0 8 -11q0 -10 -10 -8q-21 1 -43 1q-141 -180 -266 -219q-74 -24 -104 14q-9 11 -11 26q-4 26 13.5 57.5t56 62.5t113 53t170.5 25q45 59 117 167t127.5 184t96.5 109q8 8 14 0q7 -9 0 -14zM285 228q-72 -3 -130.5 -18.5t-93.5 -36.5
t-57.5 -45t-29 -44.5t-0.5 -35.5q6 -16 24.5 -20.5t48 4.5t66 31t82 65t90.5 100zM582 402q-16 6 -31 6.5t-22.5 -2.5t-8.5 -7q0 -3 6 -4.5t20.5 0t35.5 7.5z" />
    <glyph glyph-name="C" unicode="C" horiz-adv-x="404" 
d="M552 579q30 29 37.5 51t-5 32t-35 14t-51.5 -2q-98 -15 -233 -153q-129 -131 -194 -269q-71 -153 -5 -204q7 -6 16 -10q53 -25 134 7t115 84q4 11 13 7t6 -13q-39 -62 -126 -100t-148 -11q-106 47 -65 197q36 133 162 278q123 142 243 191q31 12 58 16q41 8 73 1
t51.5 -21t12 -43.5t-45.5 -66.5q-7 -6 -14 1t1 14z" />
    <glyph glyph-name="D" unicode="D" horiz-adv-x="786" 
d="M704 685q-30 -31 -76 -96q61 53 124 82.5t103 13.5q85 -34 49 -176q-36 -136 -152 -285q-120 -153 -237 -203q-31 -13 -58 -17q-41 -8 -73 -1t-51.5 20.5t-12 43t45.5 66.5q7 7 14 0q6 -8 -1 -14q-30 -29 -37.5 -50.5t5 -32t34.5 -14.5t52 -1q102 13 236 162
q122 134 184 280q64 150 9 195q-6 5 -13 8q-35 16 -97 -15t-114 -78t-76 -83q-6 -18 -75 -117.5t-95 -132.5q7 0 11 -0.5t8.5 -1t10.5 -0.5q9 0 9 -10q-2 -11 -11 -9q-31 2 -43 1q-60 -76 -122.5 -128t-113 -73t-92.5 -24t-67.5 12t-31.5 40q-5 21 3.5 44.5t37 49t73 46.5
t118.5 35.5t167 17.5q46 59 117.5 166.5t127.5 183.5t97 109q7 7 14 0q6 -7 -1 -14zM334 220q-83 -4 -150 -18t-108 -32t-67.5 -40t-36 -41.5t-6.5 -36.5q6 -35 55 -38q82 -6 190 80q63 50 123 126z" />
    <glyph glyph-name="E" unicode="E" horiz-adv-x="434" 
d="M490 574q42 3 75 25.5t12 56.5q-36 49 -112 10q-68 -35 -111 -107q-51 -84 -22 -147q34 3 56.5 -0.5t31.5 -9.5t8 -15q-1 -13 -17.5 -21.5t-42 -4t-45.5 27.5q-48 -8 -102.5 -38.5t-97 -73.5t-70 -88.5t-22.5 -89.5t47 -71q48 -30 133 6.5t110 88.5q4 9 12 6q9 -4 6 -13
q-18 -39 -69.5 -73t-106 -43.5t-96.5 11.5q-51 32 -63.5 82t10.5 101.5t66 98.5t105.5 79t125.5 37q-34 98 37 194q53 73 129 97q78 25 113 -29q4 -6 7 -12q20 -45 -17 -72.5t-90 -32.5q-9 0 -9 10t9 10zM354 392q16 -7 29.5 -9t14.5 1q2 2 -4 5q-12 4 -40 3z" />
    <glyph glyph-name="F" unicode="F" horiz-adv-x="744" 
d="M269 660q113 69 192.5 77t204.5 -36q23 -3 24 -7q174 -55 332 7q9 5 14 -1q6 -6 -1 -14q-91 -38 -178.5 -39.5t-177.5 29.5q-11 -12 -22.5 -26t-25 -33l-23.5 -33l-26.5 -39l-25 -38l-28 -43.5l-27.5 -42.5q24 -16 54 -14.5t57 34.5q5 9 13 3q9 -6 3 -14q-18 -22 -36 -33
t-37 -10t-31.5 5t-33.5 13q-70 -106 -115 -165q7 0 11 -0.5t8.5 -1t10.5 -0.5q9 0 9 -10q-2 -11 -11 -9q-31 2 -43 1q-59 -75 -120 -126.5t-109 -72.5t-89 -24.5t-65.5 9.5t-32.5 37q-7 21 1.5 45.5t36.5 50t72 47t116.5 36.5t161.5 18q31 40 127 179q-58 22 -100 -26
q-7 -8 -14 -3q-9 7 -2 14q33 38 67.5 43t59.5 -11q128 194 186 248q-123 42 -194.5 34t-181.5 -75q-9 -5 -14 3q-6 8 3 14zM316 220q-81 -4 -146 -17.5t-104.5 -31.5t-64.5 -40t-33 -41.5t-3 -36.5q5 -20 25 -30t53 -5.5t74 24t93.5 65.5t105.5 113z" />
    <glyph glyph-name="G" unicode="G" horiz-adv-x="496" 
d="M188 244q34 30 63.5 38.5t53 2t57 -10t74.5 1.5q29 5 3 -37q-18 -31 -115 -145l-19 -24l-111 -123q24 -2 35 -2q9 -2 9 -11q-2 -9 -11 -9l-51 3q-68 -72 -134 -119.5t-115 -65.5t-88.5 -19.5t-61.5 12.5t-27 38q-4 22 7.5 45.5t43 47.5t79 42.5t122.5 29t165 8.5l78 82
q-102 -52 -171 -22q-106 47 -65 197q36 133 162 278q123 142 243 191q31 12 58 16q30 3 59 2.5t48.5 -11t28 -25.5t-2.5 -40.5t-42 -55.5q-7 -6 -14 1q-7 6 1 14q30 29 37.5 50.5t-5 32t-34.5 14t-52 1.5q-100 -13 -236 -145q-130 -127 -196 -266q-75 -156 -9 -218
q10 -10 25 -17q44 -21 110.5 1.5t112.5 66.5l48 59.5t45 56t28 45.5q-39 -5 -81.5 4.5t-73 6.5t-67.5 -36q-7 -7 -14 0q-5 7 0 14zM148 -72q-97 1 -174.5 -13.5t-121 -38t-65 -49t-19.5 -47.5q3 -34 49 -39q85 -9 216 88q56 41 115 99z" />
    <glyph glyph-name="H" unicode="H" horiz-adv-x="758" 
d="M963 667q-57 -13 -143.5 -96t-158.5 -191q27 6 54 24q7 6 14 -1q6 -8 -1 -14q-39 -26 -82 -31q-51 -81 -77 -151t-16.5 -126t64.5 -74q27 -6 56 9.5t45 32.5t38 44q6 8 13 3q9 -5 4 -14q-102 -125 -178 -88q-55 26 -67 85.5t10.5 129t70.5 148.5q-19 2 -38 6t-47.5 13
t-33.5 10q-60 -90 -97 -137l30 -2q9 -2 9 -11q-2 -9 -11 -9q-20 2 -43 2q-145 -185 -289 -225q-89 -25 -134 15q-17 15 -20 37q-4 28 15 58t63.5 59.5t132 50t204.5 24.5q42 54 104 147q-44 7 -68 -20q-5 -8 -14 -2t-1 14q33 37 95 25q128 192 176 247q27 31 49 49
q8 8 14 -1q7 -7 0 -14q-21 -22 -48 -58t-45.5 -63l-56.5 -85l-54 -83q5 -1 27.5 -8t32.5 -9.5t27.5 -6t32.5 -3.5q75 119 174.5 210.5t167.5 99.5q10 0 10 -10t-10 -10zM334 228q-90 -4 -162 -19t-114 -34.5t-68.5 -42.5t-33.5 -43.5t-1 -37.5q7 -20 30 -29.5t60 -4t81 26.5
t99 68.5t109 115.5z" />
    <glyph glyph-name="I" unicode="I" horiz-adv-x="553" 
d="M428 395q1 66 19 124.5t51 105t87.5 67.5t122.5 8q8 -17 -131.5 -217.5t-185.5 -256.5q26 -2 33 -3q9 0 9 -11q-2 -10 -11 -8q-40 2 -47 2q-60 -72 -122.5 -120t-112.5 -66t-92 -19.5t-66.5 13.5t-28.5 39q-3 20 6 41t37 44.5t72 42t117.5 31t165.5 14.5q88 108 319 454
q-94 9 -157 -75.5t-65 -207.5q0 -11 -9 -11q-9 -2 -11 9zM335 206q-86 -4 -153.5 -17t-107 -30t-64.5 -37t-32.5 -37.5t-4.5 -32.5q4 -18 25.5 -27.5t57 -5t78.5 23t97 61t104 102.5z" />
    <glyph glyph-name="J" unicode="J" horiz-adv-x="604" 
d="M490 387q1 65 19 124t51 105t87.5 67.5t122.5 8.5q8 -17 -199.5 -310.5t-259.5 -358.5q5 0 33 -2q10 -2 8 -11q0 -9 -11 -9q-29 3 -46 3q-73 -88 -140.5 -150.5t-117.5 -93.5t-91 -42.5t-65.5 -4.5t-36.5 28q-7 13 -8 30t5 36t18 40t32 41.5t46 40t61 36t75.5 29.5
t91 20.5t106.5 8.5q47 58 229.5 316.5l231.5 331.5q-94 10 -157 -74.5t-65 -208.5q0 -10 -9 -10q-11 -2 -11 9zM254 3q-87 -4 -160.5 -26t-119.5 -51.5t-76.5 -63t-40 -63t0.5 -48.5q8 -17 28.5 -21.5t55.5 7.5t79.5 41.5t105 87t127.5 137.5z" />
    <glyph glyph-name="K" unicode="K" horiz-adv-x="730" 
d="M648 683q-47 -49 -153.5 -212.5t-158.5 -232.5q7 0 10.5 -0.5t8.5 -1t11 -0.5q9 0 9 -10q-2 -11 -11 -9q-31 2 -43 1q-133 -170 -264 -213q-81 -27 -116 7q-12 12 -14 29q-2 20 9 44t39 50t69 48t106 37t143 18q46 59 117.5 166l127 183.5t96.5 109.5q8 8 14 0
q7 -7 0 -14zM955 622q-1 38 -12.5 52.5t-31.5 10.5q-27 -2 -81.5 -49t-105.5 -102t-103 -102.5t-75 -51.5q36 -52 -12 -182q-7 -16 -19 -48q-37 -92 -33 -117q5 -26 42 -22q47 5 103 86q6 8 14 3q8 -6 3 -14q-20 -27 -34.5 -44.5t-41.5 -34.5t-53 -16q-45 4 -57.5 36.5
t1 79.5t32.5 96t33 96t6 69q-25 -15 -36 -16q-37 -6 -39 20q-3 23 19 39q31 22 61 -15q16 13 68.5 68l101.5 104t110 91t102 42q27 3 42 -16t16 -64q0 -4 -3 -7t-7 -2q-10 0 -10 10zM277 218q-88 -4 -157 -25.5t-105 -49.5t-53 -55t-14 -47q6 -33 56 -28q83 10 191 113
q42 40 82 92zM521 384q-16 20 -34 11q-15 -6 -14 -16q2 -16 42 0q2 1 6 5z" />
    <glyph glyph-name="L" unicode="L" horiz-adv-x="628" 
d="M424 473l-61 -105l-69 -117.5t-60 -93t-65 -85.5q29 -6 84.5 -23t92 -25.5t82.5 -11.5t84 15t69 58l24 38q4 10 13 4q10 -4 4 -13l-26 -41q-24 -32 -57.5 -51.5t-72.5 -24.5t-73.5 -5t-79 10.5t-69 17.5t-62.5 20.5t-43 14.5q-123 -69 -187 -49q-31 10 -22 35
q11 31 73 43q58 11 137 -5q9 6 46 68.5l97.5 166.5t107.5 176q2 4 19 30l23 35t23.5 33t28 34.5l29 28t33.5 25.5t34.5 15t38.5 7q25 1 41 -18t17 -62q0 -10 -10 -10t-10 10q0 20 -3.5 32.5t-11 18t-13.5 7.5t-16 2q-15 -1 -30.5 -9t-28.5 -18t-28.5 -27.5t-25 -30
t-24.5 -34.5t-20.5 -31.5l-18.5 -31t-14 -23.5zM113 64q-82 12 -143 -13q-33 -14 -19 -23q1 -1 3 -2q45 -21 159 38z" />
    <glyph glyph-name="M" unicode="M" horiz-adv-x="886" 
d="M796 678q-30 -80 -60 -150t-48.5 -108.5l-75.5 -155.5l61.5 77l66.5 83l63 75.5t67.5 74.5l61 57.5t63 47t55.5 22.5q3 2 5 0q11 -8 -24 -60.5t-91.5 -129l-112 -159t-87.5 -165.5t-16 -134q10 -27 29.5 -30.5t42 11.5t38.5 30t30 32q6 8 14 2t2 -13q-18 -22 -39.5 -40.5
t-48 -33t-50 -6.5t-37.5 41q-12 30 -9.5 67.5t9.5 72.5t25 75.5t37 76.5t45.5 75.5t51 72.5t53 67l51 60t46.5 51q-37 -21 -87 -67.5t-100.5 -104.5l-102 -123l-96.5 -126l-80 -110.5l-56 -79.5l-20 -30q-6 -2 -7 0q-6 10 11.5 57t61.5 137l70.5 142.5l85.5 165l60 114.5
q-49 -49 -162 -189t-174 -204h19q9 -2 9 -11q-2 -11 -11 -9q-12 1 -35 1q-185 -189 -334 -222q-87 -19 -119 22q-10 13 -11 31q-1 30 24.5 61.5t76.5 62t144 49t212 16.5q57 59 190 224.5t196 218.5q6 2 11.5 -2.5t5.5 -9.5zM375 227q-110 0 -196 -17.5t-132.5 -44
t-69.5 -54t-22 -51.5q1 -29 46 -36q83 -13 212 69q79 52 162 134z" />
    <glyph glyph-name="N" unicode="N" horiz-adv-x="729" 
d="M678 686q-21 -38 -101 -313t-102 -332q34 49 162 250t143 222q69 98 105 134q83 80 166 66q48 -9 75 -97q2 -10 -7 -12q-10 -2 -12 7q-20 66 -50 80t-98 -14q-86 -37 -308 -399q-8 -12 -11 -17q-3 -6 -39 -64.5t-81.5 -124.5t-59.5 -72q-4 -2 -6.5 1t-3.5 10
q-7 43 41.5 225.5t103.5 323.5q-130 -191 -244 -311h19q11 -2 9 -11q-1 -9 -11 -9q-12 1 -35 1q-69 -71 -132.5 -121.5t-109.5 -73.5t-82 -30t-56 2t-25 29q-6 21 5.5 48.5t42.5 57t76.5 54t117.5 40t157 14.5q134 142 309 405q16 31 29 46l2 2l1 1l1 -1q5 1 8.5 -2t3.5 -8
q1 -3 -3 -7zM308 231q-92 -1 -166 -22t-114.5 -51t-60.5 -60t-17 -53q4 -28 54 -19q101 18 261 164q21 19 43 41z" />
    <glyph glyph-name="O" unicode="O" horiz-adv-x="595" 
d="M635 555q-9 129 -185 113q-61 -6 -130.5 -50t-126.5 -109.5t-100 -145t-51 -156t22 -142.5q62 -85 201 -9q114 62 219 195q109 137 119 238q7 71 -44 97q-32 17 -74 6.5t-80.5 -40t-75.5 -70t-58 -83.5t-28 -81t13 -62q7 -9 21.5 -10t21 1l23.5 7q9 4 13 -5t-6 -13
q-58 -22 -84 3q-25 23 -23 65.5t25 88.5t60 93t82.5 78.5t91.5 45.5t87 -6q94 -54 51 -195q-37 -125 -156 -249q-121 -128 -239 -159q-109 -29 -171 47q-44 54 -51 123t16.5 136.5t69.5 134t104.5 118.5t126.5 87t131 41q83 8 141 -22.5t64 -110.5q0 -10 -10 -10t-10 10z
" />
    <glyph glyph-name="P" unicode="P" horiz-adv-x="734" 
d="M645 643q90 68 154 47q105 -35 88 -144q-14 -93 -102 -187q-87 -94 -174 -109q-68 -13 -109 36q-26 32 0 67q6 9 14 1q6 -8 0 -14q-15 -22 1 -42q45 -52 140 14q82 56 141 154q67 111 38 170q-13 27 -46 37q-45 13 -102 -24t-99 -84l-61.5 -95.5l-80.5 -122t-72 -100.5
q14 0 30 -1q9 -2 9 -11q-2 -9 -11 -9q-20 2 -43 2q-60 -77 -122.5 -129t-112.5 -73.5t-91.5 -25t-66.5 11t-32 39.5q-6 21 2.5 45t37 50t72.5 47t118 36t167 18q46 60 117.5 167l127 183.5t96.5 109.5q8 6 14 -1q7 -7 0 -14q-22 -22 -42 -49zM316 227q-85 -4 -153 -18.5
t-108.5 -34t-65.5 -42t-32 -42.5t-1 -37q7 -18 28.5 -27t57 -2.5t77 27t94 66t103.5 110.5z" />
    <glyph glyph-name="Q" unicode="Q" horiz-adv-x="704" 
d="M469 302q-24 -18 -54 -36t-72.5 -36t-77.5 -23t-64 12t-37 61q-14 83 53 181.5t174 166.5t204 72q48 3 79.5 -14.5t43 -48t9 -67.5t-17.5 -75q-30 -77 -82.5 -149t-114 -127t-115 -93.5t-106.5 -68.5q60 -17 119.5 -26.5t126 -10.5t112.5 24t57 76l4 37q0 9 10 9t10 -9
l-4 -41q-10 -48 -47 -76t-84 -35.5t-109.5 -2.5t-112.5 15.5t-105 26.5q-47 -23 -92 -33.5t-77.5 -8.5t-56.5 10.5t-35.5 21t-9.5 25.5q2 11 11 19.5t29 14t48.5 5.5t72.5 -7.5t97 -23.5q97 56 240.5 199t197.5 260q28 53 7.5 103.5t-85.5 51.5q-69 0 -177 -72t-186 -168.5
t-68 -157.5q6 -31 24.5 -46t46 -12t55.5 11.5t59 26t51 30t37 24.5q3 2 7.5 2t6.5 -4q6 -8 -2 -13zM229 55q-69 20 -117.5 24t-67 -2.5t-20.5 -18.5q-1 -8 7 -15.5t26 -12.5t42 -5.5t58.5 7t71.5 23.5z" />
    <glyph glyph-name="R" unicode="R" horiz-adv-x="768" 
d="M645 629q118 86 171 77q67 -11 53 -94q-14 -82 -88 -168q-64 -74 -130 -94q8 -28 0.5 -60t-25.5 -62l-36 -60.5t-31 -56t-9.5 -47.5t27.5 -36q36 -21 84 16.5t71 78.5q2 9 12 7q9 -3 7 -12q-26 -52 -82 -93t-102 -14q-40 23 -46.5 59t12 74.5t42.5 75t42.5 71t14.5 52.5
q-34 -12 -60 -6.5t-40 22.5t-6 33q12 24 50 15.5t67 -41.5q64 33 129 137q63 100 60 155q-1 24 -18 29q-10 2 -24 -1t-27 -8t-30.5 -15t-29.5 -17.5t-30.5 -20.5t-26 -19l-23 -18t-16.5 -13l-62 -96l-81.5 -124t-73.5 -102q7 0 10.5 -0.5t8 -1t11.5 -0.5q10 0 8 -11
q0 -10 -11 -8q-20 1 -42 1q-143 -182 -286 -224q-89 -25 -133 12q-22 19 -21 46q0 28 23 57t68.5 57.5t128.5 48t191 22.5q46 59 117.5 167t127.5 184t97 109q7 7 14 0q8 -8 -1 -14q-29 -31 -56 -69zM331 232q-103 -5 -181.5 -24t-119 -45.5t-59 -52.5t-15.5 -48
q5 -35 53 -40q80 -8 189 75q68 53 133 135zM620 360q-21 16 -38.5 23t-26 6t-11.5 -6q-4 -7 3.5 -14.5t25.5 -11t47 2.5z" />
    <glyph glyph-name="S" unicode="S" horiz-adv-x="591" 
d="M664 537q88 43 126 112q25 46 6 60q-2 2 -5 3q-23 8 -65.5 -47.5t-96 -146.5l-112 -187.5t-128 -183t-128.5 -120.5q-120 -68 -197 -12q-64 47 -64 150q-1 126 93 239q19 23 40 43q34 32 89.5 59.5t113.5 35.5t92 -28q46 -49 -21 -156q-6 -8 -14 -2q-7 5 -2 14
q68 113 7 142q-60 28 -138 -12t-131 -102q-95 -110 -104 -230q-7 -99 50 -139q62 -45 168 11q63 33 129 120t119 184l104 189t101.5 149t94.5 50q33 -5 31 -45q-1 -57 -69 -115q-35 -30 -83 -53q-9 -3 -13 6q-2 10 7 12z" />
    <glyph glyph-name="T" unicode="T" horiz-adv-x="744" 
d="M205 586q99 87 172 109t198 2q5 5 13 3t15.5 -6t7.5 -5q96 -16 169.5 -2t160.5 66q5 7 14 2q8 -8 1 -14q-90 -58 -171 -73.5t-183 2.5q-51 -78 -122.5 -246t-101.5 -225q8 1 14.5 1.5t14.5 1.5q11 2 11 -10q1 -3 -2 -6t-7 -3q-11 -2 -22.5 -3.5t-20.5 -2.5
q-91 -169 -214 -227q-82 -39 -132 -12q-21 11 -27 31q-2 12 -4 25.5t6 30t19.5 33t37.5 34.5t60.5 34t87 32t117.5 29q27 52 114 243t130 249q-114 18 -181.5 -3.5t-161.5 -103.5q-6 -6 -13 1t0 13zM304 165q-81 -18 -139.5 -40t-88 -41.5t-45.5 -41.5t-18.5 -36.5
t0.5 -29.5q5 -26 47 -25q72 2 152 85q50 52 92 129z" />
    <glyph glyph-name="U" unicode="U" horiz-adv-x="565" 
d="M289 724q116 -82 -10 -301q-37 -63 -151 -221q-87 -118 -90 -153q-1 -26 32 -27q42 -1 111 59t136 141q58 131 182 285.5t191 197.5q9 4 13 -5q1 -2 6 -4.5t8 -5t1 -3.5q-52 -48 -150.5 -173.5t-182 -268.5t-67.5 -198q7 -27 30.5 -28t59.5 29q42 36 72 99q2 10 12 6
q10 -2 6 -12q-9 -22 -28.5 -49.5t-46.5 -54t-55 -34.5t-55 9q-54 41 -17 155q-161 -179 -237 -164q-42 15 -50 48.5t12.5 77.5t55.5 98.5t77.5 109.5t79 111.5t60.5 105t22 89.5t-37 64q-8 4 -4 13q5 8 14 4z" />
    <glyph glyph-name="V" unicode="V" horiz-adv-x="602" 
d="M496 694q-73 -5 -130.5 -60t-96.5 -137.5t-70.5 -167.5t-70 -168t-78.5 -122q44 26 117.5 109t139.5 170l137 174t107 118q94 79 136 96q83 33 85 -85v-3q0 -9 -10 -9q-9 0 -9 10v30q-2 24 -12 35t-26 8.5t-32.5 -9t-37.5 -22l-34.5 -26t-30.5 -25.5t-18 -16
q-40 -34 -120 -133l-151.5 -194t-148 -175.5t-118.5 -89.5q-25 -5 -24 3q0 5 23 30l3 3q29 38 60.5 124l61 173.5t70 173.5t105.5 142.5t149 61.5q5 0 13.5 -3t8.5 -7q0 -2 3 -6q2 -3 -1 -3z" />
    <glyph glyph-name="W" unicode="W" horiz-adv-x="604" 
d="M382 692q-52 -15 -98.5 -74.5t-82.5 -139t-69 -160t-70.5 -153.5t-73.5 -104q56 49 142 152l168.5 209.5t103.5 130.5q151 171 214 149q23 -6 5 -27q-77 -89 -143.5 -209.5l-129.5 -235t-132 -193.5q65 55 130.5 137t118 159.5l107 153.5t120 140t135.5 99q10 4 12 1.5
t3 -12.5q-59 -21 -130.5 -94t-137 -165.5l-128.5 -184t-124 -165t-105 -94.5q-15 -7 -24 -9.5t-11 1t-2.5 6.5t4.5 11.5l7 12t8 11.5q1 2 2 3q38 57 80 146t73 161t91 162.5t138 163.5q-47 -16 -134.5 -109t-169 -198l-168.5 -210t-130 -137q-2 -1 -5.5 -3t-13.5 -6.5
l-18.5 -8l-17.5 -7t-15 -3t-7 4.5q-2 6 21 23q40 33 79.5 117t73 176t72.5 181.5t95.5 148.5t125.5 61q3 0 8 -1.5t9 -4t4 -4.5q0 -4 -3 -7t-7 -2z" />
    <glyph glyph-name="X" unicode="X" horiz-adv-x="654" 
d="M906 605q0 51 -14.5 74t-40.5 21q-23 -1 -55 -21t-66 -50.5t-71.5 -70.5t-71 -80.5l-65.5 -81l-54 -70.5l-38 -52l-16 -22q-30 -85 -31.5 -147.5t24.5 -78.5q51 -35 180 100q6 8 14 1q8 -6 0 -14q-64 -69 -118.5 -97t-86.5 -8q-27 16 -32 68.5t17 135.5
q-72 -76 -168.5 -143t-172.5 -67q-92 2 -129 119q-2 10 8 12q9 2 11 -7q37 -117 123 -105q125 18 366 344q9 11 12 16q121 292 -71 305q-10 0 -10 10t10 10q72 -4 107 -38.5t34.5 -89t-17.5 -125.5q50 67 170.5 163t196.5 99q74 2 75 -111q-2 -9 -11 -9t-9 10z" />
    <glyph glyph-name="Y" unicode="Y" horiz-adv-x="547" 
d="M257 681q104 35 146 3q39 -29 36.5 -78t-31 -103t-68 -113.5l-76 -109.5t-55 -91t-4.5 -58q51 -49 230 122q111 164 197.5 271.5t159.5 150.5q9 4 13 -5q1 -2 3.5 -5t3.5 -4.5t-1 -3.5q-79 -79 -144.5 -163.5t-106 -148.5l-101 -156t-119.5 -168h25q10 -2 9 -11
q0 -9 -11 -9q-13 1 -39 1q-68 -86 -133.5 -146.5t-114.5 -89.5t-89 -39t-64 -1.5t-33 30.5q-5 17 -5 39t14 47.5t33.5 51t54 48.5t75 41t97 28.5t119.5 10.5q20 25 33 44l35 53.5l42 63.5q-153 -127 -204 -58q-21 32 -12.5 76t33.5 85.5t60.5 90.5l67.5 91t54 86.5t22 77.5
q-11 76 -144 31q-9 -4 -13 5t5 13zM261 2q-89 -1 -163.5 -28t-116 -64.5t-63 -75t-15.5 -64.5q8 -39 60 -25q102 26 273 227z" />
    <glyph glyph-name="Z" unicode="Z" horiz-adv-x="667" 
d="M311 596q18 67 58 86.5t120 13.5q23 -1 129.5 -28t162.5 -30q42 33 74.5 47.5t47.5 13t17 -13.5q3 -12 -10.5 -28t-46.5 -28.5t-75 -11.5q-69 -66 -160.5 -162.5l-144.5 -150.5t-136.5 -118.5t-175.5 -112.5q33 -7 85 -26t91 -32t83.5 -20t83 8t68.5 55l25 38q4 9 13 5
q9 -5 4 -14l-26 -41q-34 -44 -83.5 -61.5t-108.5 -9t-102.5 20.5t-98.5 34.5t-64 25.5q-123 -69 -187 -49q-31 10 -22 35q11 31 73 43q58 11 137 -5q68 50 135 109.5t122 113.5l110 108t119.5 109t129.5 100q-53 5 -149.5 30t-121.5 27q-49 3 -75.5 -1t-48 -23t-32.5 -59
q-2 -9 -11 -9t-9 11zM115 65q-82 12 -143 -13q-33 -14 -19 -23q1 -1 3 -2q45 -21 159 38zM815 638q24 1 44 9.5t28 17.5t5 12q-10 10 -77 -39z" />
    <glyph glyph-name="bracketleft" unicode="[" horiz-adv-x="500" 
d="M480 525q-110 -5 -125 -12q-5 -6 -40 -53.5l-65 -89.5l-73 -102l-74 -105t-55 -85t-29 -55q18 -2 69.5 -4.5t57.5 -2.5q11 -2 9 -11q0 -9 -11 -9q-1 0 -37 2t-68 4.5t-36 5.5q-10 8 10.5 49t62 102.5l78 113l77.5 105.5l41 55l33 46q31 44 46 53q17 10 86 11h1h1h1h1h2
q23 1 37 1q9 0 9 -9q0 -10 -9 -10z" />
    <glyph glyph-name="backslash" unicode="\" horiz-adv-x="420" 
d="M26 603q-7 7 0 14t14 0q46 -70 177.5 -306t177.5 -304q-2 -9 -11 -9q-7 1 -59.5 90z" />
    <glyph glyph-name="bracketright" unicode="]" horiz-adv-x="474" 
d="M-23 23q110 5 125 12q5 6 40 53.5l65 89.5l73 102l74 105t55 85t29 55q-18 2 -69.5 4.5t-57.5 2.5q-11 2 -9 11q0 9 11 9q1 0 37 -2t68 -4.5t36 -5.5q10 -8 -10.5 -49t-62 -102.5l-78 -113l-77.5 -105.5l-41 -55l-33 -46q-31 -44 -46 -53q-17 -10 -86 -11h-1h-1h-1h-1h-2
q-23 -1 -37 -1q-9 0 -9 9q0 10 9 10z" />
    <glyph glyph-name="asciicircum" unicode="^" horiz-adv-x="506" 
d="M44 327q-7 -7 -13 -2.5t-4 12.5q38 47 73.5 103t76.5 128.5t65 110.5q11 9 20 -4q33 -36 109.5 -165t111.5 -163q5 -5 6 -10t-1.5 -8t-9.5 -2q-75 64 -136.5 150.5t-92.5 175.5q-8 -50 -36 -103.5t-47 -79t-69 -82.5t-53 -61z" />
    <glyph glyph-name="underscore" unicode="_" horiz-adv-x="600" 
d="M49 -177q143 8 521 1q9 0 9 -10q0 -9 -10 -9q-415 4 -518 -2q-11 0 -11 10t9 10z" />
    <glyph glyph-name="grave" unicode="`" horiz-adv-x="217" 
d="M38 666q14 14 59 -11.5t80.5 -62.5t25.5 -49q-11 -14 -58 10.5t-84 61t-23 51.5z" />
    <glyph glyph-name="a" unicode="a" horiz-adv-x="469" 
d="M155 112q-107 -125 -163 -110q-62 17 -47 125q14 104 80 204q66 101 128 101q13 0 24 -5q38 -15 70 -92l49 93q8 7 19.5 4t20 -13t2.5 -17q-33 -42 -94.5 -179.5t-76.5 -216.5q-6 -24 -3 -35t8 -15.5t16 0t21 10.5t24 17q52 41 132.5 148.5t109.5 154.5q5 9 13 3
q10 -4 4 -13q-5 -9 -14.5 -23l-25.5 -37.5l-33.5 -48l-39 -53t-43.5 -54.5l-44.5 -50.5t-43.5 -41.5t-39 -28t-33.5 -10.5t-25.5 13.5q-33 42 5 169zM235 311q-11 31 -28.5 58.5t-31.5 35.5q-37 21 -100 -78q-64 -100 -89 -207q-25 -101 20 -98h2q32 3 82 49q22 20 81 91
q28 76 64 149z" />
    <glyph glyph-name="b" unicode="b" 
d="M-10 120q-18 -65 9 -80.5t80 24.5q57 41 112 121q-77 33 -65 113q9 61 59 104t87 17q8 -6 14 -15q21 -35 10 -90t-46 -119q79 3 216 91q7 6 13 -2q5 -9 -2 -14q-151 -98 -239 -95q-64 -107 -144 -153q-38 -21 -71.5 -23t-55.5 22t-17 74q7 81 69 222.5t141.5 272.5
t165 223t134.5 80q97 -23 -123 -282q-119 -139 -238 -249q-11 -10 -16 -14q-2 -2 -3 -2q-69 -142 -90 -226zM463 869q-55 -3 -160 -147.5t-199 -328.5q50 47 112 113t128 143.5t101.5 139t17.5 80.5zM202 201q45 66 63.5 120t-0.5 77q-28 26 -70 -12q-43 -39 -50 -94
q-8 -67 57 -91z" />
    <glyph glyph-name="c" unicode="c" horiz-adv-x="285" 
d="M190 307q9 15 15 34.5t5 41t-16 29.5t-41.5 -6t-55 -44t-58 -68.5t-52.5 -80.5t-36.5 -80t-11.5 -68t23 -42q37 -15 112.5 41t137.5 124.5t84 106.5q5 9 14 0q6 -6 2 -14q-27 -40 -71 -90.5t-96.5 -99.5t-105.5 -75t-86 -11q-78 35 -42 151q31 99 117 191q87 91 150 88
q7 0 14 -2q22 -6 31.5 -22.5t7 -38t-9 -41t-15.5 -36.5q-5 -7 -14 -2q-7 5 -2 14z" />
    <glyph glyph-name="d" unicode="d" horiz-adv-x="480" 
d="M311 336l-12 -27q-3 -7 -10 -20t-9 -17q-87 -185 -106 -281q-11 -53 13 -53.5t53 30.5q54 52 134.5 159.5t103.5 144.5q3 8 13 4q8 -5 4 -14l-14.5 -22.5l-24.5 -37.5l-33.5 -48.5l-39 -53.5t-42.5 -54.5t-43.5 -50t-43 -42t-39 -28t-33.5 -10t-25 12.5q-36 47 10 187
q-28 -28 -46 -44.5t-48 -40t-55.5 -32t-45.5 -1.5q-61 22 -35 131q24 101 97 194q76 96 138 90q55 -7 80 -98q0 1 1 1q59 135 140.5 268.5t165.5 222t132 77.5q99 -24 -128 -288q-119 -139 -237 -247q-8 -7 -12 -11q-1 -1 -3 -1zM235 300q-16 64 -46 83q-35 24 -108 -72
q-71 -95 -105 -197q-32 -99 14 -99q32 1 86 42q22 17 59 54t47 46q21 59 58 136q-3 2 -5 7zM695 859q-55 -3 -160 -147t-200 -328q50 48 112 113.5l128.5 142.5t102 138.5t17.5 80.5z" />
    <glyph glyph-name="e" unicode="e" horiz-adv-x="291" 
d="M305 298q5 9 14 0q5 -5 0 -14q-53 -82 -124 -157q-65 -68 -124.5 -102.5t-99.5 -19.5q-44 16 -52.5 61t13.5 100t58 110t83.5 97.5t87.5 55.5q37 13 67 -5.5t16 -53.5q-18 -44 -99 -95.5t-150 -80.5q-65 -135 -16 -161q19 -13 47.5 -4t55.5 25t56.5 43.5t52.5 52t43 49.5
l24 31.5l25.5 36.5zM212 412q-30 15 -91.5 -45.5t-110.5 -144.5q178 84 209 150q13 27 -7 40z" />
    <glyph glyph-name="f" unicode="f" horiz-adv-x="337" 
d="M-315 -544q10 -15 29.5 -15t38.5 19q41 39 79 123t63 175.5t44 177.5t27 142l9 55q136 0 206.5 25.5t157.5 118.5q6 8 13 1q4 -2 4 -6.5t-2 -7.5q-87 -93 -161 -122.5t-201 -25.5q-1 -26 -10 -82q-15 -93 -41.5 -199.5t-74.5 -223t-99 -165.5q-33 -31 -68 -22.5t-43 50.5
q-13 65 55 240.5t165.5 357.5t205 332t165.5 168q33 10 52.5 -8.5t11.5 -57.5q-16 -75 -120 -191q-55 -59 -115.5 -107t-105.5 -68q-136 -236 -224 -440t-61 -244zM176 331q124 135 117 200q-5 48 -53 4q-86 -80 -252 -364q91 53 188 160z" />
    <glyph glyph-name="g" unicode="g" horiz-adv-x="437" 
d="M67 -39l65 133q-114 -111 -168 -91q-61 22 -35 131q24 102 98 194q77 97 139 88q51 -6 76 -91q32 67 50 99q7 7 19 4t20.5 -13t2.5 -18q-10 -14 -24 -38.5t-33 -64.5l-34.5 -72.5l-43.5 -93l-44 -95.5l292 248q7 7 14 -1q6 -8 -1 -14l-324 -274q-46 -98 -85 -173
t-88.5 -158t-91.5 -135t-87 -82t-83 -20q-99 26 130 291q120 139 236 246zM158 147l72 153q-3 2 -3 5q-16 64 -46 83q-35 24 -108 -72q-71 -95 -105 -197q-32 -99 14 -99q32 1 86 43q16 13 90 84zM-303 -552q114 6 345 462l-113 -116t-122.5 -138t-94.5 -132t-15 -76z" />
    <glyph glyph-name="h" unicode="h" horiz-adv-x="430" 
d="M37 288q182 158 216 130q8 -6 9 -22t-5 -40t-15 -51.5t-22 -63.5l-25.5 -69l-27.5 -73.5t-25 -72.5q-27 -84 6 -78q39 7 128 116q47 59 96.5 129t61.5 90q5 8 14 3q9 -3 3 -13q-59 -99 -146 -207q-148 -185 -191 -127q-20 31 -14.5 83.5t27 117t46 120.5l42.5 95t16 39
q-11 4 -39 -13q-71 -42 -176 -138q-64 -137 -89 -236q-8 -12 -19.5 -11t-14.5 12q7 66 50 173.5t79.5 180t72.5 136.5q95 169 192.5 281.5t152.5 99.5q99 -24 -128 -287q-118 -138 -236 -246q-8 -8 -13 -12q-2 -2 -4 -2q-8 -14 -22 -44zM444 856q-47 -2 -132 -110.5
t-174 -264.5q-36 -63 -56 -103q49 46 111.5 112.5l129 144t103 140t18.5 81.5z" />
    <glyph glyph-name="i" unicode="i" horiz-adv-x="234" 
d="M113 393q-29 -36 -70 -129.5t-57 -164.5q-21 -89 14.5 -81.5t123.5 114.5q8 9 57.5 75t54.5 72q5 5 9.5 4.5t7.5 -4t2 -5.5q-48 -73 -110 -150q-75 -91 -124 -118q-31 -14 -48 -6.5t-23 34.5t-5 53t6 48q23 113 120 285q8 7 19.5 4t20 -13t2.5 -18zM127 484
q-10 13 -5 30.5t21.5 29t28.5 1.5q11 -12 3 -27.5t-25 -27.5t-23 -6z" />
    <glyph glyph-name="j" unicode="j" horiz-adv-x="219" 
d="M71 427q7 7 19 4t20.5 -13t2.5 -18q-10 -14 -23.5 -38t-33.5 -65.5l-34.5 -72l-44 -94.5l-43.5 -95l292 249q8 6 14 -2t-2 -13l-323 -275l-85 -172.5t-88.5 -158t-91.5 -134.5t-87 -82t-83 -20q-98 25 125 286q119 139 237 247l5 5l88.5 183.5l83.5 175.5t52 103z
M-524 -549q114 5 345 462l-113 -116t-122.5 -138t-94.5 -132t-15 -76zM121 486q-10 13 -4.5 30.5t22 29t28.5 2.5q10 -12 2 -28t-24.5 -28t-23.5 -6z" />
    <glyph glyph-name="k" unicode="k" horiz-adv-x="400" 
d="M65 333l-10 -21q102 81 138 100q49 27 75 16q27 -11 33 -43.5t-17 -53.5q-49 -43 -198 -76q36 -20 47 -70.5t5.5 -100t-4.5 -93t18 -50.5q11 -5 38 24t61 78l64.5 96l58.5 92.5t32 51.5q6 8 14 2q7 -7 2 -14q-8 -12 -49.5 -78.5l-75.5 -118t-74.5 -100.5t-61.5 -53
q-40 -2 -56.5 25.5t-15.5 70t5 87.5t-2 84.5t-30 53.5q-6 4 -15 8q-6 3 -8.5 4.5t-1.5 3.5q3 7 43 20.5t92.5 34.5t79.5 44q18 16 20 33.5t-16 21.5q-12 2 -31.5 -5.5t-46 -26l-46.5 -33.5l-52.5 -40.5l-43.5 -34.5q-76 -160 -102 -263q-8 -12 -19.5 -11t-14.5 12
q7 66 50 173t79.5 179.5t72.5 136.5q95 170 192.5 282.5t152.5 99.5q99 -24 -127 -287q-119 -139 -237 -247q-8 -8 -13 -12q-4 -2 -5 -2zM451 857q-47 -2 -132.5 -110.5t-173.5 -264.5l-56 -103q50 47 112 113l128.5 143.5t103 140t18.5 81.5z" />
    <glyph glyph-name="l" unicode="l" horiz-adv-x="234" 
d="M70 344q-117 -246 -138 -345q-10 -53 14 -53.5t53 30.5q55 52 137 162.5t100 141.5q5 8 14 4q8 -6 3 -14q-6 -11 -19 -31l-35.5 -52.5l-46.5 -65l-52.5 -68t-54.5 -61.5t-52 -46.5t-44.5 -22t-32.5 12.5q-14 19 -14.5 54.5t10 78.5t30 95.5t40.5 100.5t46 98l43 84l34 62
q95 170 192 282.5t153 99.5q95 -24 -114 -271q-118 -140 -242 -255zM454 867q-56 -3 -160.5 -146.5t-199.5 -328.5q50 48 112 113.5l128.5 142.5t102 138.5t17.5 80.5z" />
    <glyph glyph-name="m" unicode="m" horiz-adv-x="697" 
d="M219 123q232 337 294 287q8 -6 9 -22t-5 -40t-15 -51.5t-22 -63.5l-25.5 -69l-27.5 -73.5t-25 -72.5q-27 -85 6 -79q38 7 128 117q47 59 96.5 129t61.5 90q5 8 14 3q10 -4 3 -13q-59 -99 -146 -207q-148 -185 -191 -127q-13 17 -16 45t7 70l17 70.5t29.5 83t28.5 68
l28 63.5q5 11 7 16q19 40 8.5 44t-44.5 -25q-35 -28 -80 -86t-104 -144.5t-67 -97.5l-7 -24l-5 -14l-39 -1q6 100 107 312q18 37 11.5 43.5t-43.5 -19.5q-37 -27 -89.5 -92.5t-104.5 -138.5t-67 -91q-1 -3 -4 -14q-13 -13 -39 -1q4 61 36.5 149t60.5 145t26 57l13 17
q12 13 16 -3q1 -13 2 -21.5t-4.5 -29l-10 -36t-14.5 -42l-18 -46.5l-19.5 -50t-19.5 -53q243 340 306 289q5 -4 7.5 -10.5t2 -17t-2 -20.5t-6 -26t-9 -29l-12 -33.5l-13 -35.5l-15 -39z" />
    <glyph glyph-name="n" unicode="n" horiz-adv-x="482" 
d="M-10 100q208 302 285 318q16 4 27 -5q8 -6 9 -22t-5 -40t-15 -51.5t-22 -63.5l-25.5 -69l-27.5 -73.5t-25 -72.5q-27 -85 6 -79q38 7 128 117q47 59 96.5 129t61.5 90q5 8 14 3q8 -4 3 -13q-59 -99 -146 -207q-148 -185 -191 -127q-14 18 -16 49t8 72.5t20.5 77t31 85
l30.5 72l27 59.5q36 80 -38 19q-37 -31 -90 -101t-105 -147.5t-68 -97.5l-1 -3q-1 -3 -4 -14q-14 -14 -39 -1q4 61 36.5 149t60.5 145t26 57l13 17q12 13 16 -3q1 -13 2.5 -20.5t-4 -28.5t-10 -34.5t-14 -40t-17 -45l-19 -48.5z" />
    <glyph glyph-name="o" unicode="o" horiz-adv-x="355" 
d="M122 393q-41 -30 -92 -130q-70 -134 -53 -201q9 -39 49 -42q53 7 108 73t87 157q-51 42 -72.5 96.5t-13 93t35.5 46.5q38 10 60 -14.5t25.5 -66.5t-0.5 -82t-12 -66q28 -20 52 -21.5t41.5 10.5t34.5 36q8 7 14 4.5t6 -9.5q-65 -99 -154 -40q-39 -107 -106 -177t-128 -59
q-78 14 -69 122q8 96 72 195q56 87 109 98q9 0 11 -9q0 -13 -5 -14zM228 270q15 50 11 118q-5 85 -50 80q-6 -1 -13 -3q-20 -7 -24.5 -38.5t15 -76.5t61.5 -80z" />
    <glyph glyph-name="p" unicode="p" horiz-adv-x="410" 
d="M70 429q7 7 19 4t20.5 -13t2.5 -18q-31 -43 -142 -284q8 -59 37 -80q36 -22 84 22.5t88 121.5q-90 20 -94 90q-3 56 45 107q44 47 83 36q12 -4 21 -14q26 -32 25 -84.5t-24 -115.5q34 2 68 14.5t56.5 26t58.5 38.5q9 5 14 -2q5 -9 -2 -14q-123 -84 -204 -86
q-41 -99 -106 -150.5t-124 -5.5q-26 20 -39 68l-44 -93.5l-45.5 -94.5l-48.5 -95.5l-48.5 -90t-50.5 -84.5l-50 -73t-50 -61.5t-48.5 -43t-48 -25t-44.5 -0.5q-98 26 124 285q120 140 240 250l79.5 167.5l87 181.5t60.5 116zM-525 -547q47 2 108 71.5t115 162.5t120 226
l-113.5 -117l-121.5 -137t-94 -130.5t-14 -75.5zM215 393q-25 18 -65 -21q-43 -43 -45 -92q-3 -62 75 -77q4 0 9 -1q30 67 38.5 118.5t-12.5 72.5z" />
    <glyph glyph-name="q" unicode="q" horiz-adv-x="444" 
d="M343 398q-47 -67 -158.5 -279t-204 -425.5t-75.5 -248.5q21 -36 79 39q67 85 142 258.5t80 260.5q-28 -7 -48.5 10t0.5 42q12 17 35.5 11t29.5 -37q31 14 72 60t87.5 108.5t60.5 79.5q7 7 14 2t2 -14l-54 -74t-94.5 -115.5t-86.5 -66.5q0 -74 -55 -219t-130 -262.5
t-122 -111.5q-46 2 -48.5 59t35 157t84.5 199.5t113 222.5q-81 -67 -125 -51q-61 22 -35 130q24 102 97 195q77 96 139 88q50 -6 75 -85q44 83 49 94q3 3 19 -1t21 -7q3 -2 4 -9t-2 -10zM128 106l111 201q-15 61 -46 82q-35 24 -108 -72q-71 -95 -105 -197q-32 -100 14 -100
q32 1 86 43q21 16 48 43zM205 23q-5 31 -35 19q-9 -3 0 -12q12 -12 35 -7z" />
    <glyph glyph-name="r" unicode="r" horiz-adv-x="364" 
d="M231 393q-33 -40 -94.5 -178t-76.5 -218q-11 -53 13 -53t53 31q97 94 240 304q6 8 13 3q8 -5 4 -13q-86 -128 -141 -198q-155 -193 -199 -136q-14 18 -15.5 52.5t9.5 77t26.5 87t37 92l39 83l34.5 67.5q-48 -20 -76 -7l-40.5 -60l-34 -51.5t-15.5 -23.5q-7 -9 -14 -2
q-7 5 -2 14q1 2 14 22l34 53l42 63q-16 21 -11 57t18.5 71t37 61t45.5 27q82 4 -63 -214q21 -10 60 8q2 0 9 3.5t12 5.5q8 6 19.5 3t19.5 -13t2 -18zM94 420q124 187 77 178q-33 -7 -63 -74.5t-14 -103.5z" />
    <glyph glyph-name="s" unicode="s" horiz-adv-x="387" 
d="M1 277l119 159q-35 80 17 151q32 44 69 50q32 4 32 -31v-2q0 -44 -78 -152l61 -121q31 10 64 13t52 1t63 -7q10 -2 8 -11q-2 -10 -11 -8q-90 10 -129 4q-19 -3 -38 -9q40 -91 12.5 -161t-85 -112.5t-108.5 -40.5q-35 1 -49 22q-31 49 -4.5 109.5t80.5 114.5t103 73
q-12 22 -49 96l-113 -149q-5 -9 -13 -3q-8 7 -3 14zM188 301q-42 -16 -92 -62t-78 -104t-4 -97q15 -24 59 -12q42 11 79 50t53 97.5t-17 127.5zM151 475q92 129 63 144q-9 5 -30 -11t-35 -48t2 -85z" />
    <glyph glyph-name="t" unicode="t" horiz-adv-x="244" 
d="M261 652q-13 -18 -74 -120q32 -12 48 -16t35 0t29 23q3 8 12 5q10 -4 6 -13q-8 -16 -20.5 -25t-24 -11.5t-30.5 1t-30.5 7t-34.5 11.5q-70 -122 -132 -243q-81 -169 -101 -268q-13 -66 23 -52q39 15 107 94q74 89 174 239q5 8 14 3q8 -4 3 -13q-18 -31 -56 -85.5
t-96 -129t-110 -112t-76 -7.5q-57 74 87 371q46 101 111 220q-72 18 -109 -31q-5 -9 -13 -3q-8 5 -3 14q45 60 135 38q55 98 70 120q1 4 16.5 4t19.5 -2q1 0 4 -2.5l5.5 -4.5t5.5 -4t4.5 -4.5t0.5 -3.5z" />
    <glyph glyph-name="u" unicode="u" 
d="M316 398q-33 -41 -94.5 -178.5t-77.5 -217.5q-7 -36 2.5 -47t27 -3t37.5 28q55 52 137.5 162.5t99.5 140.5q5 8 14 4q8 -5 3 -14q-6 -11 -19 -31l-35.5 -52.5l-46.5 -64.5l-52.5 -68t-54.5 -62t-52 -46t-44.5 -21.5t-32.5 12.5q-40 52 24 226l-30 -37q-73 -90 -123 -118
q-21 -11 -35.5 -10.5t-23 11.5t-12.5 26.5t-4.5 35t0.5 35.5t4 30q26 122 121 286q7 7 19 4t20.5 -13t2.5 -18q-29 -36 -70 -129.5t-57 -164.5q-21 -89 14.5 -81.5t123.5 114.5l82 109q40 90 90 179q7 7 19 4t20.5 -13.5t2.5 -17.5z" />
    <glyph glyph-name="v" unicode="v" horiz-adv-x="437" 
d="M123 424q-41 -83 -97.5 -230t-39.5 -174q26 8 99.5 82t152.5 164q-10 67 9 149.5t56 136.5t74 45q38 -9 40 -48.5t-24.5 -91.5t-48 -87t-40.5 -60q-4 -6 -45 -52q39 -169 186 26q6 9 20 28q6 8 13 2q7 -5 0 -14q-14 -23 -31.5 -46t-40 -47t-46 -37t-45.5 -15t-41 19.5
t-30 65.5q-225 -246 -263 -240q-41 10 -19 110t58 197t54 128q2 3 20.5 3t21.5 -2q10 -8 7 -12zM255 286q46 53 60 73q10 15 26.5 44t36.5 72t19 73t-31 30q-26 0 -53.5 -47.5t-44.5 -117t-13 -127.5z" />
    <glyph glyph-name="w" unicode="w" horiz-adv-x="653" 
d="M322 402q-19 -39 -60 -138t-68 -180l-13 -39.5t-10 -33t-7.5 -28t-3 -19t2 -12.5t7.5 -3q10 2 37.5 28.5t62.5 67l67 78.5l63 76t38 46q-10 67 8.5 149t55.5 136t75 45t39.5 -48.5t-25 -91.5t-48 -87t-40.5 -60q-13 -17 -45 -52q6 -29 13.5 -48t18 -26t20.5 -10t24.5 5.5
t24.5 15.5t26.5 25l25.5 28t26 31l9.5 11l8.5 10l9 11q5 8 14 2t1 -14q-71 -83 -89 -100q-93 -89 -134 2q-7 17 -13 40q-11 -12 -74.5 -88.5t-112.5 -128t-80 -68.5q-43 -23 -41 38q2 42 24 126l19 67l-30 -39q-75 -91 -124 -118q-31 -15 -48 -7t-23 34.5t-5 52.5t6 48
q23 113 120 286q7 7 19 4t20.5 -13t2.5 -18q-29 -36 -70 -129.5t-57 -164.5q-21 -89 14.5 -81.5t123.5 114.5l73 97q49 140 74 183q2 3 20 2.5t21 -2.5q11 -7 7 -12zM455 264q47 55 59 73q12 19 26.5 45t36.5 71t20.5 74.5t-31.5 29.5q-40 -1 -79 -102t-32 -191z" />
    <glyph glyph-name="x" unicode="x" horiz-adv-x="354" 
d="M269 399q-27 -31 -62.5 -66l-82 -79.5l-74.5 -72.5q1 -7 6.5 -48.5t12.5 -79t16 -58.5q19 -42 33 -43q10 -1 31.5 20.5t46 55l41.5 58l30 44.5l42 68.5l35 58.5t15 26q5 9 13 3q10 -4 4 -13q-3 -4 -17.5 -30t-36.5 -62l-43 -69q-77 -124 -142 -180q-18 -17 -36.5 -10
t-40.5 43q-19 32 -34.5 91t-14.5 88q-68 -71 -112 -142q-5 -8 -14 -4q-8 5 -4 13q44 72 125 156q-29 148 15 246q2 3 15.5 5.5t17.5 0.5q8 -5 4 -14q-26 -97 -11 -200l70.5 68.5l77.5 76l60 63.5q6 8 14 0q8 -6 0 -14z" />
    <glyph glyph-name="y" unicode="y" horiz-adv-x="424" 
d="M128 128q-74 -90 -123 -117q-31 -14 -48 -6.5t-23 34.5t-5 53t6 48q23 113 120 285q8 7 19.5 4t20 -13t2.5 -18q-29 -36 -70 -129.5t-57 -164.5q-21 -89 14.5 -81.5t123.5 114.5l64 84q76 162 96 196q7 7 19 4t20.5 -13t2.5 -18q-10 -14 -24 -38.5t-33 -64.5l-34.5 -72.5
l-43.5 -93l-44 -95.5l292 248q7 6 14 -1q6 -8 -1 -14l-324 -274q-46 -98 -85 -173t-88.5 -158t-91.5 -135t-87 -81.5t-83 -19.5q-99 26 131 292q120 138 236 245zM-327 -559q114 6 345 462l-113 -116t-122.5 -138t-94.5 -132t-15 -76z" />
    <glyph glyph-name="z" unicode="z" horiz-adv-x="585" 
d="M0 274q5 18 59.5 106t72.5 69q20 -23 168 -18q129 3 149 -4.5t-4 -26.5l-80 -61l-137.5 -106t-127.5 -106.5t-81 -85.5l20.5 14l26 17.5l27 17t30 17t29 12.5t30.5 8t27.5 0.5t26.5 -8t21 -19.5l68 55.5t77 58l63 45l79 54.5t72 50q8 6 14 -3q6 -8 -3 -14l-91.5 -63.5
l-96.5 -67.5l-79.5 -58.5t-91.5 -73.5q23 -53 -9.5 -162.5t-95 -217.5t-152.5 -191t-169 -85q-40 -1 -49 29t13 88.5t61.5 120.5t75 111t60.5 79q94 110 216 213q-18 27 -54.5 21.5t-69.5 -24t-61.5 -37.5t-31.5 -18q-109 29 350 363q46 34 51 38q-22 3 -83.5 -1.5
t-115.5 -2t-80 21.5q-18 -12 -58 -75t-45 -79q0 -11 -10 -11q-11 0 -11 10zM228 50q-119 -103 -211 -212q-27 -32 -80.5 -109.5t-88.5 -143.5q-41 -76 -34 -119q8 -47 88 4q72 46 157.5 164t136.5 240t32 176z" />
    <glyph glyph-name="braceleft" unicode="{" horiz-adv-x="400" 
d="M407 632q-35 0 -61.5 -11t-42 -26t-29 -41t-20.5 -48l-17.5 -55.5t-19.5 -55.5q-47 -108 -148 -146q51 -36 20 -139l-18.5 -48l-20 -49t-15.5 -44t-7.5 -40t7 -30.5t25.5 -21.5q13 -4 47 2q14 2 14 -12q1 -4 -2.5 -8.5t-8.5 -4.5q-42 -6 -58 -1q-43 16 -49.5 62t10.5 93
l36 103.5t18 82.5q0 14 -10 25t-21 16t-18 9.5t0.5 10.5t32.5 15q44 16 75 46t47 65t29.5 74t27.5 74.5t34 64.5t57 46.5t89 17.5q12 -2 12 -14q0 -7 -4.5 -10.5t-10.5 -1.5z" />
    <glyph glyph-name="bar" unicode="|" horiz-adv-x="184" 
d="M107 620q-1 -185 -3 -440q-2 -342 -7 -346q-8 -5 -14 3q7 81 3 390t2 398q3 10 12 7q11 -2 7 -12z" />
    <glyph glyph-name="braceright" unicode="}" horiz-adv-x="372" 
d="M-59 -127q35 0 61.5 11t42 26t29 41t20.5 48l17.5 55.5t19.5 55.5q47 108 148 146q-51 36 -20 139l18.5 48l20 49t15.5 44t7.5 40t-7 30.5t-25.5 21.5q-13 4 -47 -2q-14 -2 -14 12q-1 4 2.5 8.5t8.5 4.5q42 6 58 1q43 -16 49.5 -62t-10.5 -93l-36 -103.5t-18 -82.5
q0 -14 10 -25t21 -16t18 -9.5t-0.5 -10.5t-32.5 -15q-44 -16 -75 -46t-47 -65t-29.5 -74t-27.5 -74.5t-34 -64.5t-57 -46.5t-89 -17.5q-12 2 -12 14q0 7 4.5 10.5t10.5 1.5z" />
    <glyph glyph-name="asciitilde" unicode="~" horiz-adv-x="550" 
d="M54 170q-8 -5 -12 1t1 15l8.5 17.5t11 21l13 20t18 19.5l22 13.5t28.5 8t34 -3t42 -14t50 -29.5q59 -40 98.5 -46t70.5 16t70 80q8 7 14.5 0.5t-0.5 -14.5q-43 -61 -75.5 -86t-79 -20t-111.5 50q-77 52 -122 41t-81 -90z" />
    <glyph glyph-name="exclamdown" unicode="&#xa1;" horiz-adv-x="399" 
d="M-68 -90q55 88 226.5 335.5t210.5 307.5q5 7 14 2q7 -7 2 -14l-193.5 -290l-230.5 -351q-2 -3 -8 -4t-9 1q-14 10 -12 13zM414 571q-8 -3 -12.5 5t-2.5 19v1q7 28 23 28q14 -1 17 -17q4 -23 -25 -36z" />
    <glyph glyph-name="cent" unicode="&#xa2;" horiz-adv-x="285" 
d="M97 620q-2 -160 -2 -216q57 39 97 29q22 -6 31.5 -22.5t7 -38t-9 -41t-15.5 -36.5q-5 -7 -14 -2q-7 5 -2 14q9 15 15 34.5t5 41t-16 29.5q-32 16 -99 -53l-2 -282q60 47 121 115t82 103q5 9 14 0q6 -6 2 -14q-34 -52 -96.5 -119.5t-122.5 -111.5q-1 -212 -6 -216
q-8 -5 -14 3q5 61 5 201q-80 -52 -125 -33q-45 20 -51.5 69.5t18 107t66.5 114t89 93.5q-2 174 3 236q3 10 12 7q11 -2 7 -12zM-38 23q39 -15 116 42q0 3 -3 273q-47 -53 -84 -118t-49.5 -120.5t20.5 -76.5z" />
    <glyph glyph-name="sterling" unicode="&#xa3;" horiz-adv-x="628" 
d="M182 356q52 3 128 3q49 84 81 131q2 4 19 30l23 35t23.5 33t28 34.5l29 28t33.5 25.5t34.5 15t38.5 7q25 1 41 -18t17 -62q0 -10 -10 -10t-10 10q0 20 -3.5 32.5t-11 18t-13.5 7.5t-16 2q-15 -1 -30.5 -9t-28.5 -18t-28.5 -27.5t-25 -30t-24.5 -34.5t-20.5 -31.5
l-18.5 -31t-14 -23.5l-67 -114q50 -2 84 -2q9 0 9 -10q0 -9 -10 -9q-20 0 -50.5 0.5t-43.5 0.5q-113 -195 -177 -267q29 -6 84.5 -23t92 -25.5t82.5 -11.5t84 15t69 58l24 38q4 10 13 4q10 -4 4 -13l-26 -41q-24 -32 -57.5 -51.5t-72.5 -24.5t-73.5 -5t-79 10.5t-69 17.5
t-62.5 20.5t-43 14.5q-123 -69 -187 -49q-31 10 -22 35q11 31 73 43q58 11 137 -5q7 5 26.5 36t63.5 107.5l68 116.5q-46 0 -114 -3q-11 0 -11 10t9 10zM113 64q-82 12 -143 -13q-33 -14 -19 -23q1 -1 3 -2q45 -21 159 38z" />
    <glyph glyph-name="currency" unicode="&#xa4;" horiz-adv-x="439" 
d="M315 80q10 -7 4.5 -16.5t-16.5 -3.5q-28 17 -51 55q-33 -36 -80.5 -35t-73.5 40q-42 -40 -67 -49q-9 -1 -13 3.5t-2 11t9 10.5q18 8 63 44q-38 80 -1 217.5t117 199.5q-1 2 -16 79q-2 14 10 15.5t15 -11.5q2 -10 6 -33.5t6 -33.5q28 21 69 18.5t63 -30.5q7 6 28.5 22
t31.5 26q10 8 17.5 0t-0.5 -18q-8 -7 -31 -23.5t-34 -26.5q35 -74 2.5 -202t-100.5 -205q32 -46 44 -54zM252 504q2 -11 -5.5 -16t-16.5 3q-3 4 -5.5 9t-5 11.5t-4.5 9.5q-52 -67 -84 -178.5t-23 -183.5q30 28 35 42q5 7 12 7.5t11 -4.5t0 -13q-4 -4 -21 -23t-31 -32
q17 -46 56 -40t65 47q-15 32 -25 57q-1 11 7.5 14t16.5 -6q15 -34 19 -41q47 71 75 176.5t17 171.5q-5 -11 -6 -15q-5 -11 -15.5 -8.5t-9.5 15.5q6 20 24 37q-10 24 -30 30t-39.5 -3.5t-34.5 -28.5q6 -19 18 -38z" />
    <glyph glyph-name="yen" unicode="&#xa5;" horiz-adv-x="547" 
d="M68 89q122 -2 257 -2l63 96q-153 -127 -204 -58q-21 32 -12.5 76t33.5 85.5t60.5 90.5l67.5 91t54 86.5t22 77.5q-11 76 -144 31q-9 -4 -13 5t5 13q104 35 146 3q39 -29 36.5 -78t-31 -103t-68 -113.5l-76 -109.5t-55 -91t-4.5 -58q51 -49 230 122q111 164 197.5 271.5
t159.5 150.5q9 4 13 -5q1 -2 3.5 -5t3.5 -4.5t-1 -3.5q-93 -93 -160 -182.5t-140 -205t-121 -181.5q48 0 104 2q10 0 10 -10t-9 -10q-64 -2 -120 -2l-35 -47h25q10 -2 9 -11q0 -9 -11 -9q-13 1 -39 1q-29 -36 -63 -73q64 0 238 -3q9 0 9 -10q0 -9 -10 -9q-122 2 -255 2
q-56 -60 -109 -101.5t-92.5 -60t-72 -23.5t-52 4t-27.5 28q-5 17 -5 39t14 47.5t33.5 51t54 48.5t75 41t97 28.5t119.5 10.5q26 33 34 46q-185 0 -244 1q-10 0 -10 10t10 10zM70 -75q35 2 127 4l64 73q-89 -1 -163.5 -28t-116 -64.5t-63 -75t-15.5 -64.5q8 -39 62 -25
q82 23 214 164q-77 -2 -107 -4q-11 0 -11 10t9 10z" />
    <glyph glyph-name="brokenbar" unicode="&#xa6;" horiz-adv-x="131" 
d="M71 621q4 -47 5 -97t0 -131.5t-1 -97.5q0 -9 -10 -9q-9 0 -9 10q0 29 0.5 100t-0.5 124t-5 99q0 11 10 11t10 -9zM71 163q4 -47 5 -97t0 -131.5t-1 -97.5q0 -9 -10 -9q-9 0 -9 10q0 29 0.5 100t-0.5 124t-5 99q0 11 10 11t10 -9z" />
    <glyph glyph-name="section" unicode="&#xa7;" horiz-adv-x="412" 
d="M293 17q25 -81 -42 -123q-66 -42 -171 -18q-67 15 -125 55q-9 5 -6.5 13.5t12.5 5.5q27 -23 74.5 -39t96 -19t85.5 22.5t40 79.5q1 24 -16.5 51.5t-43 52.5l-54.5 53t-49.5 58t-29 61.5t7 69.5t58.5 78q-14 26 -17 39q-23 72 27.5 114t140 35t170.5 -63q9 -4 6.5 -12.5
t-12.5 -6.5q-27 23 -74.5 39.5t-96 19.5t-85.5 -23t-40 -80q-1 -24 16 -51t42.5 -52.5l54.5 -53.5t49.5 -57.5t29 -61.5t-7 -70.5t-58.5 -77.5q12 -18 18 -39zM150 385q-39 -32 -50 -63t5 -61.5t36.5 -54.5t57 -59.5t54.5 -58.5q0 2 3 2q32 27 44 54t8 49t-22.5 48.5
t-38.5 46l-48.5 48.5t-45.5 49h-3z" />
    <glyph glyph-name="dieresis" unicode="&#xa8;" horiz-adv-x="339" 
d="M252 624q24 2 35 -18.5t1 -42t-37 -21.5q-22 0 -30.5 21t1 41.5t30.5 19.5zM85 624q24 2 35 -18.5t1 -42t-37 -21.5q-22 0 -30.5 21t1 41.5t30.5 19.5z" />
    <glyph glyph-name="copyright" unicode="&#xa9;" horiz-adv-x="562" 
d="M342 435q-4 -7 1 -10q7 -3 10 1q7 12 11 25.5t6 28.5t-4.5 26.5t-22.5 15.5q-45 12 -112 -58q-68 -71 -86 -145q-19 -73 32 -95q44 -19 123.5 51.5t126.5 140.5q2 6 -2 10q-6 6 -10 0q-28 -48 -111.5 -126t-120.5 -63q-19 14 -15.5 46.5t26.5 74.5t50.5 78t56 58t43.5 14
q11 -5 11.5 -20.5t-3.5 -28.5t-10 -24zM246 618q174 10 244 -101q55 -86 25 -202q-28 -110 -113 -170q-69 -49 -155 -44q-62 4 -112 42.5t-76 94.5t-30 121t16 120.5t72 95t129 43.5zM247 122q124 -5 199 92q63 83 56 187q-7 110 -90 164q-65 42 -165 35q-70 -3 -117.5 -39
t-65.5 -88t-14.5 -112.5t27 -112.5t68.5 -88t102 -38z" />
    <glyph glyph-name="ordfeminine" unicode="&#xaa;" horiz-adv-x="355" 
d="M148 413q-68 -81 -106 -72q-45 12 -28 96q16 81 66 141q45 55 82 40q26 -10 45 -60q4 8 32 60q5 5 13 3t13.5 -8.5t1.5 -11.5q-21 -26 -61 -115.5t-51 -141.5q-4 -16 -1.5 -23t5.5 -10t10 0t13.5 7t15.5 11q24 19 63 67.5t62 81t33 48.5q3 5 8 2q6 -2 3 -9l-10 -15
l-16 -24t-22 -31.5l-25.5 -34t-28.5 -36l-28.5 -32.5t-28.5 -27.5t-25.5 -17.5t-22 -6.5t-16.5 8.5q-22 28 4 110zM200 542q-18 49 -39 61q-27 15 -73 -63q-47 -80 -55 -145q-5 -44 19 -41q22 3 53 32q12 11 53 59q19 53 42 97z" />
    <glyph glyph-name="guillemotleft" unicode="&#xab;" horiz-adv-x="434" 
d="M243 17q8 -8 1.5 -15t-14.5 0q-17 17 -56 50.5t-67.5 62t-48.5 57.5q-15 22 -17 58t19 71q10 14 21.5 27.5l20.5 24t22.5 24l20.5 20.5t23 21t20.5 18.5t23 20t21.5 18.5q8 1 11.5 -5.5t-3.5 -12.5q-124 -111 -161 -167q-15 -24 -15 -53.5t14 -53.5q16 -26 45.5 -56.5
t69 -65.5zM402 13q8 -8 1.5 -15t-14.5 0q-17 17 -56 50.5t-67.5 62t-48.5 57.5q-15 22 -17 58t19 71q10 14 21.5 27.5l20.5 24t22.5 24l20.5 20.5t23 21t20.5 18.5t23 20t21.5 18.5q8 1 11.5 -5.5t-3.5 -12.5q-124 -111 -161 -167q-15 -24 -15 -53.5t14 -53.5
q16 -26 45.5 -56.5t69 -65.5z" />
    <glyph glyph-name="logicalnot" unicode="&#xac;" horiz-adv-x="486" 
d="M25 422q-9 1 -9.5 11t7.5 14q10 0 80.5 4t126.5 6t115.5 -0.5t77.5 -11.5q17 -9 18.5 -80.5t-11.5 -118.5q-2 0 -6 -1t-7 -1.5t-6 -0.5h-5.5t-4 1t-2.5 2.5t0 4.5q9 38 9 86t-9 82q-38 8 -91.5 10t-90.5 1t-104.5 -4t-87.5 -4z" />
    <glyph glyph-name="registered" unicode="&#xae;" horiz-adv-x="548" 
d="M249 618q174 10 244 -101q55 -86 25 -202q-28 -110 -113 -170q-69 -49 -155 -44q-62 4 -112 42.5t-76 94.5t-30 121t16 120.5t72 95t129 43.5zM250 122q124 -5 199 92q63 83 56 187q-7 110 -90 164q-65 42 -165 35q-70 -3 -117.5 -39t-65.5 -88t-14.5 -112.5t27 -112.5
t68.5 -88t102 -38zM332 488q41 33 62 29q32 -6 15 -52t-55 -71q-10 -7 -19 -10q5 -14 -3.5 -34t-19 -34.5t-14 -30t9.5 -21.5q13 -9 30.5 5t25.5 30q0 2 4 2q3 -1 3 -4q-10 -19 -30 -34.5t-37 -5.5q-19 10 -17.5 29t12 35t20.5 34t8 26q-12 -4 -21 -2t-14.5 8t-2.5 12
q5 9 18 6t24 -15q19 10 39 38.5t26.5 51.5t-3.5 30q-6 1 -14 -1.5t-18 -9l-16.5 -11t-16.5 -12.5l-10 -8q-1 -2 -30.5 -49.5t-47.5 -70.5q5 0 11 -1q4 0 2 -5q0 -3 -3 -3q-8 1 -15 1q-63 -83 -122 -87q-32 -2 -37 20v5q0 24 37 45.5t111 24.5q17 22 42.5 62t46 69t35.5 41
q3 2 5 0q3 -3 0 -5q-8 -9 -21 -27zM219 339q-48 -2 -81 -14t-45 -25t-10 -24q2 -14 20.5 -16t51 18t64.5 61zM323 388q-23 17 -27 8q-2 -2 1 -5t9 -4.5t17 1.5z" />
    <glyph glyph-name="degree" unicode="&#xb0;" horiz-adv-x="303" 
d="M162 627q48 -1 78.5 -38t34 -82.5t-25.5 -84.5t-87 -43q-83 -6 -114 61q-27 56 1 116q29 65 97 71h16zM160 583q-33 0 -55.5 -17.5t-27 -42t1 -48.5t28 -40.5t53.5 -15.5q46 2 66.5 43t1.5 81t-68 40z" />
    <glyph glyph-name="plusminus" unicode="&#xb1;" 
d="M56 27q101 6 352 1q9 0 9 -10q0 -9 -10 -9q-270 3 -349 -2q-11 0 -11 10t9 10zM248 464q2 -88 -1 -176q77 0 177 -2q9 0 9 -10q0 -9 -10 -9q-23 0 -83 0.5t-94 0.5q-1 -17 -7 -179q0 -9 -10 -9q-9 0 -9 10l6 178q-126 0 -175 -3q-11 0 -11 10t9 10q50 3 178 3
q2 125 0 174q2 11 11 11q10 0 10 -9z" />
    <glyph glyph-name="twosuperior" unicode="&#xb2;" horiz-adv-x="329" 
d="M122 547q4 51 50.5 80t94 20.5t55.5 -49.5q4 -26 -14.5 -54t-50.5 -52t-60.5 -40.5t-53.5 -27.5q-20 -9 -56.5 -31t-57.5 -42q27 6 86 -13.5t68 -17.5q6 2 10.5 5.5t8 10t5.5 9.5t5 12.5t3 10.5q4 6 9 2q4 -2 3 -9q-13 -35 -26 -46q-20 -13 -74 5t-76 18q-8 0 -19.5 -5
t-20 -10t-9.5 -3q-14 17 44.5 61.5t89.5 56.5q50 22 101.5 69t43.5 89q-7 45 -54 40q-34 -4 -61.5 -28t-31.5 -61q0 -5 -6 -5t-6 5z" />
    <glyph glyph-name="threesuperior" unicode="&#xb3;" horiz-adv-x="295" 
d="M111 534q3 40 29.5 65.5t61.5 32.5q55 10 81 -25q26 -34 -3 -71q-30 -40 -109 -54q66 -21 59 -75q-7 -47 -60 -82q-56 -37 -118 -23q-41 8 -45 45q0 7 6 7q7 0 7 -7q3 -26 28 -33q61 -18 112 38q40 44 37 86q-3 28 -29 36q-14 4 -50 4q-11 3 -5 10q2 3 16 3
q100 12 128 64q17 33 -7 54q-20 17 -55 8q-28 -7 -48.5 -28.5t-23.5 -54.5q0 -8 -5 -8q-7 0 -7 8z" />
    <glyph glyph-name="acute" unicode="&#xb4;" horiz-adv-x="217" 
d="M193 664q14 -15 -23 -51.5t-84 -61t-58 -10.5q-10 12 25.5 49t80.5 62.5t59 11.5z" />
    <glyph glyph-name="periodcentered" unicode="&#xb7;" horiz-adv-x="143" 
d="M76 375q24 2 34.5 -29.5t0 -64t-37.5 -32.5q-22 0 -31 32.5t1 64t33 29.5z" />
    <glyph glyph-name="cedilla" unicode="&#xb8;" horiz-adv-x="238" 
d="M84 -13q1 9 9.5 9t10.5 -8q-6 -30 5.5 -37.5t36.5 -3t29 3.5q21 -5 25 -37.5t-14 -50.5q-18 -19 -61.5 -22t-81.5 2q-6 1 -8.5 6t0 9.5t9.5 4.5q4 0 22.5 -1t34.5 -1.5t33.5 1.5t25.5 7q17 11 16.5 36.5t-14.5 27.5q-7 1 -20 0t-22 -0.5t-18.5 4.5t-14 16.5t-3.5 33.5z
" />
    <glyph glyph-name="onesuperior" unicode="&#xb9;" horiz-adv-x="217" 
d="M84 539q26 15 65 46t50 38q4 3 12 -3t6 -10q-25 -51 -87 -142t-80 -121q-1 -2 -4 -3.5t-7 -1.5t-8 0.5t-8 1.5t-7.5 2.5t-5 2.5t-1.5 2q26 43 89 125t88 123q-6 -4 -28 -21.5t-37 -28t-33 -20.5q-4 -4 -7 2q-2 5 3 8z" />
    <glyph glyph-name="ordmasculine" unicode="&#xba;" horiz-adv-x="246" 
d="M100 609q-31 -23 -67 -99q-49 -102 -19 -134q8 -9 23 -10q34 5 70.5 48t56.5 102q-33 28 -47 63t-8.5 60t23.5 30q25 7 39 -9t16 -43.5t0 -53.5t-8 -43q49 -34 83 17q5 5 9 2.5t4 -6.5q-42 -64 -100 -26q-25 -69 -68.5 -114.5t-83.5 -38.5q-57 10 -43 93q12 75 61 136
q29 36 55 41q5 0 7 -6q0 -9 -3 -9zM169 529q4 12 6 34t1 46.5t-11.5 39t-29.5 7.5q-13 -5 -16 -25.5t10 -50t40 -51.5z" />
    <glyph glyph-name="guillemotright" unicode="&#xbb;" horiz-adv-x="399" 
d="M186 16l49.5 44t69 65.5t45.5 56.5q14 24 14 53.5t-15 53.5q-37 56 -161 167q-7 6 -3.5 12.5t11.5 5.5q3 -3 21.5 -18.5t23 -20t20.5 -18.5t23 -21l20.5 -20.5t22.5 -24l20.5 -24t21.5 -27.5q21 -35 19 -71t-17 -58q-20 -29 -48.5 -57.5t-67.5 -62t-56 -50.5
q-8 -7 -14.5 0t1.5 15zM27 12l49.5 44t69 65.5t45.5 56.5q14 24 14 53.5t-15 53.5q-37 56 -161 167q-7 6 -3.5 12.5t11.5 5.5q3 -3 21.5 -18.5t23 -20t20.5 -18.5t23 -21l20.5 -20.5t22.5 -24l20.5 -24t21.5 -27.5q21 -35 19 -71t-17 -58q-20 -29 -48.5 -57.5t-67.5 -62
t-56 -50.5q-8 -7 -14.5 0t1.5 15z" />
    <glyph glyph-name="onequarter" unicode="&#xbc;" horiz-adv-x="516" 
d="M440 118h-50q-11 -18 -30 -52.5t-33 -55.5q-1 -2 -13.5 -3.5t-14.5 0.5q-6 4 -2 9l64 103q-110 4 -111 12q-2 7 97 85.5t143 110.5q2 2 8 -1q-7 -18 -48 -96.5t-53 -97.5l43 -1q7 0 7 -7q0 -6 -7 -6zM441 624l-298.5 -515t-59.5 -90q-9 0 -11 9q46 68 177.5 304
t177.5 306q7 7 14 0t0 -14zM143 539q26 15 65 46t50 38q4 3 12 -3t6 -10q-25 -51 -87 -142t-80 -121q-1 -2 -4 -3.5t-7 -1.5t-8 0.5t-8 1.5t-7.5 2.5t-5 2.5t-1.5 2q26 43 89 125t88 123q-6 -4 -28 -21.5t-37 -28t-33 -20.5q-4 -4 -7 2q-2 5 3 8zM370 132q49 86 101 166
l-62.5 -48l-81 -63t-58.5 -50q67 -2 101 -5z" />
    <glyph glyph-name="onehalf" unicode="&#xbd;" horiz-adv-x="562" 
d="M417 617l-298.5 -515t-59.5 -90q-9 0 -11 9q46 68 177.5 304t177.5 306q7 7 14 0t0 -14zM131 539q26 15 65 46t50 38q4 3 12 -3t6 -10q-25 -51 -87 -142t-80 -121q-1 -2 -4 -3.5t-7 -1.5t-8 0.5t-8 1.5t-7.5 2.5t-5 2.5t-1.5 2q26 43 89 125t88 123q-6 -4 -28 -21.5
t-37 -28t-33 -20.5q-4 -4 -7 2q-2 5 3 8zM308 233q4 51 50.5 80t94 20.5t55.5 -49.5q4 -26 -14.5 -54t-50.5 -52t-60.5 -40.5t-53.5 -27.5q-20 -9 -56.5 -31t-57.5 -42q27 6 86 -13.5t68 -17.5q6 2 10.5 5.5t8 10t5.5 9.5t5 12.5t3 10.5q4 6 9 2q4 -2 3 -9q-13 -35 -26 -46
q-20 -13 -74 5t-76 18q-8 0 -19.5 -5t-20 -10t-9.5 -3q-14 17 44.5 61.5t89.5 56.5q50 22 101.5 69t43.5 89q-7 45 -54 40q-34 -4 -61.5 -28t-31.5 -61q0 -5 -6 -5t-6 5z" />
    <glyph glyph-name="threequarters" unicode="&#xbe;" horiz-adv-x="552" 
d="M477 610l-298.5 -515t-59.5 -90q-9 0 -11 9q46 68 177.5 304t177.5 306q7 7 14 0t0 -14zM417 118h-50q-11 -18 -30 -52.5t-33 -55.5q-1 -2 -13.5 -3.5t-14.5 0.5q-6 4 -2 9l64 103q-110 4 -111 12q-2 7 97 85.5t143 110.5q2 2 8 -1q-7 -18 -48 -96.5t-53 -97.5l43 -1
q7 0 7 -7q0 -6 -7 -6zM347 132q49 86 101 166l-62.5 -48l-81 -63t-58.5 -50q67 -2 101 -5zM125 534q3 40 29.5 65.5t61.5 32.5q55 10 81 -25q26 -34 -3 -71q-30 -40 -109 -54q66 -21 59 -75q-7 -47 -60 -82q-56 -37 -118 -23q-41 8 -45 45q0 7 6 7q7 0 7 -7q3 -26 28 -33
q61 -18 112 38q40 44 37 86q-3 28 -29 36q-14 4 -50 4q-11 3 -5 10q2 3 16 3q100 12 128 64q17 33 -7 54q-20 17 -55 8q-28 -7 -48.5 -28.5t-23.5 -54.5q0 -8 -5 -8q-7 0 -7 8z" />
    <glyph glyph-name="questiondown" unicode="&#xbf;" horiz-adv-x="482" 
d="M323 121q31 -75 10.5 -133.5t-76.5 -93.5t-126 -36q-64 0 -98.5 39.5t-21 96.5t74.5 101q50 36 106 61.5t87.5 37.5t70.5 54t76 119q3 11 15 7q11 -4 7 -15q-32 -66 -59 -105t-54.5 -59.5t-51.5 -31.5t-67.5 -33t-86.5 -53q-51 -37 -68.5 -84t5 -79.5t75.5 -32.5
q61 1 109 31t64.5 80.5t-10.5 117.5q-7 11 4 15q9 7 15 -4zM482 437q-11 -4 -15.5 6t-0.5 23q10 35 31 31q17 -4 18 -23q2 -26 -33 -37z" />
    <glyph glyph-name="Agrave" unicode="&#xc0;" horiz-adv-x="707" 
d="M494 365q11 -1 39.5 -6t45.5 -7q-188 -320 -28 -350q32 -7 58.5 9t38.5 47q2 10 -7 13q-10 2 -12 -7q-18 -46 -65 -44q-134 6 57 332q45 5 85 27q7 7 2 14q-5 9 -13 3q-32 -17 -61 -22q38 64 86.5 137.5l81.5 122t38 58.5q2 6 -3.5 11t-10.5 2q-46 -23 -110 -80.5
t-105 -101.5l-125 -138q-60 5 -100 -39q-7 -9 2 -14q7 -5 14 2q26 30 67 32q-72 -80 -107 -116q-93 1 -170 -14t-124 -39.5t-77 -54t-38.5 -56.5t0.5 -48q8 -20 30 -28.5t59.5 -2t84 29.5t110 72.5t131.5 120.5l36 -2q10 0 10 9q2 9 -8 11q-3 0 -9.5 0.5t-9.5 0.5
q37 38 107 116zM343 230q-63 -62 -121 -105.5t-100 -63.5t-75.5 -27t-52 -2t-23.5 19q-6 17 3 39.5t37.5 47t71 44.5t110.5 33.5t150 14.5zM792 662q-124 -162 -202 -291q-4 0 -80 12l106 114.5t85.5 86t90.5 78.5zM611 903q14 14 59 -11.5t80.5 -62.5t25.5 -49
q-11 -14 -58 10.5t-84 61t-23 51.5z" />
    <glyph glyph-name="Aacute" unicode="&#xc1;" horiz-adv-x="707" 
d="M494 365q11 -1 39.5 -6t45.5 -7q-188 -320 -28 -350q32 -7 58.5 9t38.5 47q2 10 -7 13q-10 2 -12 -7q-18 -46 -65 -44q-134 6 57 332q45 5 85 27q7 7 2 14q-5 9 -13 3q-32 -17 -61 -22q38 64 86.5 137.5l81.5 122t38 58.5q2 6 -3.5 11t-10.5 2q-46 -23 -110 -80.5
t-105 -101.5l-125 -138q-60 5 -100 -39q-7 -9 2 -14q7 -5 14 2q26 30 67 32q-72 -80 -107 -116q-93 1 -170 -14t-124 -39.5t-77 -54t-38.5 -56.5t0.5 -48q8 -20 30 -28.5t59.5 -2t84 29.5t110 72.5t131.5 120.5l36 -2q10 0 10 9q2 9 -8 11q-3 0 -9.5 0.5t-9.5 0.5
q37 38 107 116zM343 230q-63 -62 -121 -105.5t-100 -63.5t-75.5 -27t-52 -2t-23.5 19q-6 17 3 39.5t37.5 47t71 44.5t110.5 33.5t150 14.5zM792 662q-124 -162 -202 -291q-4 0 -80 12l106 114.5t85.5 86t90.5 78.5zM845 926q14 -15 -23 -51.5t-84 -61t-58 -10.5
q-10 12 25.5 49t80.5 62.5t59 11.5z" />
    <glyph glyph-name="Acircumflex" unicode="&#xc2;" horiz-adv-x="707" 
d="M494 365q11 -1 39.5 -6t45.5 -7q-188 -320 -28 -350q32 -7 58.5 9t38.5 47q2 10 -7 13q-10 2 -12 -7q-18 -46 -65 -44q-134 6 57 332q45 5 85 27q7 7 2 14q-5 9 -13 3q-32 -17 -61 -22q38 64 86.5 137.5l81.5 122t38 58.5q2 6 -3.5 11t-10.5 2q-46 -23 -110 -80.5
t-105 -101.5l-125 -138q-60 5 -100 -39q-7 -9 2 -14q7 -5 14 2q26 30 67 32q-72 -80 -107 -116q-93 1 -170 -14t-124 -39.5t-77 -54t-38.5 -56.5t0.5 -48q8 -20 30 -28.5t59.5 -2t84 29.5t110 72.5t131.5 120.5l36 -2q10 0 10 9q2 9 -8 11q-3 0 -9.5 0.5t-9.5 0.5
q37 38 107 116zM343 230q-63 -62 -121 -105.5t-100 -63.5t-75.5 -27t-52 -2t-23.5 19q-6 17 3 39.5t37.5 47t71 44.5t110.5 33.5t150 14.5zM792 662q-124 -162 -202 -291q-4 0 -80 12l106 114.5t85.5 86t90.5 78.5zM774 817q-9 32 -18 48.5t-31 35.5q-25 22 -12 25
q3 1 10 -1q42 -23 120 -103q12 -12 -14 -19q-33 -8 -50 7q-4 3 -5 7zM644 818q-6 -19 -43 -16q-30 3 -29 15q0 3 3 6q78 80 120 103q17 4 13 -6q-3 -7 -15 -18q-22 -19 -31 -35.5t-18 -48.5z" />
    <glyph glyph-name="Atilde" unicode="&#xc3;" horiz-adv-x="707" 
d="M494 365q11 -1 39.5 -6t45.5 -7q-188 -320 -28 -350q32 -7 58.5 9t38.5 47q2 10 -7 13q-10 2 -12 -7q-18 -46 -65 -44q-134 6 57 332q45 5 85 27q7 7 2 14q-5 9 -13 3q-32 -17 -61 -22q38 64 86.5 137.5l81.5 122t38 58.5q2 6 -3.5 11t-10.5 2q-46 -23 -110 -80.5
t-105 -101.5l-125 -138q-60 5 -100 -39q-7 -9 2 -14q7 -5 14 2q26 30 67 32q-72 -80 -107 -116q-93 1 -170 -14t-124 -39.5t-77 -54t-38.5 -56.5t0.5 -48q8 -20 30 -28.5t59.5 -2t84 29.5t110 72.5t131.5 120.5l36 -2q10 0 10 9q2 9 -8 11q-3 0 -9.5 0.5t-9.5 0.5
q37 38 107 116zM343 230q-63 -62 -121 -105.5t-100 -63.5t-75.5 -27t-52 -2t-23.5 19q-6 17 3 39.5t37.5 47t71 44.5t110.5 33.5t150 14.5zM792 662q-124 -162 -202 -291q-4 0 -80 12l106 114.5t85.5 86t90.5 78.5zM615 806q-7 -4 -13 1t-1 13q8 18 16.5 30t15 19.5t16 9.5
l14.5 3t16 -4t15 -7t17 -11l16 -11q58 -36 84 -30q30 7 44 53q5 8 12.5 6.5t7.5 -11.5q-16 -59 -58 -69q-39 -10 -106 35q-26 17 -42 19.5t-21.5 -2.5t-15.5 -20.5t-17 -23.5z" />
    <glyph glyph-name="Adieresis" unicode="&#xc4;" horiz-adv-x="707" 
d="M494 365q11 -1 39.5 -6t45.5 -7q-188 -320 -28 -350q32 -7 58.5 9t38.5 47q2 10 -7 13q-10 2 -12 -7q-18 -46 -65 -44q-134 6 57 332q45 5 85 27q7 7 2 14q-5 9 -13 3q-32 -17 -61 -22q38 64 86.5 137.5l81.5 122t38 58.5q2 6 -3.5 11t-10.5 2q-46 -23 -110 -80.5
t-105 -101.5l-125 -138q-60 5 -100 -39q-7 -9 2 -14q7 -5 14 2q26 30 67 32q-72 -80 -107 -116q-93 1 -170 -14t-124 -39.5t-77 -54t-38.5 -56.5t0.5 -48q8 -20 30 -28.5t59.5 -2t84 29.5t110 72.5t131.5 120.5l36 -2q10 0 10 9q2 9 -8 11q-3 0 -9.5 0.5t-9.5 0.5
q37 38 107 116zM343 230q-63 -62 -121 -105.5t-100 -63.5t-75.5 -27t-52 -2t-23.5 19q-6 17 3 39.5t37.5 47t71 44.5t110.5 33.5t150 14.5zM792 662q-124 -162 -202 -291q-4 0 -80 12l106 114.5t85.5 86t90.5 78.5zM740 886q24 2 35 -18.5t1 -42t-37 -21.5q-22 0 -30.5 21
t1 41.5t30.5 19.5zM573 886q24 2 35 -18.5t1 -42t-37 -21.5q-22 0 -30.5 21t1 41.5t30.5 19.5z" />
    <glyph glyph-name="Aring" unicode="&#xc5;" horiz-adv-x="707" 
d="M494 365q-70 -78 -107 -116q3 0 9.5 -0.5t9.5 -0.5q10 -2 8 -11q0 -9 -10 -9l-36 2q-68 -71 -131.5 -120.5t-110 -72.5t-84 -29.5t-59.5 2t-30 28.5q-9 21 -0.5 48t38.5 56.5t77 54t124 39.5t170 14q35 36 107 116q-41 -2 -67 -32q-7 -7 -14 -2q-9 5 -2 14q40 44 100 39
l125 138t105 101.5t110 80.5q5 3 10.5 -2t3.5 -11q-5 -10 -38 -58.5l-81.5 -122t-86.5 -137.5q29 5 61 22q8 6 13 -3q5 -7 -2 -14q-40 -22 -85 -27q-191 -326 -57 -332q47 -2 65 44q2 9 12 7q9 -3 7 -13q-12 -31 -38.5 -47t-58.5 -9q-160 30 28 350q-17 2 -45.5 7t-39.5 6z
M343 230q-82 -1 -150 -14.5t-110.5 -33.5t-71 -44.5t-37.5 -47t-3 -39.5q5 -14 23.5 -19t52 2t75.5 27t100 63.5t121 105.5zM792 662q-37 -27 -90.5 -78.5t-85.5 -86l-106 -114.5q76 -12 80 -12q78 129 202 291zM693 951q31 -1 50.5 -25t22 -53.5t-16.5 -55t-56 -27.5
q-58 -4 -77 45q-16 43 11 83q23 34 66 33zM692 915q-29 1 -41.5 -22t-0.5 -46t42 -21q24 1 35.5 22.5t2 43t-37.5 23.5z" />
    <glyph glyph-name="AE" unicode="&#xc6;" horiz-adv-x="1141" 
d="M494 365q-70 -78 -107 -116q3 0 9.5 -0.5t9.5 -0.5q10 -2 8 -11q0 -9 -10 -9l-36 2q-68 -71 -131.5 -120.5t-110 -72.5t-84 -29.5t-59.5 2t-30 28.5q-9 21 -0.5 48t38.5 56.5t77 54t124 39.5t170 14q35 36 107 116q-41 -2 -67 -32q-7 -7 -14 -2q-9 5 -2 14q40 44 100 39
l125 138t105 101.5t110 80.5q5 3 10.5 -2t3.5 -11q-5 -10 -38 -58.5l-81.5 -122t-86.5 -137.5q29 5 61 22q8 6 13 -3q5 -7 -2 -14q-40 -22 -85 -27q-191 -326 -57 -332q47 -2 65 44q2 9 12 7q9 -3 7 -13q-12 -31 -38.5 -47t-58.5 -9q-160 30 28 350q-17 2 -45.5 7t-39.5 6z
M343 230q-82 -1 -150 -14.5t-110.5 -33.5t-71 -44.5t-37.5 -47t-3 -39.5q5 -14 23.5 -19t52 2t75.5 27t100 63.5t121 105.5zM792 662q-37 -27 -90.5 -78.5t-85.5 -86l-106 -114.5q76 -12 80 -12q78 129 202 291zM968 568q42 3 75 25.5t12 56.5q-36 49 -112 10
q-68 -35 -111 -107q-51 -84 -22 -147q34 3 56.5 -0.5t31.5 -9.5t8 -15q-1 -13 -17.5 -21.5t-42 -4t-45.5 27.5q-48 -8 -102.5 -38.5t-97 -73.5t-70 -88.5t-22.5 -89.5t47 -71q48 -30 133 6.5t110 88.5q4 9 12 6q9 -4 6 -13q-18 -39 -69.5 -73t-106 -43.5t-96.5 11.5
q-51 32 -63.5 82t10.5 101.5t66 98.5t105.5 79t125.5 37q-34 98 37 194q53 73 129 97q78 25 113 -29q4 -6 7 -12q20 -45 -17 -72.5t-90 -32.5q-9 0 -9 10t9 10zM832 386q16 -7 29.5 -9t14.5 1q2 2 -4 5q-12 4 -40 3z" />
    <glyph glyph-name="Ccedilla" unicode="&#xc7;" horiz-adv-x="404" 
d="M552 579q30 29 37.5 51t-5 32t-35 14t-51.5 -2q-98 -15 -233 -153q-129 -131 -194 -269q-71 -153 -5 -204q7 -6 16 -10q53 -25 134 7t115 84q4 11 13 7t6 -13q-39 -62 -126 -100t-148 -11q-106 47 -65 197q36 133 162 278q123 142 243 191q31 12 58 16q41 8 73 1
t51.5 -21t12 -43.5t-45.5 -66.5q-7 -6 -14 1t1 14zM165 -13q1 9 9.5 9t10.5 -8q-6 -30 5.5 -37.5t36.5 -3t29 3.5q21 -5 25 -37.5t-14 -50.5q-18 -19 -61.5 -22t-81.5 2q-6 1 -8.5 6t0 9.5t9.5 4.5q4 0 22.5 -1t34.5 -1.5t33.5 1.5t25.5 7q17 11 16.5 36.5t-14.5 27.5
q-7 1 -20 0t-22 -0.5t-18.5 4.5t-14 16.5t-3.5 33.5z" />
    <glyph glyph-name="Egrave" unicode="&#xc8;" horiz-adv-x="434" 
d="M490 574q-9 0 -9 -10t9 -10q53 5 90 32.5t17 72.5q-28 62 -105 45q-74 -16 -133 -86q-75 -89 -54 -186q2 -12 6 -23q-63 -5 -125.5 -37t-105.5 -79t-66 -98.5t-10.5 -101.5t63.5 -82q42 -21 96.5 -11.5t106 43.5t69.5 73q3 9 -6 13q-8 3 -12 -6q-25 -52 -110 -88.5
t-133 -6.5q-42 27 -47 71t22.5 89.5t70 88.5t97 73.5t102.5 38.5q20 -23 45.5 -27.5t42 4t17.5 21.5q1 9 -8 15t-31.5 9.5t-56.5 0.5q-31 69 29 159q49 72 116 101q67 28 100 -16q21 -34 -12 -56.5t-75 -25.5zM354 392q45 0 44 -8q-1 -3 -14.5 -1t-29.5 9zM391 928
q14 14 59 -11.5t80.5 -62.5t25.5 -49q-11 -14 -58 10.5t-84 61t-23 51.5z" />
    <glyph glyph-name="Eacute" unicode="&#xc9;" horiz-adv-x="434" 
d="M490 574q-9 0 -9 -10t9 -10q53 5 90 32.5t17 72.5q-28 62 -105 45q-74 -16 -133 -86q-75 -89 -54 -186q2 -12 6 -23q-63 -5 -125.5 -37t-105.5 -79t-66 -98.5t-10.5 -101.5t63.5 -82q42 -21 96.5 -11.5t106 43.5t69.5 73q3 9 -6 13q-8 3 -12 -6q-25 -52 -110 -88.5
t-133 -6.5q-42 27 -47 71t22.5 89.5t70 88.5t97 73.5t102.5 38.5q20 -23 45.5 -27.5t42 4t17.5 21.5q1 9 -8 15t-31.5 9.5t-56.5 0.5q-31 69 29 159q49 72 116 101q67 28 100 -16q21 -34 -12 -56.5t-75 -25.5zM354 392q45 0 44 -8q-1 -3 -14.5 -1t-29.5 9zM583 929
q14 -15 -23 -51.5t-84 -61t-58 -10.5q-10 12 25.5 49t80.5 62.5t59 11.5z" />
    <glyph glyph-name="Ecircumflex" unicode="&#xca;" horiz-adv-x="434" 
d="M490 574q-9 0 -9 -10t9 -10q53 5 90 32.5t17 72.5q-28 62 -105 45q-74 -16 -133 -86q-75 -89 -54 -186q2 -12 6 -23q-63 -5 -125.5 -37t-105.5 -79t-66 -98.5t-10.5 -101.5t63.5 -82q42 -21 96.5 -11.5t106 43.5t69.5 73q3 9 -6 13q-8 3 -12 -6q-25 -52 -110 -88.5
t-133 -6.5q-42 27 -47 71t22.5 89.5t70 88.5t97 73.5t102.5 38.5q20 -23 45.5 -27.5t42 4t17.5 21.5q1 9 -8 15t-31.5 9.5t-56.5 0.5q-31 69 29 159q49 72 116 101q67 28 100 -16q21 -34 -12 -56.5t-75 -25.5zM354 392q45 0 44 -8q-1 -3 -14.5 -1t-29.5 9zM559 814
q-9 32 -18 48.5t-31 35.5q-25 22 -12 25q3 1 10 -1q42 -23 120 -103q12 -12 -14 -19q-33 -8 -50 7q-4 3 -5 7zM429 815q-6 -19 -43 -16q-30 3 -29 15q0 3 3 6q78 80 120 103q17 4 13 -6q-3 -7 -15 -18q-22 -19 -31 -35.5t-18 -48.5z" />
    <glyph glyph-name="Edieresis" unicode="&#xcb;" horiz-adv-x="434" 
d="M490 574q-9 0 -9 -10t9 -10q53 5 90 32.5t17 72.5q-28 62 -105 45q-74 -16 -133 -86q-75 -89 -54 -186q2 -12 6 -23q-63 -5 -125.5 -37t-105.5 -79t-66 -98.5t-10.5 -101.5t63.5 -82q42 -21 96.5 -11.5t106 43.5t69.5 73q3 9 -6 13q-8 3 -12 -6q-25 -52 -110 -88.5
t-133 -6.5q-42 27 -47 71t22.5 89.5t70 88.5t97 73.5t102.5 38.5q20 -23 45.5 -27.5t42 4t17.5 21.5q1 9 -8 15t-31.5 9.5t-56.5 0.5q-31 69 29 159q49 72 116 101q67 28 100 -16q21 -34 -12 -56.5t-75 -25.5zM354 392q45 0 44 -8q-1 -3 -14.5 -1t-29.5 9zM518 890
q24 2 35 -18.5t1 -42t-37 -21.5q-22 0 -30.5 21t1 41.5t30.5 19.5zM351 890q24 2 35 -18.5t1 -42t-37 -21.5q-22 0 -30.5 21t1 41.5t30.5 19.5z" />
    <glyph glyph-name="Igrave" unicode="&#xcc;" horiz-adv-x="553" 
d="M428 395q2 -11 11 -9q9 0 9 11q2 123 65 207.5t157 75.5q-231 -346 -319 -454q-92 -2 -165.5 -14.5t-117.5 -31t-72 -42t-37 -44.5t-6 -41q4 -24 28.5 -39t66.5 -13.5t92 19.5t112.5 66t122.5 120q7 0 47 -2q9 -2 11 8q0 11 -9 11q-7 1 -33 3q46 56 185.5 256.5
t131.5 217.5q-68 13 -122.5 -8t-87.5 -67.5t-51 -105t-19 -124.5zM335 206q-50 -60 -104 -102.5t-97 -61t-78.5 -23t-57 5t-25.5 27.5q-3 15 4.5 32.5t32.5 37.5t64.5 37t107 30t153.5 17zM453 924q14 14 59 -11.5t80.5 -62.5t25.5 -49q-11 -14 -58 10.5t-84 61t-23 51.5z
" />
    <glyph glyph-name="Iacute" unicode="&#xcd;" horiz-adv-x="553" 
d="M428 395q2 -11 11 -9q9 0 9 11q2 123 65 207.5t157 75.5q-231 -346 -319 -454q-92 -2 -165.5 -14.5t-117.5 -31t-72 -42t-37 -44.5t-6 -41q4 -24 28.5 -39t66.5 -13.5t92 19.5t112.5 66t122.5 120q7 0 47 -2q9 -2 11 8q0 11 -9 11q-7 1 -33 3q46 56 185.5 256.5
t131.5 217.5q-68 13 -122.5 -8t-87.5 -67.5t-51 -105t-19 -124.5zM335 206q-50 -60 -104 -102.5t-97 -61t-78.5 -23t-57 5t-25.5 27.5q-3 15 4.5 32.5t32.5 37.5t64.5 37t107 30t153.5 17zM729 928q14 -15 -23 -51.5t-84 -61t-58 -10.5q-10 12 25.5 49t80.5 62.5t59 11.5z
" />
    <glyph glyph-name="Icircumflex" unicode="&#xce;" horiz-adv-x="553" 
d="M428 395q2 -11 11 -9q9 0 9 11q2 123 65 207.5t157 75.5q-231 -346 -319 -454q-92 -2 -165.5 -14.5t-117.5 -31t-72 -42t-37 -44.5t-6 -41q4 -24 28.5 -39t66.5 -13.5t92 19.5t112.5 66t122.5 120q7 0 47 -2q9 -2 11 8q0 11 -9 11q-7 1 -33 3q46 56 185.5 256.5
t131.5 217.5q-68 13 -122.5 -8t-87.5 -67.5t-51 -105t-19 -124.5zM335 206q-50 -60 -104 -102.5t-97 -61t-78.5 -23t-57 5t-25.5 27.5q-3 15 4.5 32.5t32.5 37.5t64.5 37t107 30t153.5 17zM711 821q-9 32 -18 48.5t-31 35.5q-25 22 -12 25q3 1 10 -1q42 -23 120 -103
q12 -12 -14 -19q-33 -8 -50 7q-4 3 -5 7zM581 822q-6 -19 -43 -16q-30 3 -29 15q0 3 3 6q78 80 120 103q17 4 13 -6q-3 -7 -15 -18q-22 -19 -31 -35.5t-18 -48.5z" />
    <glyph glyph-name="Idieresis" unicode="&#xcf;" horiz-adv-x="553" 
d="M428 395q2 -11 11 -9q9 0 9 11q2 123 65 207.5t157 75.5q-231 -346 -319 -454q-92 -2 -165.5 -14.5t-117.5 -31t-72 -42t-37 -44.5t-6 -41q4 -24 28.5 -39t66.5 -13.5t92 19.5t112.5 66t122.5 120q7 0 47 -2q9 -2 11 8q0 11 -9 11q-7 1 -33 3q46 56 185.5 256.5
t131.5 217.5q-68 13 -122.5 -8t-87.5 -67.5t-51 -105t-19 -124.5zM335 206q-50 -60 -104 -102.5t-97 -61t-78.5 -23t-57 5t-25.5 27.5q-3 15 4.5 32.5t32.5 37.5t64.5 37t107 30t153.5 17zM689 886q24 2 35 -18.5t1 -42t-37 -21.5q-22 0 -30.5 21t1 41.5t30.5 19.5zM522 886
q24 2 35 -18.5t1 -42t-37 -21.5q-22 0 -30.5 21t1 41.5t30.5 19.5z" />
    <glyph glyph-name="Eth" unicode="&#xd0;" horiz-adv-x="786" 
d="M704 685q-30 -31 -76 -96q61 53 124 82.5t103 13.5q85 -34 49 -176q-36 -136 -152 -285q-120 -153 -237 -203q-31 -13 -58 -17q-41 -8 -73 -1t-51.5 20.5t-12 43t45.5 66.5q7 7 14 0q6 -8 -1 -14q-30 -29 -37.5 -50.5t5 -32t34.5 -14.5t52 -1q102 13 236 162
q122 134 184 280q64 150 9 195q-6 5 -13 8q-35 16 -97 -15t-114 -78t-76 -83q-6 -18 -75 -117.5t-95 -132.5q7 0 11 -0.5t8.5 -1t10.5 -0.5q9 0 9 -10q-2 -11 -11 -9q-31 2 -43 1q-60 -76 -122.5 -128t-113 -73t-92.5 -24t-67.5 12t-31.5 40q-5 21 3.5 44.5t37 49t73 46.5
t118.5 35.5t167 17.5q46 59 117.5 166.5t127.5 183.5t97 109q7 7 14 0q6 -7 -1 -14zM334 220q-83 -4 -150 -18t-108 -32t-67.5 -40t-36 -41.5t-6.5 -36.5q6 -35 55 -38q82 -6 190 80q63 50 123 126zM342 402q78 4 259 1q9 0 9 -10q0 -9 -10 -9q-190 2 -256 -2q-11 0 -11 10
t9 10z" />
    <glyph glyph-name="Ntilde" unicode="&#xd1;" horiz-adv-x="729" 
d="M678 686q4 4 3 7q0 5 -3.5 8t-8.5 2l-1 1l-1 -1l-2 -2q-13 -15 -29 -46q-175 -263 -309 -405q-85 1 -157 -14.5t-117.5 -40t-76.5 -54t-42.5 -57t-5.5 -48.5q5 -20 25 -29t56 -2t82 30t109.5 73.5t132.5 121.5q23 0 35 -1q10 0 11 9q2 9 -9 11h-19q114 120 244 311
q-55 -141 -103.5 -323.5t-41.5 -225.5q1 -7 3.5 -10t6.5 -1q14 6 59.5 72t81.5 124.5t39 64.5q150 243 228 335q56 66 91 81q68 28 98 14t50 -80q2 -9 12 -7q9 2 7 12q-27 88 -75 97q-41 7 -80 -7t-74 -49t-56 -61t-52 -70q-6 -9 -9 -13q-15 -21 -143 -222t-162 -250
q22 57 102 332t101 313zM308 231q-175 -172 -291 -202q-57 -15 -66 12q-1 2 -1 4q-3 23 17 53t60.5 60t114.5 51t166 22zM669 813q-7 -4 -13 1t-1 13q8 18 16.5 30t15 19.5t16 9.5l14.5 3t16 -4t15 -7t17 -11l16 -11q58 -36 84 -30q30 7 44 53q5 8 12.5 6.5t7.5 -11.5
q-16 -59 -58 -69q-39 -10 -106 35q-26 17 -42 19.5t-21.5 -2.5t-15.5 -20.5t-17 -23.5z" />
    <glyph glyph-name="Ograve" unicode="&#xd2;" horiz-adv-x="595" 
d="M635 555q0 -10 10 -10t10 10q-6 80 -64 110.5t-141 22.5q-63 -6 -131 -41t-126.5 -87t-104.5 -118.5t-69.5 -134t-16.5 -136.5t51 -123q77 -95 222 -29q121 55 229 187q111 136 126 252q13 103 -62 146q-35 15 -74.5 9t-78.5 -31.5t-74.5 -59t-62.5 -75.5t-42.5 -80.5
t-13.5 -73t23 -54.5q26 -25 84 -3q10 4 6 13t-13 5q-1 0 -6 -2t-6.5 -2.5t-7 -1.5t-7.5 -1.5t-7 -1t-7.5 -0.5t-6.5 0.5t-7 2t-6 3.5t-5 5q-22 27 -10.5 77.5t46 100t81.5 93.5t96 60t90 -1q77 -40 24 -171q-48 -120 -166 -240q-126 -128 -232 -150q-79 -17 -121 40
q-30 66 -22 142.5t51 156t100 145t126.5 109.5t130.5 50q176 16 185 -113zM430 919q14 14 59 -11.5t80.5 -62.5t25.5 -49q-11 -14 -58 10.5t-84 61t-23 51.5z" />
    <glyph glyph-name="Oacute" unicode="&#xd3;" horiz-adv-x="595" 
d="M635 555q0 -10 10 -10t10 10q-6 80 -64 110.5t-141 22.5q-63 -6 -131 -41t-126.5 -87t-104.5 -118.5t-69.5 -134t-16.5 -136.5t51 -123q77 -95 222 -29q121 55 229 187q111 136 126 252q13 103 -62 146q-35 15 -74.5 9t-78.5 -31.5t-74.5 -59t-62.5 -75.5t-42.5 -80.5
t-13.5 -73t23 -54.5q26 -25 84 -3q10 4 6 13t-13 5q-1 0 -6 -2t-6.5 -2.5t-7 -1.5t-7.5 -1.5t-7 -1t-7.5 -0.5t-6.5 0.5t-7 2t-6 3.5t-5 5q-22 27 -10.5 77.5t46 100t81.5 93.5t96 60t90 -1q77 -40 24 -171q-48 -120 -166 -240q-126 -128 -232 -150q-79 -17 -121 40
q-30 66 -22 142.5t51 156t100 145t126.5 109.5t130.5 50q176 16 185 -113zM624 923q14 -15 -23 -51.5t-84 -61t-58 -10.5q-10 12 25.5 49t80.5 62.5t59 11.5z" />
    <glyph glyph-name="Ocircumflex" unicode="&#xd4;" horiz-adv-x="595" 
d="M635 555q0 -10 10 -10t10 10q-6 80 -64 110.5t-141 22.5q-63 -6 -131 -41t-126.5 -87t-104.5 -118.5t-69.5 -134t-16.5 -136.5t51 -123q77 -95 222 -29q121 55 229 187q111 136 126 252q13 103 -62 146q-35 15 -74.5 9t-78.5 -31.5t-74.5 -59t-62.5 -75.5t-42.5 -80.5
t-13.5 -73t23 -54.5q26 -25 84 -3q10 4 6 13t-13 5q-1 0 -6 -2t-6.5 -2.5t-7 -1.5t-7.5 -1.5t-7 -1t-7.5 -0.5t-6.5 0.5t-7 2t-6 3.5t-5 5q-22 27 -10.5 77.5t46 100t81.5 93.5t96 60t90 -1q77 -40 24 -171q-48 -120 -166 -240q-126 -128 -232 -150q-79 -17 -121 40
q-30 66 -22 142.5t51 156t100 145t126.5 109.5t130.5 50q176 16 185 -113zM640 819q-9 32 -18 48.5t-31 35.5q-25 22 -12 25q3 1 10 -1q42 -23 120 -103q12 -12 -14 -19q-33 -8 -50 7q-4 3 -5 7zM510 820q-6 -19 -43 -16q-30 3 -29 15q0 3 3 6q78 80 120 103q17 4 13 -6
q-3 -7 -15 -18q-22 -19 -31 -35.5t-18 -48.5z" />
    <glyph glyph-name="Otilde" unicode="&#xd5;" horiz-adv-x="595" 
d="M635 555q0 -10 10 -10t10 10q-6 80 -64 110.5t-141 22.5q-63 -6 -131 -41t-126.5 -87t-104.5 -118.5t-69.5 -134t-16.5 -136.5t51 -123q77 -95 222 -29q121 55 229 187q111 136 126 252q13 103 -62 146q-35 15 -74.5 9t-78.5 -31.5t-74.5 -59t-62.5 -75.5t-42.5 -80.5
t-13.5 -73t23 -54.5q26 -25 84 -3q10 4 6 13t-13 5q-1 0 -6 -2t-6.5 -2.5t-7 -1.5t-7.5 -1.5t-7 -1t-7.5 -0.5t-6.5 0.5t-7 2t-6 3.5t-5 5q-22 27 -10.5 77.5t46 100t81.5 93.5t96 60t90 -1q77 -40 24 -171q-48 -120 -166 -240q-126 -128 -232 -150q-79 -17 -121 40
q-30 66 -22 142.5t51 156t100 145t126.5 109.5t130.5 50q176 16 185 -113zM498 815q-7 -5 -12.5 1t-1.5 13q8 18 16.5 30t15 19.5t16 9.5l14.5 3t16 -4t15 -7t17 -11l16 -11q58 -36 84 -30q30 7 44 53q5 8 12.5 6.5t7.5 -11.5q-16 -59 -58 -69q-39 -10 -106 35
q-26 17 -42 19.5t-21.5 -2.5t-15.5 -20.5t-17 -23.5z" />
    <glyph glyph-name="Odieresis" unicode="&#xd6;" horiz-adv-x="595" 
d="M635 555q0 -10 10 -10t10 10q-6 80 -64 110.5t-141 22.5q-63 -6 -131 -41t-126.5 -87t-104.5 -118.5t-69.5 -134t-16.5 -136.5t51 -123q77 -95 222 -29q121 55 229 187q111 136 126 252q13 103 -62 146q-35 15 -74.5 9t-78.5 -31.5t-74.5 -59t-62.5 -75.5t-42.5 -80.5
t-13.5 -73t23 -54.5q26 -25 84 -3q10 4 6 13t-13 5q-1 0 -6 -2t-6.5 -2.5t-7 -1.5t-7.5 -1.5t-7 -1t-7.5 -0.5t-6.5 0.5t-7 2t-6 3.5t-5 5q-22 27 -10.5 77.5t46 100t81.5 93.5t96 60t90 -1q77 -40 24 -171q-48 -120 -166 -240q-126 -128 -232 -150q-79 -17 -121 40
q-30 66 -22 142.5t51 156t100 145t126.5 109.5t130.5 50q176 16 185 -113zM672 883q24 2 35 -18.5t1 -42t-37 -21.5q-22 0 -30.5 21t1 41.5t30.5 19.5zM505 883q24 2 35 -18.5t1 -42t-37 -21.5q-22 0 -30.5 21t1 41.5t30.5 19.5z" />
    <glyph glyph-name="multiply" unicode="&#xd7;" horiz-adv-x="417" 
d="M362 499q7 7 13 1q9 -7 1 -15q-34 -37 -150 -175q106 -124 152 -169q6 -7 -1 -14q-2 -3 -6.5 -3t-6.5 2q-48 48 -151 169q-116 -134 -151 -169q-2 -2 -6.5 -2t-6.5 3q-7 7 -1 14q41 41 152 169l-150 175q-8 8 1 15q6 6 13 -1l149 -174z" />
    <glyph glyph-name="Ugrave" unicode="&#xd9;" horiz-adv-x="565" 
d="M289 724q-9 4 -14 -4q-4 -9 4 -13q35 -23 37 -64t-22 -89.5t-60.5 -105t-79 -111.5t-77.5 -109.5t-55.5 -98.5t-12.5 -77.5t50 -48.5q76 -15 237 164q-37 -114 17 -155q27 -17 55 -9t55 34.5t46.5 54t28.5 49.5q4 10 -6 12q-10 4 -12 -6q-30 -63 -72 -99
q-36 -30 -59.5 -29t-30.5 28q-16 55 67.5 198t182 268.5t150.5 173.5q2 1 -1 3.5t-8 5t-6 4.5q-4 9 -13 5q-67 -43 -191 -197.5t-182 -285.5q-67 -81 -136 -141t-111 -59q-54 0 -16 70q18 33 115 167q132 182 163 280q41 126 -43 185zM449 925q14 14 59 -11.5t80.5 -62.5
t25.5 -49q-11 -14 -58 10.5t-84 61t-23 51.5z" />
    <glyph glyph-name="Uacute" unicode="&#xda;" horiz-adv-x="565" 
d="M289 724q-9 4 -14 -4q-4 -9 4 -13q35 -23 37 -64t-22 -89.5t-60.5 -105t-79 -111.5t-77.5 -109.5t-55.5 -98.5t-12.5 -77.5t50 -48.5q76 -15 237 164q-37 -114 17 -155q27 -17 55 -9t55 34.5t46.5 54t28.5 49.5q4 10 -6 12q-10 4 -12 -6q-30 -63 -72 -99
q-36 -30 -59.5 -29t-30.5 28q-16 55 67.5 198t182 268.5t150.5 173.5q2 1 -1 3.5t-8 5t-6 4.5q-4 9 -13 5q-67 -43 -191 -197.5t-182 -285.5q-67 -81 -136 -141t-111 -59q-54 0 -16 70q18 33 115 167q132 182 163 280q41 126 -43 185zM655 933q14 -15 -23 -51.5t-84 -61
t-58 -10.5q-10 12 25.5 49t80.5 62.5t59 11.5z" />
    <glyph glyph-name="Ucircumflex" unicode="&#xdb;" horiz-adv-x="565" 
d="M289 724q-9 4 -14 -4q-4 -9 4 -13q35 -23 37 -64t-22 -89.5t-60.5 -105t-79 -111.5t-77.5 -109.5t-55.5 -98.5t-12.5 -77.5t50 -48.5q76 -15 237 164q-37 -114 17 -155q27 -17 55 -9t55 34.5t46.5 54t28.5 49.5q4 10 -6 12q-10 4 -12 -6q-30 -63 -72 -99
q-36 -30 -59.5 -29t-30.5 28q-16 55 67.5 198t182 268.5t150.5 173.5q2 1 -1 3.5t-8 5t-6 4.5q-4 9 -13 5q-67 -43 -191 -197.5t-182 -285.5q-67 -81 -136 -141t-111 -59q-54 0 -16 70q18 33 115 167q132 182 163 280q41 126 -43 185zM561 819q-9 32 -18 48.5t-31 35.5
q-25 22 -12 25q3 1 10 -1q42 -23 120 -103q12 -12 -14 -19q-33 -8 -50 7q-4 3 -5 7zM431 820q-6 -19 -43 -16q-30 3 -29 15q0 3 3 6q78 80 120 103q17 4 13 -6q-3 -7 -15 -18q-22 -19 -31 -35.5t-18 -48.5z" />
    <glyph glyph-name="Udieresis" unicode="&#xdc;" horiz-adv-x="565" 
d="M289 724q-9 4 -14 -4q-4 -9 4 -13q35 -23 37 -64t-22 -89.5t-60.5 -105t-79 -111.5t-77.5 -109.5t-55.5 -98.5t-12.5 -77.5t50 -48.5q76 -15 237 164q-37 -114 17 -155q27 -17 55 -9t55 34.5t46.5 54t28.5 49.5q4 10 -6 12q-10 4 -12 -6q-30 -63 -72 -99
q-36 -30 -59.5 -29t-30.5 28q-16 55 67.5 198t182 268.5t150.5 173.5q2 1 -1 3.5t-8 5t-6 4.5q-4 9 -13 5q-67 -43 -191 -197.5t-182 -285.5q-67 -81 -136 -141t-111 -59q-54 0 -16 70q18 33 115 167q132 182 163 280q41 126 -43 185zM588 875q24 2 35 -18.5t1 -42
t-37 -21.5q-22 0 -30.5 21t1 41.5t30.5 19.5zM421 875q24 2 35 -18.5t1 -42t-37 -21.5q-22 0 -30.5 21t1 41.5t30.5 19.5z" />
    <glyph glyph-name="Yacute" unicode="&#xdd;" horiz-adv-x="547" 
d="M257 681q-9 -4 -5 -13t13 -5q133 45 144 -31q0 -33 -22 -77.5t-54 -86.5l-67.5 -91t-60.5 -90.5t-33.5 -85.5t12.5 -76q51 -69 204 58l-42 -63.5l-35 -53.5t-33 -44q-63 0 -119.5 -10.5t-97 -28.5t-75 -41t-54 -48.5t-33.5 -51t-14 -47.5t5 -39q9 -22 33 -30.5t64 1.5
t89 39t114.5 89.5t133.5 146.5q26 0 39 -1q11 0 11 9q1 9 -9 11h-25q59 76 119.5 168l101 156t106 148.5t144.5 163.5q3 1 -4 9q-1 3 -2 4q-4 9 -13 5q-73 -43 -159.5 -150.5t-197.5 -271.5q-179 -171 -230 -122q-14 17 4.5 58t55 91l76 109.5t68 113.5t31 103t-36.5 78
q-42 32 -146 -3zM261 2q-180 -219 -290 -255q-57 -19 -67 20q-1 1 -1 3q-6 27 15.5 64.5t63 75t116 64.5t163.5 28zM699 918q14 -15 -23 -51.5t-84 -61t-58 -10.5q-10 12 25.5 49t80.5 62.5t59 11.5z" />
    <glyph glyph-name="germandbls" unicode="&#xdf;" horiz-adv-x="560" 
d="M165 507q-22 -41 -20 -125t15 -164.5t13.5 -165.5t-23.5 -128q-2 -9 -10 -8.5t-10 9.5q16 48 16.5 110.5t-7 123t-14 121t-3 123t23.5 111.5q20 40 78.5 93t90.5 33q65 -20 98 -52t28 -77t-55 -97q-5 -5 -20.5 -17.5t-26.5 -24t-14 -23.5q-3 -16 16 -42.5t48.5 -55
t58.5 -61.5t47.5 -62t12.5 -57t-43 -47q-13 -7 -78.5 -9.5t-74.5 -24.5q-24 -59 28.5 -148.5t113.5 -108.5l-3 -1q-31 -7 -29 -1q-61 30 -102.5 114.5t-25.5 153.5q5 24 25 34.5t44 12t46.5 4.5t36.5 19t12 49q-1 28 -24 59.5t-50.5 56t-51.5 56.5t-27 61q-1 11 33 44l34 33
q23 37 25.5 74t-20 70t-70.5 50q-7 5 -18.5 1.5t-20.5 -7.5t-21 -14.5t-20 -19t-19 -21.5l-17.5 -21l-14.5 -18.5z" />
    <glyph glyph-name="agrave" unicode="&#xe0;" horiz-adv-x="469" 
d="M155 112q-38 -127 -5 -169q10 -13 25.5 -13.5t33.5 10.5t39 28t43.5 41.5l44.5 50.5t43.5 54.5l39 53l33.5 48l25.5 37.5t14.5 23q6 9 -4 13q-8 6 -13 -3q-29 -47 -109.5 -154.5t-132.5 -148.5q-14 -11 -24 -17t-21 -10.5t-16 0t-8 15.5t3 35q15 79 76.5 216.5
t94.5 179.5q6 7 -2.5 17t-20 13t-19.5 -4l-49 -93q-32 77 -70 92q-60 25 -133 -69q-67 -87 -93 -198q-27 -118 24 -151q8 -5 17 -7q56 -15 163 110zM235 311q-36 -73 -64 -149q-59 -71 -81 -91q-50 -46 -82 -49q-39 -5 -28 69q13 92 77 205q59 107 102 112q9 1 16 -3
q14 -8 31.5 -35.5t28.5 -58.5zM156 666q14 14 59 -11.5t80.5 -62.5t25.5 -49q-11 -14 -58 10.5t-84 61t-23 51.5z" />
    <glyph glyph-name="aacute" unicode="&#xe1;" horiz-adv-x="469" 
d="M155 112q-38 -127 -5 -169q10 -13 25.5 -13.5t33.5 10.5t39 28t43.5 41.5l44.5 50.5t43.5 54.5l39 53l33.5 48l25.5 37.5t14.5 23q6 9 -4 13q-8 6 -13 -3q-29 -47 -109.5 -154.5t-132.5 -148.5q-14 -11 -24 -17t-21 -10.5t-16 0t-8 15.5t3 35q15 79 76.5 216.5
t94.5 179.5q6 7 -2.5 17t-20 13t-19.5 -4l-49 -93q-32 77 -70 92q-60 25 -133 -69q-67 -87 -93 -198q-27 -118 24 -151q8 -5 17 -7q56 -15 163 110zM235 311q-36 -73 -64 -149q-59 -71 -81 -91q-50 -46 -82 -49q-39 -5 -28 69q13 92 77 205q59 107 102 112q9 1 16 -3
q14 -8 31.5 -35.5t28.5 -58.5zM312 664q14 -15 -23 -51.5t-84 -61t-58 -10.5q-10 12 25.5 49t80.5 62.5t59 11.5z" />
    <glyph glyph-name="acircumflex" unicode="&#xe2;" horiz-adv-x="469" 
d="M155 112q-38 -127 -5 -169q10 -13 25.5 -13.5t33.5 10.5t39 28t43.5 41.5l44.5 50.5t43.5 54.5l39 53l33.5 48l25.5 37.5t14.5 23q6 9 -4 13q-8 6 -13 -3q-29 -47 -109.5 -154.5t-132.5 -148.5q-14 -11 -24 -17t-21 -10.5t-16 0t-8 15.5t3 35q15 79 76.5 216.5
t94.5 179.5q6 7 -2.5 17t-20 13t-19.5 -4l-49 -93q-32 77 -70 92q-60 25 -133 -69q-67 -87 -93 -198q-27 -118 24 -151q8 -5 17 -7q56 -15 163 110zM235 311q-36 -73 -64 -149q-59 -71 -81 -91q-50 -46 -82 -49q-39 -5 -28 69q13 92 77 205q59 107 102 112q9 1 16 -3
q14 -8 31.5 -35.5t28.5 -58.5zM299 614q-9 32 -18 48.5t-31 35.5q-25 22 -12 25q3 1 10 -1q42 -23 120 -103q12 -12 -14 -19q-33 -8 -50 7q-4 3 -5 7zM169 615q-6 -19 -43 -16q-30 3 -29 15q0 3 3 6q78 80 120 103q17 4 13 -6q-3 -7 -15 -18q-22 -19 -31 -35.5t-18 -48.5z
" />
    <glyph glyph-name="atilde" unicode="&#xe3;" horiz-adv-x="469" 
d="M155 112q-38 -127 -5 -169q10 -13 25.5 -13.5t33.5 10.5t39 28t43.5 41.5l44.5 50.5t43.5 54.5l39 53l33.5 48l25.5 37.5t14.5 23q6 9 -4 13q-8 6 -13 -3q-29 -47 -109.5 -154.5t-132.5 -148.5q-14 -11 -24 -17t-21 -10.5t-16 0t-8 15.5t3 35q15 79 76.5 216.5
t94.5 179.5q6 7 -2.5 17t-20 13t-19.5 -4l-49 -93q-32 77 -70 92q-60 25 -133 -69q-67 -87 -93 -198q-27 -118 24 -151q8 -5 17 -7q56 -15 163 110zM235 311q-36 -73 -64 -149q-59 -71 -81 -91q-50 -46 -82 -49q-39 -5 -28 69q13 92 77 205q59 107 102 112q9 1 16 -3
q14 -8 31.5 -35.5t28.5 -58.5zM114 550q-8 -4 -13 1t-1 13q8 18 16.5 30t15 19.5t16 9.5l14.5 3t16 -4t15 -7t17 -11l16 -11q58 -36 84 -30q30 7 44 53q5 8 12.5 6.5t7.5 -11.5q-16 -59 -58 -69q-39 -10 -106 35q-26 17 -42 19.5t-21.5 -2.5t-15.5 -20.5t-17 -23.5z" />
    <glyph glyph-name="adieresis" unicode="&#xe4;" horiz-adv-x="469" 
d="M155 112q-38 -127 -5 -169q10 -13 25.5 -13.5t33.5 10.5t39 28t43.5 41.5l44.5 50.5t43.5 54.5l39 53l33.5 48l25.5 37.5t14.5 23q6 9 -4 13q-8 6 -13 -3q-29 -47 -109.5 -154.5t-132.5 -148.5q-14 -11 -24 -17t-21 -10.5t-16 0t-8 15.5t3 35q15 79 76.5 216.5
t94.5 179.5q6 7 -2.5 17t-20 13t-19.5 -4l-49 -93q-32 77 -70 92q-60 25 -133 -69q-67 -87 -93 -198q-27 -118 24 -151q8 -5 17 -7q56 -15 163 110zM235 311q-36 -73 -64 -149q-59 -71 -81 -91q-50 -46 -82 -49q-39 -5 -28 69q13 92 77 205q59 107 102 112q9 1 16 -3
q14 -8 31.5 -35.5t28.5 -58.5zM314 624q24 2 35 -18.5t1 -42t-37 -21.5q-22 0 -30.5 21t1 41.5t30.5 19.5zM147 624q24 2 35 -18.5t1 -42t-37 -21.5q-22 0 -30.5 21t1 41.5t30.5 19.5z" />
    <glyph glyph-name="aring" unicode="&#xe5;" horiz-adv-x="469" 
d="M155 112q-107 -125 -163 -110q-62 17 -47 125q14 104 80 204q66 101 128 101q13 0 24 -5q38 -15 70 -92l49 93q8 7 19.5 4t20 -13t2.5 -17q-33 -42 -94.5 -179.5t-76.5 -216.5q-6 -24 -3 -35t8 -15.5t16 0t21 10.5t24 17q52 41 132.5 148.5t109.5 154.5q5 9 13 3
q10 -4 4 -13q-5 -9 -14.5 -23l-25.5 -37.5l-33.5 -48l-39 -53t-43.5 -54.5l-44.5 -50.5t-43.5 -41.5t-39 -28t-33.5 -10.5t-25.5 13.5q-33 42 5 169zM235 311q-11 31 -28.5 58.5t-31.5 35.5q-37 21 -100 -78q-64 -100 -89 -207q-25 -101 20 -98h2q32 3 82 49q22 20 81 91
q28 76 64 149zM239 667q31 -1 50.5 -25t22 -53.5t-16.5 -55t-56 -27.5q-58 -4 -77 45q-16 43 11 83q23 34 66 33zM238 631q-29 1 -41.5 -22t-0.5 -46t42 -21q24 1 35.5 22.5t2 43t-37.5 23.5z" />
    <glyph glyph-name="ae" unicode="&#xe6;" horiz-adv-x="560" 
d="M574 298q5 9 14 0q5 -5 0 -14q-53 -82 -124 -157q-65 -68 -124.5 -102.5t-99.5 -19.5q-87 33 -75 107q-107 -125 -163 -110q-62 17 -47 125q14 104 80 204q66 101 128 101q13 0 24 -5q38 -15 70 -92q27 27 49.5 45t41.5 26.5t30 12t28 6t24 4.5q37 13 67 -5.5t16 -53.5
q-18 -44 -99 -95.5t-150 -80.5q-65 -135 -16 -161q19 -13 47.5 -4t55.5 25t56.5 43.5t52.5 52t43 49.5l24 31.5l25.5 36.5zM245 311q-11 31 -28.5 58.5t-31.5 35.5q-37 21 -100 -78q-64 -100 -89 -207q-25 -101 20 -98h2q32 3 82 49q22 20 81 91q28 76 64 149zM481 412
q-30 15 -91.5 -45.5t-110.5 -144.5q178 84 209 150q13 27 -7 40z" />
    <glyph glyph-name="ccedilla" unicode="&#xe7;" horiz-adv-x="285" 
d="M190 307q9 15 15 34.5t5 41t-16 29.5t-41.5 -6t-55 -44t-58 -68.5t-52.5 -80.5t-36.5 -80t-11.5 -68t23 -42q37 -15 112.5 41t137.5 124.5t84 106.5q5 9 14 0q6 -6 2 -14q-27 -40 -71 -90.5t-96.5 -99.5t-105.5 -75t-86 -11q-78 35 -42 151q31 99 117 191q87 91 150 88
q7 0 14 -2q22 -6 31.5 -22.5t7 -38t-9 -41t-15.5 -36.5q-5 -7 -14 -2q-7 5 -2 14zM106 -13q1 9 9.5 9t10.5 -8q-6 -30 5.5 -37.5t36.5 -3t29 3.5q21 -5 25 -37.5t-14 -50.5q-18 -19 -61.5 -22t-81.5 2q-6 1 -8.5 6t0 9.5t9.5 4.5q4 0 22.5 -1t34.5 -1.5t33.5 1.5t25.5 7
q17 11 16.5 36.5t-14.5 27.5q-7 1 -20 0t-22 -0.5t-18.5 4.5t-14 16.5t-3.5 33.5z" />
    <glyph glyph-name="egrave" unicode="&#xe8;" horiz-adv-x="291" 
d="M305 298l-21.5 -31l-25.5 -36.5l-24 -31.5q-20 -25 -43 -49.5t-52.5 -52t-56.5 -43.5t-55.5 -25t-47.5 4q-49 26 16 161q69 29 150 80.5t99 95.5q14 35 -16 53.5t-67 5.5q-40 -13 -87.5 -55.5t-83.5 -97.5t-58 -110t-13.5 -100t52.5 -61q40 -15 99.5 19.5t124.5 102.5
q71 75 124 157q5 9 0 14q-9 9 -14 0zM212 412q32 -22 -15 -71q-53 -56 -187 -119q49 84 110.5 144.5t91.5 45.5zM67 666q14 14 59 -11.5t80.5 -62.5t25.5 -49q-11 -14 -58 10.5t-84 61t-23 51.5z" />
    <glyph glyph-name="eacute" unicode="&#xe9;" horiz-adv-x="291" 
d="M305 298l-21.5 -31l-25.5 -36.5l-24 -31.5q-20 -25 -43 -49.5t-52.5 -52t-56.5 -43.5t-55.5 -25t-47.5 4q-49 26 16 161q69 29 150 80.5t99 95.5q14 35 -16 53.5t-67 5.5q-40 -13 -87.5 -55.5t-83.5 -97.5t-58 -110t-13.5 -100t52.5 -61q40 -15 99.5 19.5t124.5 102.5
q71 75 124 157q5 9 0 14q-9 9 -14 0zM212 412q32 -22 -15 -71q-53 -56 -187 -119q49 84 110.5 144.5t91.5 45.5zM223 664q14 -15 -23 -51.5t-84 -61t-58 -10.5q-10 12 25.5 49t80.5 62.5t59 11.5z" />
    <glyph glyph-name="ecircumflex" unicode="&#xea;" horiz-adv-x="291" 
d="M305 298l-21.5 -31l-25.5 -36.5l-24 -31.5q-20 -25 -43 -49.5t-52.5 -52t-56.5 -43.5t-55.5 -25t-47.5 4q-49 26 16 161q69 29 150 80.5t99 95.5q14 35 -16 53.5t-67 5.5q-40 -13 -87.5 -55.5t-83.5 -97.5t-58 -110t-13.5 -100t52.5 -61q40 -15 99.5 19.5t124.5 102.5
q71 75 124 157q5 9 0 14q-9 9 -14 0zM212 412q32 -22 -15 -71q-53 -56 -187 -119q49 84 110.5 144.5t91.5 45.5zM211 614q-9 32 -18 48.5t-31 35.5q-25 22 -12 25q3 1 10 -1q42 -23 120 -103q12 -12 -14 -19q-33 -8 -50 7q-4 3 -5 7zM81 615q-6 -19 -43 -16q-30 3 -29 15
q0 3 3 6q78 80 120 103q17 4 13 -6q-3 -7 -15 -18q-22 -19 -31 -35.5t-18 -48.5z" />
    <glyph glyph-name="edieresis" unicode="&#xeb;" horiz-adv-x="291" 
d="M305 298l-21.5 -31l-25.5 -36.5l-24 -31.5q-20 -25 -43 -49.5t-52.5 -52t-56.5 -43.5t-55.5 -25t-47.5 4q-49 26 16 161q69 29 150 80.5t99 95.5q14 35 -16 53.5t-67 5.5q-40 -13 -87.5 -55.5t-83.5 -97.5t-58 -110t-13.5 -100t52.5 -61q40 -15 99.5 19.5t124.5 102.5
q71 75 124 157q5 9 0 14q-9 9 -14 0zM212 412q32 -22 -15 -71q-53 -56 -187 -119q49 84 110.5 144.5t91.5 45.5zM225 624q24 2 35 -18.5t1 -42t-37 -21.5q-22 0 -30.5 21t1 41.5t30.5 19.5zM58 624q24 2 35 -18.5t1 -42t-37 -21.5q-22 0 -30.5 21t1 41.5t30.5 19.5z" />
    <glyph glyph-name="igrave" unicode="&#xec;" horiz-adv-x="295" 
d="M9 396q-5 -9 -13 -7t-7 12q6 14 18 22t29 8.5t31.5 -1t34 -4.5t27.5 -4q1 0 1 -0.5t1 -0.5l4 6q8 7 19.5 4t20 -13t2.5 -18q-29 -36 -70 -129.5t-57 -164.5q-21 -89 14.5 -81.5t123.5 114.5q8 9 57.5 75t54.5 72q5 5 9.5 4.5t7.5 -4t2 -5.5q-48 -73 -110 -150
q-75 -91 -124 -118q-31 -14 -48 -6.5t-23 34.5t-5 53t6 48q22 105 106 260q-2 0 -21.5 3t-29.5 4t-25.5 1.5t-24 -3.5t-11.5 -11zM69 666q14 14 59 -11.5t80.5 -62.5t25.5 -49q-11 -14 -58 10.5t-84 61t-23 51.5z" />
    <glyph glyph-name="iacute" unicode="&#xed;" horiz-adv-x="295" 
d="M9 396q-5 -9 -13 -7t-7 12q6 14 18 22t29 8.5t31.5 -1t34 -4.5t27.5 -4q1 0 1 -0.5t1 -0.5l4 6q8 7 19.5 4t20 -13t2.5 -18q-29 -36 -70 -129.5t-57 -164.5q-21 -89 14.5 -81.5t123.5 114.5q8 9 57.5 75t54.5 72q5 5 9.5 4.5t7.5 -4t2 -5.5q-48 -73 -110 -150
q-75 -91 -124 -118q-31 -14 -48 -6.5t-23 34.5t-5 53t6 48q22 105 106 260q-2 0 -21.5 3t-29.5 4t-25.5 1.5t-24 -3.5t-11.5 -11zM225 664q14 -15 -23 -51.5t-84 -61t-58 -10.5q-10 12 25.5 49t80.5 62.5t59 11.5z" />
    <glyph glyph-name="icircumflex" unicode="&#xee;" horiz-adv-x="295" 
d="M9 396q-5 -9 -13 -7t-7 12q6 14 18 22t29 8.5t31.5 -1t34 -4.5t27.5 -4q1 0 1 -0.5t1 -0.5l4 6q8 7 19.5 4t20 -13t2.5 -18q-29 -36 -70 -129.5t-57 -164.5q-21 -89 14.5 -81.5t123.5 114.5q8 9 57.5 75t54.5 72q5 5 9.5 4.5t7.5 -4t2 -5.5q-48 -73 -110 -150
q-75 -91 -124 -118q-31 -14 -48 -6.5t-23 34.5t-5 53t6 48q22 105 106 260q-2 0 -21.5 3t-29.5 4t-25.5 1.5t-24 -3.5t-11.5 -11zM213 614q-9 32 -18 48.5t-31 35.5q-25 22 -12 25q3 1 10 -1q42 -23 120 -103q12 -12 -14 -19q-33 -8 -50 7q-4 3 -5 7zM83 615q-6 -19 -43 -16
q-30 3 -29 15q0 3 3 6q78 80 120 103q17 4 13 -6q-3 -7 -15 -18q-22 -19 -31 -35.5t-18 -48.5z" />
    <glyph glyph-name="idieresis" unicode="&#xef;" horiz-adv-x="295" 
d="M9 396q-5 -9 -13 -7t-7 12q6 14 18 22t29 8.5t31.5 -1t34 -4.5t27.5 -4q1 0 1 -0.5t1 -0.5l4 6q8 7 19.5 4t20 -13t2.5 -18q-29 -36 -70 -129.5t-57 -164.5q-21 -89 14.5 -81.5t123.5 114.5q8 9 57.5 75t54.5 72q5 5 9.5 4.5t7.5 -4t2 -5.5q-48 -73 -110 -150
q-75 -91 -124 -118q-31 -14 -48 -6.5t-23 34.5t-5 53t6 48q22 105 106 260q-2 0 -21.5 3t-29.5 4t-25.5 1.5t-24 -3.5t-11.5 -11zM227 624q24 2 35 -18.5t1 -42t-37 -21.5q-22 0 -30.5 21t1 41.5t30.5 19.5zM60 624q24 2 35 -18.5t1 -42t-37 -21.5q-22 0 -30.5 21t1 41.5
t30.5 19.5z" />
    <glyph glyph-name="ntilde" unicode="&#xf1;" horiz-adv-x="482" 
d="M-10 100l19.5 52l19 48.5t17 45t14 40t10 34.5t4 28.5t-2.5 20.5q-6 24 -28 -12l-1 -2q2 0 -26 -57t-60.5 -145t-36.5 -149q25 -13 39 1q3 11 4 14l1 3q16 20 68 97.5t105 147.5t90 101q74 61 38 -19l-27 -59.5l-30.5 -72t-31 -85t-20.5 -77t-8 -72.5t16 -49
q47 -64 221 166q73 96 116 168q5 9 -3 13q-9 5 -14 -3q-12 -20 -61.5 -90t-96.5 -129q-95 -117 -132 -117q-28 0 -2 79q10 32 25 72.5l27.5 73.5l25.5 69t22 63.5t15 51.5t5 40t-9 22q-61 49 -300 -295q-5 -8 -12 -18zM121 550q-7 -4 -13 1t-1 13q8 18 16.5 30t15 19.5
t16 9.5l14.5 3t16 -4t15 -7t17 -11l16 -11q58 -36 84 -30q30 7 44 53q5 8 12.5 6.5t7.5 -11.5q-16 -59 -58 -69q-39 -10 -106 35q-26 17 -42 19.5t-21.5 -2.5t-15.5 -20.5t-17 -23.5z" />
    <glyph glyph-name="ograve" unicode="&#xf2;" horiz-adv-x="335" 
d="M122 393q5 1 5 14q-2 9 -11 9q-56 -11 -114 -105q-63 -102 -68 -197q-5 -99 70 -113q61 -11 128 59t106 177q89 -59 154 40q0 7 -6 9.5t-14 -4.5q-17 -24 -34.5 -36t-41.5 -10.5t-52 21.5q8 26 12 66t0.5 82t-25.5 66.5t-60 14.5q-27 -8 -35.5 -46.5t13 -93t72.5 -96.5
q-32 -91 -87 -157t-108 -73q-76 6 -42 129q27 99 93 194q26 36 45 50zM228 270q-42 35 -61.5 80t-15 76.5t24.5 38.5q52 18 62 -61q8 -65 -9 -129q0 -3 -1 -5zM89 666q14 14 59 -11.5t80.5 -62.5t25.5 -49q-11 -14 -58 10.5t-84 61t-23 51.5z" />
    <glyph glyph-name="oacute" unicode="&#xf3;" horiz-adv-x="335" 
d="M122 393q5 1 5 14q-2 9 -11 9q-56 -11 -114 -105q-63 -102 -68 -197q-5 -99 70 -113q61 -11 128 59t106 177q89 -59 154 40q0 7 -6 9.5t-14 -4.5q-17 -24 -34.5 -36t-41.5 -10.5t-52 21.5q8 26 12 66t0.5 82t-25.5 66.5t-60 14.5q-27 -8 -35.5 -46.5t13 -93t72.5 -96.5
q-32 -91 -87 -157t-108 -73q-76 6 -42 129q27 99 93 194q26 36 45 50zM228 270q-42 35 -61.5 80t-15 76.5t24.5 38.5q52 18 62 -61q8 -65 -9 -129q0 -3 -1 -5zM245 664q14 -15 -23 -51.5t-84 -61t-58 -10.5q-10 12 25.5 49t80.5 62.5t59 11.5z" />
    <glyph glyph-name="ocircumflex" unicode="&#xf4;" horiz-adv-x="335" 
d="M122 393q5 1 5 14q-2 9 -11 9q-56 -11 -114 -105q-63 -102 -68 -197q-5 -99 70 -113q61 -11 128 59t106 177q89 -59 154 40q0 7 -6 9.5t-14 -4.5q-17 -24 -34.5 -36t-41.5 -10.5t-52 21.5q8 26 12 66t0.5 82t-25.5 66.5t-60 14.5q-27 -8 -35.5 -46.5t13 -93t72.5 -96.5
q-32 -91 -87 -157t-108 -73q-76 6 -42 129q27 99 93 194q26 36 45 50zM228 270q-42 35 -61.5 80t-15 76.5t24.5 38.5q52 18 62 -61q8 -65 -9 -129q0 -3 -1 -5zM233 614q-9 32 -18 48.5t-31 35.5q-25 22 -12 25q3 1 10 -1q42 -23 120 -103q12 -12 -14 -19q-33 -8 -50 7
q-4 3 -5 7zM103 615q-6 -19 -43 -16q-30 3 -29 15q0 3 3 6q78 80 120 103q17 4 13 -6q-3 -7 -15 -18q-22 -19 -31 -35.5t-18 -48.5z" />
    <glyph glyph-name="otilde" unicode="&#xf5;" horiz-adv-x="335" 
d="M122 393q5 1 5 14q-2 9 -11 9q-56 -11 -114 -105q-63 -102 -68 -197q-5 -99 70 -113q61 -11 128 59t106 177q89 -59 154 40q0 7 -6 9.5t-14 -4.5q-17 -24 -34.5 -36t-41.5 -10.5t-52 21.5q8 26 12 66t0.5 82t-25.5 66.5t-60 14.5q-27 -8 -35.5 -46.5t13 -93t72.5 -96.5
q-32 -91 -87 -157t-108 -73q-76 6 -42 129q27 99 93 194q26 36 45 50zM228 270q-42 35 -61.5 80t-15 76.5t24.5 38.5q52 18 62 -61q8 -65 -9 -129q0 -3 -1 -5zM48 550q-8 -4 -13.5 1t-0.5 13q8 18 16.5 30t15 19.5t16 9.5l14.5 3t16 -4t15 -7t17 -11l16 -11q58 -36 84 -30
q30 7 44 53q5 8 12.5 6.5t7.5 -11.5q-16 -59 -58 -69q-39 -10 -106 35q-26 17 -42 19.5t-21.5 -2.5t-15.5 -20.5t-17 -23.5z" />
    <glyph glyph-name="odieresis" unicode="&#xf6;" horiz-adv-x="335" 
d="M122 393q5 1 5 14q-2 9 -11 9q-56 -11 -114 -105q-63 -102 -68 -197q-5 -99 70 -113q61 -11 128 59t106 177q89 -59 154 40q0 7 -6 9.5t-14 -4.5q-17 -24 -34.5 -36t-41.5 -10.5t-52 21.5q8 26 12 66t0.5 82t-25.5 66.5t-60 14.5q-27 -8 -35.5 -46.5t13 -93t72.5 -96.5
q-32 -91 -87 -157t-108 -73q-76 6 -42 129q27 99 93 194q26 36 45 50zM228 270q-42 35 -61.5 80t-15 76.5t24.5 38.5q52 18 62 -61q8 -65 -9 -129q0 -3 -1 -5zM247 624q24 2 35 -18.5t1 -42t-37 -21.5q-22 0 -30.5 21t1 41.5t30.5 19.5zM80 624q24 2 35 -18.5t1 -42
t-37 -21.5q-22 0 -30.5 21t1 41.5t30.5 19.5z" />
    <glyph glyph-name="divide" unicode="&#xf7;" horiz-adv-x="472" 
d="M35 319q-9 0 -9 -10t11 -10q86 5 400 2q10 0 10 9q0 10 -9 10q-289 6 -403 -1zM225 502q24 2 35 -18.5t1 -42t-37 -21.5q-22 0 -30.5 21t1 41.5t30.5 19.5zM228 210q24 2 35 -18.5t1 -42t-37 -21.5q-22 0 -30.5 21t1 41.5t30.5 19.5z" />
    <glyph glyph-name="ugrave" unicode="&#xf9;" 
d="M316 398q6 7 -2.5 17.5t-20.5 13.5t-19 -4q-50 -89 -90 -179l-82 -109q-141 -172 -145 -90q-1 21 7 57q16 71 57 164.5t70 129.5q6 8 -2.5 18t-20.5 13t-19 -4q-95 -164 -121 -286q-3 -14 -4 -30t-0.5 -35.5t4.5 -35t12.5 -26.5t23 -11.5t35.5 10.5q50 28 123 118l30 37
q-64 -174 -24 -226q14 -14 32.5 -12.5t44.5 21.5t52 46t54.5 62l52.5 68l46.5 64.5l35.5 52.5t19 31q5 9 -3 14q-9 4 -14 -4q-17 -30 -99.5 -140.5t-137.5 -162.5q-20 -20 -37.5 -28t-27 3t-2.5 47q16 80 77.5 217.5t94.5 178.5zM144 666q14 14 59 -11.5t80.5 -62.5
t25.5 -49q-11 -14 -58 10.5t-84 61t-23 51.5z" />
    <glyph glyph-name="uacute" unicode="&#xfa;" 
d="M316 398q6 7 -2.5 17.5t-20.5 13.5t-19 -4q-50 -89 -90 -179l-82 -109q-141 -172 -145 -90q-1 21 7 57q16 71 57 164.5t70 129.5q6 8 -2.5 18t-20.5 13t-19 -4q-95 -164 -121 -286q-3 -14 -4 -30t-0.5 -35.5t4.5 -35t12.5 -26.5t23 -11.5t35.5 10.5q50 28 123 118l30 37
q-64 -174 -24 -226q14 -14 32.5 -12.5t44.5 21.5t52 46t54.5 62l52.5 68l46.5 64.5l35.5 52.5t19 31q5 9 -3 14q-9 4 -14 -4q-17 -30 -99.5 -140.5t-137.5 -162.5q-20 -20 -37.5 -28t-27 3t-2.5 47q16 80 77.5 217.5t94.5 178.5zM300 664q14 -15 -23 -51.5t-84 -61
t-58 -10.5q-10 12 25.5 49t80.5 62.5t59 11.5z" />
    <glyph glyph-name="ucircumflex" unicode="&#xfb;" 
d="M316 398q6 7 -2.5 17.5t-20.5 13.5t-19 -4q-50 -89 -90 -179l-82 -109q-141 -172 -145 -90q-1 21 7 57q16 71 57 164.5t70 129.5q6 8 -2.5 18t-20.5 13t-19 -4q-95 -164 -121 -286q-3 -14 -4 -30t-0.5 -35.5t4.5 -35t12.5 -26.5t23 -11.5t35.5 10.5q50 28 123 118l30 37
q-64 -174 -24 -226q14 -14 32.5 -12.5t44.5 21.5t52 46t54.5 62l52.5 68l46.5 64.5l35.5 52.5t19 31q5 9 -3 14q-9 4 -14 -4q-17 -30 -99.5 -140.5t-137.5 -162.5q-20 -20 -37.5 -28t-27 3t-2.5 47q16 80 77.5 217.5t94.5 178.5zM287 614q-9 32 -18 48.5t-31 35.5
q-25 22 -12 25q3 1 10 -1q42 -23 120 -103q12 -12 -14 -19q-33 -8 -50 7q-4 3 -5 7zM157 615q-6 -19 -43 -16q-30 3 -29 15q0 3 3 6q78 80 120 103q17 4 13 -6q-3 -7 -15 -18q-22 -19 -31 -35.5t-18 -48.5z" />
    <glyph glyph-name="udieresis" unicode="&#xfc;" 
d="M316 398q6 7 -2.5 17.5t-20.5 13.5t-19 -4q-50 -89 -90 -179l-82 -109q-141 -172 -145 -90q-1 21 7 57q16 71 57 164.5t70 129.5q6 8 -2.5 18t-20.5 13t-19 -4q-95 -164 -121 -286q-3 -14 -4 -30t-0.5 -35.5t4.5 -35t12.5 -26.5t23 -11.5t35.5 10.5q50 28 123 118l30 37
q-64 -174 -24 -226q14 -14 32.5 -12.5t44.5 21.5t52 46t54.5 62l52.5 68l46.5 64.5l35.5 52.5t19 31q5 9 -3 14q-9 4 -14 -4q-17 -30 -99.5 -140.5t-137.5 -162.5q-20 -20 -37.5 -28t-27 3t-2.5 47q16 80 77.5 217.5t94.5 178.5zM302 624q24 2 35 -18.5t1 -42t-37 -21.5
q-22 0 -30.5 21t1 41.5t30.5 19.5zM135 624q24 2 35 -18.5t1 -42t-37 -21.5q-22 0 -30.5 21t1 41.5t30.5 19.5z" />
    <glyph glyph-name="yacute" unicode="&#xfd;" horiz-adv-x="424" 
d="M128 128l-84 -173q-112 -103 -231 -240q-233 -268 -138 -296q1 -1 2 -1q38 -10 83 19.5t87 81.5t91.5 135t88.5 158t85 173l324 274q7 6 1 14q-7 7 -14 1l-292 -248l44 95.5l43.5 93l34.5 72.5t33 64.5t24 38.5q6 8 -2.5 18t-20.5 13t-19 -4q-20 -34 -96 -196l-64 -84
q-141 -172 -145 -90q-1 21 7 57q16 71 57 164.5t70 129.5q6 8 -2.5 18t-20 13t-19.5 -4q-97 -172 -120 -285q-5 -22 -6 -48t5 -53t23 -34.5t48 6.5q49 27 123 117zM-327 -559q-17 18 15 76t94.5 132t122.5 138l113 116q-231 -456 -345 -462zM290 664q14 -15 -23 -51.5
t-84 -61t-58 -10.5q-10 12 25.5 49t80.5 62.5t59 11.5z" />
    <glyph glyph-name="ydieresis" unicode="&#xff;" horiz-adv-x="424" 
d="M128 128l-84 -173q-112 -103 -231 -240q-233 -268 -138 -296q1 -1 2 -1q38 -10 83 19.5t87 81.5t91.5 135t88.5 158t85 173l324 274q7 6 1 14q-7 7 -14 1l-292 -248l44 95.5l43.5 93l34.5 72.5t33 64.5t24 38.5q6 8 -2.5 18t-20.5 13t-19 -4q-20 -34 -96 -196l-64 -84
q-141 -172 -145 -90q-1 21 7 57q16 71 57 164.5t70 129.5q6 8 -2.5 18t-20 13t-19.5 -4q-97 -172 -120 -285q-5 -22 -6 -48t5 -53t23 -34.5t48 6.5q49 27 123 117zM-327 -559q-17 18 15 76t94.5 132t122.5 138l113 116q-231 -456 -345 -462zM291 624q24 2 35 -18.5t1 -42
t-37 -21.5q-22 0 -30.5 21t1 41.5t30.5 19.5zM124 624q24 2 35 -18.5t1 -42t-37 -21.5q-22 0 -30.5 21t1 41.5t30.5 19.5z" />
    <glyph glyph-name="dotlessi" unicode="&#x131;" horiz-adv-x="295" 
d="M9 396q-5 -9 -13 -7t-7 12q6 14 18 22t29 8.5t31.5 -1t34 -4.5t27.5 -4q1 0 1 -0.5t1 -0.5l4 6q8 7 19.5 4t20 -13t2.5 -18q-29 -36 -70 -129.5t-57 -164.5q-21 -89 14.5 -81.5t123.5 114.5q8 9 57.5 75t54.5 72q5 5 9.5 4.5t7.5 -4t2 -5.5q-48 -73 -110 -150
q-75 -91 -124 -118q-31 -14 -48 -6.5t-23 34.5t-5 53t6 48q22 105 106 260q-2 0 -21.5 3t-29.5 4t-25.5 1.5t-24 -3.5t-11.5 -11z" />
    <glyph glyph-name="OE" unicode="&#x152;" horiz-adv-x="698" 
d="M701 574q42 3 75 25.5t12 56.5q-35 23 -77.5 17t-76.5 -34t-62 -67.5t-34.5 -82t5.5 -77.5q34 3 56.5 -0.5t31.5 -9.5t8 -15q-1 -13 -17.5 -21.5t-42 -4t-45.5 27.5q-80 -7 -175 -88q-93 -80 -115 -159q-22 -78 45 -114q48 -30 133 6.5t110 88.5q4 9 12 6q9 -4 6 -13
q-18 -39 -69.5 -73t-106 -43.5t-96.5 11.5q-12 7 -30 23q-101 -53 -172 -22q-106 47 -65 197q36 133 162 278q123 142 243 191q31 12 58 16q49 7 88 -3t48 -35q37 30 76 43.5t72.5 4t49.5 -44.5q20 -45 -17 -72.5t-90 -32.5q-9 0 -9 10t9 10zM498 674q-98 -15 -233 -153
q-129 -131 -194 -269q-71 -153 -5 -204q7 -6 16 -10q59 -27 151 14q-23 39 -22 84t30 91.5t70.5 85.5t98 65.5t112.5 30.5q-22 62 -1 123.5t70 107.5q1 16 -12 25.5t-34 10.5t-47 -2zM565 392q16 -7 29.5 -9t14.5 1q2 2 -4 5q-12 4 -40 3z" />
    <glyph glyph-name="oe" unicode="&#x153;" horiz-adv-x="447" 
d="M455 298q5 9 14 0q5 -5 0 -14q-53 -82 -124 -157q-65 -68 -124.5 -102.5t-99.5 -19.5q-27 9 -43 35q-82 -53 -125 -35q-78 35 -42 151q31 99 117 191q87 91 150 88q7 0 14 -2q37 -11 39 -54q40 36 80 50q37 13 67 -5.5t16 -53.5q-18 -44 -99 -95.5t-150 -80.5
q-65 -135 -16 -161q19 -13 47.5 -4t55.5 25t56.5 43.5t52.5 52t43 49.5l24 31.5l25.5 36.5zM194 412q-15 8 -41.5 -6t-55 -44t-58 -68.5t-52.5 -80.5t-36.5 -80t-11.5 -68t23 -42q36 -14 108 36q-16 57 27 144.5t112 155.5q7 41 -15 53zM362 412q-30 15 -91.5 -45.5
t-110.5 -144.5q178 84 209 150q13 27 -7 40z" />
    <glyph glyph-name="Scaron" unicode="&#x160;" horiz-adv-x="591" 
d="M664 537q-9 -2 -7 -12q4 -9 13 -6q108 52 142 128q24 52 -2 76q-8 7 -19 9q-44 7 -94.5 -50t-101.5 -149l-104 -189t-119 -184t-129 -120q-117 -61 -179 -2q-52 50 -36 155q17 108 101 205q53 62 131 102t138 12q61 -29 -7 -142q-5 -9 2 -14q8 -6 14 2q67 107 21 156
q-34 36 -92 28t-113.5 -35.5t-89.5 -59.5q-114 -109 -131 -245q-13 -108 43 -170q62 -67 168 -28q24 9 48 23q59 34 128.5 120.5t128 183l112 187.5t96 146.5t65.5 47.5t5 -50q-25 -61 -101 -108q-15 -9 -31 -17zM783 891q6 19 43 16q30 -3 29 -15q0 -3 -3 -6
q-78 -80 -120 -103q-17 -4 -13 6q3 7 15 18q22 19 31 35.5t18 48.5zM653 890q9 -32 18 -48.5t31 -35.5q25 -22 12 -25q-3 -1 -10 1q-42 23 -120 103q-12 12 14 19q33 8 50 -7q4 -3 5 -7z" />
    <glyph glyph-name="scaron" unicode="&#x161;" horiz-adv-x="384" 
d="M-2 277q-5 -7 3 -14q8 -6 13 3l113 149q37 -74 49 -96q-49 -19 -103 -73t-80.5 -114.5t4.5 -109.5q14 -21 49 -22q51 -2 108.5 40.5t85 112.5t-12.5 161q29 9 60 11t47 0.5t60 -6.5q9 -2 11 8q2 9 -8 11q-44 5 -63 7t-52 -1t-64 -13l-61 121q78 108 78 152q1 34 -28 33
q-34 -1 -69 -44q-53 -66 -26 -144q2 -7 5 -13zM185 301q33 -69 17 -127.5t-53 -97.5t-79 -50q-44 -12 -59 12q-24 39 4 97t78 104t92 62zM148 475q-16 53 -2 85t35 48t30 11q29 -15 -63 -144zM262 820q6 19 43 16q30 -3 29 -15q0 -3 -3 -6q-78 -80 -120 -103q-17 -4 -13 6
q3 7 15 18q22 19 31 35.5t18 48.5zM132 819q9 -32 18 -48.5t31 -35.5q25 -22 12 -25q-3 -1 -10 1q-42 23 -120 103q-12 12 14 19q33 8 50 -7q4 -3 5 -7z" />
    <glyph glyph-name="Ydieresis" unicode="&#x178;" horiz-adv-x="547" 
d="M257 681q-9 -4 -5 -13t13 -5q133 45 144 -31q0 -33 -22 -77.5t-54 -86.5l-67.5 -91t-60.5 -90.5t-33.5 -85.5t12.5 -76q51 -69 204 58l-42 -63.5l-35 -53.5t-33 -44q-63 0 -119.5 -10.5t-97 -28.5t-75 -41t-54 -48.5t-33.5 -51t-14 -47.5t5 -39q9 -22 33 -30.5t64 1.5
t89 39t114.5 89.5t133.5 146.5q26 0 39 -1q11 0 11 9q1 9 -9 11h-25q59 76 119.5 168l101 156t106 148.5t144.5 163.5q3 1 -4 9q-1 3 -2 4q-4 9 -13 5q-73 -43 -159.5 -150.5t-197.5 -271.5q-179 -171 -230 -122q-14 17 4.5 58t55 91l76 109.5t68 113.5t31 103t-36.5 78
q-42 32 -146 -3zM261 2q-180 -219 -290 -255q-57 -19 -67 20q-1 1 -1 3q-6 27 15.5 64.5t63 75t116 64.5t163.5 28zM642 897q24 2 35 -18.5t1 -42t-37 -21.5q-22 0 -30.5 21t1 41.5t30.5 19.5zM475 897q24 2 35 -18.5t1 -42t-37 -21.5q-22 0 -30.5 21t1 41.5t30.5 19.5z" />
    <glyph glyph-name="Zcaron" unicode="&#x17d;" horiz-adv-x="737" 
d="M381 596q0 -11 9 -11t11 9q11 40 32.5 59t48 23t75.5 1q25 -2 121.5 -27t149.5 -30q-65 -45 -129.5 -100t-119.5 -109l-110 -108t-122 -113.5t-135 -109.5q-128 26 -189 -14q-32 -22 -20 -43q5 -11 21 -16q64 -20 187 49q9 -3 64 -25.5t98.5 -34.5t102.5 -20.5t108.5 9
t83.5 61.5l26 41q5 9 -4 14q-9 4 -13 -5l-25 -38q-30 -40 -68.5 -55t-83 -8t-83.5 20t-91 32t-85 26q92 48 175.5 112.5t136.5 118.5l144.5 150.5t160.5 162.5q42 -1 75 11.5t46.5 28.5t10.5 28q-2 12 -17 13.5t-47.5 -13t-74.5 -47.5q-56 3 -162.5 30t-129.5 28
q-80 6 -120 -13.5t-58 -86.5zM185 65q-114 -59 -159 -38q-19 9 12 23q56 25 137 16q5 0 10 -1zM885 638q67 49 77 39q3 -3 -5 -12t-28 -17.5t-44 -9.5zM749 914q6 19 43 16q30 -3 29 -15q0 -3 -3 -6q-78 -80 -120 -103q-17 -4 -13 6q3 7 15 18q22 19 31 35.5t18 48.5z
M619 913q9 -32 18 -48.5t31 -35.5q25 -22 12 -25q-3 -1 -10 1q-42 23 -120 103q-12 12 14 19q33 8 50 -7q4 -3 5 -7z" />
    <glyph glyph-name="zcaron" unicode="&#x17e;" horiz-adv-x="585" 
d="M0 274q0 -10 11 -10q10 0 10 11q5 16 45 79t58 75q26 -19 80 -21.5t115.5 2t83.5 1.5q-5 -4 -42 -31q-366 -267 -379 -342q-5 -21 20 -28q3 -1 31.5 18t61.5 37.5t69.5 24t54.5 -21.5q-122 -103 -216 -213q-25 -30 -60.5 -79t-75 -111t-61.5 -120.5t-13 -88.5t49 -29
q79 2 169 85t152.5 191t95 217.5t9.5 162.5q42 36 91.5 73.5l79.5 58.5l96.5 67.5l91.5 63.5q9 6 3 14q-6 9 -14 3q-12 -9 -72 -50l-79 -54.5l-63 -45t-77 -58l-68 -55.5q-9 12 -21 19.5t-26.5 8t-27.5 -0.5t-30.5 -8t-29 -12.5t-30 -17l-27 -17l-26 -17.5l-20.5 -14
q16 28 81 85.5t127.5 106.5l137.5 106l80 61q34 27 -25 32q-11 0 -149 -2q-120 -2 -139 19q-18 19 -72.5 -69t-59.5 -106zM228 50q19 -54 -32 -176t-136.5 -240t-157.5 -164q-88 -56 -89 6q-1 43 35 109q35 66 88.5 143.5t80.5 109.5q92 109 211 212zM358 751q6 19 43 16
q30 -3 29 -15q0 -3 -3 -6q-78 -80 -120 -103q-17 -4 -13 6q3 7 15 18q22 19 31 35.5t18 48.5zM228 750q9 -32 18 -48.5t31 -35.5q25 -22 12 -25q-3 -1 -10 1q-42 23 -120 103q-12 12 14 19q33 8 50 -7q4 -3 5 -7z" />
    <glyph glyph-name="florin" unicode="&#x192;" horiz-adv-x="422" 
d="M-230 -544q10 -15 29.5 -15t38.5 19q41 39 79 123t63 175.5t44 177.5t28 142l8 55q136 0 206.5 25.5t157.5 118.5q6 8 13 1q4 -2 4 -6.5t-2 -7.5q-87 -93 -161 -122.5t-201 -25.5q-1 -26 -10 -82q-15 -93 -41.5 -199.5t-74.5 -223t-99 -165.5q-33 -31 -68 -22.5t-43 50.5
q-13 65 55 240.5t165.5 357.5t205 332t165.5 168q33 10 52.5 -8.5t11.5 -57.5q-16 -75 -120 -191q-55 -59 -115.5 -107t-105.5 -68q-136 -236 -224 -440t-61 -244zM261 331q124 135 117 200q-5 48 -53 4q-86 -80 -252 -364q91 53 188 160z" />
    <glyph glyph-name="circumflex" unicode="&#x2c6;" horiz-adv-x="344" 
d="M236 614q-9 32 -18 48.5t-31 35.5q-25 22 -12 25q3 1 10 -1q42 -23 120 -103q12 -12 -14 -19q-33 -8 -50 7q-4 3 -5 7zM106 615q-6 -19 -43 -16q-30 3 -29 15q0 3 3 6q78 80 120 103q17 4 13 -6q-3 -7 -15 -18q-22 -19 -31 -35.5t-18 -48.5z" />
    <glyph glyph-name="caron" unicode="&#x2c7;" horiz-adv-x="325" 
d="M228 751q6 19 43 16q30 -3 29 -15q0 -3 -3 -6q-78 -80 -120 -103q-17 -4 -13 6q3 7 15 18q22 19 31 35.5t18 48.5zM98 750q9 -32 18 -48.5t31 -35.5q25 -22 12 -25q-3 -1 -10 1q-42 23 -120 103q-12 12 14 19q33 8 50 -7q4 -3 5 -7z" />
    <glyph glyph-name="breve" unicode="&#x2d8;" horiz-adv-x="273" 
d="M26 694q2 9 10 9t10 -9q1 -60 7 -71q8 -15 54 -15h19q74 3 87 9q26 10 25 59q-1 9 -2 22q1 10 9.5 10t10.5 -9q1 -28 0 -45t-7.5 -30.5t-12.5 -19.5t-24.5 -10t-34 -4.5t-49.5 -1.5q-39 -1 -57.5 1.5t-29.5 16t-13 30.5t-2 58z" />
    <glyph glyph-name="dotaccent" unicode="&#x2d9;" horiz-adv-x="140" 
d="M71 624q24 2 35 -18.5t1 -42t-37 -21.5q-22 0 -30.5 21t1 41.5t30.5 19.5z" />
    <glyph glyph-name="ring" unicode="&#x2da;" horiz-adv-x="192" 
d="M100 667q31 -1 50.5 -25t22 -53.5t-16.5 -55t-56 -27.5q-58 -4 -77 45q-16 43 11 83q23 34 66 33zM99 631q-29 1 -41.5 -22t-0.5 -46t42 -21q24 1 35.5 22.5t2 43t-37.5 23.5z" />
    <glyph glyph-name="ogonek" unicode="&#x2db;" horiz-adv-x="222" 
d="M102 -2q10 0 9.5 -3t-10.5 -5q-27 -6 -41.5 -55.5t12.5 -65.5q43 -24 112 -6q11 0 11.5 -9.5t-9.5 -10.5q-89 -22 -130 14q-18 15 -22 46t14 60t54 35z" />
    <glyph glyph-name="tilde" unicode="&#x2dc;" horiz-adv-x="375" 
d="M64 550q-8 -4 -13.5 1t-0.5 13q8 18 16.5 30t15 19.5t16 9.5l14.5 3t16 -4t15 -7t17 -11l16 -11q58 -36 84 -30q30 7 44 53q5 8 12.5 6.5t7.5 -11.5q-16 -59 -58 -69q-39 -10 -106 35q-26 17 -42 19.5t-21.5 -2.5t-15.5 -20.5t-17 -23.5z" />
    <glyph glyph-name="hungarumlaut" unicode="&#x2dd;" horiz-adv-x="302" 
d="M197 732q6 19 43 16q30 -3 29 -15q0 -3 -3 -6q-78 -80 -120 -103q-17 -4 -13 6q3 7 15 18q22 19 31 35.5t18 48.5zM84 732q6 19 43 16q30 -3 29 -15q0 -3 -3 -6q-78 -80 -120 -103q-17 -4 -13 6q3 7 15 18q22 19 31 35.5t18 48.5z" />
    <glyph glyph-name="endash" unicode="&#x2013;" horiz-adv-x="432" 
d="M395 262q-72 3 -361 0q-4 0 -7.5 3t-3.5 7q-1 4 2 7t7 2q239 5 362 1q11 0 11 -10t-10 -10z" />
    <glyph glyph-name="emdash" unicode="&#x2014;" horiz-adv-x="619" 
d="M52 283q75 -2 258 -1.5t258 2.5q10 0 10 -10t-9 -10q-156 -4 -517 -1q-10 0 -10 10t10 10z" />
    <glyph glyph-name="quoteleft" unicode="&#x2018;" horiz-adv-x="195" 
d="M98 538q9 -8 19 -20.5t19 -29t7.5 -33t-17.5 -27.5q-42 -29 -65 8q-23 38 -3 95q20 55 73 84q15 8 19 0.5t-8 -18.5q-46 -40 -44 -59z" />
    <glyph glyph-name="quoteright" unicode="&#x2019;" horiz-adv-x="203" 
d="M112 507q-9 8 -19 20.5t-19 29t-7.5 33t17.5 27.5q42 29 65 -8q23 -38 3 -95q-20 -55 -73 -84q-15 -8 -19 -0.5t8 18.5q46 40 44 59z" />
    <glyph glyph-name="quotesinglbase" unicode="&#x201a;" horiz-adv-x="159" 
d="M83 5q-9 8 -19 20.5t-19 29t-7.5 33t17.5 27.5q42 29 65 -8q23 -38 3 -95q-20 -55 -73 -84q-15 -8 -19 -0.5t8 18.5q46 40 44 59z" />
    <glyph glyph-name="quotedblleft" unicode="&#x201c;" horiz-adv-x="301" 
d="M88 539q9 -8 19 -20.5t19 -29t7.5 -33t-17.5 -27.5q-42 -29 -65 8q-23 38 -3 95q20 55 73 84q15 8 19 0.5t-8 -18.5q-46 -40 -44 -59zM216 542q9 -8 19 -20.5t19 -29t7.5 -33t-17.5 -27.5q-42 -29 -65 8q-23 38 -3 95q20 55 73 84q15 8 19 0.5t-8 -18.5q-46 -40 -44 -59z
" />
    <glyph glyph-name="quotedblright" unicode="&#x201d;" horiz-adv-x="291" 
d="M226 509q-9 8 -19 20.5t-19 29t-7.5 33t17.5 27.5q42 29 65 -8q23 -38 3 -95q-20 -55 -73 -84q-15 -8 -19 -0.5t8 18.5q46 40 44 59zM98 506q-9 8 -19 20.5t-19 29t-7.5 33t17.5 27.5q42 29 65 -8q23 -38 3 -95q-20 -55 -73 -84q-15 -8 -19 -0.5t8 18.5q46 40 44 59z" />
    <glyph glyph-name="quotedblbase" unicode="&#x201e;" horiz-adv-x="331" 
d="M235 12q-9 8 -19 20.5t-19 29t-7.5 33t17.5 27.5q42 29 65 -8q23 -38 3 -95q-20 -55 -73 -84q-15 -8 -19 -0.5t8 18.5q46 40 44 59zM107 9q-9 8 -19 20.5t-19 29t-7.5 33t17.5 27.5q42 29 65 -8q23 -38 3 -95q-20 -55 -73 -84q-15 -8 -19 -0.5t8 18.5q46 40 44 59z" />
    <glyph glyph-name="dagger" unicode="&#x2020;" horiz-adv-x="402" 
d="M73 452q72 3 119 3q0 114 4 170q3 10 12 7q11 -2 7 -12l-2 -165q23 0 119 -2q9 0 9 -10q0 -9 -10 -9q-25 0 -63.5 0.5t-54.5 0.5q-4 -575 -6 -595q-1 -5 -2 -6q-8 -5 -14 3q4 52 4 149.5t-1.5 240t-1.5 208.5q-46 0 -117 -3q-11 0 -11 10t9 10z" />
    <glyph glyph-name="daggerdbl" unicode="&#x2021;" horiz-adv-x="402" 
d="M-12 282q50 3 205 3q-1 49 -1 140q-156 0 -206 1q-10 0 -10 10t10 10q100 -2 206 -2q0 122 4 181q3 10 12 7q11 -2 7 -12l-2 -176q125 0 199 3q10 0 10 -10t-9 -10q-50 -2 -200 -2q0 -97 -1 -140q103 0 205 -2q9 0 9 -10q0 -9 -10 -9q-22 0 -91.5 0.5t-112.5 0.5
q-3 -427 -7 -431q-8 -5 -14 3q6 77 2 428q-154 0 -203 -3q-11 0 -11 10t9 10z" />
    <glyph glyph-name="bullet" unicode="&#x2022;" horiz-adv-x="181" 
d="M97 399q31 -1 50.5 -25t22 -53.5t-16.5 -55t-56 -27.5q-58 -4 -77 45q-16 43 11 83q23 34 66 33z" />
    <glyph glyph-name="ellipsis" unicode="&#x2026;" horiz-adv-x="460" 
d="M65 126q24 2 34.5 -29.5t0 -64t-37.5 -32.5q-22 0 -31 32.5t1 64t33 29.5zM233 126q24 2 34.5 -29.5t0 -64t-37.5 -32.5q-22 0 -31 32.5t1 64t33 29.5zM398 126q24 2 34.5 -29.5t0 -64t-37.5 -32.5q-22 0 -31 32.5t1 64t33 29.5z" />
    <glyph glyph-name="perthousand" unicode="&#x2030;" horiz-adv-x="599" 
d="M395 605l-298.5 -515t-59.5 -90q-9 0 -11 9q46 68 177.5 304t177.5 306q7 7 14 0t0 -14zM221 600q27 -15 29 -50t-17 -73.5t-45.5 -73.5t-59.5 -52t-58 -6q-46 21 -21 102q23 74 78 125q53 48 94 28zM74 354q20 -8 54 22.5t60 74.5t38.5 85.5t-9.5 55.5q-35 13 -92 -61
q-54 -72 -65 -133q-6 -36 14 -44zM332 267q27 -15 29 -50t-17 -73.5t-45.5 -73.5t-59.5 -52t-58 -6q-46 21 -21 102q23 74 78 125q53 48 94 28zM185 21q20 -8 54 22.5t60 74.5t38.5 85.5t-9.5 55.5q-35 13 -92 -61q-54 -72 -65 -133q-6 -36 14 -44zM545 254q27 -15 29 -50
t-17 -73.5t-45.5 -73.5t-59.5 -52t-58 -6q-46 21 -21 102q23 74 78 125q53 48 94 28zM398 8q20 -8 54 22.5t60 74.5t38.5 85.5t-9.5 55.5q-35 13 -92 -61q-54 -72 -65 -133q-6 -36 14 -44z" />
    <glyph glyph-name="guilsinglleft" unicode="&#x2039;" horiz-adv-x="295" 
d="M252 8q8 -8 1.5 -15t-14.5 0q-17 17 -56 50.5t-67.5 62t-48.5 57.5q-15 22 -17 58t19 71q10 14 21.5 27.5l20.5 24t22.5 24l20.5 20.5t23 21t20.5 18.5t23 20t21.5 18.5q8 1 11.5 -5.5t-3.5 -12.5q-124 -111 -161 -167q-15 -24 -15 -53.5t14 -53.5q16 -26 45.5 -56.5
t69 -65.5z" />
    <glyph glyph-name="guilsinglright" unicode="&#x203a;" horiz-adv-x="253" 
d="M31 450q-8 8 -1.5 15t14.5 0q17 -17 56 -50.5t67.5 -62t48.5 -57.5q15 -22 17 -58t-19 -71q-10 -14 -21.5 -27.5l-20.5 -24t-22.5 -24l-20.5 -20.5t-23 -21t-20.5 -18.5t-23 -20t-21.5 -18.5q-8 -1 -11.5 5.5t3.5 12.5q124 111 161 167q15 24 15 53.5t-14 53.5
q-16 26 -45.5 56.5t-69 65.5z" />
    <glyph glyph-name="fraction" unicode="&#x2044;" horiz-adv-x="295" 
d="M395 605l-298.5 -515t-59.5 -90q-9 0 -11 9q46 68 177.5 304t177.5 306q7 7 14 0t0 -14z" />
    <glyph glyph-name="Euro" unicode="&#x20ac;" horiz-adv-x="533" 
d="M34 491q98 -2 202 -2q72 83 151.5 139t147.5 66q41 8 73 1t51.5 -21t12 -43.5t-45.5 -66.5q-6 -6 -14 1q-6 7 1 14q30 29 37.5 51t-5 32t-35 14t-51.5 -2q-109 -17 -263 -185l164 3q10 0 10 -10t-9 -10q-46 -2 -182 -2q-56 -64 -104 -140q86 1 273 -2q9 0 9 -10
q0 -9 -10 -9q-13 0 -119 1t-165 0q-37 -64 -54.5 -117t-10.5 -95.5t45 -59.5q53 -25 134 7t115 84q1 4 7.5 16.5t13.5 24.5t9 11q7 -3 -11 -58q-39 -62 -126 -100t-148 -11q-73 32 -75 117t51 181l-92 -3q-11 0 -11 10t9 10l104 3q42 73 97 140q-140 0 -186 1q-10 0 -10 10
t10 10z" />
    <glyph glyph-name="trademark" unicode="&#x2122;" horiz-adv-x="649" 
d="M151 580q50 30 83.5 34.5t88.5 -13.5q3 2 9 -2t6 -5q75 -26 151 5q3 2 6 -1q2 -1 1.5 -3t-2.5 -3q-43 -19 -80.5 -20t-80.5 14q-28 -30 -72 -99t-62 -92h13q4 0 4 -6q0 -3 -5 -3h-19q-39 -50 -82.5 -71.5t-69.5 -16.5t-29 24q-1 9 1.5 17t12.5 18t27 17.5t47.5 13.5
t71.5 7q14 19 67.5 97.5t76.5 101.5q-50 16 -80.5 11.5t-79.5 -32.5q-1 -1 -2.5 -1t-2.5 2q-1 1 -0.5 3t1.5 3zM163 386q-141 -8 -141 -62q0 -13 19 -15.5t53.5 16.5t68.5 61zM574 595q-21 -63 -78 -181l26 33.5l28.5 36l27 32.5t29 32.5l26 25t27 20.5t23.5 10q2 2 2 0
q5 -3 -10 -26t-39 -56.5l-48 -69t-37.5 -72t-6.5 -58.5q14 -34 60 19q0 3 5 1q2 -1 2 -6q-9 -10 -18 -18t-20.5 -14t-21 -2.5t-15.5 17.5q-17 55 27 129.5t105 139.5q-35 -20 -93 -90t-99 -130l-40 -59h-4q-2 5 6.5 26.5t25 56l32 65.5l35 68.5l26.5 51.5q-21 -22 -70 -82.5
t-75 -88.5h9q3 0 3 -4q0 -5 -4 -5q-6 1 -16 1q-93 -97 -161 -99q-34 -1 -37 23v2q-1 18 17.5 36.5t65 32.5t112.5 14q25 26 82 97.5t84 94.5q7 2 7 -4zM393 398q-61 0 -104 -13.5t-59.5 -29t-15.5 -30.5q1 -14 22.5 -17t65 19t91.5 71z" />
    <glyph glyph-name="minus" unicode="&#x2212;" horiz-adv-x="472" 
d="M34 321q114 7 403 1q9 0 9 -10q0 -9 -10 -9q-314 3 -400 -2q-11 0 -11 10t9 10z" />
    <glyph glyph-name="A_0" unicode="&#xe000;" horiz-adv-x="707" 
d="M237 109q-99 -70 -143 -90q-101 -44 -163 9q-63 52 7 168q56 92 153 164q99 73 146 53q14 -6 21 -20q10 -22 -4.5 -52t-45.5 -60t-55.5 -50.5t-47.5 -36.5q-7 -3 -10 2q-6 6 2 10q171 121 136 178q-22 36 -108 -20q-86 -57 -151 -145q-83 -114 -42 -169l10 -10
q76 -72 287 88l47 38.5l38.5 33.5t42 42.5l34 36.5l41 45.5t37.5 41.5q-41 -2 -67 -32q-7 -7 -14 -2q-9 5 -2 14q40 44 100 39l90.5 100l80 84t87.5 81t74 50q-2 2 -11 5q-27 5 -60 3t-85 -13t-90.5 -20.5l-78 -20t-46.5 -12.5q-63 -13 -134 -14.5t-146.5 10t-133 52
t-75.5 105.5q-8 30 -5 65q2 29 16 31q11 2 15 -10q5 -17 -19 -23q-3 -56 21 -97t65 -62t92.5 -34.5t103 -12.5t96.5 2q39 3 217 40t242 25q7 -1 15.5 -4.5t17 -10t5.5 -12.5q-5 -10 -38 -58.5l-81.5 -122t-86.5 -137.5q29 5 61 22q8 6 13 -3q5 -7 -2 -14q-40 -22 -85 -27
q-191 -326 -57 -332q47 -2 65 44q2 9 12 7q9 -3 7 -13q-12 -31 -38.5 -47t-58.5 -9q-160 30 28 350q-17 2 -45.5 7t-39.5 6l-38.5 -43l-42.5 -47l-39.5 -41.5t-45.5 -45.5l-43 -39t-48 -40zM792 662q-37 -27 -90.5 -78.5t-85.5 -86l-106 -114.5q76 -12 80 -12
q78 129 202 291z" />
    <glyph glyph-name="B_0" unicode="&#xe001;" horiz-adv-x="724" 
d="M656 694q-28 -29 -61 -75q106 81 162 81q67 0 64 -57q-2 -63 -72 -145q-58 -66 -124 -98q26 -21 34.5 -60t-1 -82.5t-29.5 -90t-51 -83t-67 -61t-76 -24t-78 27.5q-66 51 7 160q6 9 13 2q9 -5 3 -13q-63 -96 -11 -133q29 -19 62 -15.5t64 27t58.5 57t46 75t28 80
t3.5 72.5t-28 52q-35 -14 -60 -16.5t-35.5 3.5t-10.5 16q1 13 15 22.5t38.5 11t57.5 -15.5q51 26 119 109q80 97 70 140q-6 26 -52 19q-10 -2 -23.5 -7t-25 -11t-27 -16l-25.5 -16.5t-26 -19t-22.5 -17t-20.5 -16.5t-15 -12q-2 -2 -4 -2l-129 -197q-132 -197 -276 -306
q-47 -35 -86.5 -51t-79 -11t-75.5 33q-60 57 13 176q57 92 153 161q98 70 143 47q12 -6 18 -19q10 -22 -4.5 -52t-45.5 -60t-55.5 -50.5t-47.5 -36.5q-6 -3 -10 2q-6 6 2 10q171 121 136 178q-22 36 -108 -20q-86 -57 -151 -145q-83 -114 -42 -169l10 -10q82 -67 217 38
q53 41 104.5 98.5t83.5 101.5l79 114l47 70l52 76.5l41.5 57.5t48 61t38.5 39q-1 3 -14 8q-27 5 -60 3t-85 -13t-90.5 -20.5l-78 -20t-46.5 -12.5q-63 -13 -134 -14.5t-146.5 10t-133 52t-75.5 105.5q-8 30 -5 65q2 29 16 31q11 2 15 -10q5 -17 -19 -23q-3 -56 21 -97
t65 -62t92.5 -34.5t103 -12.5t96.5 2q39 3 217 40t242 25q20 -4 37.5 -11.5t5.5 -15.5zM582 402q-16 6 -31 6.5t-22.5 -2.5t-8.5 -7q0 -3 6 -4.5t20.5 0t35.5 7.5z" />
    <glyph glyph-name="C_0" unicode="&#xe002;" horiz-adv-x="404" 
d="M570 612q-22 -27 -65.5 -44t-78.5 -22t-88 -9.5t-63 -5.5q-89 -87 -154.5 -190t-82.5 -187t44 -116q53 -25 134 7t115 84q4 11 13 7t6 -13q-39 -62 -126 -100t-148 -11q-74 33 -74.5 120t53.5 186.5t140 192.5q-57 -12 -117 -17t-126 0t-120.5 21.5t-96 53t-56.5 89.5
q-8 30 -5 65q2 29 16 31q11 2 15 -10q5 -17 -19 -23q4 -73 45 -120t99 -65.5t134 -20.5t138 6t124 22q137 135 248 151q67 10 98.5 -12.5t-2.5 -69.5zM555 625q31 32 0 46q-20 9 -57 3q-80 -13 -194 -115q2 0 47 2t72.5 5t67.5 18.5t64 40.5z" />
    <glyph glyph-name="D_0" unicode="&#xe003;" horiz-adv-x="786" 
d="M704 685q-30 -31 -76 -96q61 53 124 82.5t103 13.5q85 -34 49 -176q-36 -136 -152 -285q-120 -153 -237 -203q-31 -13 -58 -17q-41 -8 -73 -1t-51.5 20.5t-12 43t45.5 66.5q7 7 14 0q6 -8 -1 -14q-30 -29 -37.5 -50.5t5 -32t34.5 -14.5t52 -1q102 13 236 162
q122 134 184 280q64 150 9 195q-6 5 -13 8q-35 16 -97 -15t-114 -78t-76 -83q-6 -19 -93 -144q-38 -53 -72.5 -95.5t-81.5 -94.5t-91 -85.5t-91.5 -57.5t-94 -22t-87.5 32q-63 52 7 168q56 92 153 164q99 73 146 53q14 -6 21 -20q10 -22 -4.5 -52t-45.5 -60t-55.5 -50.5
t-47.5 -36.5q-7 -3 -10 2q-6 6 2 10q171 121 136 178q-22 36 -108 -20q-86 -57 -151 -145q-83 -114 -42 -169l10 -10q35 -23 75 -24.5t75 12.5t75.5 46t71 63t67 77t57.5 75.5l49 69.5q8 11 11 16l52 77l54 79.5l46.5 65t49 61.5t42.5 42q-2 5 -14 9q-27 5 -60 3t-85 -13
t-90.5 -20.5l-78 -20t-46.5 -12.5q-63 -13 -134 -14.5t-146.5 10t-133 52t-75.5 105.5q-8 30 -5 65q2 29 16 31q11 2 15 -10q5 -17 -19 -23q-3 -56 21 -97t65 -62t92.5 -34.5t103 -12.5t96.5 2q39 3 217 40t242 25q22 -4 37 -19q6 -7 -1 -14z" />
    <glyph glyph-name="E_0" unicode="&#xe004;" horiz-adv-x="434" 
d="M352 555q-49 -82 -20 -143q34 3 56.5 -0.5t31.5 -9.5t8 -15q-1 -13 -17.5 -21.5t-42 -4t-45.5 27.5q-48 -8 -102.5 -38.5t-97 -73.5t-70 -88.5t-22.5 -89.5t47 -71q48 -30 133 6.5t110 88.5q4 9 12 6q9 -4 6 -13q-18 -39 -69.5 -73t-106 -43.5t-96.5 11.5
q-51 32 -63.5 82t10.5 101.5t66 98.5t105.5 79t125.5 37q-25 69 7 143q-38 -7 -80.5 -17t-75.5 -18.5t-39 -9.5q-63 -13 -134 -14.5t-146.5 10t-133 52t-75.5 105.5q-8 30 -5 65q2 29 16 31q11 2 15 -10q5 -17 -19 -23q-3 -56 21 -97t65 -62t92.5 -34.5t103 -12.5t96.5 2
q47 4 157 25.5t152 27.5q32 58 87 96.5t107.5 38t74.5 -47.5q7 -26 -5 -45.5t-35 -29.5t-53 -17.5t-59 -9t-52.5 -3t-35.5 0.5h-5zM577 656q-24 30 -62 25t-79 -34.5t-72 -72.5q36 -7 115 7q108 20 103 61q-1 7 -5 14zM354 392q16 -7 29.5 -9t14.5 1q2 2 -4 5q-12 4 -40 3z
" />
    <glyph glyph-name="F_0" unicode="&#xe005;" horiz-adv-x="744" 
d="M183 87q21 16 42 35.5l36.5 35t37.5 42l33 39.5t34 46l30 42.5t33 47.5l30 44q-58 22 -100 -26q-7 -8 -14 -3q-9 7 -2 14q33 38 67.5 43t59.5 -11q128 194 186 248q-30 10 -64 11t-86.5 -9t-91 -20l-78 -21t-47.5 -13q-63 -13 -134 -14.5t-146.5 10t-133 52t-75.5 105.5
q-8 30 -5 65q2 29 16 31q11 2 15 -10q5 -17 -19 -23q-3 -56 21 -97t65 -62t92.5 -34.5t103 -12.5t96.5 2q44 3 118 18.5l130 28t127 19t108 -8.5q22 0 22 -7q174 -55 332 7q9 5 14 -1q6 -6 -1 -14q-91 -38 -178.5 -39.5t-177.5 29.5q-11 -12 -22.5 -26t-25 -33l-23.5 -33
l-26.5 -39l-25 -38l-28 -43.5l-27.5 -42.5q24 -16 54 -14.5t57 34.5q5 9 13 3q9 -6 3 -14q-18 -22 -36 -33t-37 -10t-31.5 5t-33.5 13l-63 -95.5t-62.5 -85.5t-79.5 -91.5t-85 -70.5q-28 -20 -58.5 -35t-66.5 -25.5t-71.5 -5t-63.5 27.5q-63 52 7 168q56 92 153 164
q99 73 146 53q14 -6 21 -20q10 -22 -4.5 -52t-45.5 -60t-55.5 -50.5t-47.5 -36.5q-6 -3 -10 2q-6 6 2 10q171 121 136 178q-22 36 -108 -20q-86 -57 -151 -145q-83 -114 -42 -169l10 -10q76 -65 232 51z" />
    <glyph glyph-name="G_0" unicode="&#xe006;" horiz-adv-x="496" 
d="M188 244q34 30 63.5 38.5t53 2t57 -10t74.5 1.5q29 5 3 -37q-18 -31 -115 -145l-19 -24l-111 -123q24 -2 35 -2q9 -2 9 -11q-2 -9 -11 -9l-51 3q-68 -72 -134 -119.5t-115 -65.5t-88.5 -19.5t-61.5 12.5t-27 38q-4 22 7.5 45.5t43 47.5t79 42.5t122.5 29t165 8.5l78 82
q-102 -52 -171 -22q-75 33 -75 121.5t56 189.5t143 194q-74 -16 -151 -19t-155.5 8.5t-136.5 51.5t-76 105q-8 30 -5 65q2 29 16 31q11 2 15 -10q5 -17 -19 -23q-3 -56 21 -97t65 -62t92.5 -34.5t103 -12.5t96.5 2q54 5 166 27q134 129 242 145q48 7 78 -1.5t36 -32
t-26 -65.5q-24 -30 -94.5 -48.5t-122.5 -22t-96 -3.5q-90 -87 -151.5 -187.5t-72 -183.5t56.5 -119q44 -21 110.5 1.5t112.5 66.5l48 59.5t45 56t28 45.5q-39 -5 -81.5 4.5t-73 6.5t-67.5 -36q-7 -7 -14 0q-5 7 0 14zM148 -72q-97 1 -174.5 -13.5t-121 -38t-65 -49
t-19.5 -47.5q3 -34 49 -39q85 -9 216 88q56 41 115 99zM546 603q32 42 17 57.5t-67 11.5q-88 -12 -219 -128q2 0 24.5 1t45.5 2.5t55.5 6t59 10t50 16t34.5 23.5z" />
    <glyph glyph-name="H_0" unicode="&#xe007;" horiz-adv-x="758" 
d="M963 667q-57 -13 -143.5 -96t-158.5 -191q27 6 54 24q7 6 14 -1q6 -8 -1 -14q-39 -26 -82 -31q-51 -81 -77 -151t-16.5 -126t64.5 -74q27 -6 56 9.5t45 32.5t38 44q6 8 13 3q9 -5 4 -14q-102 -125 -178 -88q-55 26 -67 85.5t10.5 129t70.5 148.5q-19 2 -38 6t-47.5 13
t-33.5 10q-124 -188 -263 -303q-39 -32 -74 -52.5t-72 -31.5t-73.5 -5.5t-70.5 27.5q-63 52 7 168q56 92 153 164q99 73 146 53q14 -6 21 -20q10 -22 -4.5 -52t-45.5 -60t-55.5 -50.5t-47.5 -36.5q-7 -3 -10 2q-6 6 2 10q171 121 136 178q-22 36 -108 -20q-86 -57 -151 -145
q-83 -114 -42 -169l10 -10q111 -66 263 67q112 99 243 295q-44 7 -68 -20q-5 -8 -14 -2t-1 14q33 37 95 25q5 8 26 39l27.5 40.5l24.5 36l26 37.5l23.5 32.5t25 32.5l22 26.5t23 26t20.5 19.5q-32 6 -65.5 5t-88 -11.5t-92.5 -19.5t-78.5 -20t-46.5 -12q-63 -13 -134 -14.5
t-146.5 10t-133 52t-75.5 105.5q-8 30 -5 65q2 29 16 31q11 2 15 -10q5 -17 -19 -23q-3 -56 21 -97t65 -62t92.5 -34.5t103 -12.5t96.5 2q39 3 217 40t242 25q12 -2 29.5 -10t7.5 -18q-21 -22 -48 -58t-45.5 -63l-56.5 -85l-54 -83q5 -1 27.5 -8t32.5 -9.5t27.5 -6
t32.5 -3.5q75 119 174.5 210.5t167.5 99.5q10 0 10 -10t-10 -10z" />
    <glyph glyph-name="I_0" unicode="&#xe008;" horiz-adv-x="553" 
d="M-34 27q-63 52 7 168q56 92 153 164q99 73 146 53q14 -6 21 -20q10 -22 -4.5 -52t-45.5 -60t-55.5 -50.5t-47.5 -36.5q-6 -3 -10 2q-6 6 2 10q171 121 136 178q-22 36 -108 -20q-86 -57 -151 -145q-83 -114 -42 -169l10 -10q27 -23 62 -25t69 11.5t72.5 40.5t70.5 56.5
t65 65.5t54 61.5l40 50.5q58 75 145 208t115 172q-94 9 -157 -75.5t-65 -207.5q0 -11 -9 -11q-9 -2 -11 9q2 101 41.5 183.5t113.5 112.5q-45 -7 -103.5 -20.5t-106.5 -26.5l-55 -15q-63 -13 -134 -14.5t-146.5 10t-133 52t-75.5 105.5q-8 30 -5 65q2 29 16 31q11 2 15 -10
q5 -17 -19 -23q-3 -56 21 -97t65 -62t92.5 -34.5t103 -12.5t96.5 2q46 4 146.5 25.5t192 33t155.5 0.5q-18 -56 -126.5 -219.5t-198.5 -267.5q-29 -34 -63.5 -68t-82.5 -69t-93 -56t-93 -21.5t-85 28.5z" />
    <glyph glyph-name="J_0" unicode="&#xe009;" horiz-adv-x="604" 
d="M490 387q2 99 40.5 180.5t110.5 112.5q-44 -7 -102.5 -20.5t-106.5 -26t-55 -14.5q-63 -13 -134 -14.5t-146.5 10t-133 52t-75.5 105.5q-8 30 -5 65q2 29 16 31q11 2 15 -10q5 -17 -19 -23q-3 -56 21 -97t65 -62t92.5 -34.5t103 -12.5t96.5 2q40 3 215.5 39t240.5 26
q13 0 41 -4q6 -13 -118.5 -194l-260.5 -367q-89 -121 -163 -203.5t-159 -145.5q-179 -129 -274 -51q-63 52 7 168q56 92 153 164q99 73 146 53q14 -6 21 -20q10 -22 -4.5 -52t-45.5 -60t-55.5 -50.5t-47.5 -36.5q-7 -3 -10 2q-6 6 2 10q171 121 136 178q-22 36 -108 -20
q-86 -57 -151 -145q-83 -114 -42 -169l10 -10q102 -72 297 103q58 50 116.5 117.5t95.5 116.5l95 131l322 460q-94 10 -157 -74.5t-65 -208.5q0 -10 -9 -10q-11 -2 -11 9z" />
    <glyph glyph-name="K_0" unicode="&#xe00a;" horiz-adv-x="730" 
d="M648 683q-23 -24 -52 -63t-51 -72.5l-60.5 -92.5l-59.5 -91l-78 -112t-76 -92.5t-94 -87.5q-30 -23 -63.5 -40.5t-72 -29.5t-76 -7.5t-65.5 27.5q-63 52 7 168q56 92 153 164q99 73 146 53q14 -6 21 -20q10 -22 -4.5 -52t-45.5 -60t-55.5 -50.5t-47.5 -36.5q-6 -3 -10 2
q-6 6 2 10q171 121 136 178q-22 36 -108 -20q-86 -57 -151 -145q-83 -114 -42 -169l10 -10q61 -51 177 17q43 25 84 60.5t69 65t65.5 79t55 75.5l55.5 83l26 38.5l26.5 40l24.5 36.5t26 36.5l23.5 31.5t24 31.5l22 26t23 24.5t20.5 18q-16 8 -48 8.5t-68 -5t-78.5 -15
t-75.5 -18.5l-63.5 -17l-38.5 -10q-63 -13 -134 -14.5t-146.5 10t-133 52t-75.5 105.5q-8 30 -5 65q2 29 16 31q11 2 15 -10q5 -17 -19 -23q-3 -56 21 -97t65 -62t92.5 -34.5t103 -12.5t96.5 2q39 3 217 40t242 25q13 -2 27.5 -13t4.5 -21zM955 622q-1 38 -12.5 52.5
t-31.5 10.5q-27 -2 -81.5 -49t-105.5 -102t-103 -102.5t-75 -51.5q36 -52 -12 -182q-7 -16 -19 -48q-37 -92 -33 -117q5 -26 42 -22q47 5 103 86q6 8 14 3q8 -6 3 -14q-20 -27 -34.5 -44.5t-41.5 -34.5t-53 -16q-45 4 -57.5 36.5t1 79.5t32.5 96t33 96t6 69q-25 -15 -36 -16
q-37 -6 -39 20q-3 23 19 39q31 22 61 -15q16 13 68.5 68l101.5 104t110 91t102 42q27 3 42 -16t16 -64q0 -4 -3 -7t-7 -2q-10 0 -10 10zM521 384q-16 20 -34 11q-15 -6 -14 -16q2 -16 42 0q2 1 6 5z" />
    <glyph glyph-name="L_0" unicode="&#xe00b;" horiz-adv-x="628" 
d="M569 687q14 12 -8 19q-27 5 -60 3t-85 -13t-90.5 -20.5l-78 -20t-46.5 -12.5q-63 -13 -134 -14.5t-146.5 10t-133 52t-75.5 105.5q-8 30 -5 65q2 29 16 31q11 2 15 -10q5 -17 -19 -23q-3 -56 21 -97t65 -62t92.5 -34.5t103 -12.5t96.5 2q39 3 217 40t242 25
q26 -5 40.5 -12.5t9.5 -16.5q-61 -54 -125.5 -142.5t-109.5 -168.5t-101.5 -169t-100.5 -139q29 -6 84.5 -23t92 -25.5t82.5 -11.5t84 15t69 58l24 38q4 10 13 4q10 -4 4 -13l-26 -41q-24 -32 -57.5 -51.5t-72.5 -24.5t-73.5 -5t-79 10.5t-69 17.5t-62.5 20.5t-43 14.5
l-36.5 -22t-41.5 -24t-39.5 -20t-44.5 -16t-41 -5t-43 5.5t-39 22.5q-63 52 7 168q56 92 153 164q99 73 146 53q14 -6 21 -20q10 -22 -4.5 -52t-45.5 -60t-55.5 -50.5t-47.5 -36.5q-6 -3 -10 2q-6 6 2 10q171 121 136 178q-22 36 -108 -20q-86 -57 -151 -145
q-83 -114 -42 -169l10 -10q39 -29 90 -16t151 73q39 25 82 87.5t84 137l85 151t99.5 144.5t112.5 102z" />
    <glyph glyph-name="M_0" unicode="&#xe00c;" horiz-adv-x="886" 
d="M768 699q54 -6 -39 -215q-64 -142 -114 -216q-2 -2 -3 -4l61.5 77l66.5 83l63 75.5t67.5 74.5l61 57.5t63 47t55.5 22.5q3 2 5 0q11 -8 -24 -60.5t-91.5 -129l-112 -159t-87.5 -165.5t-16 -134q10 -27 29.5 -30.5t42 11.5t38.5 30t30 32q6 8 14 2t2 -13
q-18 -22 -39.5 -40.5t-48 -33t-50 -6.5t-37.5 41q-12 30 -9.5 67.5t9.5 72.5t25 75.5t37 76.5t45.5 75.5t51 72.5t53 67l51 60t46.5 51q-37 -21 -87 -67.5t-100.5 -104.5l-102 -123l-96.5 -126l-80 -110.5l-56 -79.5l-20 -30q-6 -2 -7 0q-6 10 11.5 57t61.5 137l70.5 142.5
l85.5 165l60 114.5q-22 -14 -61.5 -59.5t-84.5 -105l-102 -129l-114 -134.5t-121.5 -118.5t-124.5 -85t-122 -29t-114 45.5q-63 52 7 168q56 92 153 164q99 73 146 53q14 -6 21 -20q10 -22 -4.5 -52t-45.5 -60t-55.5 -50.5t-47.5 -36.5q-6 -3 -10 2q-6 6 2 10
q171 121 136 178q-22 36 -108 -20q-86 -57 -151 -145q-83 -114 -42 -169l10 -10q41 -36 91 -39.5t102 21t108 66.5t111.5 99.5l109 118t103.5 123l91.5 114t77.5 91.5t58 55q-27 5 -60 3t-85 -13t-90.5 -20.5l-78 -20t-46.5 -12.5q-63 -13 -134 -14.5t-146.5 10t-133 52
t-75.5 105.5q-8 30 -5 65q2 29 16 31q11 2 15 -10q5 -17 -19 -23q-3 -56 21 -97t65 -62t92.5 -34.5t103 -12.5t96.5 2q44 4 219.5 38t239.5 27z" />
    <glyph glyph-name="N_0" unicode="&#xe00d;" horiz-adv-x="729" 
d="M648 710q33 -7 33 -17q-22 -39 -102.5 -316.5t-103.5 -335.5q34 49 162 250t143 222q69 98 105 134q83 80 166 66q48 -9 75 -97q2 -10 -7 -12q-10 -2 -12 7q-20 66 -50 80t-98 -14q-86 -37 -308 -399q-8 -12 -11 -17q-3 -6 -39 -64.5t-81.5 -124.5t-59.5 -72
q-4 -2 -6.5 1t-3.5 10q-7 43 41.5 225.5t103.5 323.5q-454 -610 -655 -553q-24 7 -44 23q-63 52 7 168q56 92 153 164q99 73 146 53q14 -6 21 -20q10 -22 -4.5 -52t-45.5 -60t-55.5 -50.5t-47.5 -36.5q-6 -3 -10 2q-6 6 2 10q171 121 136 178q-22 36 -108 -20
q-86 -57 -151 -145q-83 -114 -42 -169l10 -10q45 -30 106.5 -12t134.5 73.5t146 128.5t140.5 153.5t118 148.5t78.5 113.5t22 48.5q-27 5 -60 3t-85 -13t-90.5 -20.5l-78 -20t-46.5 -12.5q-63 -13 -134 -14.5t-146.5 10t-133 52t-75.5 105.5q-8 30 -5 65q2 29 16 31
q11 2 15 -10q5 -17 -19 -23q-3 -56 21 -97t65 -62t92.5 -34.5t103 -12.5t96.5 2q39 3 217 40t242 25z" />
    <glyph glyph-name="O_0" unicode="&#xe00e;" horiz-adv-x="595" 
d="M635 555q-9 129 -185 113q-61 -6 -130.5 -50t-126.5 -109.5t-100 -145t-51 -156t22 -142.5q62 -85 201 -9q114 62 219 195q109 137 119 238q7 71 -44 97q-32 17 -74 6.5t-80.5 -40t-75.5 -70t-58 -83.5t-28 -81t13 -62q7 -9 21.5 -10t21 1l23.5 7q9 4 13 -5t-6 -13
q-58 -22 -84 3q-25 23 -23 65.5t25 88.5t60 93t82.5 78.5t91.5 45.5t87 -6q94 -54 51 -195q-37 -125 -156 -249q-121 -128 -239 -159q-109 -29 -171 47q-71 96 -47.5 210t108.5 219.5t195 164.5q-43 -1 -111.5 -14t-136.5 -30t-70 -17q-63 -13 -134 -14.5t-146.5 10t-133 52
t-75.5 105.5q-8 30 -5 65q2 29 16 31q11 2 15 -10q5 -17 -19 -23q-3 -56 21 -97t65 -62t92.5 -34.5t103 -12.5t96.5 2q41 3 211 35.5t235 25.5q61 28 117 34q83 8 141 -22.5t64 -110.5q0 -10 -10 -10t-10 10z" />
    <glyph glyph-name="P_0" unicode="&#xe00f;" horiz-adv-x="734" 
d="M-67 20q-63 52 7 168q56 92 153 164q99 73 146 53q14 -6 21 -20q10 -22 -4.5 -52t-45.5 -60t-55.5 -50.5t-47.5 -36.5q-7 -3 -10 2q-6 6 2 10q171 121 136 178q-22 36 -108 -20q-86 -57 -151 -145q-83 -114 -42 -169l10 -10q51 -35 109.5 -18.5t125 74.5t129.5 135
t123 162t105.5 156.5l77 118.5t38.5 47q-27 5 -60 3t-85 -13t-90.5 -20.5l-78 -20t-46.5 -12.5q-63 -13 -134 -14.5t-146.5 10t-133 52t-75.5 105.5q-8 30 -5 65q2 29 16 31q11 2 15 -10q5 -17 -19 -23q-3 -56 21 -97t65 -62t92.5 -34.5t103 -12.5t96.5 2q39 3 217 40
t242 25q15 -3 32 -11.5t8 -17.5q-22 -22 -42 -49q90 68 154 47q105 -35 88 -144q-14 -93 -102 -187q-87 -94 -174 -109q-68 -13 -109 36q-26 32 0 67q6 9 14 1q6 -8 0 -14q-15 -22 1 -42q45 -52 140 14q82 56 141 154q67 111 38 170q-13 27 -46 37q-45 13 -102 -24t-99 -84
q-9 -13 -36.5 -57.5l-53.5 -84l-65 -97t-77 -103.5t-82.5 -95t-88 -80t-87 -50.5t-86.5 -14t-80 36.5z" />
    <glyph glyph-name="Q_0" unicode="&#xe010;" horiz-adv-x="704" 
d="M469 302q-24 -18 -54 -36t-72.5 -36t-77.5 -23t-64 12t-37 61q-16 93 69.5 204t208.5 172q-35 -2 -85.5 -11.5t-89 -18.5l-78.5 -19t-45 -11q-63 -13 -134 -14.5t-146.5 10t-133 52t-75.5 105.5q-8 30 -5 65q2 29 16 31q11 2 15 -10q5 -17 -19 -23q-3 -56 21 -97t65 -62
t92.5 -34.5t103 -12.5t96.5 2q44 4 204.5 34.5t226.5 27.5q63 27 124 30q48 3 79.5 -14.5t43 -48t9 -67.5t-17.5 -75q-30 -77 -82.5 -149t-114 -127t-115 -93.5t-106.5 -68.5q60 -17 119.5 -26.5t126 -10.5t112.5 24t57 76l4 37q0 9 10 9t10 -9l-4 -41q-10 -48 -47 -76
t-84 -35.5t-109.5 -2.5t-112.5 15.5t-105 26.5q-47 -23 -92 -33.5t-77.5 -8.5t-56.5 10.5t-35.5 21t-9.5 25.5q2 11 11 19.5t29 14t48.5 5.5t72.5 -7.5t97 -23.5q97 56 240.5 199t197.5 260q28 53 7.5 103.5t-85.5 51.5q-69 0 -177 -72t-186 -168.5t-68 -157.5
q6 -31 24.5 -46t46 -12t55.5 11.5t59 26t51 30t37 24.5q3 2 7.5 2t6.5 -4q6 -8 -2 -13zM229 55q-69 20 -117.5 24t-67 -2.5t-20.5 -18.5q-1 -8 7 -15.5t26 -12.5t42 -5.5t58.5 7t71.5 23.5z" />
    <glyph glyph-name="R_0" unicode="&#xe011;" horiz-adv-x="768" 
d="M436 378l52 76.5l54.5 80.5l47 65.5t49.5 63t42 42.5q-1 3 -14 8q-27 5 -60 3t-85 -13t-90.5 -20.5l-78 -20t-46.5 -12.5q-63 -13 -134 -14.5t-146.5 10t-133 52t-75.5 105.5q-8 30 -5 65q2 29 16 31q11 2 15 -10q5 -17 -19 -23q-3 -56 21 -97t65 -62t92.5 -34.5
t103 -12.5t96.5 2q39 3 217 40t242 25q24 -4 29 -14q7 2 11 -2q8 -8 -1 -14q-29 -31 -56 -69q118 86 171 77q67 -11 53 -94q-14 -82 -88 -168q-64 -74 -130 -94q8 -28 0.5 -60t-25.5 -62l-36 -60.5t-31 -56t-9.5 -47.5t27.5 -36q36 -21 84 16.5t71 78.5q2 9 12 7q9 -3 7 -12
q-26 -52 -82 -93t-102 -14q-40 23 -46.5 59t12 74.5t42.5 75t42.5 71t14.5 52.5q-34 -12 -60 -6.5t-40 22.5t-6 33q12 24 50 15.5t67 -41.5q64 33 129 137q63 100 60 155q-1 24 -18 29q-10 2 -24 -1t-27 -8t-30.5 -15t-29.5 -17.5t-30.5 -20.5t-26 -19l-23 -18t-16.5 -13
l-71 -111t-95 -142q-37 -54 -83.5 -107t-103.5 -103.5t-112 -79.5t-108.5 -35t-94.5 30q-63 52 7 168q56 92 153 164q99 73 146 53q14 -6 21 -20q10 -22 -4.5 -52t-45.5 -60t-55.5 -50.5t-47.5 -36.5q-7 -3 -10 2q-6 6 2 10q171 121 136 178q-22 36 -108 -20
q-86 -57 -151 -145q-83 -114 -42 -169l10 -10q160 -132 486 339zM620 360q-21 16 -38.5 23t-26 6t-11.5 -6q-4 -7 3.5 -14.5t25.5 -11t47 2.5z" />
    <glyph glyph-name="S_0" unicode="&#xe012;" horiz-adv-x="591" 
d="M791 732q52 -15 29 -52q-21 -34 -77 -50q-26 -8 -50 -7q-27 -39 -71 -114l-84 -141.5t-86.5 -136.5t-96 -124t-94.5 -80q-120 -68 -197 -12q-64 47 -64 150q-1 126 93 239q19 23 40 43q34 32 89.5 59.5t113.5 35.5t92 -28q46 -49 -21 -156q-6 -8 -14 -2q-7 5 -2 14
q68 113 7 142q-60 28 -138 -12t-131 -102q-95 -110 -104 -230q-7 -99 50 -139q62 -45 168 11q73 38 144 139t149.5 246.5t113.5 196.5q-40 -7 -86.5 -18l-81.5 -20t-42 -10q-63 -13 -134 -14.5t-146.5 10t-133 52t-75.5 105.5q-8 30 -5 65q2 29 16 31q11 2 15 -10
q5 -17 -19 -23q-3 -56 21 -97t65 -62t92.5 -34.5t103 -12.5t96.5 2q49 4 165.5 27t162.5 29q71 98 127 90zM791 712q-14 4 -38 -15.5t-48 -54.5q45 -2 83 28q32 24 12 38q-4 2 -9 4z" />
    <glyph glyph-name="T_0" unicode="&#xe013;" horiz-adv-x="744" 
d="M384 336l53.5 96l57.5 102t47.5 76t50.5 68q-31 9 -89 -1t-107.5 -26.5t-102.5 -36t-60 -21.5q-61 -18 -132 -26t-147 -2.5t-137 41t-85 98.5q-10 30 -10 64q-1 29 13 32q11 3 16 -9q7 -16 -17 -24q2 -69 42 -111.5t104 -56t125 -13.5t123 10q50 8 150 40.5t185.5 51.5
t143.5 7q5 7 20 0t15 -11q95 -24 169 -15.5t165 52.5q8 6 14 0q7 -6 1 -14q-95 -50 -177 -58.5t-182 17.5q-39 -51 -77.5 -117.5t-82 -150t-69.5 -128.5q-19 -34 -44.5 -71.5t-60.5 -81t-75 -76t-81.5 -55t-86.5 -21t-85 29.5q-67 47 -7 169q49 98 142 179q92 79 139 61
q13 -4 21 -17q12 -21 0 -52.5t-40 -63.5t-51.5 -55t-44.5 -40q-4 -4 -10 1q-5 4 1 10q161 134 121 189q-25 34 -106 -29q-82 -65 -139 -159q-73 -121 -26 -171q5 -5 10 -9q28 -20 60 -21.5t62.5 13.5t61.5 39t59.5 57t53.5 66t46.5 68t35.5 60.5t24 45.5z" />
    <glyph glyph-name="U_0" unicode="&#xe014;" horiz-adv-x="565" 
d="M344 637q5 -102 -134 -307l-62 -89q-94 -132 -107 -172q-17 -47 29 -47q42 -1 111 59t136 141q58 131 182 285.5t191 197.5q9 4 13 -5q1 -2 6 -4.5t8 -5t1 -3.5q-52 -48 -150.5 -173.5t-182 -268.5t-67.5 -198q7 -27 30.5 -28t59.5 29q42 36 72 99q2 10 12 6q10 -2 6 -12
q-9 -22 -28.5 -49.5t-46.5 -54t-55 -34.5t-55 9q-54 41 -17 155q-161 -179 -237 -164q-43 15 -50.5 49.5t14.5 80.5t58 100t79.5 113l80 113t58 106.5t15.5 87.5q-4 23 -25 35t-53 13.5t-67.5 -2.5t-74.5 -13t-69 -17t-55 -15.5t-29 -8.5q-63 -13 -134 -14.5t-146.5 10
t-133 52t-75.5 105.5q-8 30 -5 65q2 29 16 31q11 2 15 -10q5 -17 -19 -23q-3 -56 21 -97t65 -62t92.5 -34.5t103 -12.5t96.5 2q27 2 96 19t132.5 30t129 18.5t106.5 -16t43 -71.5z" />
    <glyph glyph-name="V_0" unicode="&#xe015;" horiz-adv-x="602" 
d="M496 694q-72 -5 -129 -58.5t-95.5 -134.5t-70 -164.5t-69.5 -167t-76 -124.5q28 19 53 40.5t53 53.5l41.5 47.5t46.5 58l39 50.5l59 75l61 78l51.5 64t51.5 59.5t39 38.5q94 79 136 96q83 33 85 -85v-3q0 -9 -10 -9q-9 0 -9 10v30q-2 24 -12 35t-26 8.5t-32.5 -9
t-37.5 -22l-34.5 -26t-30.5 -25.5t-18 -16q-23 -19 -58.5 -60l-62.5 -74.5l-80.5 -102.5l-75.5 -97l-58 -72.5t-65.5 -75.5t-75 -75.5t-76 -59t-79.5 -41t-75 -5.5t-72 32q-63 52 7 168q56 92 153 164q99 73 146 53q14 -6 21 -20q10 -22 -4.5 -52t-45.5 -60t-55.5 -50.5
t-47.5 -36.5q-6 -3 -10 2q-6 6 2 10q171 121 136 178q-22 36 -108 -20q-86 -57 -151 -145q-83 -114 -42 -169l10 -10q45 -33 93.5 -25t86 34t51.5 54q27 35 55.5 111t55 156t60.5 161t86.5 144.5t118.5 87.5q-35 -3 -84.5 -12t-86.5 -18l-75.5 -18.5t-43.5 -10.5
q-63 -13 -134 -14.5t-146.5 10t-133 52t-75.5 105.5q-8 30 -5 65q2 29 16 31q11 2 15 -10q5 -17 -19 -23q-3 -56 21 -97t65 -62t92.5 -34.5t103 -12.5t96.5 2q39 3 211 36t238 24q12 0 22 -4.5t14.5 -8.5t2.5 -4z" />
    <glyph glyph-name="W_0" unicode="&#xe016;" horiz-adv-x="604" 
d="M382 692q-60 -18 -115.5 -98.5t-91.5 -171.5t-82 -193t-84 -147q76 76 229.5 268t163.5 203q151 171 214 149q23 -6 5 -27q-77 -89 -143.5 -209.5l-129.5 -235t-132 -193.5q65 55 130.5 137t118 159.5l107 153.5t120 140t135.5 99q10 4 12 1.5t3 -12.5
q-59 -21 -130.5 -94t-137 -165.5l-128.5 -184t-124 -165t-105 -94.5q-15 -7 -24 -9.5t-11 1t-2.5 6.5t4.5 11.5l7 12t8 11.5q1 2 2 3q38 57 80 146t73 161t91 162.5t138 163.5q-38 -14 -105.5 -84.5t-132.5 -153.5l-151.5 -188.5t-146.5 -166.5q-31 -31 -69.5 -58.5
t-84 -48.5t-92 -20.5t-80.5 28.5q-63 52 7 168q56 92 153 164q99 73 146 53q14 -6 21 -20q10 -22 -4.5 -52t-45.5 -60t-55.5 -50.5t-47.5 -36.5q-7 -3 -10 2q-6 6 2 10q171 121 136 178q-22 36 -108 -20q-86 -57 -151 -145q-83 -114 -42 -169l10 -10q38 -16 71.5 -17t60.5 8
t52.5 31.5t44 47t37.5 61.5t32.5 68.5t29.5 74.5q71 189 102 251q66 131 142 168q-35 -3 -84.5 -12t-85.5 -18l-75.5 -18.5l-43.5 -10.5q-63 -13 -134 -14.5t-146.5 10t-133 52t-75.5 105.5q-8 30 -5 65q2 29 16 31q11 2 15 -10q5 -17 -19 -23q-3 -56 21 -97t65 -62
t92.5 -34.5t103 -12.5t96.5 2q41 3 206.5 35t231.5 26q6 2 25.5 1.5t17.5 -8.5q0 -4 -3 -7t-7 -2z" />
    <glyph glyph-name="X_0" unicode="&#xe017;" horiz-adv-x="654" 
d="M906 605q0 51 -14.5 74t-40.5 21q-23 -1 -55 -21t-66 -50.5t-71.5 -70.5t-71 -80.5l-65.5 -81l-54 -70.5l-38 -52l-16 -22q-30 -85 -31.5 -147.5t24.5 -78.5q51 -35 180 100q6 8 14 1q8 -6 0 -14q-64 -69 -118.5 -97t-86.5 -8q-27 16 -32 68.5t17 135.5
q-31 -32 -65 -61.5t-78.5 -63t-89.5 -56.5t-92 -37.5t-93.5 -10.5t-85.5 28q-65 49 4 164q55 92 154 165q100 75 148 56q14 -6 21 -20q10 -22 -4.5 -52t-45.5 -60t-55.5 -50.5t-47.5 -36.5q-7 -3 -10 2q-6 6 2 10q171 121 136 178q-22 36 -108 -20q-86 -57 -151 -145
q-83 -114 -42 -169l10 -10q38 -16 77.5 -17.5t74 7.5t74 34t69 48.5t67.5 63.5t61 67.5t58 73l52 67.5q7 9 10 14q121 292 -71 305q-33 0 -85.5 -8t-94.5 -17.5l-85.5 -20t-49.5 -11.5q-63 -13 -134 -14.5t-146.5 10t-133 52t-75.5 105.5q-8 30 -5 65q2 29 16 31
q11 2 15 -10q5 -17 -19 -23q-3 -56 21 -97t65 -62t92.5 -34.5t103 -12.5t96.5 2q63 5 204 35t215 30q72 -4 107 -38.5t34.5 -89t-17.5 -125.5q50 67 170.5 163t196.5 99q74 2 75 -111q-2 -9 -11 -9t-9 10z" />
    <glyph glyph-name="Y_0" unicode="&#xe018;" horiz-adv-x="547" 
d="M-157 -242q26 -17 57 -19.5t58.5 5t60.5 28t56.5 38.5t54.5 48.5t45.5 46l38.5 42.5q66 75 174 236q-153 -127 -204 -58q-21 32 -12.5 76t33.5 85.5t60.5 90.5l67.5 91t54 86.5t22 77.5q-13 32 -53 44t-99.5 5t-110.5 -17.5t-118 -27.5t-90 -22q-63 -13 -134 -14.5
t-146.5 10t-133 52t-75.5 105.5q-8 30 -5 65q2 29 16 31q11 2 15 -10q5 -17 -19 -23q-3 -56 21 -97t65 -62t92.5 -34.5t103 -12.5t96.5 2q33 3 98.5 17l131 28.5t133.5 26t123.5 9t82.5 -22.5q39 -29 36.5 -78t-31 -103t-68 -113.5l-76 -109.5t-55 -91t-4.5 -58
q51 -49 230 122q111 164 197.5 271.5t159.5 150.5q9 4 13 -5q1 -2 3.5 -5t3.5 -4.5t-1 -3.5q-74 -72 -139.5 -155.5t-115 -161l-99 -154.5t-114 -161t-137.5 -155q-29 -28 -61.5 -54t-75.5 -51t-82.5 -38.5t-81 -10t-73.5 29.5q-63 52 7 168q56 92 153 164q99 73 146 53
q14 -6 21 -20q10 -22 -4.5 -52t-45.5 -60t-55.5 -50.5t-47.5 -36.5q-6 -3 -10 2q-6 6 2 10q171 121 136 178q-22 36 -108 -20q-86 -57 -151 -145q-83 -114 -42 -169z" />
    <glyph glyph-name="Z_0" unicode="&#xe019;" horiz-adv-x="667" 
d="M311 596q11 47 37 71q-40 -7 -86.5 -17.5t-82.5 -20t-42 -10.5q-63 -13 -134 -14.5t-146.5 10t-133 52t-75.5 105.5q-8 30 -5 65q2 29 16 31q11 2 15 -10q5 -17 -19 -23q-3 -56 21 -97t65 -62t92.5 -34.5t103 -12.5t96.5 2q50 4 176 29t182 31q36 10 98 5
q23 -1 129.5 -28t162.5 -30q42 33 74.5 47.5t47.5 13t17 -13.5q3 -12 -10.5 -28t-46.5 -28.5t-75 -11.5q-69 -66 -160.5 -162.5l-144.5 -150.5t-136.5 -118.5t-175.5 -112.5q33 -7 85 -26t91 -32t83.5 -20t83 8t68.5 55l25 38q4 9 13 5q9 -5 4 -14l-26 -41
q-34 -44 -83.5 -61.5t-108.5 -9t-102.5 20.5t-98.5 34.5t-64 25.5q-123 -69 -187 -49q-31 10 -22 35q11 31 73 43q58 11 137 -5q68 50 135 109.5t122 113.5l110 108t119.5 109t129.5 100q-53 5 -149.5 30t-121.5 27q-49 3 -75.5 -1t-48 -23t-32.5 -59q-2 -9 -11 -9t-9 11z
M115 65q-82 12 -143 -13q-33 -14 -19 -23q1 -1 3 -2q45 -21 159 38zM815 638q24 1 44 9.5t28 17.5t5 12q-10 10 -77 -39z" />
    <glyph glyph-name="a_1" unicode="&#xe01a;" horiz-adv-x="469" 
d="M155 112q-107 -125 -163 -110q-62 17 -47 125q14 104 80 204q66 101 128 101q13 0 24 -5q38 -15 70 -92l49 93q8 7 19.5 4t20 -13t2.5 -17q-33 -42 -94.5 -179.5t-76.5 -216.5q-6 -24 -3 -35t8 -15.5t16 0t21 10.5t24 17q55 43 160 185q26 32 66.5 88t70.5 87t80 67
q132 94 274 116q89 13 164.5 -23.5t108.5 -105.5q31 -69 11 -150q-19 -76 -82.5 -126.5t-138.5 -57.5q-54 -5 -100 16t-73 68q-29 53 -11 126q8 50 29 60q15 7 20 -9q7 -25 -29 -50q-2 -1 -5 -3q-16 -64 6 -109q42 -89 163 -78q71 7 130 51.5t77 115.5q30 124 -55.5 196.5
t-213.5 53.5q-171 -26 -294 -124q-16 -13 -32.5 -29.5l-26 -26.5t-27.5 -34t-22 -29t-25.5 -35.5t-22.5 -31.5q-17 -25 -34.5 -48l-38.5 -50.5t-41 -50l-41 -44.5t-40 -37t-36 -23.5t-31 -7.5t-23 13q-33 42 5 169zM235 311q-11 31 -28.5 58.5t-31.5 35.5q-37 21 -100 -78
q-64 -100 -89 -207q-25 -101 20 -98h2q32 3 82 49q22 20 81 91q28 76 64 149z" />
    <glyph glyph-name="b_1" unicode="&#xe01b;" 
d="M-10 120q-18 -65 9 -80.5t80 24.5q57 41 112 121q-77 33 -65 113q9 61 59 104t87 17q8 -6 14 -15q21 -35 10 -90t-46 -119q47 -12 90 3t78.5 49.5t67 72.5l69.5 81.5t71 67.5q132 94 274 116q89 13 164.5 -23.5t108.5 -105.5q31 -69 11 -150q-19 -76 -82.5 -126.5
t-138.5 -57.5q-54 -5 -100 16t-73 68q-29 53 -11 126q8 50 29 60q15 7 20 -9q7 -25 -29 -50q-2 -1 -5 -3q-16 -64 6 -109q42 -89 163 -78q71 7 130 51.5t77 115.5q30 124 -55.5 196.5t-213.5 53.5q-184 -28 -294 -124q-30 -27 -66 -71l-63.5 -77.5t-62 -65t-79 -44
t-98.5 -3.5q-64 -107 -144 -153q-38 -21 -71.5 -23t-55.5 22t-17 74q7 81 69 222.5t141.5 272.5t165 223t134.5 80q97 -23 -123 -282q-119 -139 -238 -249q-11 -10 -16 -14q-2 -2 -3 -2q-69 -142 -90 -226zM463 869q-55 -3 -160 -147.5t-199 -328.5q50 47 112 113t128 143.5
t101.5 139t17.5 80.5zM202 201q45 66 63.5 120t-0.5 77q-28 26 -70 -12q-43 -39 -50 -94q-8 -67 57 -91z" />
    <glyph glyph-name="c_1" unicode="&#xe01c;" horiz-adv-x="285" 
d="M190 307q9 15 15 34.5t5 41t-16 29.5t-41.5 -6t-55 -44t-58 -68.5t-52.5 -80.5t-36.5 -80t-11.5 -68t23 -42q37 -16 109.5 38t145.5 134q32 34 72.5 88.5t78.5 97.5t88 78q132 94 274 116q89 13 164.5 -23.5t108.5 -105.5q31 -69 11 -150q-19 -76 -82.5 -126.5
t-138.5 -57.5q-54 -5 -100 16t-73 68q-29 53 -11 126q8 50 29 60q15 7 20 -9q7 -25 -29 -50q-2 -1 -5 -3q-16 -64 6 -109q42 -89 163 -78q71 7 130 51.5t77 115.5q30 124 -55.5 196.5t-213.5 53.5q-171 -26 -294 -124q-36 -27 -100.5 -114t-87.5 -112q-53 -59 -101.5 -104
t-104.5 -75.5t-90 -15.5q-78 35 -42 151q31 99 117 191q87 91 150 88q7 0 14 -2q22 -6 31.5 -22.5t7 -38t-9 -41t-15.5 -36.5q-5 -7 -14 -2q-7 5 -2 14z" />
    <glyph glyph-name="d_1" unicode="&#xe01d;" horiz-adv-x="480" 
d="M311 336l-12 -27q-3 -7 -10 -20t-9 -17q-87 -185 -106 -281q-11 -53 13 -53.5t53 30.5q78 75 206 257q86 120 176 185q132 94 274 116q89 13 164.5 -23.5t108.5 -105.5q31 -69 11 -150q-19 -76 -82.5 -126.5t-138.5 -57.5q-54 -5 -100 16t-73 68q-29 53 -11 126
q8 50 29 60q15 7 20 -9q7 -25 -29 -50q-2 -1 -5 -3q-16 -64 6 -109q42 -89 163 -78q71 7 130 51.5t77 115.5q30 124 -55.5 196.5t-213.5 53.5q-171 -26 -294 -124q-33 -29 -62.5 -62.5t-44.5 -54t-48 -69.5l-34 -48.5l-38.5 -52t-41.5 -52.5l-42 -48t-41.5 -40t-37 -26
t-32 -9t-24.5 13q-36 47 10 187q-28 -28 -46 -44.5t-48 -40t-55.5 -32t-45.5 -1.5q-61 22 -35 131q24 101 97 194q76 96 138 90q55 -7 80 -98q0 1 1 1q59 135 140.5 268.5t165.5 222t132 77.5q99 -24 -128 -288q-119 -139 -237 -247q-8 -7 -12 -11q-1 -1 -3 -1zM235 300
q-16 64 -46 83q-35 24 -108 -72q-71 -95 -105 -197q-32 -99 14 -99q32 1 86 42q22 17 59 54t47 46q21 59 58 136q-3 2 -5 7zM695 859q-55 -3 -160 -147t-200 -328q50 48 112 113.5l128.5 142.5t102 138.5t17.5 80.5z" />
    <glyph glyph-name="e_1" unicode="&#xe01e;" horiz-adv-x="291" 
d="M462 455q132 94 274 116q89 13 164.5 -23.5t108.5 -105.5q31 -69 11 -150q-19 -76 -82.5 -126.5t-138.5 -57.5q-54 -5 -100 16t-73 68q-29 53 -11 126q8 50 29 60q15 7 20 -9q7 -25 -29 -50q-2 -1 -5 -3q-16 -64 6 -109q42 -89 163 -78q71 7 130 51.5t77 115.5
q30 124 -55.5 196.5t-213.5 53.5q-171 -26 -294 -124q-59 -46 -138.5 -154.5t-109.5 -140.5q-65 -68 -124.5 -102.5t-99.5 -19.5q-44 16 -52.5 61t13.5 100t58 110t83.5 97.5t87.5 55.5q37 13 67 -5.5t16 -53.5q-18 -44 -99 -95.5t-150 -80.5q-65 -135 -16 -161
q19 -13 47.5 -4t55.5 25t56.5 43.5t52.5 52t43 49.5q22 27 67.5 88t79.5 98t81 70zM212 412q-30 15 -91.5 -45.5t-110.5 -144.5q178 84 209 150q13 27 -7 40z" />
    <glyph glyph-name="f_1" unicode="&#xe01f;" horiz-adv-x="326" 
d="M-326 -544q10 -15 29.5 -15t38.5 19q41 39 79 123t63 175.5t44 177.5t28 142l8 55q46 -15 91.5 -11t79.5 15.5t69.5 37t63 52.5t59 61.5l58 65t59.5 62.5t64 54q132 94 274 116q89 13 164.5 -23.5t108.5 -105.5q31 -69 11 -150q-19 -76 -82.5 -126.5t-138.5 -57.5
q-54 -5 -100 16t-73 68q-29 53 -11 126q8 50 29 60q15 7 20 -9q7 -25 -29 -50q-2 -1 -5 -3q-16 -64 6 -109q42 -89 163 -78q71 7 130 51.5t77 115.5q30 124 -55.5 196.5t-213.5 53.5q-171 -26 -294 -124q-29 -23 -60.5 -55t-56.5 -60.5l-55 -61t-55 -56.5t-58.5 -47.5
t-65 -34t-73.5 -15t-84 8.5q-1 -26 -10 -82q-15 -93 -41.5 -199.5t-74.5 -223t-99 -165.5q-33 -31 -68 -22.5t-43 50.5q-13 65 55 240.5t165.5 357.5t205 332t165.5 168q33 10 52.5 -8.5t11.5 -57.5q-16 -75 -120 -191q-55 -59 -115.5 -107t-105.5 -68q-136 -236 -224 -440
t-61 -244zM165 331q124 135 117 200q-5 48 -53 4q-86 -80 -252 -364q91 53 188 160z" />
    <glyph glyph-name="g_1" unicode="&#xe020;" horiz-adv-x="435" 
d="M67 -39l65 133q-114 -111 -168 -91q-61 22 -35 131q24 102 98 194q77 97 139 88q51 -6 76 -91q32 67 50 99q7 7 19 4t20.5 -13t2.5 -18q-10 -14 -24 -38.5t-33 -64.5l-34.5 -72.5l-43.5 -93l-44 -95.5q63 35 128 95.5t112.5 117t111.5 122t120 106.5q132 94 274 116
q89 13 164.5 -23.5t108.5 -105.5q31 -69 11 -150q-19 -76 -82.5 -126.5t-138.5 -57.5q-54 -5 -100 16t-73 68q-29 53 -11 126q8 50 29 60q15 7 20 -9q7 -25 -29 -50q-2 -1 -5 -3q-16 -64 6 -109q42 -89 163 -78q71 7 130 51.5t77 115.5q30 124 -55.5 196.5t-213.5 53.5
q-171 -26 -294 -124q-56 -45 -119.5 -114t-109.5 -125t-111.5 -115.5t-131.5 -94.5q-46 -98 -85 -173t-88.5 -158t-91.5 -135t-87 -82t-83 -20q-99 26 130 291q120 139 236 246zM158 147l72 153q-3 2 -3 5q-16 64 -46 83q-35 24 -108 -72q-71 -95 -105 -197q-32 -99 14 -99
q32 1 86 43q16 13 90 84zM-303 -552q114 6 345 462l-113 -116t-122.5 -138t-94.5 -132t-15 -76z" />
    <glyph glyph-name="h_1" unicode="&#xe021;" horiz-adv-x="430" 
d="M37 288q182 158 216 130q8 -6 9 -22t-5 -40t-15 -51.5t-22 -63.5l-25.5 -69l-27.5 -73.5t-25 -72.5q-27 -84 6 -78q39 7 128 116q55 69 140 191q79 111 171 178q132 94 274 116q89 13 164.5 -23.5t108.5 -105.5q31 -69 11 -150q-19 -76 -82.5 -126.5t-138.5 -57.5
q-54 -5 -100 16t-73 68q-29 53 -11 126q8 50 29 60q15 7 20 -9q7 -25 -29 -50q-2 -1 -5 -3q-16 -64 6 -109q42 -89 163 -78q71 7 130 51.5t77 115.5q30 124 -55.5 196.5t-213.5 53.5q-171 -26 -294 -124q-34 -27 -63 -59t-43 -53l-45 -68l-33 -48l-39 -54t-43.5 -56
l-44.5 -52t-44 -44t-40 -29.5t-34 -11t-25 13.5q-20 31 -14.5 83.5t27 117t46 120.5l42.5 95t16 39q-11 4 -39 -13q-71 -42 -176 -138q-64 -137 -89 -236q-8 -12 -19.5 -11t-14.5 12q7 66 50 173.5t79.5 180t72.5 136.5q95 169 192.5 281.5t152.5 99.5q99 -24 -128 -287
q-118 -138 -236 -246q-8 -8 -13 -12q-2 -2 -4 -2q-8 -14 -22 -44zM444 856q-47 -2 -132 -110.5t-174 -264.5q-36 -63 -56 -103q49 46 111.5 112.5l129 144t103 140t18.5 81.5z" />
    <glyph glyph-name="i_1" unicode="&#xe022;" horiz-adv-x="242" 
d="M121 393q-29 -36 -70 -129.5t-57 -164.5q-21 -89 14.5 -81.5t123.5 114.5q23 29 79 105.5t100 125t96 85.5q132 94 274 116q89 13 164.5 -23.5t108.5 -105.5q31 -69 11 -150q-19 -76 -82.5 -126.5t-138.5 -57.5q-54 -5 -100 16t-73 68q-29 53 -11 126q8 50 29 60
q15 7 20 -9q7 -25 -29 -50q-2 -1 -5 -3q-16 -64 6 -109q42 -89 163 -78q71 7 130 51.5t77 115.5q30 124 -55.5 196.5t-213.5 53.5q-171 -26 -294 -124q-52 -41 -89 -86.5t-76.5 -106t-69.5 -98.5q-75 -91 -124 -118q-31 -14 -48 -6.5t-23 34.5t-5 53t6 48q23 113 120 285
q8 7 19.5 4t20 -13t2.5 -18zM135 484q-10 13 -5 30.5t21.5 29t28.5 1.5q11 -12 3 -27.5t-25 -27.5t-23 -6z" />
    <glyph glyph-name="j_1" unicode="&#xe023;" horiz-adv-x="222" 
d="M71 427q7 7 19 4t20.5 -13t2.5 -18q-10 -14 -23.5 -38t-33.5 -65.5l-34.5 -72l-44 -94.5l-43.5 -95q33 10 89.5 63.5t111.5 116.5t128 136t128 113q132 94 274 116q89 13 164.5 -23.5t108.5 -105.5q31 -69 11 -150q-19 -76 -82.5 -126.5t-138.5 -57.5q-54 -5 -100 16
t-73 68q-29 53 -11 126q8 50 29 60q15 7 20 -9q7 -25 -29 -50q-2 -1 -5 -3q-16 -64 6 -109q42 -89 163 -78q71 7 130 51.5t77 115.5q30 124 -55.5 196.5t-213.5 53.5q-171 -26 -294 -124q-46 -35 -93 -84.5t-86 -96l-81 -94t-92.5 -90.5t-104.5 -72l-85 -172.5t-88.5 -158
t-91.5 -134.5t-87 -82t-83 -20q-98 25 125 286q119 139 237 247l5 5l88.5 183.5l83.5 175.5t52 103zM-524 -549q114 5 345 462l-113 -116t-122.5 -138t-94.5 -132t-15 -76zM121 486q-10 13 -4.5 30.5t22 29t28.5 2.5q10 -12 2 -28t-24.5 -28t-23.5 -6z" />
    <glyph glyph-name="k_1" unicode="&#xe024;" horiz-adv-x="400" 
d="M65 333l-10 -21q102 81 138 100q49 27 75 16q27 -11 33 -43.5t-17 -53.5q-49 -43 -198 -76q36 -20 47 -70.5t5.5 -100t-4.5 -93t18 -50.5q11 -5 36.5 22t63 81.5l61.5 91.5l59 93q36 60 92 123t106 99q132 94 274 116q89 13 164.5 -23.5t108.5 -105.5q31 -69 11 -150
q-19 -76 -82.5 -126.5t-138.5 -57.5q-54 -5 -100 16t-73 68q-29 53 -11 126q8 50 29 60q15 7 20 -9q7 -25 -29 -50q-2 -1 -5 -3q-16 -64 6 -109q42 -89 163 -78q71 7 130 51.5t77 115.5q30 124 -55.5 196.5t-213.5 53.5q-171 -26 -294 -124q-75 -59 -172 -215l-56.5 -89.5
l-56.5 -84t-61.5 -77.5t-43.5 -31q-40 -2 -56.5 25.5t-15.5 70t5 87.5t-2 84.5t-30 53.5q-6 4 -15 8q-6 3 -8.5 4.5t-1.5 3.5q3 7 43 20.5t92.5 34.5t79.5 44q18 16 20 33.5t-16 21.5q-12 2 -31.5 -5.5t-46 -26l-46.5 -33.5l-52.5 -40.5l-43.5 -34.5q-76 -160 -102 -263
q-8 -12 -19.5 -11t-14.5 12q7 66 50 173t79.5 179.5t72.5 136.5q95 170 192.5 282.5t152.5 99.5q99 -24 -127 -287q-119 -139 -237 -247q-8 -8 -13 -12q-4 -2 -5 -2zM451 857q-47 -2 -132.5 -110.5t-173.5 -264.5l-56 -103q50 47 112 113l128.5 143.5t103 140t18.5 81.5z
" />
    <glyph glyph-name="l_1" unicode="&#xe025;" horiz-adv-x="234" 
d="M70 344q-117 -246 -138 -345q-10 -53 14 -53.5t53 30.5q77 73 197 246q52 73 95.5 122t100.5 89q132 94 274 116q89 13 164.5 -23.5t108.5 -105.5q31 -69 11 -150q-19 -76 -82.5 -126.5t-138.5 -57.5q-54 -5 -100 16t-73 68q-29 53 -11 126q8 50 29 60q15 7 20 -9
q7 -25 -29 -50q-2 -1 -5 -3q-16 -64 6 -109q42 -89 163 -78q71 7 130 51.5t77 115.5q30 124 -55.5 196.5t-213.5 53.5q-171 -26 -294 -124q-14 -11 -27.5 -24l-23.5 -23.5t-23.5 -27l-21 -25.5t-21.5 -29l-19 -27t-20 -29.5t-18 -27.5l-34 -48l-38 -50.5t-41 -51t-41 -45.5
t-39.5 -37t-35.5 -24t-31 -8t-23 13q-14 19 -14.5 54.5t10 78.5t30 95.5t40.5 100.5t46 98l43 84l34 62q95 170 192 282.5t153 99.5q95 -24 -114 -271q-118 -140 -242 -255zM454 867q-56 -3 -160.5 -146.5t-199.5 -328.5q50 48 112 113.5l128.5 142.5t102 138.5t17.5 80.5z
" />
    <glyph glyph-name="m_1" unicode="&#xe026;" horiz-adv-x="697" 
d="M219 123q232 337 294 287q8 -6 9 -22t-5 -40t-15 -51.5t-22 -63.5l-25.5 -69l-27.5 -73.5t-25 -72.5q-27 -85 6 -79q38 7 128 117q66 83 132 180q94 132 182 195q132 94 274 116q89 13 164.5 -23.5t108.5 -105.5q31 -69 11 -150q-19 -76 -82.5 -126.5t-138.5 -57.5
q-54 -5 -100 16t-73 68q-29 53 -11 126q8 50 29 60q15 7 20 -9q7 -25 -29 -50q-2 -1 -5 -3q-16 -64 6 -109q42 -89 163 -78q71 7 130 51.5t77 115.5q30 124 -55.5 196.5t-213.5 53.5q-171 -26 -294 -124q-15 -12 -28 -23.5t-26.5 -27l-21 -24t-22 -29l-18.5 -26t-21 -31.5
t-20 -30l-33 -48l-39 -54t-43.5 -55.5l-44 -50.5t-43.5 -42.5t-39 -28.5t-33.5 -10.5t-24.5 13.5q-13 17 -16 45t7 70l17 70.5t29.5 83t28.5 68l28 63.5q5 11 7 16q19 40 8.5 44t-44.5 -25q-35 -28 -80 -86t-104 -144.5t-67 -97.5l-7 -24l-5 -14l-39 -1q6 100 107 312
q18 37 11.5 43.5t-43.5 -19.5q-37 -27 -89.5 -92.5t-104.5 -138.5t-67 -91q-1 -3 -4 -14q-13 -13 -39 -1q4 61 36.5 149t60.5 145t26 57l13 17q12 13 16 -3q1 -13 2 -21.5t-4.5 -29l-10 -36t-14.5 -42l-18 -46.5l-19.5 -50t-19.5 -53q243 340 306 289q5 -4 7.5 -10.5t2 -17
t-2 -20.5t-6 -26t-9 -29l-12 -33.5l-13 -35.5l-15 -39z" />
    <glyph glyph-name="n_1" unicode="&#xe027;" horiz-adv-x="482" 
d="M-10 100q208 302 285 318q16 4 27 -5q8 -6 9 -22t-5 -40t-15 -51.5t-22 -63.5l-25.5 -69l-27.5 -73.5t-25 -72.5q-27 -85 6 -79q38 7 128 117q32 40 90 122t104 133.5t107 95.5q132 94 274 116q89 13 164.5 -23.5t108.5 -105.5q31 -69 11 -150q-19 -76 -82.5 -126.5
t-138.5 -57.5q-54 -5 -100 16t-73 68q-29 53 -11 126q8 50 29 60q15 7 20 -9q7 -25 -29 -50q-2 -1 -5 -3q-16 -64 6 -109q42 -89 163 -78q71 7 130 51.5t77 115.5q30 124 -55.5 196.5t-213.5 53.5q-171 -26 -294 -124q-42 -34 -75.5 -74t-75.5 -102t-58 -83
q-22 -30 -43.5 -56.5t-46 -53.5t-44.5 -44.5t-41 -30.5t-35 -11.5t-25 12.5q-14 18 -16 49t8 72.5t20.5 77t31 85l30.5 72l27 59.5q36 80 -38 19q-37 -31 -90 -101t-105 -147.5t-68 -97.5l-1 -3q-1 -3 -4 -14q-14 -14 -39 -1q4 61 36.5 149t60.5 145t26 57l13 17
q12 13 16 -3q1 -13 2.5 -20.5t-4 -28.5t-10 -34.5t-14 -40t-17 -45l-19 -48.5z" />
    <glyph glyph-name="o_1" unicode="&#xe028;" horiz-adv-x="335" 
d="M122 393q-41 -30 -92 -130q-70 -134 -53 -201q9 -39 49 -42q53 7 108 73t87 157q-51 42 -72.5 96.5t-13 93t35.5 46.5q38 10 60 -14.5t25.5 -66.5t-0.5 -82t-12 -66q25 -23 52 -24t50 15.5t48.5 44.5t47 57t48 59t47.5 45q132 94 274 116q89 13 164.5 -23.5t108.5 -105.5
q31 -69 11 -150q-19 -76 -82.5 -126.5t-138.5 -57.5q-54 -5 -100 16t-73 68q-29 53 -11 126q8 50 29 60q15 7 20 -9q7 -25 -29 -50q-2 -1 -5 -3q-16 -64 6 -109q42 -89 163 -78q71 7 130 51.5t77 115.5q30 124 -55.5 196.5t-213.5 53.5q-165 -25 -294 -128
q-24 -19 -49.5 -48.5t-42.5 -55t-39 -49.5t-42 -37t-47.5 -11.5t-59.5 21.5q-39 -107 -106 -177t-128 -59q-78 14 -69 122q8 96 72 195q56 87 109 98q9 0 11 -9q0 -13 -5 -14zM228 270q15 50 11 118q-5 85 -50 80q-6 -1 -13 -3q-20 -7 -24.5 -38.5t15 -76.5t61.5 -80z" />
    <glyph glyph-name="p_1" unicode="&#xe029;" horiz-adv-x="410" 
d="M70 429q7 7 19 4t20.5 -13t2.5 -18q-31 -43 -142 -284q8 -59 37 -80q36 -22 84 22.5t88 121.5q-90 20 -94 90q-3 56 45 107q44 47 83 36q12 -4 21 -14q26 -32 25 -84.5t-24 -115.5q45 -11 93 16t83.5 67l85 93.5t85.5 79.5q132 94 274 116q89 13 164.5 -23.5
t108.5 -105.5q31 -69 11 -150q-19 -76 -82.5 -126.5t-138.5 -57.5q-54 -5 -100 16t-73 68q-29 53 -11 126q8 50 29 60q15 7 20 -9q7 -25 -29 -50q-2 -1 -5 -3q-16 -64 6 -109q42 -89 163 -78q71 7 130 51.5t77 115.5q30 124 -55.5 196.5t-213.5 53.5q-171 -26 -294 -124
q-33 -26 -75.5 -77l-73 -87t-80.5 -62t-108 -20q-41 -99 -106 -150.5t-124 -5.5q-26 20 -39 68l-44 -93.5l-45.5 -94.5l-48.5 -95.5l-48.5 -90t-50.5 -84.5l-50 -73t-50 -61.5t-48.5 -43t-48 -25t-44.5 -0.5q-98 26 124 285q120 140 240 250l79.5 167.5l87 181.5t60.5 116z
M-525 -547q47 2 108 71.5t115 162.5t120 226l-113.5 -117l-121.5 -137t-94 -130.5t-14 -75.5zM215 393q-25 18 -65 -21q-43 -43 -45 -92q-3 -62 75 -77q4 0 9 -1q30 67 38.5 118.5t-12.5 72.5z" />
    <glyph glyph-name="q_1" unicode="&#xe02a;" horiz-adv-x="439" 
d="M344 398q-47 -67 -158.5 -279t-204 -425.5t-75.5 -248.5q21 -36 79 39q67 85 142 258.5t80 260.5q-28 -7 -48.5 10t0.5 42q12 17 35.5 11t29.5 -37q40 24 87 76.5t85 104.5t89 110t95 90q132 94 274 116q89 13 164.5 -23.5t108.5 -105.5q31 -69 11 -150
q-19 -76 -82.5 -126.5t-138.5 -57.5q-54 -5 -100 16t-73 68q-29 53 -11 126q8 50 29 60q15 7 20 -9q7 -25 -29 -50q-2 -1 -5 -3q-16 -64 6 -109q42 -89 163 -78q71 7 130 51.5t77 115.5q30 124 -55.5 196.5t-213.5 53.5q-171 -26 -294 -124q-40 -32 -83 -85.5t-75 -101
t-80 -99t-98 -82.5q0 -74 -55 -219t-130 -262.5t-122 -111.5q-46 2 -48.5 59t35 157t84.5 199.5t113 222.5q-81 -67 -125 -51q-61 22 -35 130q24 102 97 195q77 96 139 88q50 -6 75 -85q44 83 49 94q3 3 19 -1t21 -7q3 -2 4 -9t-2 -10zM129 106l111 201q-15 61 -46 82
q-35 24 -108 -72q-71 -95 -105 -197q-32 -100 14 -100q32 1 86 43q21 16 48 43zM206 23q-5 31 -35 19q-9 -3 0 -12q12 -12 35 -7z" />
    <glyph glyph-name="r_1" unicode="&#xe02b;" horiz-adv-x="364" 
d="M231 393q-33 -40 -94.5 -178t-76.5 -218q-11 -53 13 -53t53 31q88 86 205 253q98 141 193 210q132 94 274 116q89 13 164.5 -23.5t108.5 -105.5q31 -69 11 -150q-19 -76 -82.5 -126.5t-138.5 -57.5q-54 -5 -100 16t-73 68q-29 53 -11 126q8 50 29 60q15 7 20 -9
q7 -25 -29 -50q-2 -1 -5 -3q-16 -64 6 -109q42 -89 163 -78q71 7 130 51.5t77 115.5q30 124 -55.5 196.5t-213.5 53.5q-171 -26 -294 -124q-30 -23 -58 -54t-41.5 -49.5t-43 -63t-37.5 -55.5q-46 -65 -83 -112q-155 -193 -199 -136q-14 18 -15.5 52.5t9.5 77t26.5 87t37 92
l39 83l34.5 67.5q-48 -20 -76 -7l-40.5 -60l-34 -51.5t-15.5 -23.5q-7 -9 -14 -2q-7 5 -2 14q1 2 14 22l34 53l42 63q-16 21 -11 57t18.5 71t37 61t45.5 27q82 4 -63 -214q21 -10 60 8q2 0 9 3.5t12 5.5q8 6 19.5 3t19.5 -13t2 -18zM94 420q124 187 77 178q-33 -7 -63 -74.5
t-14 -103.5z" />
    <glyph glyph-name="s_1" unicode="&#xe02c;" horiz-adv-x="388" 
d="M2 277l119 159q-35 80 17 151q32 44 69 50q32 4 32 -31v-2q0 -44 -78 -152l61 -121q81 127 186 201q132 94 274 116q89 13 164.5 -23.5t108.5 -105.5q31 -69 11 -150q-19 -76 -82.5 -126.5t-138.5 -57.5q-54 -5 -100 16t-73 68q-29 53 -11 126q8 50 29 60q15 7 20 -9
q7 -25 -29 -50q-2 -1 -5 -3q-16 -64 6 -109q42 -89 163 -78q71 7 130 51.5t77 115.5q30 124 -55.5 196.5t-213.5 53.5q-171 -26 -294 -124q-45 -35 -89 -88t-69 -97q40 -91 12.5 -161t-85 -112.5t-108.5 -40.5q-35 1 -49 22q-31 49 -4.5 109.5t80.5 114.5t103 73
q-12 22 -49 96l-113 -149q-5 -9 -13 -3q-8 7 -3 14zM189 301q-42 -16 -92 -62t-78 -104t-4 -97q15 -24 59 -12q42 11 79 50t53 97.5t-17 127.5zM152 475q92 129 63 144q-9 5 -30 -11t-35 -48t2 -85z" />
    <glyph glyph-name="t_1" unicode="&#xe02d;" horiz-adv-x="244" 
d="M261 652q-13 -18 -74 -120q32 -12 48 -16t35 0t29 23q3 8 12 5q10 -4 6 -13q-8 -16 -20.5 -25t-24 -11.5t-30.5 1t-30.5 7t-34.5 11.5q-70 -122 -132 -243q-81 -169 -101 -268q-13 -66 23 -52q39 15 107 94q55 66 129 173q55 81 104 138t111 101q132 94 274 116
q89 13 164.5 -23.5t108.5 -105.5q31 -69 11 -150q-19 -76 -82.5 -126.5t-138.5 -57.5q-54 -5 -100 16t-73 68q-29 53 -11 126q8 50 29 60q15 7 20 -9q7 -25 -29 -50q-2 -1 -5 -3q-16 -64 6 -109q42 -89 163 -78q71 7 130 51.5t77 115.5q30 124 -55.5 196.5t-213.5 53.5
q-171 -26 -294 -124q-10 -7 -20.5 -17.5l-19.5 -20t-21 -24l-20 -24t-21.5 -27t-19.5 -26l-19.5 -27.5l-17.5 -24.5l-17.5 -25t-14.5 -21.5l-34 -48.5l-37.5 -50.5t-40.5 -49.5l-40.5 -44.5t-39 -36.5t-35.5 -23t-31 -7.5t-23 13q-57 74 87 371q46 101 111 220
q-72 18 -109 -31q-5 -9 -13 -3q-8 5 -3 14q45 60 135 38q55 98 70 120q1 4 16.5 4t19.5 -2q1 0 4 -2.5l5.5 -4.5t5.5 -4t4.5 -4.5t0.5 -3.5z" />
    <glyph glyph-name="u_1" unicode="&#xe02e;" 
d="M316 398q-33 -41 -94.5 -178.5t-77.5 -217.5q-7 -36 2.5 -47t27 -3t37.5 28q84 80 216 271q94 137 187 203q132 94 274 116q89 13 164.5 -23.5t108.5 -105.5q31 -69 11 -150q-19 -76 -82.5 -126.5t-138.5 -57.5q-54 -5 -100 16t-73 68q-29 53 -11 126q8 50 29 60
q15 7 20 -9q7 -25 -29 -50q-2 -1 -5 -3q-16 -64 6 -109q42 -89 163 -78q71 7 130 51.5t77 115.5q30 124 -55.5 196.5t-213.5 53.5q-171 -26 -294 -124q-31 -25 -57 -54t-38.5 -46t-39.5 -57.5l-38 -56.5l-33.5 -48.5l-38.5 -52.5t-42.5 -53.5l-42.5 -48.5t-42 -40.5t-38 -27
t-32.5 -9.5t-24.5 13q-40 52 24 226l-30 -37q-73 -90 -123 -118q-21 -11 -35.5 -10.5t-23 11.5t-12.5 26.5t-4.5 35t0.5 35.5t4 30q26 122 121 286q7 7 19 4t20.5 -13t2.5 -18q-29 -36 -70 -129.5t-57 -164.5q-21 -89 14.5 -81.5t123.5 114.5l82 109q40 90 90 179q7 7 19 4
t20.5 -13.5t2.5 -17.5z" />
    <glyph glyph-name="v_1" unicode="&#xe02f;" horiz-adv-x="437" 
d="M123 424q-41 -83 -97.5 -230t-39.5 -174q26 8 99.5 82t152.5 164q-10 67 9 149.5t56 136.5t74 45q38 -9 40 -48.5t-24.5 -91.5t-48 -87t-40.5 -60q-4 -6 -45 -52q42 -117 134 -41q38 32 125 141q70 89 101 111q132 94 274 116q89 13 164.5 -23.5t108.5 -105.5
q31 -69 11 -150q-19 -76 -82.5 -126.5t-138.5 -57.5q-54 -5 -100 16t-73 68q-29 53 -11 126q8 50 29 60q15 7 20 -9q7 -25 -29 -50q-2 -1 -5 -3q-16 -64 6 -109q42 -89 163 -78q71 7 130 51.5t77 115.5q30 124 -55.5 196.5t-213.5 53.5q-171 -26 -294 -124q-18 -14 -44 -46
l-50.5 -64.5l-52.5 -67.5t-54.5 -57t-53.5 -31t-53 8t-48 62q-225 -246 -263 -240q-41 10 -19 110t58 197t54 128q2 3 20.5 3t21.5 -2q10 -8 7 -12zM255 286q46 53 60 73q10 15 26.5 44t36.5 72t19 73t-31 30q-26 0 -53.5 -47.5t-44.5 -117t-13 -127.5z" />
    <glyph glyph-name="w_1" unicode="&#xe030;" horiz-adv-x="653" 
d="M322 402q-19 -39 -60 -138t-68 -180l-13 -39.5t-10 -33t-7.5 -28t-3 -19t2 -12.5t7.5 -3q10 2 37.5 28.5t62.5 67l67 78.5l63 76t38 46q-10 67 8.5 149t55.5 136t75 45t39.5 -48.5t-25 -91.5t-48 -87t-40.5 -60q-13 -17 -45 -52q37 -100 141 -11q37 32 134 145
q68 78 98 99q132 94 274 116q89 13 164.5 -23.5t108.5 -105.5q31 -69 11 -150q-19 -76 -82.5 -126.5t-138.5 -57.5q-54 -5 -100 16t-73 68q-29 53 -11 126q8 50 29 60q15 7 20 -9q7 -25 -29 -50q-2 -1 -5 -3q-16 -64 6 -109q42 -89 163 -78q71 7 130 51.5t77 115.5
q30 124 -55.5 196.5t-213.5 53.5q-171 -26 -294 -124q-24 -19 -66.5 -69l-80 -92.5t-79 -77t-79 -31.5t-64.5 53q-11 -12 -74.5 -88.5t-112.5 -128t-80 -68.5q-43 -23 -41 38q2 42 24 126l19 67l-30 -39q-75 -91 -124 -118q-31 -15 -48 -7t-23 34.5t-5 52.5t6 48
q23 113 120 286q7 7 19 4t20.5 -13t2.5 -18q-29 -36 -70 -129.5t-57 -164.5q-21 -89 14.5 -81.5t123.5 114.5l73 97q49 140 74 183q2 3 20 2.5t21 -2.5q11 -7 7 -12zM455 264q47 55 59 73q12 19 26.5 45t36.5 71t20.5 74.5t-31.5 29.5q-40 -1 -79 -102t-32 -191z" />
    <glyph glyph-name="x_1" unicode="&#xe031;" horiz-adv-x="369" 
d="M284 399q-27 -31 -62.5 -66l-82 -79.5l-74.5 -72.5q1 -7 6.5 -48.5t12.5 -79t16 -58.5q19 -42 33 -43q10 -1 31.5 20.5t46 55l41.5 58l30 44.5q20 31 48.5 79.5l46 76t44 63t58 65t72.5 58.5q132 94 274 116q89 13 164.5 -23.5t108.5 -105.5q31 -69 11 -150
q-19 -76 -82.5 -126.5t-138.5 -57.5q-54 -5 -100 16t-73 68q-29 53 -11 126q8 50 29 60q15 7 20 -9q7 -25 -29 -50q-2 -1 -5 -3q-16 -64 6 -109q42 -89 163 -78q71 7 130 51.5t77 115.5q30 124 -55.5 196.5t-213.5 53.5q-171 -26 -294 -124q-40 -31 -76 -74.5t-57 -77.5
l-54 -90.5t-51 -84.5q-77 -124 -142 -180q-18 -17 -36.5 -10t-40.5 43q-19 32 -34.5 91t-14.5 88q-68 -71 -112 -142q-5 -8 -14 -4q-8 5 -4 13q44 72 125 156q-29 148 15 246q2 3 15.5 5.5t17.5 0.5q8 -5 4 -14q-26 -97 -11 -200l70.5 68.5l77.5 76l60 63.5q6 8 14 0
q8 -6 0 -14z" />
    <glyph glyph-name="y_1" unicode="&#xe032;" horiz-adv-x="424" 
d="M128 128q-74 -90 -123 -117q-31 -14 -48 -6.5t-23 34.5t-5 53t6 48q23 113 120 285q8 7 19.5 4t20 -13t2.5 -18q-29 -36 -70 -129.5t-57 -164.5q-21 -89 14.5 -81.5t123.5 114.5l64 84q76 162 96 196q7 7 19 4t20.5 -13t2.5 -18q-10 -14 -24 -38.5t-33 -64.5l-34.5 -72.5
l-43.5 -93l-44 -95.5q37 8 95.5 62t113 118.5t126.5 139.5t127 115q132 94 274 116q89 13 164.5 -23.5t108.5 -105.5q31 -69 11 -150q-19 -76 -82.5 -126.5t-138.5 -57.5q-54 -5 -100 16t-73 68q-29 53 -11 126q8 50 29 60q15 7 20 -9q7 -25 -29 -50q-2 -1 -5 -3
q-16 -64 6 -109q42 -89 163 -78q71 7 130 51.5t77 115.5q30 124 -55.5 196.5t-213.5 53.5q-171 -26 -294 -124q-55 -43 -121 -115t-114.5 -131t-110.5 -116t-116 -81q-46 -98 -85 -173t-88.5 -158t-91.5 -135t-87 -81.5t-83 -19.5q-99 26 131 292q120 138 236 245z
M-327 -559q114 6 345 462l-113 -116t-122.5 -138t-94.5 -132t-15 -76z" />
    <glyph glyph-name="z_1" unicode="&#xe033;" horiz-adv-x="585" 
d="M0 274q5 18 59.5 106t72.5 69q20 -23 168 -18q129 3 149 -4.5t-4 -26.5l-80 -61l-137.5 -106t-127.5 -106.5t-81 -85.5l20.5 14l26 17.5l27 17t30 17t29 12.5t30.5 8t27.5 0.5t26.5 -8t21 -19.5q65 32 126.5 85t103.5 101.5t99.5 107.5t110.5 97q132 94 274 116
q89 13 164.5 -23.5t108.5 -105.5q31 -69 11 -150q-19 -76 -82.5 -126.5t-138.5 -57.5q-54 -5 -100 16t-73 68q-29 53 -11 126q8 50 29 60q15 7 20 -9q7 -25 -29 -50q-2 -1 -5 -3q-16 -64 6 -109q42 -89 163 -78q71 7 130 51.5t77 115.5q30 124 -55.5 196.5t-213.5 53.5
q-171 -26 -294 -124q-44 -35 -80 -72.5t-62 -70t-58 -67.5t-84.5 -77.5t-125.5 -87.5q23 -53 -9.5 -162.5t-95 -217.5t-152.5 -191t-169 -85q-40 -1 -49 29t13 88.5t61.5 120.5t75 111t60.5 79q94 110 216 213q-18 27 -54.5 21.5t-69.5 -24t-61.5 -37.5t-31.5 -18
q-109 29 350 363q46 34 51 38q-22 3 -83.5 -1.5t-115.5 -2t-80 21.5q-18 -12 -58 -75t-45 -79q0 -11 -10 -11q-11 0 -11 10zM228 50q-119 -103 -211 -212q-27 -32 -80.5 -109.5t-88.5 -143.5q-41 -76 -34 -119q8 -47 88 4q72 46 157.5 164t136.5 240t32 176z" />
    <glyph glyph-name="a_2" unicode="&#xe034;" horiz-adv-x="469" 
d="M155 112q-107 -125 -163 -110q-35 10 -45 52t2.5 97.5t39.5 113.5q-3 0 -9.5 0.5t-9.5 0.5q-60 2 -122.5 15.5t-123 41.5t-105 66.5t-66 96.5t-8.5 125q19 75 83 125q62 49 145.5 50t142.5 -39q45 -29 68.5 -74t16.5 -99q-9 -60 -68 -106q-40 -38 -62 -29q-15 6 -5 22
q13 22 57 18q53 43 61 90q22 94 -81 161q-61 38 -131 39t-135 -44q-66 -54 -77 -125t27.5 -134t110.5 -104q143 -81 298 -81q39 77 88.5 120.5t92.5 25.5q38 -15 70 -92l49 93q8 7 19.5 4t20 -13t2.5 -17q-33 -42 -94.5 -179.5t-76.5 -216.5q-6 -24 -3 -35t8 -15.5t16 0
t21 10.5t24 17q52 41 132.5 148.5t109.5 154.5q5 9 13 3q10 -4 4 -13q-5 -9 -14.5 -23l-25.5 -37.5l-33.5 -48l-39 -53t-43.5 -54.5l-44.5 -50.5t-43.5 -41.5t-39 -28t-33.5 -10.5t-25.5 13.5q-33 42 5 169zM235 311q-1 1 -1 2q-94 -39 -193 -46q-61 -123 -63 -199
q-2 -50 30 -46q32 3 82 49q22 20 81 91q28 76 64 149zM229 326q-27 63 -54 79q-23 13 -57.5 -22.5t-68.5 -99.5q96 8 180 43z" />
    <glyph glyph-name="b_2" unicode="&#xe035;" 
d="M-10 120q-18 -65 9 -80.5t80 24.5q57 41 112 121q-77 33 -65 113q9 61 59 104t87 17q8 -6 14 -15q21 -35 10 -90t-46 -119q79 3 216 91q7 6 13 -2q5 -9 -2 -14q-151 -98 -239 -95q-64 -107 -144 -153q-38 -21 -71.5 -23t-55.5 22t-17 74q9 89 83 256q-112 -43 -242 -38
q-60 2 -122.5 15.5t-123 41.5t-105 66.5t-66 96.5t-8.5 125q19 75 83 125q62 49 145.5 50t142.5 -39q45 -29 68.5 -74t16.5 -99q-9 -60 -68 -106q-40 -38 -62 -29q-15 6 -5 22q13 22 57 18q53 43 61 90q22 94 -81 161q-61 38 -131 39t-135 -44q-66 -54 -77 -125t27.5 -134
t110.5 -104q149 -84 307 -81q114 0 216 42q61 131 138.5 253t155.5 201.5t124 68.5q97 -23 -123 -282q-119 -139 -238 -249q-11 -10 -16 -14q-2 -2 -3 -2q-69 -142 -90 -226zM463 869q-55 -3 -160 -147.5t-199 -328.5q50 47 112 113t128 143.5t101.5 139t17.5 80.5zM202 201
q45 66 63.5 120t-0.5 77q-28 26 -70 -12q-43 -39 -50 -94q-8 -67 57 -91z" />
    <glyph glyph-name="c_2" unicode="&#xe036;" horiz-adv-x="285" 
d="M8 248q-31 -49 -49 -93t-20 -81t23 -51q37 -15 112.5 41t137.5 124.5t84 106.5q5 9 14 0q6 -6 2 -14q-27 -40 -71 -90.5t-96.5 -99.5t-105.5 -75t-86 -11q-38 17 -48 56t3.5 86t43.5 98q-3 0 -9 0.5t-10 0.5q-60 2 -122.5 15.5t-123 41.5t-105 66.5t-66 96.5t-8.5 125
q19 75 83 125q62 49 145.5 50t142.5 -39q45 -29 68.5 -74t16.5 -99q-9 -60 -68 -106q-40 -38 -62 -29q-15 6 -5 22q13 22 57 18q53 43 61 90q22 94 -81 161q-61 38 -131 39t-135 -44q-66 -54 -77 -125t27.5 -134t110.5 -104q146 -82 301 -81q51 80 117 132.5t113 39.5
q64 -18 -184 -185zM194 412q-5 3 -35 -14.5t-71.5 -55.5t-69.5 -79q43 29 112 87t64 62z" />
    <glyph glyph-name="d_2" unicode="&#xe037;" horiz-adv-x="480" 
d="M311 336l-12 -27q-3 -7 -10 -20t-9 -17q-87 -185 -106 -281q-11 -53 13 -53.5t53 30.5q54 52 134.5 159.5t103.5 144.5q3 8 13 4q8 -5 4 -14l-14.5 -22.5l-24.5 -37.5l-33.5 -48.5l-39 -53.5t-42.5 -54.5t-43.5 -50t-43 -42t-39 -28t-33.5 -10t-25 12.5q-36 47 10 187
q-28 -28 -46 -44.5t-48 -40t-55.5 -32t-45.5 -1.5q-33 12 -40 53t8.5 92.5t45.5 106.5q-1 0 -3 0.5t-4 0.5q-60 2 -122.5 15.5t-123 41.5t-105 66.5t-66 96.5t-8.5 125q19 75 83 125q62 49 145.5 50t142.5 -39q45 -29 68.5 -74t16.5 -99q-9 -60 -68 -106q-40 -38 -62 -29
q-15 6 -5 22q13 22 57 18q53 43 61 90q22 94 -81 161q-61 38 -131 39t-135 -44q-66 -54 -77 -125t27.5 -134t110.5 -104q142 -80 288 -81q31 52 67 88.5t72 52.5t68 -6t50 -86q0 1 1 1q59 135 140.5 268.5t165.5 222t132 77.5q99 -24 -128 -288q-119 -139 -237 -247
q-8 -7 -12 -11q-1 -1 -3 -1zM41 251q-70 -118 -77 -191q-5 -46 26 -45q32 1 86 42q22 17 59 54t47 46q21 59 58 136q-2 0 -2 2q-91 -38 -197 -44zM695 859q-55 -3 -160 -147t-200 -328q50 48 112 113.5l128.5 142.5t102 138.5t17.5 80.5zM233 308q-16 58 -44 75
q-23 15 -60.5 -19t-78.5 -98q96 6 183 42z" />
    <glyph glyph-name="e_2" unicode="&#xe038;" horiz-adv-x="291" 
d="M305 298q5 9 14 0q5 -5 0 -14q-53 -82 -124 -157q-65 -68 -124.5 -102.5t-99.5 -19.5q-60 26 -54.5 92.5t51 143.5t107.5 133q-87 -23 -185 -20q-60 2 -122.5 15.5t-123 41.5t-105 66.5t-66 96.5t-8.5 125q19 75 83 125q62 49 145.5 50t142.5 -39q45 -29 68.5 -74
t16.5 -99q-9 -60 -68 -106q-40 -38 -62 -29q-15 6 -5 22q13 22 57 18q53 43 61 90q22 94 -81 161q-61 38 -131 39t-135 -44q-66 -54 -77 -125t27.5 -134t110.5 -104q149 -84 307 -81q94 0 178 28q32 24 58 32q37 13 67 -5.5t16 -53.5q-18 -44 -99 -95.5t-150 -80.5
q-65 -135 -16 -161q19 -13 47.5 -4t55.5 25t56.5 43.5t52.5 52t43 49.5l24 31.5l25.5 36.5zM212 412q-30 15 -91.5 -45.5t-110.5 -144.5q178 84 209 150q13 27 -7 40z" />
    <glyph glyph-name="f_2" unicode="&#xe039;" horiz-adv-x="422" 
d="M-230 -544q10 -15 29.5 -15t38.5 19q41 39 79 123t63 175.5t44 177.5t28 142l8 55q136 0 206.5 25.5t157.5 118.5q6 8 13 1q4 -2 4 -6.5t-2 -7.5q-87 -93 -161 -122.5t-201 -25.5q-1 -26 -10 -82q-15 -93 -41.5 -199.5t-74.5 -223t-99 -165.5q-33 -31 -68 -22.5t-43 50.5
q-14 70 62 260t193 399q-112 -42 -238 -37q-60 2 -122.5 15.5t-123 41.5t-105 66.5t-66 96.5t-8.5 125q19 75 83 125q62 49 145.5 50t142.5 -39q45 -29 68.5 -74t16.5 -99q-9 -60 -68 -106q-40 -38 -62 -29q-15 6 -5 22q13 22 57 18q53 43 61 90q22 94 -81 161
q-61 38 -131 39t-135 -44q-66 -54 -77 -125t27.5 -134t110.5 -104q149 -84 307 -81q112 0 214 41q97 170 185 287t140 133q33 10 52.5 -8.5t11.5 -57.5q-16 -75 -120 -191q-55 -59 -115.5 -107t-105.5 -68q-136 -236 -224 -440t-61 -244zM261 331q124 135 117 200
q-5 48 -53 4q-86 -80 -252 -364q91 53 188 160z" />
    <glyph glyph-name="g_2" unicode="&#xe03a;" horiz-adv-x="437" 
d="M67 -39l65 133q-114 -111 -168 -91q-33 12 -40 53t8.5 92t45.5 106q-2 0 -6 0.5t-6 0.5q-60 2 -122.5 15.5t-123 41.5t-105 66.5t-66 96.5t-8.5 125q19 75 83 125q62 49 145.5 50t142.5 -39q45 -29 68.5 -74t16.5 -99q-9 -60 -68 -106q-40 -38 -62 -29q-15 6 -5 22
q13 22 57 18q53 43 61 90q22 94 -81 161q-61 38 -131 39t-135 -44q-66 -54 -77 -125t27.5 -134t110.5 -104q143 -81 293 -81q31 51 66 87.5t71 53t68 -4t50 -81.5q32 67 50 99q7 7 19 4t20.5 -13t2.5 -18q-10 -14 -24 -38.5t-33 -64.5l-34.5 -72.5l-43.5 -93l-44 -95.5
l292 248q7 7 14 -1q6 -8 -1 -14l-324 -274q-46 -98 -85 -173t-88.5 -158t-91.5 -135t-87 -82t-83 -20q-99 26 130 291q120 139 236 246zM158 147l72 153h-1l-1 1q-88 -37 -195 -45q-70 -118 -77 -191q-5 -46 26 -45q32 1 86 43q16 13 90 84zM-303 -552q114 6 345 462
l-113 -116t-122.5 -138t-94.5 -132t-15 -76zM224 315q-16 55 -43 73q-23 15 -61 -19.5t-78 -97.5q96 8 182 44z" />
    <glyph glyph-name="h_2" unicode="&#xe03b;" horiz-adv-x="430" 
d="M37 288q182 158 216 130q8 -6 9 -22t-5 -40t-15 -51.5t-22 -63.5l-25.5 -69l-27.5 -73.5t-25 -72.5q-27 -84 6 -78q39 7 128 116q47 59 96.5 129t61.5 90q5 8 14 3q9 -3 3 -13q-59 -99 -146 -207q-148 -185 -191 -127q-20 31 -14.5 83.5t27 117t46 120.5l42.5 95t16 39
q-11 4 -39 -13q-71 -42 -176 -138q-64 -137 -89 -236q-8 -12 -19.5 -11t-14.5 12q12 108 119 332q-115 -43 -241 -38q-60 2 -122.5 15.5t-123 41.5t-105 66.5t-66 96.5t-8.5 125q19 75 83 125q62 49 145.5 50t142.5 -39q45 -29 68.5 -74t16.5 -99q-9 -60 -68 -106
q-40 -38 -62 -29q-15 6 -5 22q13 22 57 18q53 43 61 90q22 94 -81 161q-61 38 -131 39t-135 -44q-66 -54 -77 -125t27.5 -134t110.5 -104q149 -84 307 -81q114 0 215 42q23 46 74 139q95 169 192.5 281.5t152.5 99.5q99 -24 -128 -287q-118 -138 -236 -246q-8 -8 -13 -12
q-2 -2 -4 -2q-8 -14 -22 -44zM444 856q-47 -2 -132 -110.5t-174 -264.5q-36 -63 -56 -103q49 46 111.5 112.5l129 144t103 140t18.5 81.5z" />
    <glyph glyph-name="i_2" unicode="&#xe03c;" horiz-adv-x="242" 
d="M121 393q-29 -36 -70 -129.5t-57 -164.5q-21 -89 14.5 -81.5t123.5 114.5q8 9 57.5 75t54.5 72q5 5 9.5 4.5t7.5 -4t2 -5.5q-48 -73 -110 -150q-75 -91 -124 -118q-31 -14 -48 -6.5t-23 34.5t-5 53t6 48q23 109 100 249q-112 -40 -233 -35q-60 2 -122.5 15.5t-123 41.5
t-105 66.5t-66 96.5t-8.5 125q19 75 83 125q62 49 145.5 50t142.5 -39q45 -29 68.5 -74t16.5 -99q-9 -60 -68 -106q-40 -38 -62 -29q-15 6 -5 22q13 22 57 18q53 43 61 90q22 94 -81 161q-61 38 -131 39t-135 -44q-66 -54 -77 -125t27.5 -134t110.5 -104q149 -84 307 -81
q109 0 208 39l10 17q8 7 19.5 4t20 -13t2.5 -18zM135 484q-10 13 -5 30.5t21.5 29t28.5 1.5q11 -12 3 -27.5t-25 -27.5t-23 -6z" />
    <glyph glyph-name="j_2" unicode="&#xe03d;" horiz-adv-x="222" 
d="M71 427q7 7 19 4t20.5 -13t2.5 -18q-10 -14 -23.5 -38t-33.5 -65.5l-34.5 -72l-44 -94.5l-43.5 -95l292 249q8 6 14 -2t-2 -13l-323 -275l-85 -172.5t-88.5 -158t-91.5 -134.5t-87 -82t-83 -20q-98 25 125 286q119 139 237 247l5 5l113 235.5t90 187.5q-112 -43 -241 -38
q-60 2 -122.5 15.5t-123 41.5t-105 66.5t-66 96.5t-8.5 125q19 75 83 125q62 49 145.5 50t142.5 -39q45 -29 68.5 -74t16.5 -99q-9 -60 -68 -106q-40 -38 -62 -29q-15 6 -5 22q13 22 57 18q53 43 61 90q22 94 -81 161q-61 38 -131 39t-135 -44q-66 -54 -77 -125t27.5 -134
t110.5 -104q149 -84 307 -81q116 0 216 42q1 2 5 9.5t6 10.5zM-524 -549q114 5 345 462l-113 -116t-122.5 -138t-94.5 -132t-15 -76zM121 486q-10 13 -4.5 30.5t22 29t28.5 2.5q10 -12 2 -28t-24.5 -28t-23.5 -6z" />
    <glyph glyph-name="k_2" unicode="&#xe03e;" horiz-adv-x="400" 
d="M65 333l-10 -21q102 81 138 100q49 27 75 16q27 -11 33 -43.5t-17 -53.5q-49 -43 -198 -76q36 -20 47 -70.5t5.5 -100t-4.5 -93t18 -50.5q11 -5 38 24t61 78l64.5 96l58.5 92.5t32 51.5q6 8 14 2q7 -7 2 -14q-8 -12 -49.5 -78.5l-75.5 -118t-74.5 -100.5t-61.5 -53
q-40 -2 -56.5 25.5t-15.5 70t5 87.5t-2 84.5t-30 53.5q-6 4 -15 8q-6 3 -8.5 4.5t-1.5 3.5q3 7 43 20.5t92.5 34.5t79.5 44q18 16 20 33.5t-16 21.5q-12 2 -31.5 -5.5t-46 -26l-46.5 -33.5l-52.5 -40.5l-43.5 -34.5q-76 -160 -102 -263q-8 -12 -19.5 -11t-14.5 12
q12 111 119 330q-113 -41 -236 -36q-60 2 -122.5 15.5t-123 41.5t-105 66.5t-66 96.5t-8.5 125q19 75 83 125q62 49 145.5 50t142.5 -39q45 -29 68.5 -74t16.5 -99q-9 -60 -68 -106q-40 -38 -62 -29q-15 6 -5 22q13 22 57 18q53 43 61 90q22 94 -81 161q-61 38 -131 39
t-135 -44q-66 -54 -77 -125t27.5 -134t110.5 -104q149 -84 307 -81q112 0 210 40q24 49 74 140q95 170 192.5 282.5t152.5 99.5q99 -24 -127 -287q-119 -139 -237 -247q-8 -8 -13 -12q-4 -2 -5 -2zM451 857q-47 -2 -132.5 -110.5t-173.5 -264.5l-56 -103q50 47 112 113
l128.5 143.5t103 140t18.5 81.5z" />
    <glyph glyph-name="l_2" unicode="&#xe03f;" horiz-adv-x="234" 
d="M70 344q-117 -246 -138 -345q-10 -53 14 -53.5t53 30.5q55 52 137 162.5t100 141.5q5 8 14 4q8 -6 3 -14q-6 -11 -19 -31l-35.5 -52.5l-46.5 -65l-52.5 -68t-54.5 -61.5t-52 -46.5t-44.5 -22t-32.5 12.5q-58 76 105 414q-107 -40 -232 -35q-60 2 -122.5 15.5t-123 41.5
t-105 66.5t-66 96.5t-8.5 125q19 75 83 125q62 49 145.5 50t142.5 -39q45 -29 68.5 -74t16.5 -99q-9 -60 -68 -106q-40 -38 -62 -29q-15 6 -5 22q13 22 57 18q53 43 61 90q22 94 -81 161q-61 38 -131 39t-135 -44q-66 -54 -77 -125t27.5 -134t110.5 -104q149 -84 307 -81
q107 0 206 38q48 95 75 141q95 170 192 282.5t153 99.5q95 -24 -114 -271q-118 -140 -242 -255zM454 867q-56 -3 -160.5 -146.5t-199.5 -328.5q50 48 112 113.5l128.5 142.5t102 138.5t17.5 80.5z" />
    <glyph glyph-name="m_2" unicode="&#xe040;" horiz-adv-x="697" 
d="M219 123q232 337 294 287q8 -6 9 -22t-5 -40t-15 -51.5t-22 -63.5l-25.5 -69l-27.5 -73.5t-25 -72.5q-27 -85 6 -79q38 7 128 117q47 59 96.5 129t61.5 90q5 8 14 3q10 -4 3 -13q-59 -99 -146 -207q-148 -185 -191 -127q-13 17 -16 45t7 70l17 70.5t29.5 83t28.5 68
l28 63.5q5 11 7 16q19 40 8.5 44t-44.5 -25q-35 -28 -80 -86t-104 -144.5t-67 -97.5l-7 -24l-5 -14l-39 -1q6 100 107 312q18 37 11.5 43.5t-43.5 -19.5q-37 -27 -89.5 -92.5t-104.5 -138.5t-67 -91q-1 -3 -4 -14q-13 -13 -39 -1q3 49 28 123t39.5 105l43.5 93
q-112 -43 -241 -38q-60 2 -122.5 15.5t-123 41.5t-105 66.5t-66 96.5t-8.5 125q19 75 83 125q62 49 145.5 50t142.5 -39q45 -29 68.5 -74t16.5 -99q-9 -60 -68 -106q-40 -38 -62 -29q-15 6 -5 22q13 22 57 18q53 43 61 90q22 94 -81 161q-61 38 -131 39t-135 -44
q-66 -54 -77 -125t27.5 -134t110.5 -104q149 -84 307 -81q112 0 214 41q24 52 33 26q1 -13 2 -21.5t-4.5 -29l-10 -36t-14.5 -42l-18 -46.5l-19.5 -50t-19.5 -53q243 340 306 289q5 -4 7.5 -10.5t2 -17t-2 -20.5t-6 -26t-9 -29l-12 -33.5l-13 -35.5l-15 -39z" />
    <glyph glyph-name="n_2" unicode="&#xe041;" horiz-adv-x="482" 
d="M-10 100q208 302 285 318q16 4 27 -5q8 -6 9 -22t-5 -40t-15 -51.5t-22 -63.5l-25.5 -69l-27.5 -73.5t-25 -72.5q-27 -85 6 -79q38 7 128 117q47 59 96.5 129t61.5 90q5 8 14 3q8 -4 3 -13q-59 -99 -146 -207q-148 -185 -191 -127q-14 18 -16 49t8 72.5t20.5 77t31 85
l30.5 72l27 59.5q36 80 -38 19q-37 -31 -90 -101t-105 -147.5t-68 -97.5l-1 -3q-1 -3 -4 -14q-14 -14 -39 -1q1 17 4 36t9 40.5l11 38.5t14.5 41l15 37.5t16.5 38.5l14.5 32.5l14.5 31.5l11 23q-116 -44 -243 -39q-60 2 -122.5 15.5t-123 41.5t-105 66.5t-66 96.5t-8.5 125
q19 75 83 125q62 49 145.5 50t142.5 -39q45 -29 68.5 -74t16.5 -99q-9 -60 -68 -106q-40 -38 -62 -29q-15 6 -5 22q13 22 57 18q53 43 61 90q22 94 -81 161q-61 38 -131 39t-135 -44q-66 -54 -77 -125t27.5 -134t110.5 -104q149 -84 307 -81q115 0 216 42q25 55 34 28
q1 -13 2.5 -20.5t-4 -28.5t-10 -34.5t-14 -40t-17 -45l-19 -48.5z" />
    <glyph glyph-name="o_2" unicode="&#xe042;" horiz-adv-x="335" 
d="M122 393q-41 -30 -92 -130q-70 -134 -53 -201q9 -39 49 -42q53 7 108 73t87 157q-51 42 -72.5 96.5t-13 93t35.5 46.5q38 10 60 -14.5t25.5 -66.5t-0.5 -82t-12 -66q28 -20 52 -21.5t41.5 10.5t34.5 36q8 7 14 4.5t6 -9.5q-65 -99 -154 -40q-39 -107 -106 -177t-128 -59
q-63 12 -68.5 85t31 156.5t87.5 134.5q-105 -32 -213 -28q-60 2 -122.5 15.5t-123 41.5t-105 66.5t-66 96.5t-8.5 125q19 75 83 125q62 49 145.5 50t142.5 -39q45 -29 68.5 -74t16.5 -99q-9 -60 -68 -106q-40 -38 -62 -29q-15 6 -5 22q13 22 57 18q53 43 61 90
q22 94 -81 161q-61 38 -131 39t-135 -44q-66 -54 -77 -125t27.5 -134t110.5 -104q149 -84 307 -81q111 0 213 41q11 14 30 8q17 -5 3 -20zM228 270q15 50 11 118q-5 85 -50 80q-6 -1 -13 -3q-20 -7 -24.5 -38.5t15 -76.5t61.5 -80z" />
    <glyph glyph-name="p_2" unicode="&#xe043;" horiz-adv-x="410" 
d="M56 405l14 24q7 7 19 4t20.5 -13t2.5 -18q-31 -43 -142 -284q8 -59 37 -80q36 -22 84 22.5t88 121.5q-90 20 -94 90q-3 56 45 107q44 47 83 36q12 -4 21 -14q26 -32 25 -84.5t-24 -115.5q34 2 68 14.5t56.5 26t58.5 38.5q9 5 14 -2q5 -9 -2 -14q-123 -84 -204 -86
q-41 -99 -106 -150.5t-124 -5.5q-26 20 -39 68l-44 -93.5l-45.5 -94.5l-48.5 -95.5l-48.5 -90t-50.5 -84.5l-50 -73t-50 -61.5t-48.5 -43t-48 -25t-44.5 -0.5q-98 26 124 285q120 140 240 250l95.5 201t107.5 221q-108 -38 -228 -33q-60 2 -122.5 15.5t-123 41.5t-105 66.5
t-66 96.5t-8.5 125q19 75 83 125q62 49 145.5 50t142.5 -39q45 -29 68.5 -74t16.5 -99q-9 -60 -68 -106q-40 -38 -62 -29q-15 6 -5 22q13 22 57 18q53 43 61 90q22 94 -81 161q-61 38 -131 39t-135 -44q-66 -54 -77 -125t27.5 -134t110.5 -104q149 -84 307 -81q104 0 203 37
zM-525 -547q47 2 108 71.5t115 162.5t120 226l-113.5 -117l-121.5 -137t-94 -130.5t-14 -75.5zM215 393q-25 18 -65 -21q-43 -43 -45 -92q-3 -62 75 -77q4 0 9 -1q30 67 38.5 118.5t-12.5 72.5z" />
    <glyph glyph-name="q_2" unicode="&#xe044;" horiz-adv-x="506" 
d="M411 398q-47 -67 -158.5 -279t-204 -425.5t-75.5 -248.5q21 -36 79 39q67 85 142 258.5t80 260.5q-28 -7 -48.5 10t0.5 42q12 17 35.5 11t29.5 -37q31 14 72 60t87.5 108.5t60.5 79.5q7 7 14 2t2 -14l-54 -74t-94.5 -115.5t-86.5 -66.5q0 -74 -55 -219t-130 -262.5
t-122 -111.5q-46 2 -48.5 59t35 157t84.5 199.5t113 222.5q-81 -67 -125 -51q-34 12 -40.5 55t10.5 96.5t49 109.5q-3 0 -7 0.5t-7 0.5q-60 2 -122.5 15.5t-123 41.5t-105 66.5t-66 96.5t-8.5 125q19 75 83 125q62 49 145.5 50t142.5 -39q45 -29 68.5 -74t16.5 -99
q-9 -60 -68 -106q-40 -38 -62 -29q-15 6 -5 22q13 22 57 18q53 43 61 90q22 94 -81 161q-61 38 -131 39t-135 -44q-66 -54 -77 -125t27.5 -134t110.5 -104q145 -81 295 -81q31 48 65 82t68.5 49t65.5 -4t49 -76q44 83 49 94q3 3 19 -1t21 -7q3 -2 4 -9t-2 -10zM196 106
l111 201q0 1 -0.5 1t-0.5 1q-86 -35 -187 -43q-71 -113 -83 -191q-8 -56 26 -55q32 1 86 43q21 16 48 43zM302 323q-13 45 -41 66q-21 14 -57 -17t-75 -90q89 6 173 41zM273 23q-5 31 -35 19q-9 -3 0 -12q12 -12 35 -7z" />
    <glyph glyph-name="r_2" unicode="&#xe045;" horiz-adv-x="364" 
d="M231 393q-33 -40 -94.5 -178t-76.5 -218q-11 -53 13 -53t53 31q97 94 240 304q6 8 13 3q8 -5 4 -13q-86 -128 -141 -198q-155 -193 -199 -136q-14 18 -15.5 52.5t9.5 77t26.5 87t37 92l39 83l34.5 67.5q-47 -19 -75 -8q-121 -53 -267 -48q-60 2 -122.5 15.5t-123 41.5
t-105 66.5t-66 96.5t-8.5 125q19 75 83 125q62 49 145.5 50t142.5 -39q45 -29 68.5 -74t16.5 -99q-9 -60 -68 -106q-40 -38 -62 -29q-15 6 -5 22q13 22 57 18q53 43 61 90q22 94 -81 161q-61 38 -131 39t-135 -44q-66 -54 -77 -125t27.5 -134t110.5 -104q149 -84 307 -81
q114 0 215 49q-16 21 -11 57t18.5 71t37 61t45.5 27q82 4 -63 -214q21 -10 60 8q2 0 9 3.5t12 5.5q8 6 19.5 3t19.5 -13t2 -18zM94 420q124 187 77 178q-33 -7 -63 -74.5t-14 -103.5z" />
    <glyph glyph-name="s_2" unicode="&#xe046;" horiz-adv-x="376" 
d="M113 428l-4 8q-35 80 17 151q32 44 69 50q32 4 32 -31v-2q0 -44 -78 -152l61 -121q31 10 64 13t52 1t63 -7q10 -2 8 -11q-2 -10 -11 -8q-90 10 -129 4q-19 -3 -38 -9q40 -91 12.5 -161t-85 -112.5t-108.5 -40.5q-35 1 -49 22q-31 49 -4.5 109.5t80.5 114.5t103 73
q-12 22 -49 96q-120 -50 -259 -45q-60 2 -122.5 15.5t-123 41.5t-105 66.5t-66 96.5t-8.5 125q19 75 83 125q62 49 145.5 50t142.5 -39q45 -29 68.5 -74t16.5 -99q-9 -60 -68 -106q-40 -38 -62 -29q-15 6 -5 22q13 22 57 18q53 43 61 90q22 94 -81 161q-61 38 -131 39
t-135 -44q-66 -54 -77 -125t27.5 -134t110.5 -104q149 -84 307 -81q116 0 218 43zM177 301q-42 -16 -92 -62t-78 -104t-4 -97q15 -24 59 -12q42 11 79 50t53 97.5t-17 127.5zM140 475q92 129 63 144q-9 5 -30 -11t-35 -48t2 -85z" />
    <glyph glyph-name="t_2" unicode="&#xe047;" horiz-adv-x="244" 
d="M261 652q-13 -18 -74 -120q32 -12 48 -16t35 0t29 23q3 8 12 5q10 -4 6 -13q-21 -39 -60 -37q-56 -23 -112 -37q-62 -111 -100 -186q-81 -169 -101 -268q-13 -66 23 -52q39 15 107 94q74 89 174 239q5 8 14 3q8 -4 3 -13q-18 -31 -56 -85.5t-96 -129t-110 -112t-76 -7.5
q-57 74 87 371q34 74 64 132q-58 -9 -104 -8q-60 2 -122.5 15.5t-123 41.5t-105 66.5t-66 96.5t-8.5 125q19 75 83 125q62 49 145.5 50t142.5 -39q45 -29 68.5 -74t16.5 -99q-9 -60 -68 -106q-40 -38 -62 -29q-15 6 -5 22q13 22 57 18q53 43 61 90q22 94 -81 161
q-61 38 -131 39t-135 -44q-66 -54 -77 -125t27.5 -134t110.5 -104q149 -84 307 -81q34 0 77 8q26 50 39 73q-72 18 -109 -31q-5 -9 -13 -3q-8 5 -3 14q45 60 135 38q55 98 70 120q1 4 16.5 4t19.5 -2q1 0 4 -2.5l5.5 -4.5t5.5 -4t4.5 -4.5t0.5 -3.5zM229 498q-27 6 -52 16
q-5 -7 -12.5 -22t-10.5 -19q46 14 75 25z" />
    <glyph glyph-name="u_2" unicode="&#xe048;" 
d="M316 398q-33 -41 -94.5 -178.5t-77.5 -217.5q-7 -36 2.5 -47t27 -3t37.5 28q55 52 137.5 162.5t99.5 140.5q5 8 14 4q8 -5 3 -14q-6 -11 -19 -31l-35.5 -52.5l-46.5 -64.5l-52.5 -68t-54.5 -62t-52 -46t-44.5 -21.5t-32.5 12.5q-40 52 24 226l-30 -37q-73 -90 -123 -118
q-21 -11 -35.5 -10.5t-23 11.5t-12.5 26.5t-4.5 35t0.5 35.5t4 30q23 107 101 250q-113 -42 -239 -37q-60 2 -122.5 15.5t-123 41.5t-105 66.5t-66 96.5t-8.5 125q19 75 83 125q62 49 145.5 50t142.5 -39q45 -29 68.5 -74t16.5 -99q-9 -60 -68 -106q-40 -38 -62 -29
q-15 6 -5 22q13 22 57 18q53 43 61 90q22 94 -81 161q-61 38 -131 39t-135 -44q-66 -54 -77 -125t27.5 -134t110.5 -104q149 -84 307 -81q112 0 214 41l10 17q7 7 19 4t20.5 -13t2.5 -18q-29 -36 -70 -129.5t-57 -164.5q-21 -89 14.5 -81.5t123.5 114.5l82 109q40 90 90 179
q7 7 19 4t20.5 -13.5t2.5 -17.5z" />
    <glyph glyph-name="v_2" unicode="&#xe049;" horiz-adv-x="437" 
d="M123 424q-41 -83 -97.5 -230t-39.5 -174q26 8 99.5 82t152.5 164q-10 67 9 149.5t56 136.5t74 45q38 -9 40 -48.5t-24.5 -91.5t-48 -87t-40.5 -60q-4 -6 -45 -52q39 -169 186 26q6 9 20 28q6 8 13 2q7 -5 0 -14q-14 -23 -31.5 -46t-40 -47t-46 -37t-45.5 -15t-41 19.5
t-30 65.5q-225 -246 -263 -240q-25 5 -25.5 51t18.5 113t39.5 125.5t41.5 106.5q-112 -40 -233 -35q-60 2 -122.5 15.5t-123 41.5t-105 66.5t-66 96.5t-8.5 125q19 75 83 125q62 49 145.5 50t142.5 -39q45 -29 68.5 -74t16.5 -99q-9 -60 -68 -106q-40 -38 -62 -29
q-15 6 -5 22q13 22 57 18q53 43 61 90q22 94 -81 161q-61 38 -131 39t-135 -44q-66 -54 -77 -125t27.5 -134t110.5 -104q149 -84 307 -81q108 0 207 38l10 21q2 3 20.5 3t21.5 -2q10 -8 7 -12zM255 286q46 53 60 73q10 15 26.5 44t36.5 72t19 73t-31 30q-26 0 -53.5 -47.5
t-44.5 -117t-13 -127.5z" />
    </font>
</defs>
</svg>
