<?xml version="1.0" standalone="no"?>
<!DOCTYPE svg PUBLIC "-//W3C//DTD SVG 1.1//EN" "http://www.w3.org/Graphics/SVG/1.1/DTD/svg11.dtd" >
<svg xmlns="http://www.w3.org/2000/svg" xmlns:xlink="http://www.w3.org/1999/xlink" version="1.1">
<metadata>
Created by FontForge 20201107 at Wed Aug  4 17:12:24 2021
 By Unknown
Copyright 2010 The Josefin Sans Project Authors (https://github.com/ThomasJockin/JosefinSansFont-master), with Reserved Font Name "Josefin Sans".
</metadata>
<defs>
<font id="JosefinSans-LightItalic" horiz-adv-x="865" >
  <font-face 
    font-family="Josefin Sans Light"
    font-weight="300"
    font-style="italic"
    font-stretch="normal"
    units-per-em="1000"
    panose-1="0 0 0 0 0 0 0 0 0 0"
    ascent="750"
    descent="-250"
    x-height="391"
    cap-height="710"
    bbox="-98 -297 1401 1199"
    underline-thickness="50"
    underline-position="-125"
    slope="-7"
    unicode-range="U+000D-FB02"
  />
<missing-glyph horiz-adv-x="300" 
 />
    <glyph glyph-name="fi" unicode="fi" horiz-adv-x="536" 
d="M91 0l42 347h-67l5 43h67l24 197q11 94 49 135.5t102 41.5q14 0 29.5 -3.5t28.5 -11.5l-25 -34q-6 5 -14 7.5t-19 2.5q-43 0 -68.5 -30t-34.5 -107l-25 -198h126l-5 -43h-126l-42 -347h-47zM411 391h47l-48 -391h-47zM416 515q1 14 13.5 24t26.5 9q13 0 22.5 -9.5
t7.5 -23.5q-1 -15 -13 -24.5t-26 -9.5q-13 1 -22.5 11t-8.5 23z" />
    <glyph glyph-name="fl" unicode="fl" horiz-adv-x="527" 
d="M91 0l42 347h-67l5 43h67l24 197q11 94 49 135.5t102 41.5q14 0 29.5 -3.5t28.5 -11.5l-25 -34q-6 5 -14 7.5t-19 2.5q-43 0 -68.5 -30t-34.5 -107l-25 -198h126l-5 -43h-126l-42 -347h-47zM459 760h48l-94 -760h-47z" />
    <glyph glyph-name=".notdef" horiz-adv-x="300" 
 />
    <glyph glyph-name="A" unicode="A" horiz-adv-x="706" 
d="M75 0h-49l391 741h4l209 -741h-55l-182 657l37 19zM206 281h315l8 -46h-341z" />
    <glyph glyph-name="Agrave" unicode="&#xc0;" horiz-adv-x="706" 
d="M75 0h-49l391 741h4l209 -741h-55l-182 657l37 19zM206 281h315l8 -46h-341zM378 955l70 -133h-34l-89 133h53z" />
    <glyph glyph-name="Aacute" unicode="&#xc1;" horiz-adv-x="706" 
d="M75 0h-49l391 741h4l209 -741h-55l-182 657l37 19zM206 281h315l8 -46h-341zM567 955l-117 -133h-34l99 133h52z" />
    <glyph glyph-name="Acircumflex" unicode="&#xc2;" horiz-adv-x="706" 
d="M75 0h-49l391 741h4l209 -741h-55l-182 657l37 19zM206 281h315l8 -46h-341zM518 822l-83 137l16 3l-118 -140h-45l159 181v0l116 -181h-45z" />
    <glyph glyph-name="Atilde" unicode="&#xc3;" horiz-adv-x="706" 
d="M75 0h-49l391 741h4l209 -741h-55l-182 657l37 19zM206 281h315l8 -46h-341zM508 786q-31 2 -49 18t-33 35q-11 15 -23 28t-32 14q-12 1 -25.5 -7.5t-24 -27.5t-16.5 -53l-32 4q5 41 20.5 68.5t37.5 41.5t46 12q29 -1 46 -17.5t30 -35.5q12 -16 25.5 -29t32.5 -14
q14 -1 26.5 7t21.5 28t14 53l32 -3q-4 -42 -18 -69.5t-34.5 -40.5t-44.5 -12z" />
    <glyph glyph-name="Adieresis" unicode="&#xc4;" horiz-adv-x="706" 
d="M75 0h-49l391 741h4l209 -741h-55l-182 657l37 19zM206 281h315l8 -46h-341zM316 854q1 14 12 23.5t24 9.5q13 -1 22.5 -11t8.5 -24q-1 -15 -12 -24.5t-24 -8.5q-13 0 -22.5 10.5t-8.5 24.5v0zM490 854q1 14 12 23.5t24 9.5q13 -1 22.5 -11t8.5 -24q-1 -15 -12 -24.5
t-24 -8.5q-13 0 -22.5 10t-8.5 25v0z" />
    <glyph glyph-name="Aring" unicode="&#xc5;" horiz-adv-x="706" 
d="M75 0h-49l391 741h4l209 -741h-55l-182 657l37 19zM206 281h315l8 -46h-341zM359 833q2 36 25.5 56.5t56.5 19.5q32 -1 52.5 -21t18.5 -51q-1 -36 -25 -56.5t-57 -19.5q-32 1 -52 21t-19 51zM389 833q0 -19 12 -32t31 -14q20 0 34.5 13t15.5 35q1 20 -11 33t-31 13
q-19 1 -34.5 -12t-16.5 -36z" />
    <glyph glyph-name="Amacron" unicode="&#x100;" horiz-adv-x="706" 
d="M75 0h-49l391 741h4l209 -741h-55l-182 657l37 19zM206 281h315l8 -46h-341zM321 859h231l-3 -30h-232z" />
    <glyph glyph-name="Abreve" unicode="&#x102;" horiz-adv-x="706" 
d="M75 0h-49l391 741h4l209 -741h-55l-182 657l37 19zM206 281h315l8 -46h-341zM434 803q-16 0 -37.5 7.5t-41.5 25.5t-31.5 50.5t-8.5 83.5h34q-3 -53 13 -81.5t38.5 -39t36.5 -11.5q30 0 52 17.5t37 48t21 66.5h35q-8 -51 -28.5 -89t-50.5 -58.5t-69 -19.5z" />
    <glyph glyph-name="Aogonek" unicode="&#x104;" horiz-adv-x="706" 
d="M75 0h-49l391 741h4l209 -741h-55l-182 657l37 19zM206 281h315l8 -46h-341zM569 -195q-34 1 -59.5 25t-25.5 62q0 24 12.5 47t35 43t51.5 33l47 -14q-49 -23 -76 -48.5t-28 -54.5q-1 -28 15 -42.5t36 -14.5q20 -1 36 12t29 33l19 -24q-14 -24 -39 -41t-53 -16z" />
    <glyph glyph-name="Aringacute" unicode="&#x1fa;" horiz-adv-x="706" 
d="M75 0h-49l391 741h4l209 -741h-55l-182 657l37 19zM206 281h315l8 -46h-341zM359 833q2 36 25.5 56.5t56.5 19.5q32 -1 52.5 -21t18.5 -51q-1 -36 -25 -56.5t-57 -19.5q-32 1 -52 21t-19 51zM389 833q0 -19 12 -32t31 -14q20 0 34.5 13t15.5 35q1 20 -11 33t-31 13
q-19 1 -34.5 -12t-16.5 -36zM589 1133l-117 -133h-34l99 133h52z" />
    <glyph glyph-name="uni0200" unicode="&#x200;" horiz-adv-x="706" 
d="M75 0h-49l391 741h4l209 -741h-55l-182 657l37 19zM206 281h315l8 -46h-341zM332 955l70 -133h-34l-89 133h53zM434 955l70 -133h-34l-89 133h53z" />
    <glyph glyph-name="uni0202" unicode="&#x202;" horiz-adv-x="706" 
d="M75 0h-49l391 741h4l209 -741h-55l-182 657l37 19zM206 281h315l8 -46h-341zM450 940q16 0 37.5 -7.5t41.5 -25.5t31.5 -50.5t8.5 -83.5h-34q4 53 -12.5 81.5t-38.5 39.5t-37 11q-29 1 -51.5 -17t-37 -48t-21.5 -67h-35q8 51 28.5 89t51 58.5t68.5 19.5z" />
    <glyph glyph-name="uni1EA0" unicode="&#x1ea0;" horiz-adv-x="706" 
d="M75 0h-49l391 741h4l209 -741h-55l-182 657l37 19zM206 281h315l8 -46h-341zM281 -95q1 14 13.5 24t26.5 9q13 0 22.5 -9.5t7.5 -23.5q-1 -15 -13 -24.5t-26 -9.5q-13 1 -22.5 11t-8.5 23z" />
    <glyph glyph-name="uni1EA2" unicode="&#x1ea2;" horiz-adv-x="706" 
d="M75 0h-49l391 741h4l209 -741h-55l-182 657l37 19zM206 281h315l8 -46h-341zM412 797q24 17 40.5 31t19.5 33q2 20 -5.5 33t-29.5 14q-17 1 -29.5 -6.5t-27.5 -24.5l-19 14q19 25 39.5 36.5t44.5 9.5q27 -1 44 -17.5t13 -50.5q-2 -26 -22.5 -46.5t-55.5 -41.5z" />
    <glyph glyph-name="uni1EA4" unicode="&#x1ea4;" horiz-adv-x="706" 
d="M75 0h-49l391 741h4l209 -741h-55l-182 657l37 19zM206 281h315l8 -46h-341zM490 822l-83 137l16 3l-118 -140h-45l159 181v0l116 -181h-45zM655 1113l-117 -133h-34l99 133h52z" />
    <glyph glyph-name="uni1EA6" unicode="&#x1ea6;" horiz-adv-x="706" 
d="M75 0h-49l391 741h4l209 -741h-55l-182 657l37 19zM206 281h315l8 -46h-341zM516 777l-83 137l16 3l-118 -140h-45l159 181v0l116 -181h-45zM271 1020l70 -133h-34l-89 133h53z" />
    <glyph glyph-name="uni1EA8" unicode="&#x1ea8;" horiz-adv-x="706" 
d="M75 0h-49l391 741h4l209 -741h-55l-182 657l37 19zM206 281h315l8 -46h-341zM511 777l-83 137l16 3l-118 -140h-45l159 181v0l116 -181h-45zM547 897q24 17 40.5 31t19.5 33q2 20 -5.5 33t-29.5 14q-17 1 -29.5 -6.5t-27.5 -24.5l-19 14q19 25 39.5 36.5t44.5 9.5
q27 -1 44 -17.5t13 -50.5q-2 -26 -22.5 -46.5t-55.5 -41.5z" />
    <glyph glyph-name="uni1EAA" unicode="&#x1eaa;" horiz-adv-x="706" 
d="M75 0h-49l391 741h4l209 -741h-55l-182 657l37 19zM206 281h315l8 -46h-341zM529 1003q-30 2 -47 17.5t-31 33.5q-11 14 -22.5 26.5t-30.5 13.5q-11 1 -24 -7t-23 -26.5t-15 -50.5l-31 4q5 39 19.5 65.5t35.5 39.5t44 11q28 -1 44 -16.5t29 -33.5q11 -15 23.5 -28
t31.5 -13q20 -2 36 17t23 67l31 -3q-4 -40 -17.5 -66.5t-33 -39t-42.5 -11.5zM516 770l-83 137l16 3l-118 -140h-45l159 181v0l116 -181h-45z" />
    <glyph glyph-name="uni1EAC" unicode="&#x1eac;" horiz-adv-x="706" 
d="M75 0h-49l391 741h4l209 -741h-55l-182 657l37 19zM206 281h315l8 -46h-341zM281 -95q1 14 13.5 24t26.5 9q13 0 22.5 -9.5t7.5 -23.5q-1 -15 -13 -24.5t-26 -9.5q-13 1 -22.5 11t-8.5 23zM518 822l-83 137l16 3l-118 -140h-45l159 181v0l116 -181h-45z" />
    <glyph glyph-name="uni1EAE" unicode="&#x1eae;" horiz-adv-x="706" 
d="M75 0h-49l391 741h4l209 -741h-55l-182 657l37 19zM206 281h315l8 -46h-341zM436 833q-16 0 -37.5 7.5t-41.5 25.5t-31.5 50.5t-8.5 83.5h34q-3 -53 13 -81.5t38.5 -39t36.5 -11.5q30 0 52 17.5t37 48t21 66.5h35q-8 -51 -28.5 -89t-50.5 -58.5t-69 -19.5zM592 1199
l-117 -133h-34l99 133h52z" />
    <glyph glyph-name="uni1EB0" unicode="&#x1eb0;" horiz-adv-x="706" 
d="M75 0h-49l391 741h4l209 -741h-55l-182 657l37 19zM206 281h315l8 -46h-341zM434 833q-16 0 -37.5 7.5t-41.5 25.5t-31.5 50.5t-8.5 83.5h34q-3 -53 13 -81.5t38.5 -39t36.5 -11.5q30 0 52 17.5t37 48t21 66.5h35q-8 -51 -28.5 -89t-50.5 -58.5t-69 -19.5zM401 1133
l70 -133h-34l-89 133h53z" />
    <glyph glyph-name="uni1EB2" unicode="&#x1eb2;" horiz-adv-x="706" 
d="M75 0h-49l391 741h4l209 -741h-55l-182 657l37 19zM206 281h315l8 -46h-341zM434 803q-16 0 -37.5 7.5t-41.5 25.5t-31.5 50.5t-8.5 83.5h34q-3 -53 13 -81.5t38.5 -39t36.5 -11.5q30 0 52 17.5t37 48t21 66.5h35q-8 -51 -28.5 -89t-50.5 -58.5t-69 -19.5zM435 1026
q24 17 40.5 31t19.5 33q2 20 -5.5 33t-29.5 14q-17 1 -29.5 -6.5t-27.5 -24.5l-19 14q19 25 39.5 36.5t44.5 9.5q27 -1 44 -17.5t13 -50.5q-2 -26 -22.5 -46.5t-55.5 -41.5z" />
    <glyph glyph-name="uni1EB4" unicode="&#x1eb4;" horiz-adv-x="706" 
d="M75 0h-49l391 741h4l209 -741h-55l-182 657l37 19zM206 281h315l8 -46h-341zM512 1042q-30 2 -47 17.5t-31 33.5q-11 14 -22.5 26.5t-30.5 13.5q-11 1 -24 -7t-23 -26.5t-15 -50.5l-31 4q5 39 19.5 65.5t35.5 39.5t44 11q28 -1 44 -16.5t29 -33.5q11 -15 23.5 -28
t31.5 -13q20 -2 36 17t23 67l31 -3q-4 -40 -17.5 -66.5t-33 -39t-42.5 -11.5zM419 833q-16 0 -37.5 7.5t-41.5 25.5t-31.5 50.5t-8.5 83.5h34q-3 -53 13 -81.5t38.5 -39t36.5 -11.5q30 0 52 17.5t37 48t21 66.5h35q-8 -51 -28.5 -89t-50.5 -58.5t-69 -19.5z" />
    <glyph glyph-name="uni1EB6" unicode="&#x1eb6;" horiz-adv-x="706" 
d="M75 0h-49l391 741h4l209 -741h-55l-182 657l37 19zM206 281h315l8 -46h-341zM281 -95q1 14 13.5 24t26.5 9q13 0 22.5 -9.5t7.5 -23.5q-1 -15 -13 -24.5t-26 -9.5q-13 1 -22.5 11t-8.5 23zM434 803q-16 0 -37.5 7.5t-41.5 25.5t-31.5 50.5t-8.5 83.5h34q-3 -53 13 -81.5
t38.5 -39t36.5 -11.5q30 0 52 17.5t37 48t21 66.5h35q-8 -51 -28.5 -89t-50.5 -58.5t-69 -19.5z" />
    <glyph glyph-name="B" unicode="B" horiz-adv-x="590" 
d="M332 710q93 0 143.5 -34.5t50.5 -114.5q0 -40 -13 -83.5t-43.5 -77t-85.5 -44.5l-1 4q37 -6 67.5 -25.5t49.5 -51t19 -75.5q0 -52 -17 -91.5t-48 -65t-73.5 -38.5t-92.5 -13h-199l87 710h156zM319 378q50 0 81 19t47 46.5t22 56t6 47.5q0 62 -38 89.5t-109 27.5h-108
l-35 -286h134zM290 45q64 0 103.5 23t58 60.5t18.5 79.5q0 45 -24 73t-59.5 41t-72.5 13h-135l-34 -290h145z" />
    <glyph glyph-name="C" unicode="C" horiz-adv-x="697" 
d="M607 32q-22 -11 -50 -21.5t-60.5 -16.5t-68.5 -6q-69 0 -130.5 23t-108.5 66t-74 104.5t-27 138.5q0 50 12.5 104t40 105.5t72 92.5t108 65.5t148.5 24.5q63 0 116.5 -18.5t93.5 -47.5l-26 -43q-34 26 -81 43.5t-100 18.5q-89 1 -152.5 -29t-103.5 -80t-59 -111t-19 -122
q0 -64 22 -117t62 -91t93 -59t114 -21q32 0 60.5 6t53.5 15.5t46 19.5z" />
    <glyph glyph-name="Ccedilla" unicode="&#xc7;" horiz-adv-x="697" 
d="M607 32q-22 -11 -50 -21.5t-60.5 -16.5t-68.5 -6q-69 0 -130.5 23t-108.5 66t-74 104.5t-27 138.5q0 50 12.5 104t40 105.5t72 92.5t108 65.5t148.5 24.5q63 0 116.5 -18.5t93.5 -47.5l-26 -43q-34 26 -81 43.5t-100 18.5q-89 1 -152.5 -29t-103.5 -80t-59 -111t-19 -122
q0 -64 22 -117t62 -91t93 -59t114 -21q32 0 60.5 6t53.5 15.5t46 19.5zM322 -168q10 -12 27.5 -20.5t42.5 -10.5q35 -1 59.5 11.5t28.5 38.5q3 24 -13 41.5t-56 19.5q-16 1 -37 -2t-34 -8l-12 27l79 72l36 -6l-78 -80l-16 13q12 5 33.5 9t41.5 2q50 -2 76.5 -25.5
t21.5 -64.5q-3 -28 -21.5 -46t-46.5 -25.5t-61 -5.5q-31 2 -54 12.5t-36 24.5z" />
    <glyph glyph-name="Cacute" unicode="&#x106;" horiz-adv-x="697" 
d="M607 32q-22 -11 -50 -21.5t-60.5 -16.5t-68.5 -6q-69 0 -130.5 23t-108.5 66t-74 104.5t-27 138.5q0 50 12.5 104t40 105.5t72 92.5t108 65.5t148.5 24.5q63 0 116.5 -18.5t93.5 -47.5l-26 -43q-34 26 -81 43.5t-100 18.5q-89 1 -152.5 -29t-103.5 -80t-59 -111t-19 -122
q0 -64 22 -117t62 -91t93 -59t114 -21q32 0 60.5 6t53.5 15.5t46 19.5zM605 931l-117 -133h-34l99 133h52z" />
    <glyph glyph-name="Ccircumflex" unicode="&#x108;" horiz-adv-x="697" 
d="M607 32q-22 -11 -50 -21.5t-60.5 -16.5t-68.5 -6q-69 0 -130.5 23t-108.5 66t-74 104.5t-27 138.5q0 50 12.5 104t40 105.5t72 92.5t108 65.5t148.5 24.5q63 0 116.5 -18.5t93.5 -47.5l-26 -43q-34 26 -81 43.5t-100 18.5q-89 1 -152.5 -29t-103.5 -80t-59 -111t-19 -122
q0 -64 22 -117t62 -91t93 -59t114 -21q32 0 60.5 6t53.5 15.5t46 19.5zM556 798l-83 137l16 3l-118 -140h-45l159 181v0l116 -181h-45z" />
    <glyph glyph-name="Cdotaccent" unicode="&#x10a;" horiz-adv-x="697" 
d="M607 32q-22 -11 -50 -21.5t-60.5 -16.5t-68.5 -6q-69 0 -130.5 23t-108.5 66t-74 104.5t-27 138.5q0 50 12.5 104t40 105.5t72 92.5t108 65.5t148.5 24.5q63 0 116.5 -18.5t93.5 -47.5l-26 -43q-34 26 -81 43.5t-100 18.5q-89 1 -152.5 -29t-103.5 -80t-59 -111t-19 -122
q0 -64 22 -117t62 -91t93 -59t114 -21q32 0 60.5 6t53.5 15.5t46 19.5zM439 831q1 14 13.5 24t26.5 9q13 0 22.5 -9.5t7.5 -23.5q-1 -15 -13 -24.5t-26 -9.5q-13 1 -22.5 11t-8.5 23z" />
    <glyph glyph-name="Ccaron" unicode="&#x10c;" horiz-adv-x="697" 
d="M607 32q-22 -11 -50 -21.5t-60.5 -16.5t-68.5 -6q-69 0 -130.5 23t-108.5 66t-74 104.5t-27 138.5q0 50 12.5 104t40 105.5t72 92.5t108 65.5t148.5 24.5q63 0 116.5 -18.5t93.5 -47.5l-26 -43q-34 26 -81 43.5t-100 18.5q-89 1 -152.5 -29t-103.5 -80t-59 -111t-19 -122
q0 -64 22 -117t62 -91t93 -59t114 -21q32 0 60.5 6t53.5 15.5t46 19.5zM401 951l83 -137l-17 -2l120 139h45l-160 -181h-1l-115 181h45z" />
    <glyph glyph-name="D" unicode="D" horiz-adv-x="738" 
d="M89 0l87 710h163q103 0 171.5 -27.5t108.5 -74t56 -106t13 -123.5q-2 -91 -34 -162t-87 -119t-126.5 -73t-154.5 -25h-197zM143 47h147q71 0 133.5 21t110.5 63t75.5 104.5t29.5 144.5q2 63 -14 114.5t-52 89t-91 58t-131 20.5h-133z" />
    <glyph glyph-name="Dcaron" unicode="&#x10e;" horiz-adv-x="738" 
d="M89 0l87 710h163q103 0 171.5 -27.5t108.5 -74t56 -106t13 -123.5q-2 -91 -34 -162t-87 -119t-126.5 -73t-154.5 -25h-197zM143 47h147q71 0 133.5 21t110.5 63t75.5 104.5t29.5 144.5q2 63 -14 114.5t-52 89t-91 58t-131 20.5h-133zM342 944l83 -137l-17 -2l120 139h45
l-160 -181h-1l-115 181h45z" />
    <glyph glyph-name="E" unicode="E" horiz-adv-x="639" 
d="M176 710h438l-6 -46h-388l-35 -284h349l-6 -46h-349l-34 -287h402l-6 -47h-452z" />
    <glyph glyph-name="Egrave" unicode="&#xc8;" horiz-adv-x="639" 
d="M176 710h438l-6 -46h-388l-35 -284h349l-6 -46h-349l-34 -287h402l-6 -47h-452zM340 932l70 -133h-34l-89 133h53z" />
    <glyph glyph-name="Eacute" unicode="&#xc9;" horiz-adv-x="639" 
d="M176 710h438l-6 -46h-388l-35 -284h349l-6 -46h-349l-34 -287h402l-6 -47h-452zM529 932l-117 -133h-34l99 133h52z" />
    <glyph glyph-name="Ecircumflex" unicode="&#xca;" horiz-adv-x="639" 
d="M176 710h438l-6 -46h-388l-35 -284h349l-6 -46h-349l-34 -287h402l-6 -47h-452zM480 799l-83 137l16 3l-118 -140h-45l159 181v0l116 -181h-45z" />
    <glyph glyph-name="Edieresis" unicode="&#xcb;" horiz-adv-x="639" 
d="M176 710h438l-6 -46h-388l-35 -284h349l-6 -46h-349l-34 -287h402l-6 -47h-452zM278 831q1 14 12 23.5t24 9.5q13 -1 22.5 -11t8.5 -24q-1 -15 -12 -24.5t-24 -8.5q-13 0 -22.5 10.5t-8.5 24.5v0zM452 831q1 14 12 23.5t24 9.5q13 -1 22.5 -11t8.5 -24q-1 -15 -12 -24.5
t-24 -8.5q-13 0 -22.5 10t-8.5 25v0z" />
    <glyph glyph-name="Emacron" unicode="&#x112;" horiz-adv-x="639" 
d="M176 710h438l-6 -46h-388l-35 -284h349l-6 -46h-349l-34 -287h402l-6 -47h-452zM283 836h231l-3 -30h-232z" />
    <glyph glyph-name="Ebreve" unicode="&#x114;" horiz-adv-x="639" 
d="M176 710h438l-6 -46h-388l-35 -284h349l-6 -46h-349l-34 -287h402l-6 -47h-452zM396 780q-16 0 -37.5 7.5t-41.5 25.5t-31.5 50.5t-8.5 83.5h34q-3 -53 13 -81.5t38.5 -39t36.5 -11.5q30 0 52 17.5t37 48t21 66.5h35q-8 -51 -28.5 -89t-50.5 -58.5t-69 -19.5z" />
    <glyph glyph-name="Edotaccent" unicode="&#x116;" horiz-adv-x="639" 
d="M176 710h438l-6 -46h-388l-35 -284h349l-6 -46h-349l-34 -287h402l-6 -47h-452zM363 832q1 14 13.5 24t26.5 9q13 0 22.5 -9.5t7.5 -23.5q-1 -15 -13 -24.5t-26 -9.5q-13 1 -22.5 11t-8.5 23z" />
    <glyph glyph-name="Eogonek" unicode="&#x118;" horiz-adv-x="639" 
d="M176 710h438l-6 -46h-388l-35 -284h349l-6 -46h-349l-34 -287h402l-6 -47h-452zM480 -195q-34 1 -59.5 25t-25.5 62q0 24 12.5 47t35 43t51.5 33l47 -14q-49 -23 -76 -48.5t-28 -54.5q-1 -28 15 -42.5t36 -14.5q20 -1 36 12t29 33l19 -24q-14 -24 -39 -41t-53 -16z" />
    <glyph glyph-name="Ecaron" unicode="&#x11a;" horiz-adv-x="639" 
d="M176 710h438l-6 -46h-388l-35 -284h349l-6 -46h-349l-34 -287h402l-6 -47h-452zM325 952l83 -137l-17 -2l120 139h45l-160 -181h-1l-115 181h45z" />
    <glyph glyph-name="uni0204" unicode="&#x204;" horiz-adv-x="639" 
d="M176 710h438l-6 -46h-388l-35 -284h349l-6 -46h-349l-34 -287h402l-6 -47h-452zM294 932l70 -133h-34l-89 133h53zM396 932l70 -133h-34l-89 133h53z" />
    <glyph glyph-name="uni0206" unicode="&#x206;" horiz-adv-x="639" 
d="M176 710h438l-6 -46h-388l-35 -284h349l-6 -46h-349l-34 -287h402l-6 -47h-452zM412 917q16 0 37.5 -7.5t41.5 -25.5t31.5 -50.5t8.5 -83.5h-34q4 53 -12.5 81.5t-38.5 39.5t-37 11q-29 1 -51.5 -17t-37 -48t-21.5 -67h-35q8 51 28.5 89t51 58.5t68.5 19.5z" />
    <glyph glyph-name="uni1EB8" unicode="&#x1eb8;" horiz-adv-x="639" 
d="M176 710h438l-6 -46h-388l-35 -284h349l-6 -46h-349l-34 -287h402l-6 -47h-452zM259 -95q1 14 13.5 24t26.5 9q13 0 22.5 -9.5t7.5 -23.5q-1 -15 -13 -24.5t-26 -9.5q-13 1 -22.5 11t-8.5 23z" />
    <glyph glyph-name="uni1EBA" unicode="&#x1eba;" horiz-adv-x="639" 
d="M176 710h438l-6 -46h-388l-35 -284h349l-6 -46h-349l-34 -287h402l-6 -47h-452zM374 774q24 17 40.5 31t19.5 33q2 20 -5.5 33t-29.5 14q-17 1 -29.5 -6.5t-27.5 -24.5l-19 14q19 25 39.5 36.5t44.5 9.5q27 -1 44 -17.5t13 -50.5q-2 -26 -22.5 -46.5t-55.5 -41.5z" />
    <glyph glyph-name="uni1EBC" unicode="&#x1ebc;" horiz-adv-x="639" 
d="M176 710h438l-6 -46h-388l-35 -284h349l-6 -46h-349l-34 -287h402l-6 -47h-452zM470 763q-31 2 -49 18t-33 35q-11 15 -23 28t-32 14q-12 1 -25.5 -7.5t-24 -27.5t-16.5 -53l-32 4q5 41 20.5 68.5t37.5 41.5t46 12q29 -1 46 -17.5t30 -35.5q12 -16 25.5 -29t32.5 -14
q14 -1 26.5 7t21.5 28t14 53l32 -3q-4 -42 -18 -69.5t-34.5 -40.5t-44.5 -12z" />
    <glyph glyph-name="uni1EBE" unicode="&#x1ebe;" horiz-adv-x="639" 
d="M176 710h438l-6 -46h-388l-35 -284h349l-6 -46h-349l-34 -287h402l-6 -47h-452zM452 799l-83 137l16 3l-118 -140h-45l159 181v0l116 -181h-45zM617 1090l-117 -133h-34l99 133h52z" />
    <glyph glyph-name="uni1EC0" unicode="&#x1ec0;" horiz-adv-x="639" 
d="M176 710h438l-6 -46h-388l-35 -284h349l-6 -46h-349l-34 -287h402l-6 -47h-452zM478 754l-83 137l16 3l-118 -140h-45l159 181v0l116 -181h-45zM233 997l70 -133h-34l-89 133h53z" />
    <glyph glyph-name="uni1EC2" unicode="&#x1ec2;" horiz-adv-x="639" 
d="M176 710h438l-6 -46h-388l-35 -284h349l-6 -46h-349l-34 -287h402l-6 -47h-452zM473 754l-83 137l16 3l-118 -140h-45l159 181v0l116 -181h-45zM509 874q24 17 40.5 31t19.5 33q2 20 -5.5 33t-29.5 14q-17 1 -29.5 -6.5t-27.5 -24.5l-19 14q19 25 39.5 36.5t44.5 9.5
q27 -1 44 -17.5t13 -50.5q-2 -26 -22.5 -46.5t-55.5 -41.5z" />
    <glyph glyph-name="uni1EC4" unicode="&#x1ec4;" horiz-adv-x="639" 
d="M176 710h438l-6 -46h-388l-35 -284h349l-6 -46h-349l-34 -287h402l-6 -47h-452zM491 980q-30 2 -47 17.5t-31 33.5q-11 14 -22.5 26.5t-30.5 13.5q-11 1 -24 -7t-23 -26.5t-15 -50.5l-31 4q5 39 19.5 65.5t35.5 39.5t44 11q28 -1 44 -16.5t29 -33.5q11 -15 23.5 -28
t31.5 -13q20 -2 36 17t23 67l31 -3q-4 -40 -17.5 -66.5t-33 -39t-42.5 -11.5zM478 747l-83 137l16 3l-118 -140h-45l159 181v0l116 -181h-45z" />
    <glyph glyph-name="uni1EC6" unicode="&#x1ec6;" horiz-adv-x="639" 
d="M176 710h438l-6 -46h-388l-35 -284h349l-6 -46h-349l-34 -287h402l-6 -47h-452zM259 -95q1 14 13.5 24t26.5 9q13 0 22.5 -9.5t7.5 -23.5q-1 -15 -13 -24.5t-26 -9.5q-13 1 -22.5 11t-8.5 23zM480 799l-83 137l16 3l-118 -140h-45l159 181v0l116 -181h-45z" />
    <glyph glyph-name="F" unicode="F" horiz-adv-x="578" 
d="M176 710h397l-6 -47h-347l-36 -292h308l-6 -47h-308l-39 -324h-50z" />
    <glyph glyph-name="G" unicode="G" horiz-adv-x="746" 
d="M633 35q-24 -14 -58.5 -24.5t-73 -16.5t-73.5 -5q-55 1 -102 13.5t-85.5 35t-68 53t-49 68.5t-29 81t-7.5 90q3 54 19.5 109t48 104.5t78.5 87.5t108.5 60t139.5 21q59 -1 111 -18t93 -46l-23 -43q-36 26 -84.5 42t-98.5 16q-72 1 -127.5 -19t-95.5 -54.5t-65.5 -78
t-38.5 -90t-15 -90.5q-1 -48 10.5 -90.5t35 -78.5t57.5 -62.5t78.5 -43t97.5 -19.5q42 -2 89.5 5t81.5 23l25 207h-161l6 46h211z" />
    <glyph glyph-name="Gcircumflex" unicode="&#x11c;" horiz-adv-x="746" 
d="M633 35q-24 -14 -58.5 -24.5t-73 -16.5t-73.5 -5q-55 1 -102 13.5t-85.5 35t-68 53t-49 68.5t-29 81t-7.5 90q3 54 19.5 109t48 104.5t78.5 87.5t108.5 60t139.5 21q59 -1 111 -18t93 -46l-23 -43q-36 26 -84.5 42t-98.5 16q-72 1 -127.5 -19t-95.5 -54.5t-65.5 -78
t-38.5 -90t-15 -90.5q-1 -48 10.5 -90.5t35 -78.5t57.5 -62.5t78.5 -43t97.5 -19.5q42 -2 89.5 5t81.5 23l25 207h-161l6 46h211zM555 802l-83 137l16 3l-118 -140h-45l159 181v0l116 -181h-45z" />
    <glyph glyph-name="Gbreve" unicode="&#x11e;" horiz-adv-x="746" 
d="M633 35q-24 -14 -58.5 -24.5t-73 -16.5t-73.5 -5q-55 1 -102 13.5t-85.5 35t-68 53t-49 68.5t-29 81t-7.5 90q3 54 19.5 109t48 104.5t78.5 87.5t108.5 60t139.5 21q59 -1 111 -18t93 -46l-23 -43q-36 26 -84.5 42t-98.5 16q-72 1 -127.5 -19t-95.5 -54.5t-65.5 -78
t-38.5 -90t-15 -90.5q-1 -48 10.5 -90.5t35 -78.5t57.5 -62.5t78.5 -43t97.5 -19.5q42 -2 89.5 5t81.5 23l25 207h-161l6 46h211zM471 783q-16 0 -37.5 7.5t-41.5 25.5t-31.5 50.5t-8.5 83.5h34q-3 -53 13 -81.5t38.5 -39t36.5 -11.5q30 0 52 17.5t37 48t21 66.5h35
q-8 -51 -28.5 -89t-50.5 -58.5t-69 -19.5z" />
    <glyph glyph-name="Gdotaccent" unicode="&#x120;" horiz-adv-x="746" 
d="M633 35q-24 -14 -58.5 -24.5t-73 -16.5t-73.5 -5q-55 1 -102 13.5t-85.5 35t-68 53t-49 68.5t-29 81t-7.5 90q3 54 19.5 109t48 104.5t78.5 87.5t108.5 60t139.5 21q59 -1 111 -18t93 -46l-23 -43q-36 26 -84.5 42t-98.5 16q-72 1 -127.5 -19t-95.5 -54.5t-65.5 -78
t-38.5 -90t-15 -90.5q-1 -48 10.5 -90.5t35 -78.5t57.5 -62.5t78.5 -43t97.5 -19.5q42 -2 89.5 5t81.5 23l25 207h-161l6 46h211zM438 835q1 14 13.5 24t26.5 9q13 0 22.5 -9.5t7.5 -23.5q-1 -15 -13 -24.5t-26 -9.5q-13 1 -22.5 11t-8.5 23z" />
    <glyph glyph-name="uni0122" unicode="&#x122;" horiz-adv-x="746" 
d="M633 35q-24 -14 -58.5 -24.5t-73 -16.5t-73.5 -5q-55 1 -102 13.5t-85.5 35t-68 53t-49 68.5t-29 81t-7.5 90q3 54 19.5 109t48 104.5t78.5 87.5t108.5 60t139.5 21q59 -1 111 -18t93 -46l-23 -43q-36 26 -84.5 42t-98.5 16q-72 1 -127.5 -19t-95.5 -54.5t-65.5 -78
t-38.5 -90t-15 -90.5q-1 -48 10.5 -90.5t35 -78.5t57.5 -62.5t78.5 -43t97.5 -19.5q42 -2 89.5 5t81.5 23l25 207h-161l6 46h211zM322 -193l-23 19q29 19 42.5 53t11.5 75l44 -1q2 -27 -5 -55t-24 -52t-46 -39z" />
    <glyph glyph-name="Gcaron" unicode="&#x1e6;" horiz-adv-x="746" 
d="M633 35q-24 -14 -58.5 -24.5t-73 -16.5t-73.5 -5q-55 1 -102 13.5t-85.5 35t-68 53t-49 68.5t-29 81t-7.5 90q3 54 19.5 109t48 104.5t78.5 87.5t108.5 60t139.5 21q59 -1 111 -18t93 -46l-23 -43q-36 26 -84.5 42t-98.5 16q-72 1 -127.5 -19t-95.5 -54.5t-65.5 -78
t-38.5 -90t-15 -90.5q-1 -48 10.5 -90.5t35 -78.5t57.5 -62.5t78.5 -43t97.5 -19.5q42 -2 89.5 5t81.5 23l25 207h-161l6 46h211zM400 955l83 -137l-17 -2l120 139h45l-160 -181h-1l-115 181h45z" />
    <glyph glyph-name="H" unicode="H" horiz-adv-x="753" 
d="M701 710l-87 -710h-50l42 334h-426l-41 -334h-50l87 710h50l-41 -329h426l40 329h50z" />
    <glyph glyph-name="Hcircumflex" unicode="&#x124;" horiz-adv-x="753" 
d="M701 710l-87 -710h-50l42 334h-426l-41 -334h-50l87 710h50l-41 -329h426l40 329h50zM532 802l-83 137l16 3l-118 -140h-45l159 181v0l116 -181h-45z" />
    <glyph glyph-name="I" unicode="I" horiz-adv-x="278" 
d="M176 710h50l-87 -710h-50z" />
    <glyph glyph-name="Igrave" unicode="&#xcc;" horiz-adv-x="278" 
d="M176 710h50l-87 -710h-50zM157 932l70 -133h-34l-89 133h53z" />
    <glyph glyph-name="Iacute" unicode="&#xcd;" horiz-adv-x="278" 
d="M176 710h50l-87 -710h-50zM346 932l-117 -133h-34l99 133h52z" />
    <glyph glyph-name="Icircumflex" unicode="&#xce;" horiz-adv-x="278" 
d="M176 710h50l-87 -710h-50zM297 799l-83 137l16 3l-118 -140h-45l159 181v0l116 -181h-45z" />
    <glyph glyph-name="Idieresis" unicode="&#xcf;" horiz-adv-x="278" 
d="M176 710h50l-87 -710h-50zM95 831q1 14 12 23.5t24 9.5q13 -1 22.5 -11t8.5 -24q-1 -15 -12 -24.5t-24 -8.5q-13 0 -22.5 10.5t-8.5 24.5v0zM269 831q1 14 12 23.5t24 9.5q13 -1 22.5 -11t8.5 -24q-1 -15 -12 -24.5t-24 -8.5q-13 0 -22.5 10t-8.5 25v0z" />
    <glyph glyph-name="Itilde" unicode="&#x128;" horiz-adv-x="278" 
d="M176 710h50l-87 -710h-50zM287 763q-31 2 -49 18t-33 35q-11 15 -23 28t-32 14q-12 1 -25.5 -7.5t-24 -27.5t-16.5 -53l-32 4q5 41 20.5 68.5t37.5 41.5t46 12q29 -1 46 -17.5t30 -35.5q12 -16 25.5 -29t32.5 -14q14 -1 26.5 7t21.5 28t14 53l32 -3q-4 -42 -18 -69.5
t-34.5 -40.5t-44.5 -12z" />
    <glyph glyph-name="Imacron" unicode="&#x12a;" horiz-adv-x="278" 
d="M176 710h50l-87 -710h-50zM100 836h231l-3 -30h-232z" />
    <glyph glyph-name="Ibreve" unicode="&#x12c;" horiz-adv-x="278" 
d="M176 710h50l-87 -710h-50zM213 780q-16 0 -37.5 7.5t-41.5 25.5t-31.5 50.5t-8.5 83.5h34q-3 -53 13 -81.5t38.5 -39t36.5 -11.5q30 0 52 17.5t37 48t21 66.5h35q-8 -51 -28.5 -89t-50.5 -58.5t-69 -19.5z" />
    <glyph glyph-name="Iogonek" unicode="&#x12e;" horiz-adv-x="274" 
d="M82 -197q-34 2 -59.5 25.5t-25.5 61.5q0 24 12.5 48t35.5 45t52 34l-8 -17l87 710h50l-87 -710q-46 -23 -72.5 -49t-27.5 -55q-1 -27 15 -41.5t36 -15.5q20 0 36 12.5t29 32.5l19 -24q-14 -24 -39 -41t-53 -16z" />
    <glyph glyph-name="Idotaccent" unicode="&#x130;" horiz-adv-x="278" 
d="M176 710h50l-87 -710h-50zM180 832q1 14 13.5 24t26.5 9q13 0 22.5 -9.5t7.5 -23.5q-1 -15 -13 -24.5t-26 -9.5q-13 1 -22.5 11t-8.5 23z" />
    <glyph glyph-name="uni0208" unicode="&#x208;" horiz-adv-x="278" 
d="M176 710h50l-87 -710h-50zM111 932l70 -133h-34l-89 133h53zM213 932l70 -133h-34l-89 133h53z" />
    <glyph glyph-name="uni020A" unicode="&#x20a;" horiz-adv-x="278" 
d="M176 710h50l-87 -710h-50zM229 917q16 0 37.5 -7.5t41.5 -25.5t31.5 -50.5t8.5 -83.5h-34q4 53 -12.5 81.5t-38.5 39.5t-37 11q-29 1 -51.5 -17t-37 -48t-21.5 -67h-35q8 51 28.5 89t51 58.5t68.5 19.5z" />
    <glyph glyph-name="uni1EC8" unicode="&#x1ec8;" horiz-adv-x="278" 
d="M176 710h50l-87 -710h-50zM191 774q24 17 40.5 31t19.5 33q2 20 -5.5 33t-29.5 14q-17 1 -29.5 -6.5t-27.5 -24.5l-19 14q19 25 39.5 36.5t44.5 9.5q27 -1 44 -17.5t13 -50.5q-2 -26 -22.5 -46.5t-55.5 -41.5z" />
    <glyph glyph-name="uni1ECA" unicode="&#x1eca;" horiz-adv-x="278" 
d="M176 710h50l-87 -710h-50zM62 -95q1 14 13.5 24t26.5 9q13 0 22.5 -9.5t7.5 -23.5q-1 -15 -13 -24.5t-26 -9.5q-13 1 -22.5 11t-8.5 23z" />
    <glyph glyph-name="J" unicode="J" horiz-adv-x="332" 
d="M206 107q-9 -79 -45 -135t-88 -85.5t-113 -31.5v0l6 48q48 3 88.5 27t68 69.5t35.5 110.5l74 600h48z" />
    <glyph glyph-name="Jcircumflex" unicode="&#x134;" horiz-adv-x="332" 
d="M206 107q-9 -79 -45 -135t-88 -85.5t-113 -31.5v0l6 48q48 3 88.5 27t68 69.5t35.5 110.5l74 600h48zM352 801l-83 137l16 3l-118 -140h-45l159 181v0l116 -181h-45z" />
    <glyph glyph-name="K" unicode="K" horiz-adv-x="655" 
d="M185 390l-6 -35l4 9l394 346h63l-329 -291l275 -419h-62l-253 388l-96 -82l-37 -306h-49l87 710h49z" />
    <glyph glyph-name="uni0136" unicode="&#x136;" horiz-adv-x="655" 
d="M185 390l-6 -35l4 9l394 346h63l-329 -291l275 -419h-62l-253 388l-96 -82l-37 -306h-49l87 710h49zM244 -193l-23 19q29 19 42.5 53t11.5 75l44 -1q2 -27 -5 -55t-24 -52t-46 -39z" />
    <glyph glyph-name="L" unicode="L" horiz-adv-x="578" 
d="M176 710h48l-81 -663h390l-6 -47h-438z" />
    <glyph glyph-name="Lacute" unicode="&#x139;" horiz-adv-x="578" 
d="M176 710h48l-81 -663h390l-6 -47h-438zM341 939l-117 -133h-34l99 133h52z" />
    <glyph glyph-name="uni013B" unicode="&#x13b;" horiz-adv-x="578" 
d="M176 710h48l-81 -663h390l-6 -47h-438zM243 -193l-23 19q29 19 42.5 53t11.5 75l44 -1q2 -27 -5 -55t-24 -52t-46 -39z" />
    <glyph glyph-name="Lcaron" unicode="&#x13d;" horiz-adv-x="578" 
d="M176 710h48l-81 -663h390l-6 -47h-438zM527 560l-23 19q29 19 42.5 53t11.5 75l44 -1q2 -27 -5 -55t-24 -52t-46 -39z" />
    <glyph glyph-name="M" unicode="M" horiz-adv-x="909" 
d="M137 0h-48l90 726h1l289 -497l-23 3l412 494h1l-90 -726h-48l75 613l1 -24l-347 -417h-2l-247 417l11 22z" />
    <glyph glyph-name="N" unicode="N" horiz-adv-x="824" 
d="M683 -17h-2l-481 635l12 6l-76 -624h-47l89 725h2l482 -639l-13 -1l76 625h47z" />
    <glyph glyph-name="Ntilde" unicode="&#xd1;" horiz-adv-x="824" 
d="M683 -17h-2l-481 635l12 6l-76 -624h-47l89 725h2l482 -639l-13 -1l76 625h47zM558 755q-31 2 -49 18t-33 35q-11 15 -23 28t-32 14q-12 1 -25.5 -7.5t-24 -27.5t-16.5 -53l-32 4q5 41 20.5 68.5t37.5 41.5t46 12q29 -1 46 -17.5t30 -35.5q12 -16 25.5 -29t32.5 -14
q14 -1 26.5 7t21.5 28t14 53l32 -3q-4 -42 -18 -69.5t-34.5 -40.5t-44.5 -12z" />
    <glyph glyph-name="Nacute" unicode="&#x143;" horiz-adv-x="824" 
d="M683 -17h-2l-481 635l12 6l-76 -624h-47l89 725h2l482 -639l-13 -1l76 625h47zM617 924l-117 -133h-34l99 133h52z" />
    <glyph glyph-name="uni0145" unicode="&#x145;" horiz-adv-x="824" 
d="M683 -17h-2l-481 635l12 6l-76 -624h-47l89 725h2l482 -639l-13 -1l76 625h47zM332 -193l-23 19q29 19 42.5 53t11.5 75l44 -1q2 -27 -5 -55t-24 -52t-46 -39z" />
    <glyph glyph-name="Ncaron" unicode="&#x147;" horiz-adv-x="824" 
d="M683 -17h-2l-481 635l12 6l-76 -624h-47l89 725h2l482 -639l-13 -1l76 625h47zM413 944l83 -137l-17 -2l120 139h45l-160 -181h-1l-115 181h45z" />
    <glyph glyph-name="O" unicode="O" 
d="M429 -7q-69 0 -131 23.5t-109 67.5t-74 105.5t-27 138.5q0 66 25 134.5t73.5 126t121 93t166.5 35.5q69 0 131 -23.5t109 -67.5t74 -106t27 -139q0 -66 -25 -134t-73.5 -125.5t-120.5 -93t-167 -35.5zM430 40q82 0 144.5 31t105 81t64 110t21.5 117q0 59 -22 111.5
t-61.5 93t-93 63.5t-116.5 23q-82 0 -144 -31t-104.5 -81.5t-64 -110t-21.5 -117.5q0 -59 21.5 -111.5t61 -92.5t93 -63t116.5 -23z" />
    <glyph glyph-name="Ograve" unicode="&#xd2;" 
d="M429 -7q-69 0 -131 23.5t-109 67.5t-74 105.5t-27 138.5q0 66 25 134.5t73.5 126t121 93t166.5 35.5q69 0 131 -23.5t109 -67.5t74 -106t27 -139q0 -66 -25 -134t-73.5 -125.5t-120.5 -93t-167 -35.5zM430 40q82 0 144.5 31t105 81t64 110t21.5 117q0 59 -22 111.5
t-61.5 93t-93 63.5t-116.5 23q-82 0 -144 -31t-104.5 -81.5t-64 -110t-21.5 -117.5q0 -59 21.5 -111.5t61 -92.5t93 -63t116.5 -23zM446 932l70 -133h-34l-89 133h53z" />
    <glyph glyph-name="Oacute" unicode="&#xd3;" 
d="M429 -7q-69 0 -131 23.5t-109 67.5t-74 105.5t-27 138.5q0 66 25 134.5t73.5 126t121 93t166.5 35.5q69 0 131 -23.5t109 -67.5t74 -106t27 -139q0 -66 -25 -134t-73.5 -125.5t-120.5 -93t-167 -35.5zM430 40q82 0 144.5 31t105 81t64 110t21.5 117q0 59 -22 111.5
t-61.5 93t-93 63.5t-116.5 23q-82 0 -144 -31t-104.5 -81.5t-64 -110t-21.5 -117.5q0 -59 21.5 -111.5t61 -92.5t93 -63t116.5 -23zM635 932l-117 -133h-34l99 133h52z" />
    <glyph glyph-name="Ocircumflex" unicode="&#xd4;" 
d="M429 -7q-69 0 -131 23.5t-109 67.5t-74 105.5t-27 138.5q0 66 25 134.5t73.5 126t121 93t166.5 35.5q69 0 131 -23.5t109 -67.5t74 -106t27 -139q0 -66 -25 -134t-73.5 -125.5t-120.5 -93t-167 -35.5zM430 40q82 0 144.5 31t105 81t64 110t21.5 117q0 59 -22 111.5
t-61.5 93t-93 63.5t-116.5 23q-82 0 -144 -31t-104.5 -81.5t-64 -110t-21.5 -117.5q0 -59 21.5 -111.5t61 -92.5t93 -63t116.5 -23zM586 799l-83 137l16 3l-118 -140h-45l159 181v0l116 -181h-45z" />
    <glyph glyph-name="Otilde" unicode="&#xd5;" 
d="M429 -7q-69 0 -131 23.5t-109 67.5t-74 105.5t-27 138.5q0 66 25 134.5t73.5 126t121 93t166.5 35.5q69 0 131 -23.5t109 -67.5t74 -106t27 -139q0 -66 -25 -134t-73.5 -125.5t-120.5 -93t-167 -35.5zM430 40q82 0 144.5 31t105 81t64 110t21.5 117q0 59 -22 111.5
t-61.5 93t-93 63.5t-116.5 23q-82 0 -144 -31t-104.5 -81.5t-64 -110t-21.5 -117.5q0 -59 21.5 -111.5t61 -92.5t93 -63t116.5 -23zM576 763q-31 2 -49 18t-33 35q-11 15 -23 28t-32 14q-12 1 -25.5 -7.5t-24 -27.5t-16.5 -53l-32 4q5 41 20.5 68.5t37.5 41.5t46 12
q29 -1 46 -17.5t30 -35.5q12 -16 25.5 -29t32.5 -14q14 -1 26.5 7t21.5 28t14 53l32 -3q-4 -42 -18 -69.5t-34.5 -40.5t-44.5 -12z" />
    <glyph glyph-name="Odieresis" unicode="&#xd6;" 
d="M429 -7q-69 0 -131 23.5t-109 67.5t-74 105.5t-27 138.5q0 66 25 134.5t73.5 126t121 93t166.5 35.5q69 0 131 -23.5t109 -67.5t74 -106t27 -139q0 -66 -25 -134t-73.5 -125.5t-120.5 -93t-167 -35.5zM430 40q82 0 144.5 31t105 81t64 110t21.5 117q0 59 -22 111.5
t-61.5 93t-93 63.5t-116.5 23q-82 0 -144 -31t-104.5 -81.5t-64 -110t-21.5 -117.5q0 -59 21.5 -111.5t61 -92.5t93 -63t116.5 -23zM384 831q1 14 12 23.5t24 9.5q13 -1 22.5 -11t8.5 -24q-1 -15 -12 -24.5t-24 -8.5q-13 0 -22.5 10.5t-8.5 24.5v0zM558 831q1 14 12 23.5
t24 9.5q13 -1 22.5 -11t8.5 -24q-1 -15 -12 -24.5t-24 -8.5q-13 0 -22.5 10t-8.5 25v0z" />
    <glyph glyph-name="Omacron" unicode="&#x14c;" 
d="M429 -7q-69 0 -131 23.5t-109 67.5t-74 105.5t-27 138.5q0 66 25 134.5t73.5 126t121 93t166.5 35.5q69 0 131 -23.5t109 -67.5t74 -106t27 -139q0 -66 -25 -134t-73.5 -125.5t-120.5 -93t-167 -35.5zM430 40q82 0 144.5 31t105 81t64 110t21.5 117q0 59 -22 111.5
t-61.5 93t-93 63.5t-116.5 23q-82 0 -144 -31t-104.5 -81.5t-64 -110t-21.5 -117.5q0 -59 21.5 -111.5t61 -92.5t93 -63t116.5 -23zM389 836h231l-3 -30h-232z" />
    <glyph glyph-name="Obreve" unicode="&#x14e;" 
d="M429 -7q-69 0 -131 23.5t-109 67.5t-74 105.5t-27 138.5q0 66 25 134.5t73.5 126t121 93t166.5 35.5q69 0 131 -23.5t109 -67.5t74 -106t27 -139q0 -66 -25 -134t-73.5 -125.5t-120.5 -93t-167 -35.5zM430 40q82 0 144.5 31t105 81t64 110t21.5 117q0 59 -22 111.5
t-61.5 93t-93 63.5t-116.5 23q-82 0 -144 -31t-104.5 -81.5t-64 -110t-21.5 -117.5q0 -59 21.5 -111.5t61 -92.5t93 -63t116.5 -23zM502 780q-16 0 -37.5 7.5t-41.5 25.5t-31.5 50.5t-8.5 83.5h34q-3 -53 13 -81.5t38.5 -39t36.5 -11.5q30 0 52 17.5t37 48t21 66.5h35
q-8 -51 -28.5 -89t-50.5 -58.5t-69 -19.5z" />
    <glyph glyph-name="Ohungarumlaut" unicode="&#x150;" 
d="M429 -7q-69 0 -131 23.5t-109 67.5t-74 105.5t-27 138.5q0 66 25 134.5t73.5 126t121 93t166.5 35.5q69 0 131 -23.5t109 -67.5t74 -106t27 -139q0 -66 -25 -134t-73.5 -125.5t-120.5 -93t-167 -35.5zM430 40q82 0 144.5 31t105 81t64 110t21.5 117q0 59 -22 111.5
t-61.5 93t-93 63.5t-116.5 23q-82 0 -144 -31t-104.5 -81.5t-64 -110t-21.5 -117.5q0 -59 21.5 -111.5t61 -92.5t93 -63t116.5 -23zM553 932q-28 -33 -58 -66.5t-59 -66.5h-34q26 33 53 66.5t53 66.5h45zM691 932q-28 -33 -58 -66.5t-59 -66.5h-34q26 33 53 66.5t54 66.5h44
z" />
    <glyph glyph-name="Ohorn" unicode="&#x1a0;" 
d="M429 -7q-69 0 -131 23.5t-109 67.5t-74 105.5t-27 138.5q0 66 25 134.5t73.5 126t121 93t166.5 35.5q69 0 131 -23.5t109 -67.5t74 -106t27 -139q0 -66 -25 -134t-73.5 -125.5t-120.5 -93t-167 -35.5zM430 40q82 0 144.5 31t105 81t64 110t21.5 117q0 59 -22 111.5
t-61.5 93t-93 63.5t-116.5 23q-82 0 -144 -31t-104.5 -81.5t-64 -110t-21.5 -117.5q0 -59 21.5 -111.5t61 -92.5t93 -63t116.5 -23zM720 608q47 -3 73.5 16.5t36.5 76.5h37q-9 -56 -30.5 -83.5t-52 -35.5t-68.5 -5z" />
    <glyph glyph-name="uni01EA" unicode="&#x1ea;" 
d="M520 7q-21 -7 -43 -10.5t-48 -3.5q-69 0 -131 23.5t-109 67.5t-74 105.5t-27 138.5q0 66 25 134.5t73.5 126t121 93t166.5 35.5q69 0 131 -23.5t109 -67.5t74 -106t27 -139q0 -57 -19 -116.5t-57 -113t-93.5 -92.5t-127.5 -54q-43 -25 -67 -53t-25 -60q-1 -28 15 -43
t35 -16q20 0 36.5 13t29.5 32l19 -24q-14 -24 -39 -40.5t-53 -15.5q-34 1 -59.5 24.5t-25.5 62.5q0 24 12.5 48t35 45t51.5 34zM430 40q82 0 144.5 31t105 81t64 110t21.5 117q0 59 -22 111.5t-61.5 93t-93 63.5t-116.5 23q-82 0 -144 -31t-104.5 -81.5t-64 -110
t-21.5 -117.5q0 -59 21.5 -111.5t61 -92.5t93 -63t116.5 -23z" />
    <glyph glyph-name="uni020C" unicode="&#x20c;" 
d="M429 -7q-69 0 -131 23.5t-109 67.5t-74 105.5t-27 138.5q0 66 25 134.5t73.5 126t121 93t166.5 35.5q69 0 131 -23.5t109 -67.5t74 -106t27 -139q0 -66 -25 -134t-73.5 -125.5t-120.5 -93t-167 -35.5zM430 40q82 0 144.5 31t105 81t64 110t21.5 117q0 59 -22 111.5
t-61.5 93t-93 63.5t-116.5 23q-82 0 -144 -31t-104.5 -81.5t-64 -110t-21.5 -117.5q0 -59 21.5 -111.5t61 -92.5t93 -63t116.5 -23zM400 932l70 -133h-34l-89 133h53zM502 932l70 -133h-34l-89 133h53z" />
    <glyph glyph-name="uni020E" unicode="&#x20e;" 
d="M429 -7q-69 0 -131 23.5t-109 67.5t-74 105.5t-27 138.5q0 66 25 134.5t73.5 126t121 93t166.5 35.5q69 0 131 -23.5t109 -67.5t74 -106t27 -139q0 -66 -25 -134t-73.5 -125.5t-120.5 -93t-167 -35.5zM430 40q82 0 144.5 31t105 81t64 110t21.5 117q0 59 -22 111.5
t-61.5 93t-93 63.5t-116.5 23q-82 0 -144 -31t-104.5 -81.5t-64 -110t-21.5 -117.5q0 -59 21.5 -111.5t61 -92.5t93 -63t116.5 -23zM518 917q16 0 37.5 -7.5t41.5 -25.5t31.5 -50.5t8.5 -83.5h-34q4 53 -12.5 81.5t-38.5 39.5t-37 11q-29 1 -51.5 -17t-37 -48t-21.5 -67h-35
q8 51 28.5 89t51 58.5t68.5 19.5z" />
    <glyph glyph-name="uni022A" unicode="&#x22a;" 
d="M429 -7q-69 0 -131 23.5t-109 67.5t-74 105.5t-27 138.5q0 66 25 134.5t73.5 126t121 93t166.5 35.5q69 0 131 -23.5t109 -67.5t74 -106t27 -139q0 -66 -25 -134t-73.5 -125.5t-120.5 -93t-167 -35.5zM430 40q82 0 144.5 31t105 81t64 110t21.5 117q0 59 -22 111.5
t-61.5 93t-93 63.5t-116.5 23q-82 0 -144 -31t-104.5 -81.5t-64 -110t-21.5 -117.5q0 -59 21.5 -111.5t61 -92.5t93 -63t116.5 -23zM384 831q1 14 12 23.5t24 9.5q13 -1 22.5 -11t8.5 -24q-1 -15 -12 -24.5t-24 -8.5q-13 0 -22.5 10.5t-8.5 24.5v0zM558 831q1 14 12 23.5
t24 9.5q13 -1 22.5 -11t8.5 -24q-1 -15 -12 -24.5t-24 -8.5q-13 0 -22.5 10t-8.5 25v0zM408 990h231l-3 -30h-232z" />
    <glyph glyph-name="uni022C" unicode="&#x22c;" 
d="M429 -7q-69 0 -131 23.5t-109 67.5t-74 105.5t-27 138.5q0 66 25 134.5t73.5 126t121 93t166.5 35.5q69 0 131 -23.5t109 -67.5t74 -106t27 -139q0 -66 -25 -134t-73.5 -125.5t-120.5 -93t-167 -35.5zM430 40q82 0 144.5 31t105 81t64 110t21.5 117q0 59 -22 111.5
t-61.5 93t-93 63.5t-116.5 23q-82 0 -144 -31t-104.5 -81.5t-64 -110t-21.5 -117.5q0 -59 21.5 -111.5t61 -92.5t93 -63t116.5 -23zM576 763q-31 2 -49 18t-33 35q-11 15 -23 28t-32 14q-12 1 -25.5 -7.5t-24 -27.5t-16.5 -53l-32 4q5 41 20.5 68.5t37.5 41.5t46 12
q29 -1 46 -17.5t30 -35.5q12 -16 25.5 -29t32.5 -14q14 -1 26.5 7t21.5 28t14 53l32 -3q-4 -42 -18 -69.5t-34.5 -40.5t-44.5 -12zM414 1002h231l-3 -30h-232z" />
    <glyph glyph-name="uni0230" unicode="&#x230;" 
d="M429 -7q-69 0 -131 23.5t-109 67.5t-74 105.5t-27 138.5q0 66 25 134.5t73.5 126t121 93t166.5 35.5q69 0 131 -23.5t109 -67.5t74 -106t27 -139q0 -66 -25 -134t-73.5 -125.5t-120.5 -93t-167 -35.5zM430 40q82 0 144.5 31t105 81t64 110t21.5 117q0 59 -22 111.5
t-61.5 93t-93 63.5t-116.5 23q-82 0 -144 -31t-104.5 -81.5t-64 -110t-21.5 -117.5q0 -59 21.5 -111.5t61 -92.5t93 -63t116.5 -23zM469 832q1 14 13.5 24t26.5 9q13 0 22.5 -9.5t7.5 -23.5q-1 -15 -13 -24.5t-26 -9.5q-13 1 -22.5 11t-8.5 23zM410 997h231l-3 -30h-232z
" />
    <glyph glyph-name="uni1ECC" unicode="&#x1ecc;" 
d="M429 -7q-69 0 -131 23.5t-109 67.5t-74 105.5t-27 138.5q0 66 25 134.5t73.5 126t121 93t166.5 35.5q69 0 131 -23.5t109 -67.5t74 -106t27 -139q0 -66 -25 -134t-73.5 -125.5t-120.5 -93t-167 -35.5zM430 40q82 0 144.5 31t105 81t64 110t21.5 117q0 59 -22 111.5
t-61.5 93t-93 63.5t-116.5 23q-82 0 -144 -31t-104.5 -81.5t-64 -110t-21.5 -117.5q0 -59 21.5 -111.5t61 -92.5t93 -63t116.5 -23zM375 -95q1 14 13.5 24t26.5 9q13 0 22.5 -9.5t7.5 -23.5q-1 -15 -13 -24.5t-26 -9.5q-13 1 -22.5 11t-8.5 23z" />
    <glyph glyph-name="uni1ECE" unicode="&#x1ece;" 
d="M429 -7q-69 0 -131 23.5t-109 67.5t-74 105.5t-27 138.5q0 66 25 134.5t73.5 126t121 93t166.5 35.5q69 0 131 -23.5t109 -67.5t74 -106t27 -139q0 -66 -25 -134t-73.5 -125.5t-120.5 -93t-167 -35.5zM430 40q82 0 144.5 31t105 81t64 110t21.5 117q0 59 -22 111.5
t-61.5 93t-93 63.5t-116.5 23q-82 0 -144 -31t-104.5 -81.5t-64 -110t-21.5 -117.5q0 -59 21.5 -111.5t61 -92.5t93 -63t116.5 -23zM480 774q24 17 40.5 31t19.5 33q2 20 -5.5 33t-29.5 14q-17 1 -29.5 -6.5t-27.5 -24.5l-19 14q19 25 39.5 36.5t44.5 9.5q27 -1 44 -17.5
t13 -50.5q-2 -26 -22.5 -46.5t-55.5 -41.5z" />
    <glyph glyph-name="uni1ED0" unicode="&#x1ed0;" 
d="M429 -7q-69 0 -131 23.5t-109 67.5t-74 105.5t-27 138.5q0 66 25 134.5t73.5 126t121 93t166.5 35.5q69 0 131 -23.5t109 -67.5t74 -106t27 -139q0 -66 -25 -134t-73.5 -125.5t-120.5 -93t-167 -35.5zM430 40q82 0 144.5 31t105 81t64 110t21.5 117q0 59 -22 111.5
t-61.5 93t-93 63.5t-116.5 23q-82 0 -144 -31t-104.5 -81.5t-64 -110t-21.5 -117.5q0 -59 21.5 -111.5t61 -92.5t93 -63t116.5 -23zM558 799l-83 137l16 3l-118 -140h-45l159 181v0l116 -181h-45zM723 1090l-117 -133h-34l99 133h52z" />
    <glyph glyph-name="uni1ED2" unicode="&#x1ed2;" 
d="M429 -7q-69 0 -131 23.5t-109 67.5t-74 105.5t-27 138.5q0 66 25 134.5t73.5 126t121 93t166.5 35.5q69 0 131 -23.5t109 -67.5t74 -106t27 -139q0 -66 -25 -134t-73.5 -125.5t-120.5 -93t-167 -35.5zM430 40q82 0 144.5 31t105 81t64 110t21.5 117q0 59 -22 111.5
t-61.5 93t-93 63.5t-116.5 23q-82 0 -144 -31t-104.5 -81.5t-64 -110t-21.5 -117.5q0 -59 21.5 -111.5t61 -92.5t93 -63t116.5 -23zM584 754l-83 137l16 3l-118 -140h-45l159 181v0l116 -181h-45zM339 997l70 -133h-34l-89 133h53z" />
    <glyph glyph-name="uni1ED4" unicode="&#x1ed4;" 
d="M429 -7q-69 0 -131 23.5t-109 67.5t-74 105.5t-27 138.5q0 66 25 134.5t73.5 126t121 93t166.5 35.5q69 0 131 -23.5t109 -67.5t74 -106t27 -139q0 -66 -25 -134t-73.5 -125.5t-120.5 -93t-167 -35.5zM430 40q82 0 144.5 31t105 81t64 110t21.5 117q0 59 -22 111.5
t-61.5 93t-93 63.5t-116.5 23q-82 0 -144 -31t-104.5 -81.5t-64 -110t-21.5 -117.5q0 -59 21.5 -111.5t61 -92.5t93 -63t116.5 -23zM579 754l-83 137l16 3l-118 -140h-45l159 181v0l116 -181h-45zM615 874q24 17 40.5 31t19.5 33q2 20 -5.5 33t-29.5 14q-17 1 -29.5 -6.5
t-27.5 -24.5l-19 14q19 25 39.5 36.5t44.5 9.5q27 -1 44 -17.5t13 -50.5q-2 -26 -22.5 -46.5t-55.5 -41.5z" />
    <glyph glyph-name="uni1ED6" unicode="&#x1ed6;" 
d="M429 -7q-69 0 -131 23.5t-109 67.5t-74 105.5t-27 138.5q0 66 25 134.5t73.5 126t121 93t166.5 35.5q69 0 131 -23.5t109 -67.5t74 -106t27 -139q0 -66 -25 -134t-73.5 -125.5t-120.5 -93t-167 -35.5zM430 40q82 0 144.5 31t105 81t64 110t21.5 117q0 59 -22 111.5
t-61.5 93t-93 63.5t-116.5 23q-82 0 -144 -31t-104.5 -81.5t-64 -110t-21.5 -117.5q0 -59 21.5 -111.5t61 -92.5t93 -63t116.5 -23zM597 980q-30 2 -47 17.5t-31 33.5q-11 14 -22.5 26.5t-30.5 13.5q-11 1 -24 -7t-23 -26.5t-15 -50.5l-31 4q5 39 19.5 65.5t35.5 39.5t44 11
q28 -1 44 -16.5t29 -33.5q11 -15 23.5 -28t31.5 -13q20 -2 36 17t23 67l31 -3q-4 -40 -17.5 -66.5t-33 -39t-42.5 -11.5zM584 747l-83 137l16 3l-118 -140h-45l159 181v0l116 -181h-45z" />
    <glyph glyph-name="uni1ED8" unicode="&#x1ed8;" 
d="M429 -7q-69 0 -131 23.5t-109 67.5t-74 105.5t-27 138.5q0 66 25 134.5t73.5 126t121 93t166.5 35.5q69 0 131 -23.5t109 -67.5t74 -106t27 -139q0 -66 -25 -134t-73.5 -125.5t-120.5 -93t-167 -35.5zM430 40q82 0 144.5 31t105 81t64 110t21.5 117q0 59 -22 111.5
t-61.5 93t-93 63.5t-116.5 23q-82 0 -144 -31t-104.5 -81.5t-64 -110t-21.5 -117.5q0 -59 21.5 -111.5t61 -92.5t93 -63t116.5 -23zM375 -95q1 14 13.5 24t26.5 9q13 0 22.5 -9.5t7.5 -23.5q-1 -15 -13 -24.5t-26 -9.5q-13 1 -22.5 11t-8.5 23zM586 799l-83 137l16 3
l-118 -140h-45l159 181v0l116 -181h-45z" />
    <glyph glyph-name="uni1EDA" unicode="&#x1eda;" 
d="M429 -7q-69 0 -131 23.5t-109 67.5t-74 105.5t-27 138.5q0 66 25 134.5t73.5 126t121 93t166.5 35.5q69 0 131 -23.5t109 -67.5t74 -106t27 -139q0 -66 -25 -134t-73.5 -125.5t-120.5 -93t-167 -35.5zM430 40q82 0 144.5 31t105 81t64 110t21.5 117q0 59 -22 111.5
t-61.5 93t-93 63.5t-116.5 23q-82 0 -144 -31t-104.5 -81.5t-64 -110t-21.5 -117.5q0 -59 21.5 -111.5t61 -92.5t93 -63t116.5 -23zM720 608q47 -3 73.5 16.5t36.5 76.5h37q-9 -56 -30.5 -83.5t-52 -35.5t-68.5 -5zM635 932l-117 -133h-34l99 133h52z" />
    <glyph glyph-name="uni1EDC" unicode="&#x1edc;" 
d="M429 -7q-69 0 -131 23.5t-109 67.5t-74 105.5t-27 138.5q0 66 25 134.5t73.5 126t121 93t166.5 35.5q69 0 131 -23.5t109 -67.5t74 -106t27 -139q0 -66 -25 -134t-73.5 -125.5t-120.5 -93t-167 -35.5zM430 40q82 0 144.5 31t105 81t64 110t21.5 117q0 59 -22 111.5
t-61.5 93t-93 63.5t-116.5 23q-82 0 -144 -31t-104.5 -81.5t-64 -110t-21.5 -117.5q0 -59 21.5 -111.5t61 -92.5t93 -63t116.5 -23zM720 608q47 -3 73.5 16.5t36.5 76.5h37q-9 -56 -30.5 -83.5t-52 -35.5t-68.5 -5zM446 932l70 -133h-34l-89 133h53z" />
    <glyph glyph-name="uni1EDE" unicode="&#x1ede;" 
d="M429 -7q-69 0 -131 23.5t-109 67.5t-74 105.5t-27 138.5q0 66 25 134.5t73.5 126t121 93t166.5 35.5q69 0 131 -23.5t109 -67.5t74 -106t27 -139q0 -66 -25 -134t-73.5 -125.5t-120.5 -93t-167 -35.5zM430 40q82 0 144.5 31t105 81t64 110t21.5 117q0 59 -22 111.5
t-61.5 93t-93 63.5t-116.5 23q-82 0 -144 -31t-104.5 -81.5t-64 -110t-21.5 -117.5q0 -59 21.5 -111.5t61 -92.5t93 -63t116.5 -23zM720 608q47 -3 73.5 16.5t36.5 76.5h37q-9 -56 -30.5 -83.5t-52 -35.5t-68.5 -5zM480 774q24 17 40.5 31t19.5 33q2 20 -5.5 33t-29.5 14
q-17 1 -29.5 -6.5t-27.5 -24.5l-19 14q19 25 39.5 36.5t44.5 9.5q27 -1 44 -17.5t13 -50.5q-2 -26 -22.5 -46.5t-55.5 -41.5z" />
    <glyph glyph-name="uni1EE0" unicode="&#x1ee0;" 
d="M429 -7q-69 0 -131 23.5t-109 67.5t-74 105.5t-27 138.5q0 66 25 134.5t73.5 126t121 93t166.5 35.5q69 0 131 -23.5t109 -67.5t74 -106t27 -139q0 -66 -25 -134t-73.5 -125.5t-120.5 -93t-167 -35.5zM430 40q82 0 144.5 31t105 81t64 110t21.5 117q0 59 -22 111.5
t-61.5 93t-93 63.5t-116.5 23q-82 0 -144 -31t-104.5 -81.5t-64 -110t-21.5 -117.5q0 -59 21.5 -111.5t61 -92.5t93 -63t116.5 -23zM720 608q47 -3 73.5 16.5t36.5 76.5h37q-9 -56 -30.5 -83.5t-52 -35.5t-68.5 -5zM576 763q-31 2 -49 18t-33 35q-11 15 -23 28t-32 14
q-12 1 -25.5 -7.5t-24 -27.5t-16.5 -53l-32 4q5 41 20.5 68.5t37.5 41.5t46 12q29 -1 46 -17.5t30 -35.5q12 -16 25.5 -29t32.5 -14q14 -1 26.5 7t21.5 28t14 53l32 -3q-4 -42 -18 -69.5t-34.5 -40.5t-44.5 -12z" />
    <glyph glyph-name="uni1EE2" unicode="&#x1ee2;" 
d="M429 -7q-69 0 -131 23.5t-109 67.5t-74 105.5t-27 138.5q0 66 25 134.5t73.5 126t121 93t166.5 35.5q69 0 131 -23.5t109 -67.5t74 -106t27 -139q0 -66 -25 -134t-73.5 -125.5t-120.5 -93t-167 -35.5zM430 40q82 0 144.5 31t105 81t64 110t21.5 117q0 59 -22 111.5
t-61.5 93t-93 63.5t-116.5 23q-82 0 -144 -31t-104.5 -81.5t-64 -110t-21.5 -117.5q0 -59 21.5 -111.5t61 -92.5t93 -63t116.5 -23zM720 608q47 -3 73.5 16.5t36.5 76.5h37q-9 -56 -30.5 -83.5t-52 -35.5t-68.5 -5zM375 -95q1 14 13.5 24t26.5 9q13 0 22.5 -9.5t7.5 -23.5
q-1 -15 -13 -24.5t-26 -9.5q-13 1 -22.5 11t-8.5 23z" />
    <glyph glyph-name="P" unicode="P" horiz-adv-x="550" 
d="M338 710q36 0 71.5 -10.5t64.5 -32t46 -55t17 -80.5q0 -42 -14.5 -83t-45.5 -75.5t-79 -55t-115 -20.5h-108l-36 -298h-50l87 710h162zM290 345q57 0 94.5 19t60 47.5t32 59.5t9.5 55q0 38 -18.5 69t-53.5 49t-84 18h-110l-39 -317h109z" />
    <glyph glyph-name="Q" unicode="Q" horiz-adv-x="939" 
d="M608 38l253 10l-6 -48h-334zM473 -7q-69 0 -131 23.5t-109 67.5t-74 105.5t-27 138.5q0 66 25 134.5t73.5 126t121 93t166.5 35.5q69 0 131 -23.5t109 -67.5t74 -106t27 -139q0 -66 -25 -134t-73.5 -125.5t-120.5 -93t-167 -35.5zM474 40q82 0 144.5 31t105 81t64 110
t21.5 117q0 59 -22 111.5t-61.5 93t-93 63.5t-116.5 23q-82 0 -144 -31t-104.5 -81.5t-64 -110t-21.5 -117.5q0 -59 22 -111.5t61 -92.5t92.5 -63t116.5 -23z" />
    <glyph glyph-name="R" unicode="R" horiz-adv-x="633" 
d="M338 710q39 0 77 -11.5t67.5 -36t44.5 -62.5t9 -91q-5 -40 -21.5 -77.5t-47 -67.5t-76 -48t-108.5 -18h-109l-37 -298h-48l87 710h162zM287 345q71 0 113 25.5t62 63t24 73.5q4 32 -4.5 60t-27.5 49.5t-48.5 34t-67.5 12.5h-120l-38 -318h107zM385 323l158 -323h-57
l-158 322z" />
    <glyph glyph-name="Racute" unicode="&#x154;" horiz-adv-x="633" 
d="M338 710q39 0 77 -11.5t67.5 -36t44.5 -62.5t9 -91q-5 -40 -21.5 -77.5t-47 -67.5t-76 -48t-108.5 -18h-109l-37 -298h-48l87 710h162zM287 345q71 0 113 25.5t62 63t24 73.5q4 32 -4.5 60t-27.5 49.5t-48.5 34t-67.5 12.5h-120l-38 -318h107zM385 323l158 -323h-57
l-158 322zM495 932l-117 -133h-34l99 133h52z" />
    <glyph glyph-name="uni0156" unicode="&#x156;" horiz-adv-x="633" 
d="M338 710q39 0 77 -11.5t67.5 -36t44.5 -62.5t9 -91q-5 -40 -21.5 -77.5t-47 -67.5t-76 -48t-108.5 -18h-109l-37 -298h-48l87 710h162zM287 345q71 0 113 25.5t62 63t24 73.5q4 32 -4.5 60t-27.5 49.5t-48.5 34t-67.5 12.5h-120l-38 -318h107zM385 323l158 -323h-57
l-158 322zM239 -193l-23 19q29 19 42.5 53t11.5 75l44 -1q2 -27 -5 -55t-24 -52t-46 -39z" />
    <glyph glyph-name="Rcaron" unicode="&#x158;" horiz-adv-x="633" 
d="M338 710q39 0 77 -11.5t67.5 -36t44.5 -62.5t9 -91q-5 -40 -21.5 -77.5t-47 -67.5t-76 -48t-108.5 -18h-109l-37 -298h-48l87 710h162zM287 345q71 0 113 25.5t62 63t24 73.5q4 32 -4.5 60t-27.5 49.5t-48.5 34t-67.5 12.5h-120l-38 -318h107zM385 323l158 -323h-57
l-158 322zM291 952l83 -137l-17 -2l120 139h45l-160 -181h-1l-115 181h45z" />
    <glyph glyph-name="uni0210" unicode="&#x210;" horiz-adv-x="633" 
d="M338 710q39 0 77 -11.5t67.5 -36t44.5 -62.5t9 -91q-5 -40 -21.5 -77.5t-47 -67.5t-76 -48t-108.5 -18h-109l-37 -298h-48l87 710h162zM287 345q71 0 113 25.5t62 63t24 73.5q4 32 -4.5 60t-27.5 49.5t-48.5 34t-67.5 12.5h-120l-38 -318h107zM385 323l158 -323h-57
l-158 322zM260 932l70 -133h-34l-89 133h53zM362 932l70 -133h-34l-89 133h53z" />
    <glyph glyph-name="uni0212" unicode="&#x212;" horiz-adv-x="633" 
d="M338 710q39 0 77 -11.5t67.5 -36t44.5 -62.5t9 -91q-5 -40 -21.5 -77.5t-47 -67.5t-76 -48t-108.5 -18h-109l-37 -298h-48l87 710h162zM287 345q71 0 113 25.5t62 63t24 73.5q4 32 -4.5 60t-27.5 49.5t-48.5 34t-67.5 12.5h-120l-38 -318h107zM385 323l158 -323h-57
l-158 322zM378 917q16 0 37.5 -7.5t41.5 -25.5t31.5 -50.5t8.5 -83.5h-34q4 53 -12.5 81.5t-38.5 39.5t-37 11q-29 1 -51.5 -17t-37 -48t-21.5 -67h-35q8 51 28.5 89t51 58.5t68.5 19.5z" />
    <glyph glyph-name="S" unicode="S" horiz-adv-x="543" 
d="M501 617q-31 17 -77.5 33.5t-93.5 17.5q-46 0 -76.5 -13t-48.5 -33t-25.5 -41.5t-8.5 -37.5q-1 -35 20.5 -61t57 -45.5t74.5 -38.5q43 -19 82.5 -43t64.5 -61t23 -95q-1 -33 -15 -69.5t-42 -67.5t-72 -50.5t-106 -18.5q-52 1 -95 14t-76 32.5t-56 40.5l27 38
q21 -20 52.5 -38.5t70 -30t79.5 -12.5q59 0 99 24t61 61.5t22 76.5q1 43 -21 72.5t-57 50.5t-74 38q-31 14 -62 30.5t-56 37t-39 48t-12 64.5q2 53 30.5 91.5t75 59t102.5 20.5q36 -1 71 -9t67 -20.5t58 -28.5z" />
    <glyph glyph-name="Sacute" unicode="&#x15a;" horiz-adv-x="543" 
d="M501 617q-31 17 -77.5 33.5t-93.5 17.5q-46 0 -76.5 -13t-48.5 -33t-25.5 -41.5t-8.5 -37.5q-1 -35 20.5 -61t57 -45.5t74.5 -38.5q43 -19 82.5 -43t64.5 -61t23 -95q-1 -33 -15 -69.5t-42 -67.5t-72 -50.5t-106 -18.5q-52 1 -95 14t-76 32.5t-56 40.5l27 38
q21 -20 52.5 -38.5t70 -30t79.5 -12.5q59 0 99 24t61 61.5t22 76.5q1 43 -21 72.5t-57 50.5t-74 38q-31 14 -62 30.5t-56 37t-39 48t-12 64.5q2 53 30.5 91.5t75 59t102.5 20.5q36 -1 71 -9t67 -20.5t58 -28.5zM475 924l-117 -133h-34l99 133h52z" />
    <glyph glyph-name="Scircumflex" unicode="&#x15c;" horiz-adv-x="543" 
d="M501 617q-31 17 -77.5 33.5t-93.5 17.5q-46 0 -76.5 -13t-48.5 -33t-25.5 -41.5t-8.5 -37.5q-1 -35 20.5 -61t57 -45.5t74.5 -38.5q43 -19 82.5 -43t64.5 -61t23 -95q-1 -33 -15 -69.5t-42 -67.5t-72 -50.5t-106 -18.5q-52 1 -95 14t-76 32.5t-56 40.5l27 38
q21 -20 52.5 -38.5t70 -30t79.5 -12.5q59 0 99 24t61 61.5t22 76.5q1 43 -21 72.5t-57 50.5t-74 38q-31 14 -62 30.5t-56 37t-39 48t-12 64.5q2 53 30.5 91.5t75 59t102.5 20.5q36 -1 71 -9t67 -20.5t58 -28.5zM426 791l-83 137l16 3l-118 -140h-45l159 181v0l116 -181h-45z
" />
    <glyph glyph-name="Scedilla" unicode="&#x15e;" horiz-adv-x="543" 
d="M501 617q-31 17 -77.5 33.5t-93.5 17.5q-46 0 -76.5 -13t-48.5 -33t-25.5 -41.5t-8.5 -37.5q-1 -35 20.5 -61t57 -45.5t74.5 -38.5q43 -19 82.5 -43t64.5 -61t23 -95q-1 -33 -15 -69.5t-42 -67.5t-72 -50.5t-106 -18.5q-52 1 -95 14t-76 32.5t-56 40.5l27 38
q21 -20 52.5 -38.5t70 -30t79.5 -12.5q59 0 99 24t61 61.5t22 76.5q1 43 -21 72.5t-57 50.5t-74 38q-31 14 -62 30.5t-56 37t-39 48t-12 64.5q2 53 30.5 91.5t75 59t102.5 20.5q36 -1 71 -9t67 -20.5t58 -28.5zM151 -165q10 -12 27.5 -20.5t42.5 -10.5q35 -1 59.5 11.5
t28.5 38.5q3 24 -13 41.5t-56 19.5q-16 1 -37 -2t-34 -8l-12 27l79 72l36 -6l-78 -80l-16 13q12 5 33.5 9t41.5 2q50 -2 76.5 -25.5t21.5 -64.5q-3 -28 -21.5 -46t-46.5 -25.5t-61 -5.5q-31 2 -54 12.5t-36 24.5z" />
    <glyph glyph-name="Scaron" unicode="&#x160;" horiz-adv-x="543" 
d="M501 617q-31 17 -77.5 33.5t-93.5 17.5q-46 0 -76.5 -13t-48.5 -33t-25.5 -41.5t-8.5 -37.5q-1 -35 20.5 -61t57 -45.5t74.5 -38.5q43 -19 82.5 -43t64.5 -61t23 -95q-1 -33 -15 -69.5t-42 -67.5t-72 -50.5t-106 -18.5q-52 1 -95 14t-76 32.5t-56 40.5l27 38
q21 -20 52.5 -38.5t70 -30t79.5 -12.5q59 0 99 24t61 61.5t22 76.5q1 43 -21 72.5t-57 50.5t-74 38q-31 14 -62 30.5t-56 37t-39 48t-12 64.5q2 53 30.5 91.5t75 59t102.5 20.5q36 -1 71 -9t67 -20.5t58 -28.5zM271 944l83 -137l-17 -2l120 139h45l-160 -181h-1l-115 181h45
z" />
    <glyph glyph-name="uni0218" unicode="&#x218;" horiz-adv-x="543" 
d="M501 617q-31 17 -77.5 33.5t-93.5 17.5q-46 0 -76.5 -13t-48.5 -33t-25.5 -41.5t-8.5 -37.5q-1 -35 20.5 -61t57 -45.5t74.5 -38.5q43 -19 82.5 -43t64.5 -61t23 -95q-1 -33 -15 -69.5t-42 -67.5t-72 -50.5t-106 -18.5q-52 1 -95 14t-76 32.5t-56 40.5l27 38
q21 -20 52.5 -38.5t70 -30t79.5 -12.5q59 0 99 24t61 61.5t22 76.5q1 43 -21 72.5t-57 50.5t-74 38q-31 14 -62 30.5t-56 37t-39 48t-12 64.5q2 53 30.5 91.5t75 59t102.5 20.5q36 -1 71 -9t67 -20.5t58 -28.5zM196 -193l-23 19q29 19 42.5 53t11.5 75l44 -1q2 -27 -5 -55
t-24 -52t-46 -39z" />
    <glyph glyph-name="T" unicode="T" horiz-adv-x="577" 
d="M118 710h465l-6 -48h-208l-81 -662h-50l81 662h-207z" />
    <glyph glyph-name="uni0162" unicode="&#x162;" horiz-adv-x="577" 
d="M118 710h465l-6 -48h-208l-81 -662h-50l81 662h-207zM159 -165q10 -12 27.5 -20.5t42.5 -10.5q35 -1 59.5 11.5t28.5 38.5q3 24 -13 41.5t-56 19.5q-16 1 -37 -2t-34 -8l-12 27l79 72l36 -6l-78 -80l-16 13q12 5 33.5 9t41.5 2q50 -2 76.5 -25.5t21.5 -64.5
q-3 -28 -21.5 -46t-46.5 -25.5t-61 -5.5q-31 2 -54 12.5t-36 24.5z" />
    <glyph glyph-name="Tcaron" unicode="&#x164;" horiz-adv-x="577" 
d="M118 710h465l-6 -48h-208l-81 -662h-50l81 662h-207zM292 944l83 -137l-17 -2l120 139h45l-160 -181h-1l-115 181h45z" />
    <glyph glyph-name="uni021A" unicode="&#x21a;" horiz-adv-x="577" 
d="M118 710h465l-6 -48h-208l-81 -662h-50l81 662h-207zM204 -193l-23 19q29 19 42.5 53t11.5 75l44 -1q2 -27 -5 -55t-24 -52t-46 -39z" />
    <glyph glyph-name="U" unicode="U" horiz-adv-x="717" 
d="M169 240q-8 -62 11.5 -107t60.5 -69.5t97 -24.5q61 0 107.5 24.5t75.5 69.5t36 107l57 470h50l-57 -473q-10 -77 -46 -132t-94.5 -84t-134.5 -29v0q-69 0 -120.5 29t-77 84t-16.5 132l58 473h50z" />
    <glyph glyph-name="Ugrave" unicode="&#xd9;" horiz-adv-x="717" 
d="M169 240q-8 -62 11.5 -107t60.5 -69.5t97 -24.5q61 0 107.5 24.5t75.5 69.5t36 107l57 470h50l-57 -473q-10 -77 -46 -132t-94.5 -84t-134.5 -29v0q-69 0 -120.5 29t-77 84t-16.5 132l58 473h50zM378 932l70 -133h-34l-89 133h53z" />
    <glyph glyph-name="Uacute" unicode="&#xda;" horiz-adv-x="717" 
d="M169 240q-8 -62 11.5 -107t60.5 -69.5t97 -24.5q61 0 107.5 24.5t75.5 69.5t36 107l57 470h50l-57 -473q-10 -77 -46 -132t-94.5 -84t-134.5 -29v0q-69 0 -120.5 29t-77 84t-16.5 132l58 473h50zM567 932l-117 -133h-34l99 133h52z" />
    <glyph glyph-name="Ucircumflex" unicode="&#xdb;" horiz-adv-x="717" 
d="M169 240q-8 -62 11.5 -107t60.5 -69.5t97 -24.5q61 0 107.5 24.5t75.5 69.5t36 107l57 470h50l-57 -473q-10 -77 -46 -132t-94.5 -84t-134.5 -29v0q-69 0 -120.5 29t-77 84t-16.5 132l58 473h50zM518 799l-83 137l16 3l-118 -140h-45l159 181v0l116 -181h-45z" />
    <glyph glyph-name="Udieresis" unicode="&#xdc;" horiz-adv-x="717" 
d="M169 240q-8 -62 11.5 -107t60.5 -69.5t97 -24.5q61 0 107.5 24.5t75.5 69.5t36 107l57 470h50l-57 -473q-10 -77 -46 -132t-94.5 -84t-134.5 -29v0q-69 0 -120.5 29t-77 84t-16.5 132l58 473h50zM316 831q1 14 12 23.5t24 9.5q13 -1 22.5 -11t8.5 -24q-1 -15 -12 -24.5
t-24 -8.5q-13 0 -22.5 10.5t-8.5 24.5v0zM490 831q1 14 12 23.5t24 9.5q13 -1 22.5 -11t8.5 -24q-1 -15 -12 -24.5t-24 -8.5q-13 0 -22.5 10t-8.5 25v0z" />
    <glyph glyph-name="Utilde" unicode="&#x168;" horiz-adv-x="717" 
d="M169 240q-8 -62 11.5 -107t60.5 -69.5t97 -24.5q61 0 107.5 24.5t75.5 69.5t36 107l57 470h50l-57 -473q-10 -77 -46 -132t-94.5 -84t-134.5 -29v0q-69 0 -120.5 29t-77 84t-16.5 132l58 473h50zM508 763q-31 2 -49 18t-33 35q-11 15 -23 28t-32 14q-12 1 -25.5 -7.5
t-24 -27.5t-16.5 -53l-32 4q5 41 20.5 68.5t37.5 41.5t46 12q29 -1 46 -17.5t30 -35.5q12 -16 25.5 -29t32.5 -14q14 -1 26.5 7t21.5 28t14 53l32 -3q-4 -42 -18 -69.5t-34.5 -40.5t-44.5 -12z" />
    <glyph glyph-name="Umacron" unicode="&#x16a;" horiz-adv-x="717" 
d="M169 240q-8 -62 11.5 -107t60.5 -69.5t97 -24.5q61 0 107.5 24.5t75.5 69.5t36 107l57 470h50l-57 -473q-10 -77 -46 -132t-94.5 -84t-134.5 -29v0q-69 0 -120.5 29t-77 84t-16.5 132l58 473h50zM321 836h231l-3 -30h-232z" />
    <glyph glyph-name="Ubreve" unicode="&#x16c;" horiz-adv-x="717" 
d="M169 240q-8 -62 11.5 -107t60.5 -69.5t97 -24.5q61 0 107.5 24.5t75.5 69.5t36 107l57 470h50l-57 -473q-10 -77 -46 -132t-94.5 -84t-134.5 -29v0q-69 0 -120.5 29t-77 84t-16.5 132l58 473h50zM434 780q-16 0 -37.5 7.5t-41.5 25.5t-31.5 50.5t-8.5 83.5h34
q-3 -53 13 -81.5t38.5 -39t36.5 -11.5q30 0 52 17.5t37 48t21 66.5h35q-8 -51 -28.5 -89t-50.5 -58.5t-69 -19.5z" />
    <glyph glyph-name="Uring" unicode="&#x16e;" horiz-adv-x="717" 
d="M169 240q-8 -62 11.5 -107t60.5 -69.5t97 -24.5q61 0 107.5 24.5t75.5 69.5t36 107l57 470h50l-57 -473q-10 -77 -46 -132t-94.5 -84t-134.5 -29v0q-69 0 -120.5 29t-77 84t-16.5 132l58 473h50zM359 810q2 36 25.5 56.5t56.5 19.5q32 -1 52.5 -21t18.5 -51
q-1 -36 -25 -56.5t-57 -19.5q-32 1 -52 21t-19 51zM389 810q0 -19 12 -32t31 -14q20 0 34.5 13t15.5 35q1 20 -11 33t-31 13q-19 1 -34.5 -12t-16.5 -36z" />
    <glyph glyph-name="Uhungarumlaut" unicode="&#x170;" horiz-adv-x="717" 
d="M169 240q-8 -62 11.5 -107t60.5 -69.5t97 -24.5q61 0 107.5 24.5t75.5 69.5t36 107l57 470h50l-57 -473q-10 -77 -46 -132t-94.5 -84t-134.5 -29v0q-69 0 -120.5 29t-77 84t-16.5 132l58 473h50zM485 932q-28 -33 -58 -66.5t-59 -66.5h-34q26 33 53 66.5t53 66.5h45z
M623 932q-28 -33 -58 -66.5t-59 -66.5h-34q26 33 53 66.5t54 66.5h44z" />
    <glyph glyph-name="Uogonek" unicode="&#x172;" horiz-adv-x="716" 
d="M332 -8q-70 0 -121.5 29t-76.5 84t-16 132l58 473h50l-57 -470q-8 -62 11.5 -107t60.5 -69.5t97 -24.5q61 0 107.5 24.5t75.5 69.5t36 107l57 470h50l-57 -473q-7 -57 -30 -102t-57.5 -76.5t-77.5 -48.5q-43 -16 -66.5 -48.5t-23.5 -63.5q0 -25 15.5 -41t35.5 -16
q20 -1 36 12t29 33l19 -24q-14 -24 -39 -40.5t-53 -16.5q-25 0 -44 11.5t-30 32t-11 45.5q0 41 29 74.5t73 55.5l23 -14q-25 -9 -46 -13.5t-57 -4.5z" />
    <glyph glyph-name="Uhorn" unicode="&#x1af;" horiz-adv-x="750" 
d="M169 240q-8 -62 11.5 -107t60.5 -69.5t97 -24.5q61 0 107.5 24.5t75.5 69.5t36 107l57 470h50l-57 -473q-10 -77 -46 -132t-94.5 -84t-134.5 -29v0q-69 0 -120.5 29t-77 84t-16.5 132l58 473h50zM649 617q47 -3 73.5 16.5t36.5 76.5h37q-9 -56 -30.5 -83.5t-52 -35.5
t-68.5 -5z" />
    <glyph glyph-name="uni01D3" unicode="&#x1d3;" horiz-adv-x="717" 
d="M169 240q-8 -62 11.5 -107t60.5 -69.5t97 -24.5q61 0 107.5 24.5t75.5 69.5t36 107l57 470h50l-57 -473q-10 -77 -46 -132t-94.5 -84t-134.5 -29v0q-69 0 -120.5 29t-77 84t-16.5 132l58 473h50zM363 952l83 -137l-17 -2l120 139h45l-160 -181h-1l-115 181h45z" />
    <glyph glyph-name="uni0214" unicode="&#x214;" horiz-adv-x="717" 
d="M169 240q-8 -62 11.5 -107t60.5 -69.5t97 -24.5q61 0 107.5 24.5t75.5 69.5t36 107l57 470h50l-57 -473q-10 -77 -46 -132t-94.5 -84t-134.5 -29v0q-69 0 -120.5 29t-77 84t-16.5 132l58 473h50zM332 932l70 -133h-34l-89 133h53zM434 932l70 -133h-34l-89 133h53z" />
    <glyph glyph-name="uni0216" unicode="&#x216;" horiz-adv-x="717" 
d="M169 240q-8 -62 11.5 -107t60.5 -69.5t97 -24.5q61 0 107.5 24.5t75.5 69.5t36 107l57 470h50l-57 -473q-10 -77 -46 -132t-94.5 -84t-134.5 -29v0q-69 0 -120.5 29t-77 84t-16.5 132l58 473h50zM450 917q16 0 37.5 -7.5t41.5 -25.5t31.5 -50.5t8.5 -83.5h-34
q4 53 -12.5 81.5t-38.5 39.5t-37 11q-29 1 -51.5 -17t-37 -48t-21.5 -67h-35q8 51 28.5 89t51 58.5t68.5 19.5z" />
    <glyph glyph-name="uni1EE4" unicode="&#x1ee4;" horiz-adv-x="717" 
d="M169 240q-8 -62 11.5 -107t60.5 -69.5t97 -24.5q61 0 107.5 24.5t75.5 69.5t36 107l57 470h50l-57 -473q-10 -77 -46 -132t-94.5 -84t-134.5 -29v0q-69 0 -120.5 29t-77 84t-16.5 132l58 473h50zM282 -95q1 14 13.5 24t26.5 9q13 0 22.5 -9.5t7.5 -23.5q-1 -15 -13 -24.5
t-26 -9.5q-13 1 -22.5 11t-8.5 23z" />
    <glyph glyph-name="uni1EE6" unicode="&#x1ee6;" horiz-adv-x="717" 
d="M169 240q-8 -62 11.5 -107t60.5 -69.5t97 -24.5q61 0 107.5 24.5t75.5 69.5t36 107l57 470h50l-57 -473q-10 -77 -46 -132t-94.5 -84t-134.5 -29v0q-69 0 -120.5 29t-77 84t-16.5 132l58 473h50zM412 774q24 17 40.5 31t19.5 33q2 20 -5.5 33t-29.5 14q-17 1 -29.5 -6.5
t-27.5 -24.5l-19 14q19 25 39.5 36.5t44.5 9.5q27 -1 44 -17.5t13 -50.5q-2 -26 -22.5 -46.5t-55.5 -41.5z" />
    <glyph glyph-name="uni1EE8" unicode="&#x1ee8;" horiz-adv-x="750" 
d="M169 240q-8 -62 11.5 -107t60.5 -69.5t97 -24.5q61 0 107.5 24.5t75.5 69.5t36 107l57 470h50l-57 -473q-10 -77 -46 -132t-94.5 -84t-134.5 -29v0q-69 0 -120.5 29t-77 84t-16.5 132l58 473h50zM649 617q47 -3 73.5 16.5t36.5 76.5h37q-9 -56 -30.5 -83.5t-52 -35.5
t-68.5 -5zM567 932l-117 -133h-34l99 133h52z" />
    <glyph glyph-name="uni1EEA" unicode="&#x1eea;" horiz-adv-x="750" 
d="M169 240q-8 -62 11.5 -107t60.5 -69.5t97 -24.5q61 0 107.5 24.5t75.5 69.5t36 107l57 470h50l-57 -473q-10 -77 -46 -132t-94.5 -84t-134.5 -29v0q-69 0 -120.5 29t-77 84t-16.5 132l58 473h50zM649 617q47 -3 73.5 16.5t36.5 76.5h37q-9 -56 -30.5 -83.5t-52 -35.5
t-68.5 -5zM378 932l70 -133h-34l-89 133h53z" />
    <glyph glyph-name="uni1EEC" unicode="&#x1eec;" horiz-adv-x="750" 
d="M169 240q-8 -62 11.5 -107t60.5 -69.5t97 -24.5q61 0 107.5 24.5t75.5 69.5t36 107l57 470h50l-57 -473q-10 -77 -46 -132t-94.5 -84t-134.5 -29v0q-69 0 -120.5 29t-77 84t-16.5 132l58 473h50zM649 617q47 -3 73.5 16.5t36.5 76.5h37q-9 -56 -30.5 -83.5t-52 -35.5
t-68.5 -5zM412 774q24 17 40.5 31t19.5 33q2 20 -5.5 33t-29.5 14q-17 1 -29.5 -6.5t-27.5 -24.5l-19 14q19 25 39.5 36.5t44.5 9.5q27 -1 44 -17.5t13 -50.5q-2 -26 -22.5 -46.5t-55.5 -41.5z" />
    <glyph glyph-name="uni1EEE" unicode="&#x1eee;" horiz-adv-x="750" 
d="M169 240q-8 -62 11.5 -107t60.5 -69.5t97 -24.5q61 0 107.5 24.5t75.5 69.5t36 107l57 470h50l-57 -473q-10 -77 -46 -132t-94.5 -84t-134.5 -29v0q-69 0 -120.5 29t-77 84t-16.5 132l58 473h50zM649 617q47 -3 73.5 16.5t36.5 76.5h37q-9 -56 -30.5 -83.5t-52 -35.5
t-68.5 -5zM508 763q-31 2 -49 18t-33 35q-11 15 -23 28t-32 14q-12 1 -25.5 -7.5t-24 -27.5t-16.5 -53l-32 4q5 41 20.5 68.5t37.5 41.5t46 12q29 -1 46 -17.5t30 -35.5q12 -16 25.5 -29t32.5 -14q14 -1 26.5 7t21.5 28t14 53l32 -3q-4 -42 -18 -69.5t-34.5 -40.5t-44.5 -12
z" />
    <glyph glyph-name="uni1EF0" unicode="&#x1ef0;" horiz-adv-x="750" 
d="M169 240q-8 -62 11.5 -107t60.5 -69.5t97 -24.5q61 0 107.5 24.5t75.5 69.5t36 107l57 470h50l-57 -473q-10 -77 -46 -132t-94.5 -84t-134.5 -29v0q-69 0 -120.5 29t-77 84t-16.5 132l58 473h50zM649 617q47 -3 73.5 16.5t36.5 76.5h37q-9 -56 -30.5 -83.5t-52 -35.5
t-68.5 -5zM282 -95q1 14 13.5 24t26.5 9q13 0 22.5 -9.5t7.5 -23.5q-1 -15 -13 -24.5t-26 -9.5q-13 1 -22.5 11t-8.5 23z" />
    <glyph glyph-name="V" unicode="V" horiz-adv-x="694" 
d="M319 -29l-211 739h57l181 -656l-27 4l337 652h56l-391 -739h-2z" />
    <glyph glyph-name="W" unicode="W" horiz-adv-x="985" 
d="M108 708h56l156 -639l-10 3l197 397l16 -63l-225 -439zM436 708h49l165 -639l-14 4l315 635h52l-375 -740z" />
    <glyph glyph-name="Wcircumflex" unicode="&#x174;" horiz-adv-x="985" 
d="M108 708h56l156 -639l-10 3l197 397l16 -63l-225 -439zM436 708h49l165 -639l-14 4l315 635h52l-375 -740zM676 801l-83 137l16 3l-118 -140h-45l159 181v0l116 -181h-45z" />
    <glyph glyph-name="Wgrave" unicode="&#x1e80;" horiz-adv-x="985" 
d="M108 708h56l156 -639l-10 3l197 397l16 -63l-225 -439zM436 708h49l165 -639l-14 4l315 635h52l-375 -740zM536 934l70 -133h-34l-89 133h53z" />
    <glyph glyph-name="Wacute" unicode="&#x1e82;" horiz-adv-x="985" 
d="M108 708h56l156 -639l-10 3l197 397l16 -63l-225 -439zM436 708h49l165 -639l-14 4l315 635h52l-375 -740zM725 934l-117 -133h-34l99 133h52z" />
    <glyph glyph-name="Wdieresis" unicode="&#x1e84;" horiz-adv-x="985" 
d="M108 708h56l156 -639l-10 3l197 397l16 -63l-225 -439zM436 708h49l165 -639l-14 4l315 635h52l-375 -740zM474 833q1 14 12 23.5t24 9.5q13 -1 22.5 -11t8.5 -24q-1 -15 -12 -24.5t-24 -8.5q-13 0 -22.5 10.5t-8.5 24.5v0zM648 833q1 14 12 23.5t24 9.5q13 -1 22.5 -11
t8.5 -24q-1 -15 -12 -24.5t-24 -8.5q-13 0 -22.5 10t-8.5 25v0z" />
    <glyph glyph-name="X" unicode="X" horiz-adv-x="608" 
d="M112 710h60l376 -710h-62zM15 0l284 375l23 -43l-247 -332h-60zM325 391l236 319h60l-272 -358z" />
    <glyph glyph-name="Y" unicode="Y" horiz-adv-x="661" 
d="M312 253l-208 457h58l189 -416l-17 -1l289 417h61l-322 -457l-31 -253h-50z" />
    <glyph glyph-name="Yacute" unicode="&#xdd;" horiz-adv-x="661" 
d="M312 253l-208 457h58l189 -416l-17 -1l289 417h61l-322 -457l-31 -253h-50zM543 934l-117 -133h-34l99 133h52z" />
    <glyph glyph-name="Ycircumflex" unicode="&#x176;" horiz-adv-x="661" 
d="M312 253l-208 457h58l189 -416l-17 -1l289 417h61l-322 -457l-31 -253h-50zM494 801l-83 137l16 3l-118 -140h-45l159 181v0l116 -181h-45z" />
    <glyph glyph-name="Ydieresis" unicode="&#x178;" horiz-adv-x="661" 
d="M312 253l-208 457h58l189 -416l-17 -1l289 417h61l-322 -457l-31 -253h-50zM292 833q1 14 12 23.5t24 9.5q13 -1 22.5 -11t8.5 -24q-1 -15 -12 -24.5t-24 -8.5q-13 0 -22.5 10.5t-8.5 24.5v0zM466 833q1 14 12 23.5t24 9.5q13 -1 22.5 -11t8.5 -24q-1 -15 -12 -24.5
t-24 -8.5q-13 0 -22.5 10t-8.5 25v0z" />
    <glyph glyph-name="uni0232" unicode="&#x232;" horiz-adv-x="661" 
d="M312 253l-208 457h58l189 -416l-17 -1l289 417h61l-322 -457l-31 -253h-50zM297 838h231l-3 -30h-232z" />
    <glyph glyph-name="Ygrave" unicode="&#x1ef2;" horiz-adv-x="661" 
d="M312 253l-208 457h58l189 -416l-17 -1l289 417h61l-322 -457l-31 -253h-50zM354 934l70 -133h-34l-89 133h53z" />
    <glyph glyph-name="uni1EF4" unicode="&#x1ef4;" horiz-adv-x="661" 
d="M312 253l-208 457h58l189 -416l-17 -1l289 417h61l-322 -457l-31 -253h-50zM259 -95q1 14 13.5 24t26.5 9q13 0 22.5 -9.5t7.5 -23.5q-1 -15 -13 -24.5t-26 -9.5q-13 1 -22.5 11t-8.5 23z" />
    <glyph glyph-name="uni1EF6" unicode="&#x1ef6;" horiz-adv-x="661" 
d="M312 253l-208 457h58l189 -416l-17 -1l289 417h61l-322 -457l-31 -253h-50zM388 776q24 17 40.5 31t19.5 33q2 20 -5.5 33t-29.5 14q-17 1 -29.5 -6.5t-27.5 -24.5l-19 14q19 25 39.5 36.5t44.5 9.5q27 -1 44 -17.5t13 -50.5q-2 -26 -22.5 -46.5t-55.5 -41.5z" />
    <glyph glyph-name="uni1EF8" unicode="&#x1ef8;" horiz-adv-x="661" 
d="M312 253l-208 457h58l189 -416l-17 -1l289 417h61l-322 -457l-31 -253h-50zM484 765q-31 2 -49 18t-33 35q-11 15 -23 28t-32 14q-12 1 -25.5 -7.5t-24 -27.5t-16.5 -53l-32 4q5 41 20.5 68.5t37.5 41.5t46 12q29 -1 46 -17.5t30 -35.5q12 -16 25.5 -29t32.5 -14
q14 -1 26.5 7t21.5 28t14 53l32 -3q-4 -42 -18 -69.5t-34.5 -40.5t-44.5 -12z" />
    <glyph glyph-name="Z" unicode="Z" horiz-adv-x="641" 
d="M11 0l568 676l9 -13h-400q-19 0 -33.5 5t-21.5 16t-5 30l4 31h47l-2 -12q-1 -10 5.5 -16.5t22.5 -6.5h458l-566 -671l-5 8h514l-6 -47h-589z" />
    <glyph glyph-name="Zacute" unicode="&#x179;" horiz-adv-x="641" 
d="M11 0l568 676l9 -13h-400q-19 0 -33.5 5t-21.5 16t-5 30l4 31h47l-2 -12q-1 -10 5.5 -16.5t22.5 -6.5h458l-566 -671l-5 8h514l-6 -47h-589zM544 934l-117 -133h-34l99 133h52z" />
    <glyph glyph-name="Zdotaccent" unicode="&#x17b;" horiz-adv-x="641" 
d="M11 0l568 676l9 -13h-400q-19 0 -33.5 5t-21.5 16t-5 30l4 31h47l-2 -12q-1 -10 5.5 -16.5t22.5 -6.5h458l-566 -671l-5 8h514l-6 -47h-589zM378 834q1 14 13.5 24t26.5 9q13 0 22.5 -9.5t7.5 -23.5q-1 -15 -13 -24.5t-26 -9.5q-13 1 -22.5 11t-8.5 23z" />
    <glyph glyph-name="Zcaron" unicode="&#x17d;" horiz-adv-x="641" 
d="M11 0l568 676l9 -13h-400q-19 0 -33.5 5t-21.5 16t-5 30l4 31h47l-2 -12q-1 -10 5.5 -16.5t22.5 -6.5h458l-566 -671l-5 8h514l-6 -47h-589zM340 954l83 -137l-17 -2l120 139h45l-160 -181h-1l-115 181h45z" />
    <glyph glyph-name="AE" unicode="&#xc6;" horiz-adv-x="934" 
d="M531 710h378l-6 -48h-329l-35 -282h290l-6 -47h-289l-35 -286h343l-6 -47h-392zM539 664q-3 -7 -7 -15.5t-6 -13.5l-475 -635h-55l535 710zM195 236h289l-5 -40h-300z" />
    <glyph glyph-name="AEacute" unicode="&#x1fc;" horiz-adv-x="934" 
d="M531 710h378l-6 -48h-329l-35 -282h290l-6 -47h-289l-35 -286h343l-6 -47h-392zM539 664q-3 -7 -7 -15.5t-6 -13.5l-475 -635h-55l535 710zM195 236h289l-5 -40h-300zM815 934l-117 -133h-34l99 133h52z" />
    <glyph glyph-name="Eth" unicode="&#xd0;" horiz-adv-x="738" 
d="M89 0l87 710h163q103 0 171.5 -27.5t108.5 -74t56 -106t13 -123.5q-2 -91 -34 -162t-87 -119t-126.5 -73t-154.5 -25h-197zM143 47h147q71 0 133.5 21t110.5 63t75.5 104.5t29.5 144.5q2 63 -14 114.5t-52 89t-91 58t-131 20.5h-133zM38 374h242l-6 -48h-242z" />
    <glyph glyph-name="Oslash" unicode="&#xd8;" horiz-adv-x="842" 
d="M814 699l-682 -705l-22 22l682 706zM429 -7q-69 0 -131 23.5t-109 67.5t-74 105.5t-27 138.5q0 66 25 134.5t73.5 126t121 93t166.5 35.5q69 0 131 -23.5t109 -67.5t74 -106t27 -139q0 -66 -25 -134t-73.5 -125.5t-120.5 -93t-167 -35.5zM430 40q82 0 144.5 31t105 81
t64 110t21.5 117q0 59 -22 111.5t-61.5 93t-93 63.5t-116.5 23q-82 0 -144 -31t-104.5 -81.5t-64 -110t-21.5 -117.5q0 -59 21.5 -111.5t61 -92.5t93 -63t116.5 -23z" />
    <glyph glyph-name="Oslashacute" unicode="&#x1fe;" horiz-adv-x="842" 
d="M814 699l-682 -705l-22 22l682 706zM429 -7q-69 0 -131 23.5t-109 67.5t-74 105.5t-27 138.5q0 66 25 134.5t73.5 126t121 93t166.5 35.5q69 0 131 -23.5t109 -67.5t74 -106t27 -139q0 -66 -25 -134t-73.5 -125.5t-120.5 -93t-167 -35.5zM430 40q82 0 144.5 31t105 81
t64 110t21.5 117q0 59 -22 111.5t-61.5 93t-93 63.5t-116.5 23q-82 0 -144 -31t-104.5 -81.5t-64 -110t-21.5 -117.5q0 -59 21.5 -111.5t61 -92.5t93 -63t116.5 -23zM630 934l-117 -133h-34l99 133h52z" />
    <glyph glyph-name="Thorn" unicode="&#xde;" horiz-adv-x="550" 
d="M320 556q36 0 71.5 -10.5t64.5 -31.5t46 -54.5t17 -80.5q0 -42 -15 -83t-45.5 -75.5t-78.5 -55t-114 -20.5h-109l-18 -145h-50l87 704h50l-18 -148h112zM272 192q57 0 94.5 19t60 47.5t32 59.5t9.5 55q0 38 -18.5 69t-53.5 49t-84 18h-110l-39 -317h109z" />
    <glyph glyph-name="Dcroat" unicode="&#x110;" horiz-adv-x="738" 
d="M89 0l87 710h163q103 0 171.5 -27.5t108.5 -74t56 -106t13 -123.5q-2 -91 -34 -162t-87 -119t-126.5 -73t-154.5 -25h-197zM143 47h147q71 0 133.5 21t110.5 63t75.5 104.5t29.5 144.5q2 63 -14 114.5t-52 89t-91 58t-131 20.5h-133zM38 374h242l-6 -48h-242z" />
    <glyph glyph-name="Hbar" unicode="&#x126;" horiz-adv-x="912" 
d="M155 532h683l-4 -30h-683zM775 710l-87 -710h-50l42 334h-426l-41 -334h-50l87 710h50l-41 -329h426l40 329h50z" />
    <glyph glyph-name="IJ" unicode="&#x132;" horiz-adv-x="610" 
d="M176 710h50l-87 -710h-50zM484 107q-9 -79 -45 -135t-88 -85.5t-113 -31.5v0l6 48q48 3 88.5 27t68 69.5t35.5 110.5l74 600h48z" />
    <glyph glyph-name="Ldot" unicode="&#x13f;" horiz-adv-x="600" 
d="M176 710h48l-81 -663h390l-6 -47h-438zM520 308q0 16 12.5 27t26.5 11q11 0 20 -9t9 -22q0 -10 -5.5 -18.5t-14.5 -13.5t-18 -5q-12 0 -21 8.5t-9 21.5v0z" />
    <glyph glyph-name="Lslash" unicode="&#x141;" horiz-adv-x="574" 
d="M417 425l-6 -42l-358 -118l6 42zM176 710h48l-81 -663h390l-6 -47h-438z" />
    <glyph glyph-name="Eng" unicode="&#x14a;" horiz-adv-x="809" 
d="M581 -188l-26 29q33 24 52.5 64t23.5 89l6 58l32 -60l-476 631l14 1l-75 -624h-49l89 725h2l482 -645l-16 5l76 625h49l-87 -715q-7 -62 -31 -109t-66 -74z" />
    <glyph glyph-name="OE" unicode="&#x152;" horiz-adv-x="997" 
d="M578 662q-16 3 -32.5 5t-34.5 2q-69 0 -132.5 -27.5t-113.5 -76t-78.5 -111t-28.5 -133.5q0 -59 20.5 -110t57.5 -89.5t87.5 -60t109.5 -21.5q18 0 35.5 2t35.5 6l15 -45q-22 -5 -45 -8t-46 -3q-69 0 -127.5 25t-101.5 69.5t-67 103.5t-24 127q0 81 33 153.5t90.5 128.5
t131 87.5t154.5 31.5q24 0 46.5 -3.5t43.5 -9.5zM578 710h408l-6 -46h-358l-35 -284h319l-6 -46h-318l-35 -287h372l-6 -47h-422z" />
    <glyph glyph-name="Tbar" unicode="&#x166;" horiz-adv-x="577" 
d="M118 710h465l-6 -48h-208l-81 -662h-50l81 662h-207zM184 374h242l-6 -48h-242z" />
    <glyph glyph-name="uni018F" unicode="&#x18f;" horiz-adv-x="810" 
d="M425 718q40 -1 86 -13t90 -36.5t80.5 -63.5t58 -94t21.5 -128q0 -42 -13.5 -93.5t-42.5 -103t-75 -95t-109.5 -69.5t-147.5 -26q-25 0 -59 5.5t-72 21.5t-73.5 46t-63 78t-41.5 119l651 202l7 -38l-620 -196l18 17q18 -64 49 -105t68.5 -64t74 -32.5t63.5 -9.5
q71 -1 125.5 22t94.5 61t65.5 83.5t37.5 90t12 79.5q0 66 -20 115t-53 83t-72 55t-77 31t-68 10q-58 1 -118.5 -22t-102.5 -58l-22 40q33 27 74.5 47t86.5 31t87 10z" />
    <glyph glyph-name="uni019D" unicode="&#x19d;" horiz-adv-x="768" 
d="M625 -17l-481 633l13 8l-76 -624h-47l89 725h2l483 -636l-15 -4l76 625h47l-88 -718zM88 54l-8 -59q-7 -61 -30.5 -107t-63.5 -76l-28 29q29 26 49 65t26 88l12 95z" />
    <glyph glyph-name="uni01C4" unicode="&#x1c4;" horiz-adv-x="1379" 
d="M89 0l87 710h163q103 0 171.5 -27.5t108.5 -74t56 -106t13 -123.5q-2 -91 -34 -162t-87 -119t-126.5 -73t-154.5 -25h-197zM143 47h147q71 0 133.5 21t110.5 63t75.5 104.5t29.5 144.5q2 63 -14 114.5t-52 89t-91 58t-131 20.5h-133zM749 0l568 676l9 -13h-400
q-19 0 -33.5 5t-21.5 16t-5 30l4 31h47l-2 -12q-1 -10 5.5 -16.5t22.5 -6.5h458l-566 -671l-5 8h514l-6 -47h-589zM1078 954l83 -137l-17 -2l120 139h45l-160 -181h-1l-115 181h45z" />
    <glyph glyph-name="uni01C7" unicode="&#x1c7;" horiz-adv-x="910" 
d="M176 710h48l-81 -663h390l-6 -47h-438zM784 107q-9 -79 -45 -135t-88 -85.5t-113 -31.5v0l6 48q48 3 88.5 27t68 69.5t35.5 110.5l74 600h48z" />
    <glyph glyph-name="uni01CA" unicode="&#x1ca;" horiz-adv-x="1156" 
d="M683 -17h-2l-481 635l12 6l-76 -624h-47l89 725h2l482 -639l-13 -1l76 625h47zM1030 107q-9 -79 -45 -135t-88 -85.5t-113 -31.5v0l6 48q48 3 88.5 27t68 69.5t35.5 110.5l74 600h48z" />
    <glyph glyph-name="uni1E9E" unicode="&#x1e9e;" horiz-adv-x="818" 
d="M552 -8q-64 0 -111 16t-78 37l25 40q32 -21 76 -35.5t91 -14.5q31 0 65.5 14t61.5 42t32 69q5 36 -12.5 59t-47 41t-61.5 38q-39 21 -74.5 46.5t-56 60t-15.5 81.5q5 43 27.5 79.5t63 61t98.5 27.5q34 0 51 -8.5t28 -16.5l-17 -22q-38 39 -95 60.5t-117 21.5
q-79 0 -142.5 -34.5t-105 -107.5t-55.5 -187l-45 -360h-49l45 364q14 108 57 190.5t116.5 128.5t178.5 46q60 0 111.5 -16t90.5 -40.5t59 -52.5l-21 -36q-7 7 -29.5 20.5t-58.5 13.5q-34 0 -64.5 -16t-51 -43.5t-24.5 -61.5q-5 -40 13 -68t49.5 -49t65.5 -42
q27 -16 53.5 -32t47.5 -35.5t31.5 -46t5.5 -63.5q-5 -46 -33.5 -84t-74.5 -61.5t-104 -23.5z" />
    <glyph glyph-name="uni0394" unicode="&#x394;" horiz-adv-x="742" 
d="M26 0l405 741h5l230 -741h-640zM603 12l-195 672h41l-366 -672l-11 34h560z" />
    <glyph glyph-name="uni2126" unicode="&#x2126;" horiz-adv-x="833" 
d="M497 42q49 19 91.5 53.5t71.5 86t36 119.5q7 60 -3 107t-36 79.5t-64.5 49.5t-88.5 17q-53 0 -97.5 -18t-78 -52t-55 -81.5t-29.5 -105.5q-9 -69 10 -119.5t55.5 -83.5t77.5 -52l-3 -25q-36 14 -69.5 33.5t-60 48t-42 69t-15.5 95.5q0 62 20.5 121.5t60 107.5t97.5 76
t133 28q67 0 113 -23.5t74 -63t39 -88.5t8 -100q-3 -56 -18 -100t-39 -77t-54.5 -57.5t-65.5 -41.5t-71 -29zM167 42h220l-5 -42h-220zM497 42h210l-6 -42h-209z" />
    <glyph glyph-name="uni00B5" unicode="&#xb5;" horiz-adv-x="509" 
d="M187 -11q-46 0 -74 24.5t-33 64.5l39 25l-37 -304h-41l38 310l34 282h47l-33 -271q-3 -38 16.5 -63t63.5 -27q39 0 74.5 20t60 54.5t29.5 78.5l26 208h47l-48 -391h-42l9 99q-14 -30 -41 -55t-62 -40t-73 -15z" />
    <glyph glyph-name="a" unicode="a" horiz-adv-x="561" 
d="M232 -6q-50 0 -91.5 24t-66 67t-24.5 98q0 35 12.5 73t39 71.5t67 54.5t97.5 21q46 0 81 -15.5t59.5 -41.5t35.5 -60l-9 -14l21 119h41l-47 -391h-47l14 114l7 -18q-10 -18 -28.5 -36.5t-42.5 -33.5t-54 -23.5t-65 -8.5zM255 33q40 0 75 17t59.5 48t32.5 71l6 57
q-3 39 -24 70t-55.5 49t-76.5 18q-48 0 -81 -18t-53.5 -45.5t-29.5 -57.5t-9 -54q0 -43 20 -78.5t55.5 -56t80.5 -20.5z" />
    <glyph glyph-name="agrave" unicode="&#xe0;" horiz-adv-x="561" 
d="M232 -6q-50 0 -91.5 24t-66 67t-24.5 98q0 35 12.5 73t39 71.5t67 54.5t97.5 21q46 0 81 -15.5t59.5 -41.5t35.5 -60l-9 -14l21 119h41l-47 -391h-47l14 114l7 -18q-10 -18 -28.5 -36.5t-42.5 -33.5t-54 -23.5t-65 -8.5zM255 33q40 0 75 17t59.5 48t32.5 71l6 57
q-3 39 -24 70t-55.5 49t-76.5 18q-48 0 -81 -18t-53.5 -45.5t-29.5 -57.5t-9 -54q0 -43 20 -78.5t55.5 -56t80.5 -20.5zM245 624l70 -133h-34l-89 133h53z" />
    <glyph glyph-name="aacute" unicode="&#xe1;" horiz-adv-x="561" 
d="M232 -6q-50 0 -91.5 24t-66 67t-24.5 98q0 35 12.5 73t39 71.5t67 54.5t97.5 21q46 0 81 -15.5t59.5 -41.5t35.5 -60l-9 -14l21 119h41l-47 -391h-47l14 114l7 -18q-10 -18 -28.5 -36.5t-42.5 -33.5t-54 -23.5t-65 -8.5zM255 33q40 0 75 17t59.5 48t32.5 71l6 57
q-3 39 -24 70t-55.5 49t-76.5 18q-48 0 -81 -18t-53.5 -45.5t-29.5 -57.5t-9 -54q0 -43 20 -78.5t55.5 -56t80.5 -20.5zM434 624l-117 -133h-34l99 133h52z" />
    <glyph glyph-name="acircumflex" unicode="&#xe2;" horiz-adv-x="561" 
d="M232 -6q-50 0 -91.5 24t-66 67t-24.5 98q0 35 12.5 73t39 71.5t67 54.5t97.5 21q46 0 81 -15.5t59.5 -41.5t35.5 -60l-9 -14l21 119h41l-47 -391h-47l14 114l7 -18q-10 -18 -28.5 -36.5t-42.5 -33.5t-54 -23.5t-65 -8.5zM255 33q40 0 75 17t59.5 48t32.5 71l6 57
q-3 39 -24 70t-55.5 49t-76.5 18q-48 0 -81 -18t-53.5 -45.5t-29.5 -57.5t-9 -54q0 -43 20 -78.5t55.5 -56t80.5 -20.5zM385 491l-83 137l16 3l-118 -140h-45l159 181v0l116 -181h-45z" />
    <glyph glyph-name="atilde" unicode="&#xe3;" horiz-adv-x="561" 
d="M232 -6q-50 0 -91.5 24t-66 67t-24.5 98q0 35 12.5 73t39 71.5t67 54.5t97.5 21q46 0 81 -15.5t59.5 -41.5t35.5 -60l-9 -14l21 119h41l-47 -391h-47l14 114l7 -18q-10 -18 -28.5 -36.5t-42.5 -33.5t-54 -23.5t-65 -8.5zM255 33q40 0 75 17t59.5 48t32.5 71l6 57
q-3 39 -24 70t-55.5 49t-76.5 18q-48 0 -81 -18t-53.5 -45.5t-29.5 -57.5t-9 -54q0 -43 20 -78.5t55.5 -56t80.5 -20.5zM375 455q-31 2 -49 18t-33 35q-11 15 -23 28t-32 14q-12 1 -25.5 -7.5t-24 -27.5t-16.5 -53l-32 4q5 41 20.5 68.5t37.5 41.5t46 12q29 -1 46 -17.5
t30 -35.5q12 -16 25.5 -29t32.5 -14q14 -1 26.5 7t21.5 28t14 53l32 -3q-4 -42 -18 -69.5t-34.5 -40.5t-44.5 -12z" />
    <glyph glyph-name="adieresis" unicode="&#xe4;" horiz-adv-x="561" 
d="M232 -6q-50 0 -91.5 24t-66 67t-24.5 98q0 35 12.5 73t39 71.5t67 54.5t97.5 21q46 0 81 -15.5t59.5 -41.5t35.5 -60l-9 -14l21 119h41l-47 -391h-47l14 114l7 -18q-10 -18 -28.5 -36.5t-42.5 -33.5t-54 -23.5t-65 -8.5zM255 33q40 0 75 17t59.5 48t32.5 71l6 57
q-3 39 -24 70t-55.5 49t-76.5 18q-48 0 -81 -18t-53.5 -45.5t-29.5 -57.5t-9 -54q0 -43 20 -78.5t55.5 -56t80.5 -20.5zM183 523q1 14 12 23.5t24 9.5q13 -1 22.5 -11t8.5 -24q-1 -15 -12 -24.5t-24 -8.5q-13 0 -22.5 10.5t-8.5 24.5v0zM357 523q1 14 12 23.5t24 9.5
q13 -1 22.5 -11t8.5 -24q-1 -15 -12 -24.5t-24 -8.5q-13 0 -22.5 10t-8.5 25v0z" />
    <glyph glyph-name="aring" unicode="&#xe5;" horiz-adv-x="561" 
d="M232 -6q-50 0 -91.5 24t-66 67t-24.5 98q0 35 12.5 73t39 71.5t67 54.5t97.5 21q46 0 81 -15.5t59.5 -41.5t35.5 -60l-9 -14l21 119h41l-47 -391h-47l14 114l7 -18q-10 -18 -28.5 -36.5t-42.5 -33.5t-54 -23.5t-65 -8.5zM255 33q40 0 75 17t59.5 48t32.5 71l6 57
q-3 39 -24 70t-55.5 49t-76.5 18q-48 0 -81 -18t-53.5 -45.5t-29.5 -57.5t-9 -54q0 -43 20 -78.5t55.5 -56t80.5 -20.5zM226 502q2 36 25.5 56.5t56.5 19.5q32 -1 52.5 -21t18.5 -51q-1 -36 -25 -56.5t-57 -19.5q-32 1 -52 21t-19 51zM256 502q0 -19 12 -32t31 -14
q20 0 34.5 13t15.5 35q1 20 -11 33t-31 13q-19 1 -34.5 -12t-16.5 -36z" />
    <glyph glyph-name="amacron" unicode="&#x101;" horiz-adv-x="561" 
d="M232 -6q-50 0 -91.5 24t-66 67t-24.5 98q0 35 12.5 73t39 71.5t67 54.5t97.5 21q46 0 81 -15.5t59.5 -41.5t35.5 -60l-9 -14l21 119h41l-47 -391h-47l14 114l7 -18q-10 -18 -28.5 -36.5t-42.5 -33.5t-54 -23.5t-65 -8.5zM255 33q40 0 75 17t59.5 48t32.5 71l6 57
q-3 39 -24 70t-55.5 49t-76.5 18q-48 0 -81 -18t-53.5 -45.5t-29.5 -57.5t-9 -54q0 -43 20 -78.5t55.5 -56t80.5 -20.5zM188 528h231l-3 -30h-232z" />
    <glyph glyph-name="abreve" unicode="&#x103;" horiz-adv-x="561" 
d="M232 -6q-50 0 -91.5 24t-66 67t-24.5 98q0 35 12.5 73t39 71.5t67 54.5t97.5 21q46 0 81 -15.5t59.5 -41.5t35.5 -60l-9 -14l21 119h41l-47 -391h-47l14 114l7 -18q-10 -18 -28.5 -36.5t-42.5 -33.5t-54 -23.5t-65 -8.5zM255 33q40 0 75 17t59.5 48t32.5 71l6 57
q-3 39 -24 70t-55.5 49t-76.5 18q-48 0 -81 -18t-53.5 -45.5t-29.5 -57.5t-9 -54q0 -43 20 -78.5t55.5 -56t80.5 -20.5zM301 472q-16 0 -37.5 7.5t-41.5 25.5t-31.5 50.5t-8.5 83.5h34q-3 -53 13 -81.5t38.5 -39t36.5 -11.5q30 0 52 17.5t37 48t21 66.5h35q-8 -51 -28.5 -89
t-50.5 -58.5t-69 -19.5z" />
    <glyph glyph-name="aogonek" unicode="&#x105;" horiz-adv-x="561" 
d="M232 -6q-50 0 -91.5 24t-66 67t-24.5 98q0 35 12.5 73t39 71.5t67 54.5t97.5 21q46 0 81 -15.5t59.5 -41.5t35.5 -60l-9 -14l21 119h41l-47 -391h-47l14 114l7 -18q-10 -18 -28.5 -36.5t-42.5 -33.5t-54 -23.5t-65 -8.5zM255 33q40 0 75 17t59.5 48t32.5 71l6 57
q-3 39 -24 70t-55.5 49t-76.5 18q-48 0 -81 -18t-53.5 -45.5t-29.5 -57.5t-9 -54q0 -43 20 -78.5t55.5 -56t80.5 -20.5zM399 -202q-34 1 -59.5 25t-25.5 62q0 24 12.5 47t35 43t51.5 33l47 -14q-49 -23 -76 -48.5t-28 -54.5q-1 -28 15 -42.5t36 -14.5q20 -1 36 12t29 33
l19 -24q-14 -24 -39 -41t-53 -16z" />
    <glyph glyph-name="aringacute" unicode="&#x1fb;" horiz-adv-x="561" 
d="M232 -6q-50 0 -91.5 24t-66 67t-24.5 98q0 35 12.5 73t39 71.5t67 54.5t97.5 21q46 0 81 -15.5t59.5 -41.5t35.5 -60l-9 -14l21 119h41l-47 -391h-47l14 114l7 -18q-10 -18 -28.5 -36.5t-42.5 -33.5t-54 -23.5t-65 -8.5zM255 33q40 0 75 17t59.5 48t32.5 71l6 57
q-3 39 -24 70t-55.5 49t-76.5 18q-48 0 -81 -18t-53.5 -45.5t-29.5 -57.5t-9 -54q0 -43 20 -78.5t55.5 -56t80.5 -20.5zM226 502q2 36 25.5 56.5t56.5 19.5q32 -1 52.5 -21t18.5 -51q-1 -36 -25 -56.5t-57 -19.5q-32 1 -52 21t-19 51zM256 502q0 -19 12 -32t31 -14
q20 0 34.5 13t15.5 35q1 20 -11 33t-31 13q-19 1 -34.5 -12t-16.5 -36zM456 802l-117 -133h-34l99 133h52z" />
    <glyph glyph-name="uni0201" unicode="&#x201;" horiz-adv-x="561" 
d="M232 -6q-50 0 -91.5 24t-66 67t-24.5 98q0 35 12.5 73t39 71.5t67 54.5t97.5 21q46 0 81 -15.5t59.5 -41.5t35.5 -60l-9 -14l21 119h41l-47 -391h-47l14 114l7 -18q-10 -18 -28.5 -36.5t-42.5 -33.5t-54 -23.5t-65 -8.5zM255 33q40 0 75 17t59.5 48t32.5 71l6 57
q-3 39 -24 70t-55.5 49t-76.5 18q-48 0 -81 -18t-53.5 -45.5t-29.5 -57.5t-9 -54q0 -43 20 -78.5t55.5 -56t80.5 -20.5zM199 624l70 -133h-34l-89 133h53zM301 624l70 -133h-34l-89 133h53z" />
    <glyph glyph-name="uni0203" unicode="&#x203;" horiz-adv-x="561" 
d="M232 -6q-50 0 -91.5 24t-66 67t-24.5 98q0 35 12.5 73t39 71.5t67 54.5t97.5 21q46 0 81 -15.5t59.5 -41.5t35.5 -60l-9 -14l21 119h41l-47 -391h-47l14 114l7 -18q-10 -18 -28.5 -36.5t-42.5 -33.5t-54 -23.5t-65 -8.5zM255 33q40 0 75 17t59.5 48t32.5 71l6 57
q-3 39 -24 70t-55.5 49t-76.5 18q-48 0 -81 -18t-53.5 -45.5t-29.5 -57.5t-9 -54q0 -43 20 -78.5t55.5 -56t80.5 -20.5zM317 609q16 0 37.5 -7.5t41.5 -25.5t31.5 -50.5t8.5 -83.5h-34q4 53 -12.5 81.5t-38.5 39.5t-37 11q-29 1 -51.5 -17t-37 -48t-21.5 -67h-35
q8 51 28.5 89t51 58.5t68.5 19.5z" />
    <glyph glyph-name="uni1EA1" unicode="&#x1ea1;" horiz-adv-x="561" 
d="M232 -6q-50 0 -91.5 24t-66 67t-24.5 98q0 35 12.5 73t39 71.5t67 54.5t97.5 21q46 0 81 -15.5t59.5 -41.5t35.5 -60l-9 -14l21 119h41l-47 -391h-47l14 114l7 -18q-10 -18 -28.5 -36.5t-42.5 -33.5t-54 -23.5t-65 -8.5zM255 33q40 0 75 17t59.5 48t32.5 71l6 57
q-3 39 -24 70t-55.5 49t-76.5 18q-48 0 -81 -18t-53.5 -45.5t-29.5 -57.5t-9 -54q0 -43 20 -78.5t55.5 -56t80.5 -20.5zM187 -100q1 14 13.5 24t26.5 9q13 0 22.5 -9.5t7.5 -23.5q-1 -15 -13 -24.5t-26 -9.5q-13 1 -22.5 11t-8.5 23z" />
    <glyph glyph-name="uni1EA3" unicode="&#x1ea3;" horiz-adv-x="561" 
d="M232 -6q-50 0 -91.5 24t-66 67t-24.5 98q0 35 12.5 73t39 71.5t67 54.5t97.5 21q46 0 81 -15.5t59.5 -41.5t35.5 -60l-9 -14l21 119h41l-47 -391h-47l14 114l7 -18q-10 -18 -28.5 -36.5t-42.5 -33.5t-54 -23.5t-65 -8.5zM255 33q40 0 75 17t59.5 48t32.5 71l6 57
q-3 39 -24 70t-55.5 49t-76.5 18q-48 0 -81 -18t-53.5 -45.5t-29.5 -57.5t-9 -54q0 -43 20 -78.5t55.5 -56t80.5 -20.5zM279 466q24 17 40.5 31t19.5 33q2 20 -5.5 33t-29.5 14q-17 1 -29.5 -6.5t-27.5 -24.5l-19 14q19 25 39.5 36.5t44.5 9.5q27 -1 44 -17.5t13 -50.5
q-2 -26 -22.5 -46.5t-55.5 -41.5z" />
    <glyph glyph-name="uni1EA5" unicode="&#x1ea5;" horiz-adv-x="561" 
d="M232 -6q-50 0 -91.5 24t-66 67t-24.5 98q0 35 12.5 73t39 71.5t67 54.5t97.5 21q46 0 81 -15.5t59.5 -41.5t35.5 -60l-9 -14l21 119h41l-47 -391h-47l14 114l7 -18q-10 -18 -28.5 -36.5t-42.5 -33.5t-54 -23.5t-65 -8.5zM255 33q40 0 75 17t59.5 48t32.5 71l6 57
q-3 39 -24 70t-55.5 49t-76.5 18q-48 0 -81 -18t-53.5 -45.5t-29.5 -57.5t-9 -54q0 -43 20 -78.5t55.5 -56t80.5 -20.5zM357 491l-83 137l16 3l-118 -140h-45l159 181v0l116 -181h-45zM522 782l-117 -133h-34l99 133h52z" />
    <glyph glyph-name="uni1EA7" unicode="&#x1ea7;" horiz-adv-x="561" 
d="M232 -6q-50 0 -91.5 24t-66 67t-24.5 98q0 35 12.5 73t39 71.5t67 54.5t97.5 21q46 0 81 -15.5t59.5 -41.5t35.5 -60l-9 -14l21 119h41l-47 -391h-47l14 114l7 -18q-10 -18 -28.5 -36.5t-42.5 -33.5t-54 -23.5t-65 -8.5zM255 33q40 0 75 17t59.5 48t32.5 71l6 57
q-3 39 -24 70t-55.5 49t-76.5 18q-48 0 -81 -18t-53.5 -45.5t-29.5 -57.5t-9 -54q0 -43 20 -78.5t55.5 -56t80.5 -20.5zM383 446l-83 137l16 3l-118 -140h-45l159 181v0l116 -181h-45zM138 689l70 -133h-34l-89 133h53z" />
    <glyph glyph-name="uni1EA9" unicode="&#x1ea9;" horiz-adv-x="561" 
d="M232 -6q-50 0 -91.5 24t-66 67t-24.5 98q0 35 12.5 73t39 71.5t67 54.5t97.5 21q46 0 81 -15.5t59.5 -41.5t35.5 -60l-9 -14l21 119h41l-47 -391h-47l14 114l7 -18q-10 -18 -28.5 -36.5t-42.5 -33.5t-54 -23.5t-65 -8.5zM255 33q40 0 75 17t59.5 48t32.5 71l6 57
q-3 39 -24 70t-55.5 49t-76.5 18q-48 0 -81 -18t-53.5 -45.5t-29.5 -57.5t-9 -54q0 -43 20 -78.5t55.5 -56t80.5 -20.5zM378 446l-83 137l16 3l-118 -140h-45l159 181v0l116 -181h-45zM414 566q24 17 40.5 31t19.5 33q2 20 -5.5 33t-29.5 14q-17 1 -29.5 -6.5t-27.5 -24.5
l-19 14q19 25 39.5 36.5t44.5 9.5q27 -1 44 -17.5t13 -50.5q-2 -26 -22.5 -46.5t-55.5 -41.5z" />
    <glyph glyph-name="uni1EAB" unicode="&#x1eab;" horiz-adv-x="561" 
d="M232 -6q-50 0 -91.5 24t-66 67t-24.5 98q0 35 12.5 73t39 71.5t67 54.5t97.5 21q46 0 81 -15.5t59.5 -41.5t35.5 -60l-9 -14l21 119h41l-47 -391h-47l14 114l7 -18q-10 -18 -28.5 -36.5t-42.5 -33.5t-54 -23.5t-65 -8.5zM255 33q40 0 75 17t59.5 48t32.5 71l6 57
q-3 39 -24 70t-55.5 49t-76.5 18q-48 0 -81 -18t-53.5 -45.5t-29.5 -57.5t-9 -54q0 -43 20 -78.5t55.5 -56t80.5 -20.5zM396 672q-30 2 -47 17.5t-31 33.5q-11 14 -22.5 26.5t-30.5 13.5q-11 1 -24 -7t-23 -26.5t-15 -50.5l-31 4q5 39 19.5 65.5t35.5 39.5t44 11
q28 -1 44 -16.5t29 -33.5q11 -15 23.5 -28t31.5 -13q20 -2 36 17t23 67l31 -3q-4 -40 -17.5 -66.5t-33 -39t-42.5 -11.5zM383 439l-83 137l16 3l-118 -140h-45l159 181v0l116 -181h-45z" />
    <glyph glyph-name="uni1EAD" unicode="&#x1ead;" horiz-adv-x="561" 
d="M232 -6q-50 0 -91.5 24t-66 67t-24.5 98q0 35 12.5 73t39 71.5t67 54.5t97.5 21q46 0 81 -15.5t59.5 -41.5t35.5 -60l-9 -14l21 119h41l-47 -391h-47l14 114l7 -18q-10 -18 -28.5 -36.5t-42.5 -33.5t-54 -23.5t-65 -8.5zM255 33q40 0 75 17t59.5 48t32.5 71l6 57
q-3 39 -24 70t-55.5 49t-76.5 18q-48 0 -81 -18t-53.5 -45.5t-29.5 -57.5t-9 -54q0 -43 20 -78.5t55.5 -56t80.5 -20.5zM187 -100q1 14 13.5 24t26.5 9q13 0 22.5 -9.5t7.5 -23.5q-1 -15 -13 -24.5t-26 -9.5q-13 1 -22.5 11t-8.5 23zM385 491l-83 137l16 3l-118 -140h-45
l159 181v0l116 -181h-45z" />
    <glyph glyph-name="uni1EAF" unicode="&#x1eaf;" horiz-adv-x="561" 
d="M232 -6q-50 0 -91.5 24t-66 67t-24.5 98q0 35 12.5 73t39 71.5t67 54.5t97.5 21q46 0 81 -15.5t59.5 -41.5t35.5 -60l-9 -14l21 119h41l-47 -391h-47l14 114l7 -18q-10 -18 -28.5 -36.5t-42.5 -33.5t-54 -23.5t-65 -8.5zM255 33q40 0 75 17t59.5 48t32.5 71l6 57
q-3 39 -24 70t-55.5 49t-76.5 18q-48 0 -81 -18t-53.5 -45.5t-29.5 -57.5t-9 -54q0 -43 20 -78.5t55.5 -56t80.5 -20.5zM303 502q-16 0 -37.5 7.5t-41.5 25.5t-31.5 50.5t-8.5 83.5h34q-3 -53 13 -81.5t38.5 -39t36.5 -11.5q30 0 52 17.5t37 48t21 66.5h35q-8 -51 -28.5 -89
t-50.5 -58.5t-69 -19.5zM459 868l-117 -133h-34l99 133h52z" />
    <glyph glyph-name="uni1EB1" unicode="&#x1eb1;" horiz-adv-x="561" 
d="M232 -6q-50 0 -91.5 24t-66 67t-24.5 98q0 35 12.5 73t39 71.5t67 54.5t97.5 21q46 0 81 -15.5t59.5 -41.5t35.5 -60l-9 -14l21 119h41l-47 -391h-47l14 114l7 -18q-10 -18 -28.5 -36.5t-42.5 -33.5t-54 -23.5t-65 -8.5zM255 33q40 0 75 17t59.5 48t32.5 71l6 57
q-3 39 -24 70t-55.5 49t-76.5 18q-48 0 -81 -18t-53.5 -45.5t-29.5 -57.5t-9 -54q0 -43 20 -78.5t55.5 -56t80.5 -20.5zM301 502q-16 0 -37.5 7.5t-41.5 25.5t-31.5 50.5t-8.5 83.5h34q-3 -53 13 -81.5t38.5 -39t36.5 -11.5q30 0 52 17.5t37 48t21 66.5h35q-8 -51 -28.5 -89
t-50.5 -58.5t-69 -19.5zM268 802l70 -133h-34l-89 133h53z" />
    <glyph glyph-name="uni1EB3" unicode="&#x1eb3;" horiz-adv-x="561" 
d="M232 -6q-50 0 -91.5 24t-66 67t-24.5 98q0 35 12.5 73t39 71.5t67 54.5t97.5 21q46 0 81 -15.5t59.5 -41.5t35.5 -60l-9 -14l21 119h41l-47 -391h-47l14 114l7 -18q-10 -18 -28.5 -36.5t-42.5 -33.5t-54 -23.5t-65 -8.5zM255 33q40 0 75 17t59.5 48t32.5 71l6 57
q-3 39 -24 70t-55.5 49t-76.5 18q-48 0 -81 -18t-53.5 -45.5t-29.5 -57.5t-9 -54q0 -43 20 -78.5t55.5 -56t80.5 -20.5zM301 472q-16 0 -37.5 7.5t-41.5 25.5t-31.5 50.5t-8.5 83.5h34q-3 -53 13 -81.5t38.5 -39t36.5 -11.5q30 0 52 17.5t37 48t21 66.5h35q-8 -51 -28.5 -89
t-50.5 -58.5t-69 -19.5zM302 695q24 17 40.5 31t19.5 33q2 20 -5.5 33t-29.5 14q-17 1 -29.5 -6.5t-27.5 -24.5l-19 14q19 25 39.5 36.5t44.5 9.5q27 -1 44 -17.5t13 -50.5q-2 -26 -22.5 -46.5t-55.5 -41.5z" />
    <glyph glyph-name="uni1EB5" unicode="&#x1eb5;" horiz-adv-x="561" 
d="M232 -6q-50 0 -91.5 24t-66 67t-24.5 98q0 35 12.5 73t39 71.5t67 54.5t97.5 21q46 0 81 -15.5t59.5 -41.5t35.5 -60l-9 -14l21 119h41l-47 -391h-47l14 114l7 -18q-10 -18 -28.5 -36.5t-42.5 -33.5t-54 -23.5t-65 -8.5zM255 33q40 0 75 17t59.5 48t32.5 71l6 57
q-3 39 -24 70t-55.5 49t-76.5 18q-48 0 -81 -18t-53.5 -45.5t-29.5 -57.5t-9 -54q0 -43 20 -78.5t55.5 -56t80.5 -20.5zM379 711q-30 2 -47 17.5t-31 33.5q-11 14 -22.5 26.5t-30.5 13.5q-11 1 -24 -7t-23 -26.5t-15 -50.5l-31 4q5 39 19.5 65.5t35.5 39.5t44 11
q28 -1 44 -16.5t29 -33.5q11 -15 23.5 -28t31.5 -13q20 -2 36 17t23 67l31 -3q-4 -40 -17.5 -66.5t-33 -39t-42.5 -11.5zM286 502q-16 0 -37.5 7.5t-41.5 25.5t-31.5 50.5t-8.5 83.5h34q-3 -53 13 -81.5t38.5 -39t36.5 -11.5q30 0 52 17.5t37 48t21 66.5h35
q-8 -51 -28.5 -89t-50.5 -58.5t-69 -19.5z" />
    <glyph glyph-name="uni1EB7" unicode="&#x1eb7;" horiz-adv-x="561" 
d="M232 -6q-50 0 -91.5 24t-66 67t-24.5 98q0 35 12.5 73t39 71.5t67 54.5t97.5 21q46 0 81 -15.5t59.5 -41.5t35.5 -60l-9 -14l21 119h41l-47 -391h-47l14 114l7 -18q-10 -18 -28.5 -36.5t-42.5 -33.5t-54 -23.5t-65 -8.5zM255 33q40 0 75 17t59.5 48t32.5 71l6 57
q-3 39 -24 70t-55.5 49t-76.5 18q-48 0 -81 -18t-53.5 -45.5t-29.5 -57.5t-9 -54q0 -43 20 -78.5t55.5 -56t80.5 -20.5zM187 -100q1 14 13.5 24t26.5 9q13 0 22.5 -9.5t7.5 -23.5q-1 -15 -13 -24.5t-26 -9.5q-13 1 -22.5 11t-8.5 23zM301 472q-16 0 -37.5 7.5t-41.5 25.5
t-31.5 50.5t-8.5 83.5h34q-3 -53 13 -81.5t38.5 -39t36.5 -11.5q30 0 52 17.5t37 48t21 66.5h35q-8 -51 -28.5 -89t-50.5 -58.5t-69 -19.5z" />
    <glyph glyph-name="b" unicode="b" horiz-adv-x="564" 
d="M294 -7q-66 0 -113 34.5t-66 85.5l13 23l-16 -136h-47l93 760h47l-58 -476l-4 23q27 42 75 68.5t106 26.5q56 0 98.5 -23t66.5 -66t24 -102q0 -54 -23 -104t-71.5 -82t-124.5 -32zM292 34q49 0 82 16.5t53 43t28.5 56.5t8.5 58q0 45 -18 80t-52.5 55.5t-84.5 20.5
q-58 0 -104 -34.5t-63 -87.5l-9 -67q2 -16 10.5 -39.5t26 -47t47.5 -39t75 -15.5z" />
    <glyph glyph-name="c" unicode="c" horiz-adv-x="436" 
d="M372 28q-27 -17 -59 -27t-66 -10q-37 0 -72 13t-63.5 37t-45 59.5t-16.5 80.5q0 42 16 81t45 69.5t68.5 48.5t86.5 18t84 -14.5t62 -40.5l-29 -31q-19 20 -49 33t-65 13q-45 0 -84 -23.5t-63 -63t-24 -88.5q0 -42 20 -76.5t55 -55t81 -20.5q27 0 51 8t45 21z" />
    <glyph glyph-name="ccedilla" unicode="&#xe7;" horiz-adv-x="403" 
d="M355 68q6 -7 11 -14.5t11 -15.5q-29 -22 -63 -34t-72 -12q-52 0 -93 24.5t-64.5 66t-23.5 92.5q0 46 18.5 87t51 72t74 48.5t87.5 17.5q38 0 69.5 -12t55.5 -33l-15 -15l-16 -16q-19 17 -44 26.5t-54 9.5q-50 0 -92.5 -24.5t-68 -65t-25.5 -90.5q0 -41 18.5 -74.5
t51.5 -53t75 -19.5q30 0 57.5 9.5t50.5 25.5v0zM242 -7q-2 -18 3.5 -27.5t14.5 -15t17 -11.5q17 -13 24.5 -30.5t7.5 -33.5q0 -33 -14 -58t-38 -39t-54 -14t-53 16.5t-31 49.5q8 3 16 6.5t15 5.5q2 -19 17 -31t37 -12q31 0 50.5 21t19.5 52q0 22 -10.5 34t-24 21.5
t-22.5 21.5t-7 33l3 18h30z" />
    <glyph glyph-name="cacute" unicode="&#x107;" horiz-adv-x="403" 
d="M372 28q-27 -17 -59 -27t-66 -10q-37 0 -72 13t-63.5 37t-45 59.5t-16.5 80.5q0 42 16 81t45 69.5t68.5 48.5t86.5 18t84 -14.5t62 -40.5l-29 -31q-19 20 -49 33t-65 13q-45 0 -84 -23.5t-63 -63t-24 -88.5q0 -42 20 -76.5t55 -55t81 -20.5q27 0 51 8t45 21zM390 615
l-117 -133h-34l99 133h52z" />
    <glyph glyph-name="ccircumflex" unicode="&#x109;" horiz-adv-x="436" 
d="M372 28q-27 -17 -59 -27t-66 -10q-37 0 -72 13t-63.5 37t-45 59.5t-16.5 80.5q0 42 16 81t45 69.5t68.5 48.5t86.5 18t84 -14.5t62 -40.5l-29 -31q-19 20 -49 33t-65 13q-45 0 -84 -23.5t-63 -63t-24 -88.5q0 -42 20 -76.5t55 -55t81 -20.5q27 0 51 8t45 21zM341 486
l-83 137l16 3l-118 -140h-45l159 181v0l116 -181h-45z" />
    <glyph glyph-name="cdotaccent" unicode="&#x10b;" horiz-adv-x="436" 
d="M372 28q-27 -17 -59 -27t-66 -10q-37 0 -72 13t-63.5 37t-45 59.5t-16.5 80.5q0 42 16 81t45 69.5t68.5 48.5t86.5 18t84 -14.5t62 -40.5l-29 -31q-19 20 -49 33t-65 13q-45 0 -84 -23.5t-63 -63t-24 -88.5q0 -42 20 -76.5t55 -55t81 -20.5q27 0 51 8t45 21zM224 519
q1 14 13.5 24t26.5 9q13 0 22.5 -9.5t7.5 -23.5q-1 -15 -13 -24.5t-26 -9.5q-13 1 -22.5 11t-8.5 23z" />
    <glyph glyph-name="ccaron" unicode="&#x10d;" horiz-adv-x="403" 
d="M372 28q-27 -17 -59 -27t-66 -10q-37 0 -72 13t-63.5 37t-45 59.5t-16.5 80.5q0 42 16 81t45 69.5t68.5 48.5t86.5 18t84 -14.5t62 -40.5l-29 -31q-19 20 -49 33t-65 13q-45 0 -84 -23.5t-63 -63t-24 -88.5q0 -42 20 -76.5t55 -55t81 -20.5q27 0 51 8t45 21zM225 663
l83 -137l-17 -2l120 139h45l-160 -181h-1l-115 181h45z" />
    <glyph glyph-name="d" unicode="d" horiz-adv-x="564" 
d="M233 -5q-56 2 -99 30.5t-65.5 75t-17.5 100.5q4 44 22.5 82t49.5 65.5t71 42t86 12.5q62 -3 107.5 -37t63.5 -82l-15 -15l60 491h48l-95 -760h-47l14 113l8 -19q-31 -46 -81.5 -74.5t-109.5 -24.5zM245 35q43 -2 80.5 15t64 49t34.5 74l6 51q-3 38 -22.5 69t-51.5 50.5
t-73 20.5q-47 3 -87 -16t-66 -55.5t-31 -86.5q-4 -46 14 -84t52.5 -61t79.5 -26z" />
    <glyph glyph-name="dcaron" unicode="&#x10f;" horiz-adv-x="623" 
d="M233 -5q-56 2 -99 30.5t-65.5 75t-17.5 100.5q4 44 22.5 82t49.5 65.5t71 42t86 12.5q62 -3 107.5 -37t63.5 -82l-15 -15l60 491h48l-95 -760h-47l14 113l8 -19q-31 -46 -81.5 -74.5t-109.5 -24.5zM245 35q43 -2 80.5 15t64 49t34.5 74l6 51q-3 38 -22.5 69t-51.5 50.5
t-73 20.5q-47 3 -87 -16t-66 -55.5t-31 -86.5q-4 -46 14 -84t52.5 -61t79.5 -26zM634 573q-4 5 -8.5 10t-9.5 10q24 20 37 50t10 65q8 2 17 4t17 3q4 -40 -13 -77.5t-50 -64.5v0z" />
    <glyph glyph-name="e" unicode="e" horiz-adv-x="488" 
d="M252 33q29 0 57 10t50 27l20 -36q-28 -19 -62 -30t-69 -11q-58 0 -103 24.5t-70 68t-25 100.5q0 42 16 80.5t45 69t69 48.5t89 18q35 0 65 -10t54 -29.5t40.5 -49.5t24.5 -69l-357 -111l-8 36l331 102l-18 -14q-13 44 -47.5 75t-85.5 31q-48 0 -87 -23.5t-61.5 -62.5
t-22.5 -86q0 -45 20 -80.5t55 -56.5t80 -21z" />
    <glyph glyph-name="egrave" unicode="&#xe8;" horiz-adv-x="488" 
d="M252 33q29 0 57 10t50 27l20 -36q-28 -19 -62 -30t-69 -11q-58 0 -103 24.5t-70 68t-25 100.5q0 42 16 80.5t45 69t69 48.5t89 18q35 0 65 -10t54 -29.5t40.5 -49.5t24.5 -69l-357 -111l-8 36l331 102l-18 -14q-13 44 -47.5 75t-85.5 31q-48 0 -87 -23.5t-61.5 -62.5
t-22.5 -86q0 -45 20 -80.5t55 -56.5t80 -21zM224 627l70 -133h-34l-89 133h53z" />
    <glyph glyph-name="eacute" unicode="&#xe9;" horiz-adv-x="432" 
d="M252 33q29 0 57 10t50 27l20 -36q-28 -19 -62 -30t-69 -11q-58 0 -103 24.5t-70 68t-25 100.5q0 42 16 80.5t45 69t69 48.5t89 18q35 0 65 -10t54 -29.5t40.5 -49.5t24.5 -69l-357 -111l-8 36l331 102l-18 -14q-13 44 -47.5 75t-85.5 31q-48 0 -87 -23.5t-61.5 -62.5
t-22.5 -86q0 -45 20 -80.5t55 -56.5t80 -21zM415 615l-117 -133h-34l99 133h52z" />
    <glyph glyph-name="ecircumflex" unicode="&#xea;" horiz-adv-x="488" 
d="M252 33q29 0 57 10t50 27l20 -36q-28 -19 -62 -30t-69 -11q-58 0 -103 24.5t-70 68t-25 100.5q0 42 16 80.5t45 69t69 48.5t89 18q35 0 65 -10t54 -29.5t40.5 -49.5t24.5 -69l-357 -111l-8 36l331 102l-18 -14q-13 44 -47.5 75t-85.5 31q-48 0 -87 -23.5t-61.5 -62.5
t-22.5 -86q0 -45 20 -80.5t55 -56.5t80 -21zM364 494l-83 137l16 3l-118 -140h-45l159 181v0l116 -181h-45z" />
    <glyph glyph-name="edieresis" unicode="&#xeb;" horiz-adv-x="488" 
d="M252 33q29 0 57 10t50 27l20 -36q-28 -19 -62 -30t-69 -11q-58 0 -103 24.5t-70 68t-25 100.5q0 42 16 80.5t45 69t69 48.5t89 18q35 0 65 -10t54 -29.5t40.5 -49.5t24.5 -69l-357 -111l-8 36l331 102l-18 -14q-13 44 -47.5 75t-85.5 31q-48 0 -87 -23.5t-61.5 -62.5
t-22.5 -86q0 -45 20 -80.5t55 -56.5t80 -21zM162 526q1 14 12 23.5t24 9.5q13 -1 22.5 -11t8.5 -24q-1 -15 -12 -24.5t-24 -8.5q-13 0 -22.5 10.5t-8.5 24.5v0zM336 526q1 14 12 23.5t24 9.5q13 -1 22.5 -11t8.5 -24q-1 -15 -12 -24.5t-24 -8.5q-13 0 -22.5 10t-8.5 25v0z
" />
    <glyph glyph-name="emacron" unicode="&#x113;" horiz-adv-x="488" 
d="M252 33q29 0 57 10t50 27l20 -36q-28 -19 -62 -30t-69 -11q-58 0 -103 24.5t-70 68t-25 100.5q0 42 16 80.5t45 69t69 48.5t89 18q35 0 65 -10t54 -29.5t40.5 -49.5t24.5 -69l-357 -111l-8 36l331 102l-18 -14q-13 44 -47.5 75t-85.5 31q-48 0 -87 -23.5t-61.5 -62.5
t-22.5 -86q0 -45 20 -80.5t55 -56.5t80 -21zM167 531h231l-3 -30h-232z" />
    <glyph glyph-name="ebreve" unicode="&#x115;" horiz-adv-x="488" 
d="M252 33q29 0 57 10t50 27l20 -36q-28 -19 -62 -30t-69 -11q-58 0 -103 24.5t-70 68t-25 100.5q0 42 16 80.5t45 69t69 48.5t89 18q35 0 65 -10t54 -29.5t40.5 -49.5t24.5 -69l-357 -111l-8 36l331 102l-18 -14q-13 44 -47.5 75t-85.5 31q-48 0 -87 -23.5t-61.5 -62.5
t-22.5 -86q0 -45 20 -80.5t55 -56.5t80 -21zM280 475q-16 0 -37.5 7.5t-41.5 25.5t-31.5 50.5t-8.5 83.5h34q-3 -53 13 -81.5t38.5 -39t36.5 -11.5q30 0 52 17.5t37 48t21 66.5h35q-8 -51 -28.5 -89t-50.5 -58.5t-69 -19.5z" />
    <glyph glyph-name="edotaccent" unicode="&#x117;" horiz-adv-x="488" 
d="M252 33q29 0 57 10t50 27l20 -36q-28 -19 -62 -30t-69 -11q-58 0 -103 24.5t-70 68t-25 100.5q0 42 16 80.5t45 69t69 48.5t89 18q35 0 65 -10t54 -29.5t40.5 -49.5t24.5 -69l-357 -111l-8 36l331 102l-18 -14q-13 44 -47.5 75t-85.5 31q-48 0 -87 -23.5t-61.5 -62.5
t-22.5 -86q0 -45 20 -80.5t55 -56.5t80 -21zM247 527q1 14 13.5 24t26.5 9q13 0 22.5 -9.5t7.5 -23.5q-1 -15 -13 -24.5t-26 -9.5q-13 1 -22.5 11t-8.5 23z" />
    <glyph glyph-name="eogonek" unicode="&#x119;" horiz-adv-x="476" 
d="M298 -191q-34 2 -59.5 25.5t-25.5 62.5q0 28 14 54.5t39 48.5t56 38l8 -21q-19 -10 -40 -16t-42 -8q-58 0 -103 24.5t-70 68t-25 100.5q0 42 16 80.5t45 69t69 48.5t89 18q35 0 65 -10t54 -29.5t40.5 -49.5t24.5 -69l-357 -111l-8 32l331 102l-17 -10q-14 44 -48.5 75
t-84.5 31q-49 0 -88 -23.5t-61.5 -62.5t-22.5 -86q0 -45 20 -80.5t55.5 -56.5t80.5 -21q29 0 56.5 10t49.5 27l20 -36q-12 -5 -22.5 -11t-21.5 -12q-38 -25 -59 -52t-21 -57q-1 -26 15 -41t35 -16q20 0 36.5 13t29.5 32l19 -24q-14 -24 -39 -40.5t-53 -16.5z" />
    <glyph glyph-name="ecaron" unicode="&#x11b;" horiz-adv-x="464" 
d="M252 33q29 0 57 10t50 27l20 -36q-28 -19 -62 -30t-69 -11q-58 0 -103 24.5t-70 68t-25 100.5q0 42 16 80.5t45 69t69 48.5t89 18q35 0 65 -10t54 -29.5t40.5 -49.5t24.5 -69l-357 -111l-8 36l331 102l-18 -14q-13 44 -47.5 75t-85.5 31q-48 0 -87 -23.5t-61.5 -62.5
t-22.5 -86q0 -45 20 -80.5t55 -56.5t80 -21zM217 663l83 -137l-17 -2l120 139h45l-160 -181h-1l-115 181h45z" />
    <glyph glyph-name="uni0205" unicode="&#x205;" horiz-adv-x="488" 
d="M252 33q29 0 57 10t50 27l20 -36q-28 -19 -62 -30t-69 -11q-58 0 -103 24.5t-70 68t-25 100.5q0 42 16 80.5t45 69t69 48.5t89 18q35 0 65 -10t54 -29.5t40.5 -49.5t24.5 -69l-357 -111l-8 36l331 102l-18 -14q-13 44 -47.5 75t-85.5 31q-48 0 -87 -23.5t-61.5 -62.5
t-22.5 -86q0 -45 20 -80.5t55 -56.5t80 -21zM178 627l70 -133h-34l-89 133h53zM280 627l70 -133h-34l-89 133h53z" />
    <glyph glyph-name="uni0207" unicode="&#x207;" horiz-adv-x="488" 
d="M252 33q29 0 57 10t50 27l20 -36q-28 -19 -62 -30t-69 -11q-58 0 -103 24.5t-70 68t-25 100.5q0 42 16 80.5t45 69t69 48.5t89 18q35 0 65 -10t54 -29.5t40.5 -49.5t24.5 -69l-357 -111l-8 36l331 102l-18 -14q-13 44 -47.5 75t-85.5 31q-48 0 -87 -23.5t-61.5 -62.5
t-22.5 -86q0 -45 20 -80.5t55 -56.5t80 -21zM296 612q16 0 37.5 -7.5t41.5 -25.5t31.5 -50.5t8.5 -83.5h-34q4 53 -12.5 81.5t-38.5 39.5t-37 11q-29 1 -51.5 -17t-37 -48t-21.5 -67h-35q8 51 28.5 89t51 58.5t68.5 19.5z" />
    <glyph glyph-name="uni1EB9" unicode="&#x1eb9;" horiz-adv-x="488" 
d="M252 33q29 0 57 10t50 27l20 -36q-28 -19 -62 -30t-69 -11q-58 0 -103 24.5t-70 68t-25 100.5q0 42 16 80.5t45 69t69 48.5t89 18q35 0 65 -10t54 -29.5t40.5 -49.5t24.5 -69l-357 -111l-8 36l331 102l-18 -14q-13 44 -47.5 75t-85.5 31q-48 0 -87 -23.5t-61.5 -62.5
t-22.5 -86q0 -45 20 -80.5t55 -56.5t80 -21zM172 -100q1 14 13.5 24t26.5 9q13 0 22.5 -9.5t7.5 -23.5q-1 -15 -13 -24.5t-26 -9.5q-13 1 -22.5 11t-8.5 23z" />
    <glyph glyph-name="uni1EBB" unicode="&#x1ebb;" horiz-adv-x="488" 
d="M252 33q29 0 57 10t50 27l20 -36q-28 -19 -62 -30t-69 -11q-58 0 -103 24.5t-70 68t-25 100.5q0 42 16 80.5t45 69t69 48.5t89 18q35 0 65 -10t54 -29.5t40.5 -49.5t24.5 -69l-357 -111l-8 36l331 102l-18 -14q-13 44 -47.5 75t-85.5 31q-48 0 -87 -23.5t-61.5 -62.5
t-22.5 -86q0 -45 20 -80.5t55 -56.5t80 -21zM258 469q24 17 40.5 31t19.5 33q2 20 -5.5 33t-29.5 14q-17 1 -29.5 -6.5t-27.5 -24.5l-19 14q19 25 39.5 36.5t44.5 9.5q27 -1 44 -17.5t13 -50.5q-2 -26 -22.5 -46.5t-55.5 -41.5z" />
    <glyph glyph-name="uni1EBD" unicode="&#x1ebd;" horiz-adv-x="488" 
d="M252 33q29 0 57 10t50 27l20 -36q-28 -19 -62 -30t-69 -11q-58 0 -103 24.5t-70 68t-25 100.5q0 42 16 80.5t45 69t69 48.5t89 18q35 0 65 -10t54 -29.5t40.5 -49.5t24.5 -69l-357 -111l-8 36l331 102l-18 -14q-13 44 -47.5 75t-85.5 31q-48 0 -87 -23.5t-61.5 -62.5
t-22.5 -86q0 -45 20 -80.5t55 -56.5t80 -21zM354 458q-31 2 -49 18t-33 35q-11 15 -23 28t-32 14q-12 1 -25.5 -7.5t-24 -27.5t-16.5 -53l-32 4q5 41 20.5 68.5t37.5 41.5t46 12q29 -1 46 -17.5t30 -35.5q12 -16 25.5 -29t32.5 -14q14 -1 26.5 7t21.5 28t14 53l32 -3
q-4 -42 -18 -69.5t-34.5 -40.5t-44.5 -12z" />
    <glyph glyph-name="uni1EBF" unicode="&#x1ebf;" horiz-adv-x="488" 
d="M252 33q29 0 57 10t50 27l20 -36q-28 -19 -62 -30t-69 -11q-58 0 -103 24.5t-70 68t-25 100.5q0 42 16 80.5t45 69t69 48.5t89 18q35 0 65 -10t54 -29.5t40.5 -49.5t24.5 -69l-357 -111l-8 36l331 102l-18 -14q-13 44 -47.5 75t-85.5 31q-48 0 -87 -23.5t-61.5 -62.5
t-22.5 -86q0 -45 20 -80.5t55 -56.5t80 -21zM336 494l-83 137l16 3l-118 -140h-45l159 181v0l116 -181h-45zM501 785l-117 -133h-34l99 133h52z" />
    <glyph glyph-name="uni1EC1" unicode="&#x1ec1;" horiz-adv-x="488" 
d="M252 33q29 0 57 10t50 27l20 -36q-28 -19 -62 -30t-69 -11q-58 0 -103 24.5t-70 68t-25 100.5q0 42 16 80.5t45 69t69 48.5t89 18q35 0 65 -10t54 -29.5t40.5 -49.5t24.5 -69l-357 -111l-8 36l331 102l-18 -14q-13 44 -47.5 75t-85.5 31q-48 0 -87 -23.5t-61.5 -62.5
t-22.5 -86q0 -45 20 -80.5t55 -56.5t80 -21zM362 449l-83 137l16 3l-118 -140h-45l159 181v0l116 -181h-45zM117 692l70 -133h-34l-89 133h53z" />
    <glyph glyph-name="uni1EC3" unicode="&#x1ec3;" horiz-adv-x="488" 
d="M252 33q29 0 57 10t50 27l20 -36q-28 -19 -62 -30t-69 -11q-58 0 -103 24.5t-70 68t-25 100.5q0 42 16 80.5t45 69t69 48.5t89 18q35 0 65 -10t54 -29.5t40.5 -49.5t24.5 -69l-357 -111l-8 36l331 102l-18 -14q-13 44 -47.5 75t-85.5 31q-48 0 -87 -23.5t-61.5 -62.5
t-22.5 -86q0 -45 20 -80.5t55 -56.5t80 -21zM357 449l-83 137l16 3l-118 -140h-45l159 181v0l116 -181h-45zM393 569q24 17 40.5 31t19.5 33q2 20 -5.5 33t-29.5 14q-17 1 -29.5 -6.5t-27.5 -24.5l-19 14q19 25 39.5 36.5t44.5 9.5q27 -1 44 -17.5t13 -50.5
q-2 -26 -22.5 -46.5t-55.5 -41.5z" />
    <glyph glyph-name="uni1EC5" unicode="&#x1ec5;" horiz-adv-x="488" 
d="M252 33q29 0 57 10t50 27l20 -36q-28 -19 -62 -30t-69 -11q-58 0 -103 24.5t-70 68t-25 100.5q0 42 16 80.5t45 69t69 48.5t89 18q35 0 65 -10t54 -29.5t40.5 -49.5t24.5 -69l-357 -111l-8 36l331 102l-18 -14q-13 44 -47.5 75t-85.5 31q-48 0 -87 -23.5t-61.5 -62.5
t-22.5 -86q0 -45 20 -80.5t55 -56.5t80 -21zM364 494l-83 137l16 3l-118 -140h-45l159 181v0l116 -181h-45zM381 730q-31 2 -49 18t-33 35q-11 15 -23 28t-32 14q-12 1 -25.5 -7.5t-24 -27.5t-16.5 -53l-32 4q5 41 20.5 68.5t37.5 41.5t46 12q29 -1 46 -17.5t30 -35.5
q12 -16 25.5 -29t32.5 -14q14 -1 26.5 7t21.5 28t14 53l32 -3q-4 -42 -18 -69.5t-34.5 -40.5t-44.5 -12z" />
    <glyph glyph-name="uni1EC7" unicode="&#x1ec7;" horiz-adv-x="488" 
d="M252 33q29 0 57 10t50 27l20 -36q-28 -19 -62 -30t-69 -11q-58 0 -103 24.5t-70 68t-25 100.5q0 42 16 80.5t45 69t69 48.5t89 18q35 0 65 -10t54 -29.5t40.5 -49.5t24.5 -69l-357 -111l-8 36l331 102l-18 -14q-13 44 -47.5 75t-85.5 31q-48 0 -87 -23.5t-61.5 -62.5
t-22.5 -86q0 -45 20 -80.5t55 -56.5t80 -21zM172 -100q1 14 13.5 24t26.5 9q13 0 22.5 -9.5t7.5 -23.5q-1 -15 -13 -24.5t-26 -9.5q-13 1 -22.5 11t-8.5 23zM364 494l-83 137l16 3l-118 -140h-45l159 181v0l116 -181h-45z" />
    <glyph glyph-name="f" unicode="f" horiz-adv-x="324" 
d="M91 0l42 347h-67l5 43h67l24 197q11 94 49 135.5t102 41.5q14 0 29.5 -3.5t28.5 -11.5l-25 -34q-6 5 -14 7.5t-19 2.5q-43 0 -68.5 -30t-34.5 -107l-25 -198h131l-5 -43h-131l-42 -347h-47z" />
    <glyph glyph-name="g" unicode="g" horiz-adv-x="565" 
d="M237 -190q-36 0 -68 7t-62.5 26.5t-62.5 54.5l32 31q29 -33 56.5 -49.5t54.5 -22t53 -5.5q54 0 87.5 18t51.5 48.5t23 68.5l16 127l10 -9q-23 -52 -74 -82t-113 -30q-55 0 -98 25t-68 69t-25 101q0 29 12 65.5t37.5 70.5t67 56t100.5 22q66 0 114.5 -31t64.5 -81l-11 -17
l24 118h41l-51 -411q-5 -47 -29.5 -85.5t-69.5 -61.5t-113 -23zM275 363q-51 0 -85 -18.5t-54 -46.5t-29 -57.5t-9 -52.5q0 -44 20 -79t55 -55.5t81 -20.5q41 0 77 18t61 48.5t33 67.5l7 58q-3 39 -24.5 70.5t-55.5 49.5t-77 18z" />
    <glyph glyph-name="gcircumflex" unicode="&#x11d;" horiz-adv-x="565" 
d="M237 -190q-36 0 -68 7t-62.5 26.5t-62.5 54.5l32 31q29 -33 56.5 -49.5t54.5 -22t53 -5.5q54 0 87.5 18t51.5 48.5t23 68.5l16 127l10 -9q-23 -52 -74 -82t-113 -30q-55 0 -98 25t-68 69t-25 101q0 29 12 65.5t37.5 70.5t67 56t100.5 22q66 0 114.5 -31t64.5 -81l-11 -17
l24 118h41l-51 -411q-5 -47 -29.5 -85.5t-69.5 -61.5t-113 -23zM275 363q-51 0 -85 -18.5t-54 -46.5t-29 -57.5t-9 -52.5q0 -44 20 -79t55 -55.5t81 -20.5q41 0 77 18t61 48.5t33 67.5l7 58q-3 39 -24.5 70.5t-55.5 49.5t-77 18zM401 499l-83 137l16 3l-118 -140h-45
l159 181v0l116 -181h-45z" />
    <glyph glyph-name="gbreve" unicode="&#x11f;" horiz-adv-x="565" 
d="M237 -190q-36 0 -68 7t-62.5 26.5t-62.5 54.5l32 31q29 -33 56.5 -49.5t54.5 -22t53 -5.5q54 0 87.5 18t51.5 48.5t23 68.5l16 127l10 -9q-23 -52 -74 -82t-113 -30q-55 0 -98 25t-68 69t-25 101q0 29 12 65.5t37.5 70.5t67 56t100.5 22q66 0 114.5 -31t64.5 -81l-11 -17
l24 118h41l-51 -411q-5 -47 -29.5 -85.5t-69.5 -61.5t-113 -23zM275 363q-51 0 -85 -18.5t-54 -46.5t-29 -57.5t-9 -52.5q0 -44 20 -79t55 -55.5t81 -20.5q41 0 77 18t61 48.5t33 67.5l7 58q-3 39 -24.5 70.5t-55.5 49.5t-77 18zM317 480q-16 0 -37.5 7.5t-41.5 25.5
t-31.5 50.5t-8.5 83.5h34q-3 -53 13 -81.5t38.5 -39t36.5 -11.5q30 0 52 17.5t37 48t21 66.5h35q-8 -51 -28.5 -89t-50.5 -58.5t-69 -19.5z" />
    <glyph glyph-name="gdotaccent" unicode="&#x121;" horiz-adv-x="565" 
d="M237 -190q-36 0 -68 7t-62.5 26.5t-62.5 54.5l32 31q29 -33 56.5 -49.5t54.5 -22t53 -5.5q54 0 87.5 18t51.5 48.5t23 68.5l16 127l10 -9q-23 -52 -74 -82t-113 -30q-55 0 -98 25t-68 69t-25 101q0 29 12 65.5t37.5 70.5t67 56t100.5 22q66 0 114.5 -31t64.5 -81l-11 -17
l24 118h41l-51 -411q-5 -47 -29.5 -85.5t-69.5 -61.5t-113 -23zM275 363q-51 0 -85 -18.5t-54 -46.5t-29 -57.5t-9 -52.5q0 -44 20 -79t55 -55.5t81 -20.5q41 0 77 18t61 48.5t33 67.5l7 58q-3 39 -24.5 70.5t-55.5 49.5t-77 18zM284 532q1 14 13.5 24t26.5 9
q13 0 22.5 -9.5t7.5 -23.5q-1 -15 -13 -24.5t-26 -9.5q-13 1 -22.5 11t-8.5 23z" />
    <glyph glyph-name="uni0123" unicode="&#x123;" horiz-adv-x="565" 
d="M363 601l23 -19q-28 -19 -41.5 -53t-12.5 -75l-44 1q-1 27 6 55t24 52.5t45 38.5zM237 -190q-36 0 -68 7t-62.5 26.5t-62.5 54.5l32 31q29 -33 56.5 -49.5t54.5 -22t53 -5.5q54 0 87.5 18t51.5 48.5t23 68.5l16 127l10 -9q-23 -52 -74 -82t-113 -30q-55 0 -98 25t-68 69
t-25 101q0 29 12 65.5t37.5 70.5t67 56t100.5 22q66 0 114.5 -31t64.5 -81l-11 -17l24 118h41l-51 -411q-5 -47 -29.5 -85.5t-69.5 -61.5t-113 -23zM275 363q-51 0 -85 -18.5t-54 -46.5t-29 -57.5t-9 -52.5q0 -44 20 -79t55 -55.5t81 -20.5q41 0 77 18t61 48.5t33 67.5l7 58
q-3 39 -24.5 70.5t-55.5 49.5t-77 18z" />
    <glyph glyph-name="gcaron" unicode="&#x1e7;" horiz-adv-x="565" 
d="M237 -190q-36 0 -68 7t-62.5 26.5t-62.5 54.5l32 31q29 -33 56.5 -49.5t54.5 -22t53 -5.5q54 0 87.5 18t51.5 48.5t23 68.5l16 127l10 -9q-23 -52 -74 -82t-113 -30q-55 0 -98 25t-68 69t-25 101q0 29 12 65.5t37.5 70.5t67 56t100.5 22q66 0 114.5 -31t64.5 -81l-11 -17
l24 118h41l-51 -411q-5 -47 -29.5 -85.5t-69.5 -61.5t-113 -23zM275 363q-51 0 -85 -18.5t-54 -46.5t-29 -57.5t-9 -52.5q0 -44 20 -79t55 -55.5t81 -20.5q41 0 77 18t61 48.5t33 67.5l7 58q-3 39 -24.5 70.5t-55.5 49.5t-77 18zM246 652l83 -137l-17 -2l120 139h45
l-160 -181h-1l-115 181h45z" />
    <glyph glyph-name="h" unicode="h" horiz-adv-x="512" 
d="M145 305q26 42 73.5 69.5t105.5 27.5q56 0 85.5 -32.5t24.5 -84.5l-35 -285h-47l33 276q3 35 -16 59t-60 25q-42 0 -79 -19.5t-61.5 -53.5t-30.5 -78l-26 -209h-47l93 760h47l-58 -471z" />
    <glyph glyph-name="hcircumflex" unicode="&#x125;" horiz-adv-x="512" 
d="M145 305q26 42 73.5 69.5t105.5 27.5q56 0 85.5 -32.5t24.5 -84.5l-35 -285h-47l33 276q3 35 -16 59t-60 25q-42 0 -79 -19.5t-61.5 -53.5t-30.5 -78l-26 -209h-47l93 760h47l-58 -471zM271 738l-83 137l16 3l-118 -140h-45l159 181v0l116 -181h-45z" />
    <glyph glyph-name="i" unicode="i" horiz-adv-x="225" 
d="M113 391h47l-48 -391h-47zM118 515q1 14 13.5 24t26.5 9q13 0 22.5 -9.5t7.5 -23.5q-1 -15 -13 -24.5t-26 -9.5q-13 1 -22.5 11t-8.5 23z" />
    <glyph glyph-name="igrave" unicode="&#xec;" horiz-adv-x="225" 
d="M113 391h47l-48 -391h-47zM95 615l70 -133h-34l-89 133h53z" />
    <glyph glyph-name="iacute" unicode="&#xed;" horiz-adv-x="225" 
d="M113 391h47l-48 -391h-47zM284 615l-117 -133h-34l99 133h52z" />
    <glyph glyph-name="icircumflex" unicode="&#xee;" horiz-adv-x="225" 
d="M113 391h47l-48 -391h-47zM235 482l-83 137l16 3l-118 -140h-45l159 181v0l116 -181h-45z" />
    <glyph glyph-name="idieresis" unicode="&#xef;" horiz-adv-x="225" 
d="M113 391h47l-48 -391h-47zM33 514q1 14 12 23.5t24 9.5q13 -1 22.5 -11t8.5 -24q-1 -15 -12 -24.5t-24 -8.5q-13 0 -22.5 10.5t-8.5 24.5v0zM207 514q1 14 12 23.5t24 9.5q13 -1 22.5 -11t8.5 -24q-1 -15 -12 -24.5t-24 -8.5q-13 0 -22.5 10t-8.5 25v0z" />
    <glyph glyph-name="itilde" unicode="&#x129;" horiz-adv-x="225" 
d="M113 391h47l-48 -391h-47zM225 446q-31 2 -49 18t-33 35q-11 15 -23 28t-32 14q-12 1 -25.5 -7.5t-24 -27.5t-16.5 -53l-32 4q5 41 20.5 68.5t37.5 41.5t46 12q29 -1 46 -17.5t30 -35.5q12 -16 25.5 -29t32.5 -14q14 -1 26.5 7t21.5 28t14 53l32 -3q-4 -42 -18 -69.5
t-34.5 -40.5t-44.5 -12z" />
    <glyph glyph-name="imacron" unicode="&#x12b;" horiz-adv-x="225" 
d="M113 391h47l-48 -391h-47zM38 519h231l-3 -30h-232z" />
    <glyph glyph-name="ibreve" unicode="&#x12d;" horiz-adv-x="225" 
d="M113 391h47l-48 -391h-47zM151 463q-16 0 -37.5 7.5t-41.5 25.5t-31.5 50.5t-8.5 83.5h34q-3 -53 13 -81.5t38.5 -39t36.5 -11.5q30 0 52 17.5t37 48t21 66.5h35q-8 -51 -28.5 -89t-50.5 -58.5t-69 -19.5z" />
    <glyph glyph-name="iogonek" unicode="&#x12f;" horiz-adv-x="201" 
d="M66 -197q-35 2 -60.5 25.5t-25.5 61.5q0 24 12.5 47t35 43.5t51.5 33.5l29 -9l-38 -5l48 391h47l-47 -390q-45 -24 -70 -50t-26 -55q-1 -27 15 -41.5t36 -15.5q20 0 36 12.5t29 32.5l19 -24q-14 -24 -39 -41t-52 -16zM123 515q1 14 13.5 24t26.5 9q13 0 22.5 -9.5
t7.5 -23.5q-1 -15 -13 -24.5t-26 -9.5q-13 1 -22.5 11t-8.5 23z" />
    <glyph glyph-name="uni0209" unicode="&#x209;" horiz-adv-x="225" 
d="M113 391h47l-48 -391h-47zM49 615l70 -133h-34l-89 133h53zM151 615l70 -133h-34l-89 133h53z" />
    <glyph glyph-name="uni020B" unicode="&#x20b;" horiz-adv-x="225" 
d="M113 391h47l-48 -391h-47zM167 600q16 0 37.5 -7.5t41.5 -25.5t31.5 -50.5t8.5 -83.5h-34q4 53 -12.5 81.5t-38.5 39.5t-37 11q-29 1 -51.5 -17t-37 -48t-21.5 -67h-35q8 51 28.5 89t51 58.5t68.5 19.5z" />
    <glyph glyph-name="uni1EC9" unicode="&#x1ec9;" horiz-adv-x="225" 
d="M113 391h47l-48 -391h-47zM129 457q24 17 40.5 31t19.5 33q2 20 -5.5 33t-29.5 14q-17 1 -29.5 -6.5t-27.5 -24.5l-19 14q19 25 39.5 36.5t44.5 9.5q27 -1 44 -17.5t13 -50.5q-2 -26 -22.5 -46.5t-55.5 -41.5z" />
    <glyph glyph-name="uni1ECB" unicode="&#x1ecb;" horiz-adv-x="225" 
d="M113 391h47l-48 -391h-47zM118 515q1 14 13.5 24t26.5 9q13 0 22.5 -9.5t7.5 -23.5q-1 -15 -13 -24.5t-26 -9.5q-13 1 -22.5 11t-8.5 23zM48 -95q1 14 13.5 24t26.5 9q13 0 22.5 -9.5t7.5 -23.5q-1 -15 -13 -24.5t-26 -9.5q-13 1 -22.5 11t-8.5 23z" />
    <glyph glyph-name="j" unicode="j" horiz-adv-x="236" 
d="M-27 -169q42 25 66.5 62t32.5 89l52 409h47l-48 -391q-9 -72 -40.5 -123.5t-87.5 -75.5zM122 515q1 14 13.5 24t26.5 9q13 0 22.5 -9.5t7.5 -23.5q-1 -15 -13 -24.5t-26 -9.5q-13 1 -22.5 11t-8.5 23z" />
    <glyph glyph-name="jcircumflex" unicode="&#x135;" horiz-adv-x="236" 
d="M-27 -169q42 25 66.5 62t32.5 89l52 409h47l-48 -391q-9 -72 -40.5 -123.5t-87.5 -75.5zM239 482l-83 137l16 3l-118 -140h-45l159 181v0l116 -181h-45z" />
    <glyph glyph-name="k" unicode="k" horiz-adv-x="451" 
d="M65 0l93 760h48l-94 -760h-47zM233 254l151 -254h-55l-132 228zM113 142l-4 47l265 210l32 -25z" />
    <glyph glyph-name="uni0137" unicode="&#x137;" horiz-adv-x="421" 
d="M65 0l93 760h48l-94 -760h-47zM233 254l151 -254h-55l-132 228zM113 142l-4 47l265 210l32 -25zM149 -297l-23 19q29 19 42.5 53t11.5 75l44 -1q2 -27 -5 -55t-24 -52t-46 -39z" />
    <glyph glyph-name="l" unicode="l" horiz-adv-x="226" 
d="M158 760h48l-94 -760h-47z" />
    <glyph glyph-name="lacute" unicode="&#x13a;" horiz-adv-x="226" 
d="M158 760h48l-94 -760h-47zM320 981l-117 -133h-34l99 133h52z" />
    <glyph glyph-name="uni013C" unicode="&#x13c;" horiz-adv-x="226" 
d="M158 760h48l-94 -760h-47zM31 -193l-23 19q29 19 42.5 53t11.5 75l44 -1q2 -27 -5 -55t-24 -52t-46 -39z" />
    <glyph glyph-name="lcaron" unicode="&#x13e;" horiz-adv-x="226" 
d="M158 760h48l-94 -760h-47zM284 612l-23 19q29 19 42.5 53t11.5 75l44 -1q2 -27 -5 -55t-24 -52t-46 -39z" />
    <glyph glyph-name="m" unicode="m" horiz-adv-x="788" 
d="M154 391l-8 -105l-4 17q29 45 76 72t104 27q48 0 76 -24t32 -66l-4 -4q29 43 75.5 68.5t99.5 25.5q56 0 84.5 -32.5t23.5 -84.5l-34 -285h-48l34 275q3 35 -14.5 59t-57.5 26q-41 0 -77.5 -19.5t-60.5 -52.5t-31 -74l-26 -214h-48l34 275q3 35 -15 59t-58 26
q-41 0 -77.5 -20t-61 -54t-30.5 -76l-26 -210h-47l48 391h41z" />
    <glyph glyph-name="n" unicode="n" horiz-adv-x="512" 
d="M154 391l-5 -100l-9 10q26 45 73 73t107 28q59 0 89.5 -32t24.5 -85l-35 -285h-47l33 273q5 38 -17.5 62.5t-66.5 24.5q-41 0 -76.5 -19.5t-58.5 -53.5t-28 -78l-26 -209h-47l48 391h41z" />
    <glyph glyph-name="ntilde" unicode="&#xf1;" horiz-adv-x="512" 
d="M154 391l-5 -100l-9 10q26 45 73 73t107 28q59 0 89.5 -32t24.5 -85l-35 -285h-47l33 273q5 38 -17.5 62.5t-66.5 24.5q-41 0 -76.5 -19.5t-58.5 -53.5t-28 -78l-26 -209h-47l48 391h41zM369 463q-31 2 -49 18t-33 35q-11 15 -23 28t-32 14q-12 1 -25.5 -7.5t-24 -27.5
t-16.5 -53l-32 4q5 41 20.5 68.5t37.5 41.5t46 12q29 -1 46 -17.5t30 -35.5q12 -16 25.5 -29t32.5 -14q14 -1 26.5 7t21.5 28t14 53l32 -3q-4 -42 -18 -69.5t-34.5 -40.5t-44.5 -12z" />
    <glyph glyph-name="nacute" unicode="&#x144;" horiz-adv-x="496" 
d="M154 391l-5 -100l-9 10q26 45 73 73t107 28q59 0 89.5 -32t24.5 -85l-35 -285h-47l33 273q5 38 -17.5 62.5t-66.5 24.5q-41 0 -76.5 -19.5t-58.5 -53.5t-28 -78l-26 -209h-47l48 391h41zM412 615l-117 -133h-34l99 133h52z" />
    <glyph glyph-name="uni0146" unicode="&#x146;" horiz-adv-x="512" 
d="M154 391l-5 -100l-9 10q26 45 73 73t107 28q59 0 89.5 -32t24.5 -85l-35 -285h-47l33 273q5 38 -17.5 62.5t-66.5 24.5q-41 0 -76.5 -19.5t-58.5 -53.5t-28 -78l-26 -209h-47l48 391h41zM173 -193l-23 19q29 19 42.5 53t11.5 75l44 -1q2 -27 -5 -55t-24 -52t-46 -39z" />
    <glyph glyph-name="ncaron" unicode="&#x148;" horiz-adv-x="496" 
d="M154 391l-5 -100l-9 10q26 45 73 73t107 28q59 0 89.5 -32t24.5 -85l-35 -285h-47l33 273q5 38 -17.5 62.5t-66.5 24.5q-41 0 -76.5 -19.5t-58.5 -53.5t-28 -78l-26 -209h-47l48 391h41zM233 663l83 -137l-17 -2l120 139h45l-160 -181h-1l-115 181h45z" />
    <glyph glyph-name="o" unicode="o" horiz-adv-x="519" 
d="M248 -8q-39 0 -75 13.5t-63.5 38.5t-43.5 60t-16 79q0 38 13 76.5t39.5 70.5t68 52t99.5 20q55 0 99.5 -24t71.5 -66.5t27 -99.5q0 -28 -8 -59t-24 -59.5t-42 -51.5t-62.5 -36.5t-83.5 -13.5zM250 32q59 0 96.5 27t55.5 68t18 82q0 35 -12 63t-33.5 48t-49 31t-57.5 11
q-58 0 -96 -26.5t-56 -67.5t-18 -83q0 -45 20.5 -79.5t55.5 -54t76 -19.5z" />
    <glyph glyph-name="ograve" unicode="&#xf2;" horiz-adv-x="519" 
d="M248 -8q-39 0 -75 13.5t-63.5 38.5t-43.5 60t-16 79q0 38 13 76.5t39.5 70.5t68 52t99.5 20q55 0 99.5 -24t71.5 -66.5t27 -99.5q0 -28 -8 -59t-24 -59.5t-42 -51.5t-62.5 -36.5t-83.5 -13.5zM250 32q59 0 96.5 27t55.5 68t18 82q0 35 -12 63t-33.5 48t-49 31t-57.5 11
q-58 0 -96 -26.5t-56 -67.5t-18 -83q0 -45 20.5 -79.5t55.5 -54t76 -19.5zM228 619l70 -133h-34l-89 133h53z" />
    <glyph glyph-name="oacute" unicode="&#xf3;" horiz-adv-x="519" 
d="M248 -8q-39 0 -75 13.5t-63.5 38.5t-43.5 60t-16 79q0 38 13 76.5t39.5 70.5t68 52t99.5 20q55 0 99.5 -24t71.5 -66.5t27 -99.5q0 -28 -8 -59t-24 -59.5t-42 -51.5t-62.5 -36.5t-83.5 -13.5zM250 32q59 0 96.5 27t55.5 68t18 82q0 35 -12 63t-33.5 48t-49 31t-57.5 11
q-58 0 -96 -26.5t-56 -67.5t-18 -83q0 -45 20.5 -79.5t55.5 -54t76 -19.5zM417 619l-117 -133h-34l99 133h52z" />
    <glyph glyph-name="ocircumflex" unicode="&#xf4;" horiz-adv-x="519" 
d="M248 -8q-39 0 -75 13.5t-63.5 38.5t-43.5 60t-16 79q0 38 13 76.5t39.5 70.5t68 52t99.5 20q55 0 99.5 -24t71.5 -66.5t27 -99.5q0 -28 -8 -59t-24 -59.5t-42 -51.5t-62.5 -36.5t-83.5 -13.5zM250 32q59 0 96.5 27t55.5 68t18 82q0 35 -12 63t-33.5 48t-49 31t-57.5 11
q-58 0 -96 -26.5t-56 -67.5t-18 -83q0 -45 20.5 -79.5t55.5 -54t76 -19.5zM368 486l-83 137l16 3l-118 -140h-45l159 181v0l116 -181h-45z" />
    <glyph glyph-name="otilde" unicode="&#xf5;" horiz-adv-x="519" 
d="M248 -8q-39 0 -75 13.5t-63.5 38.5t-43.5 60t-16 79q0 38 13 76.5t39.5 70.5t68 52t99.5 20q55 0 99.5 -24t71.5 -66.5t27 -99.5q0 -28 -8 -59t-24 -59.5t-42 -51.5t-62.5 -36.5t-83.5 -13.5zM250 32q59 0 96.5 27t55.5 68t18 82q0 35 -12 63t-33.5 48t-49 31t-57.5 11
q-58 0 -96 -26.5t-56 -67.5t-18 -83q0 -45 20.5 -79.5t55.5 -54t76 -19.5zM358 450q-31 2 -49 18t-33 35q-11 15 -23 28t-32 14q-12 1 -25.5 -7.5t-24 -27.5t-16.5 -53l-32 4q5 41 20.5 68.5t37.5 41.5t46 12q29 -1 46 -17.5t30 -35.5q12 -16 25.5 -29t32.5 -14
q14 -1 26.5 7t21.5 28t14 53l32 -3q-4 -42 -18 -69.5t-34.5 -40.5t-44.5 -12z" />
    <glyph glyph-name="odieresis" unicode="&#xf6;" horiz-adv-x="519" 
d="M248 -8q-39 0 -75 13.5t-63.5 38.5t-43.5 60t-16 79q0 38 13 76.5t39.5 70.5t68 52t99.5 20q55 0 99.5 -24t71.5 -66.5t27 -99.5q0 -28 -8 -59t-24 -59.5t-42 -51.5t-62.5 -36.5t-83.5 -13.5zM250 32q59 0 96.5 27t55.5 68t18 82q0 35 -12 63t-33.5 48t-49 31t-57.5 11
q-58 0 -96 -26.5t-56 -67.5t-18 -83q0 -45 20.5 -79.5t55.5 -54t76 -19.5zM166 518q1 14 12 23.5t24 9.5q13 -1 22.5 -11t8.5 -24q-1 -15 -12 -24.5t-24 -8.5q-13 0 -22.5 10.5t-8.5 24.5v0zM340 518q1 14 12 23.5t24 9.5q13 -1 22.5 -11t8.5 -24q-1 -15 -12 -24.5t-24 -8.5
q-13 0 -22.5 10t-8.5 25v0z" />
    <glyph glyph-name="omacron" unicode="&#x14d;" horiz-adv-x="519" 
d="M248 -8q-39 0 -75 13.5t-63.5 38.5t-43.5 60t-16 79q0 38 13 76.5t39.5 70.5t68 52t99.5 20q55 0 99.5 -24t71.5 -66.5t27 -99.5q0 -28 -8 -59t-24 -59.5t-42 -51.5t-62.5 -36.5t-83.5 -13.5zM250 32q59 0 96.5 27t55.5 68t18 82q0 35 -12 63t-33.5 48t-49 31t-57.5 11
q-58 0 -96 -26.5t-56 -67.5t-18 -83q0 -45 20.5 -79.5t55.5 -54t76 -19.5zM171 523h231l-3 -30h-232z" />
    <glyph glyph-name="obreve" unicode="&#x14f;" horiz-adv-x="519" 
d="M248 -8q-39 0 -75 13.5t-63.5 38.5t-43.5 60t-16 79q0 38 13 76.5t39.5 70.5t68 52t99.5 20q55 0 99.5 -24t71.5 -66.5t27 -99.5q0 -28 -8 -59t-24 -59.5t-42 -51.5t-62.5 -36.5t-83.5 -13.5zM250 32q59 0 96.5 27t55.5 68t18 82q0 35 -12 63t-33.5 48t-49 31t-57.5 11
q-58 0 -96 -26.5t-56 -67.5t-18 -83q0 -45 20.5 -79.5t55.5 -54t76 -19.5zM284 467q-16 0 -37.5 7.5t-41.5 25.5t-31.5 50.5t-8.5 83.5h34q-3 -53 13 -81.5t38.5 -39t36.5 -11.5q30 0 52 17.5t37 48t21 66.5h35q-8 -51 -28.5 -89t-50.5 -58.5t-69 -19.5z" />
    <glyph glyph-name="ohungarumlaut" unicode="&#x151;" horiz-adv-x="519" 
d="M248 -8q-39 0 -75 13.5t-63.5 38.5t-43.5 60t-16 79q0 38 13 76.5t39.5 70.5t68 52t99.5 20q55 0 99.5 -24t71.5 -66.5t27 -99.5q0 -28 -8 -59t-24 -59.5t-42 -51.5t-62.5 -36.5t-83.5 -13.5zM250 32q59 0 96.5 27t55.5 68t18 82q0 35 -12 63t-33.5 48t-49 31t-57.5 11
q-58 0 -96 -26.5t-56 -67.5t-18 -83q0 -45 20.5 -79.5t55.5 -54t76 -19.5zM335 619q-28 -33 -58 -66.5t-59 -66.5h-34q26 33 53 66.5t53 66.5h45zM473 619q-28 -33 -58 -66.5t-59 -66.5h-34q26 33 53 66.5t54 66.5h44z" />
    <glyph glyph-name="ohorn" unicode="&#x1a1;" horiz-adv-x="530" 
d="M248 -8q-39 0 -75 13.5t-63.5 38.5t-43.5 60t-16 79q0 38 13 76.5t39.5 70.5t68 52t99.5 20q55 0 99.5 -24t71.5 -66.5t27 -99.5q0 -28 -8 -59t-24 -59.5t-42 -51.5t-62.5 -36.5t-83.5 -13.5zM250 32q59 0 96.5 27t55.5 68t18 82q0 35 -12 63t-33.5 48t-49 31t-57.5 11
q-58 0 -96 -26.5t-56 -67.5t-18 -83q0 -45 20.5 -79.5t55.5 -54t76 -19.5zM417 327q28 -3 45 14.5t24 64.5l37 -1q-7 -49 -23.5 -73.5t-38.5 -31.5t-48 -5z" />
    <glyph glyph-name="uni01EB" unicode="&#x1eb;" horiz-adv-x="519" 
d="M326 11q-17 -8 -34.5 -13.5t-43.5 -5.5q-39 0 -75 13.5t-63.5 38.5t-43.5 60t-16 79q0 38 13 76.5t39.5 70.5t68 52t99.5 20q55 0 99.5 -24t71.5 -66.5t27 -99.5q0 -45 -15 -85.5t-45.5 -71t-75.5 -46.5q-25 -10 -49 -27.5t-39 -41t-16 -53.5q-1 -26 15 -41.5t35 -15.5
q20 -1 36.5 12t29.5 33l19 -24q-14 -24 -39.5 -41t-52.5 -16q-34 1 -59.5 25t-25.5 62q0 29 12 55t33 46t48 31zM250 32q59 0 96.5 27t55.5 68t18 82q0 35 -12 63t-33.5 48t-49 31t-57.5 11q-58 0 -96 -26.5t-56 -67.5t-18 -83q0 -45 20.5 -79.5t55.5 -54t76 -19.5z" />
    <glyph glyph-name="uni020D" unicode="&#x20d;" horiz-adv-x="519" 
d="M248 -8q-39 0 -75 13.5t-63.5 38.5t-43.5 60t-16 79q0 38 13 76.5t39.5 70.5t68 52t99.5 20q55 0 99.5 -24t71.5 -66.5t27 -99.5q0 -28 -8 -59t-24 -59.5t-42 -51.5t-62.5 -36.5t-83.5 -13.5zM250 32q59 0 96.5 27t55.5 68t18 82q0 35 -12 63t-33.5 48t-49 31t-57.5 11
q-58 0 -96 -26.5t-56 -67.5t-18 -83q0 -45 20.5 -79.5t55.5 -54t76 -19.5zM182 619l70 -133h-34l-89 133h53zM284 619l70 -133h-34l-89 133h53z" />
    <glyph glyph-name="uni020F" unicode="&#x20f;" horiz-adv-x="519" 
d="M248 -8q-39 0 -75 13.5t-63.5 38.5t-43.5 60t-16 79q0 38 13 76.5t39.5 70.5t68 52t99.5 20q55 0 99.5 -24t71.5 -66.5t27 -99.5q0 -28 -8 -59t-24 -59.5t-42 -51.5t-62.5 -36.5t-83.5 -13.5zM250 32q59 0 96.5 27t55.5 68t18 82q0 35 -12 63t-33.5 48t-49 31t-57.5 11
q-58 0 -96 -26.5t-56 -67.5t-18 -83q0 -45 20.5 -79.5t55.5 -54t76 -19.5zM300 604q16 0 37.5 -7.5t41.5 -25.5t31.5 -50.5t8.5 -83.5h-34q4 53 -12.5 81.5t-38.5 39.5t-37 11q-29 1 -51.5 -17t-37 -48t-21.5 -67h-35q8 51 28.5 89t51 58.5t68.5 19.5z" />
    <glyph glyph-name="uni022B" unicode="&#x22b;" horiz-adv-x="519" 
d="M248 -8q-39 0 -75 13.5t-63.5 38.5t-43.5 60t-16 79q0 38 13 76.5t39.5 70.5t68 52t99.5 20q55 0 99.5 -24t71.5 -66.5t27 -99.5q0 -28 -8 -59t-24 -59.5t-42 -51.5t-62.5 -36.5t-83.5 -13.5zM250 32q59 0 96.5 27t55.5 68t18 82q0 35 -12 63t-33.5 48t-49 31t-57.5 11
q-58 0 -96 -26.5t-56 -67.5t-18 -83q0 -45 20.5 -79.5t55.5 -54t76 -19.5zM166 518q1 14 12 23.5t24 9.5q13 -1 22.5 -11t8.5 -24q-1 -15 -12 -24.5t-24 -8.5q-13 0 -22.5 10.5t-8.5 24.5v0zM340 518q1 14 12 23.5t24 9.5q13 -1 22.5 -11t8.5 -24q-1 -15 -12 -24.5t-24 -8.5
q-13 0 -22.5 10t-8.5 25v0zM190 677h231l-3 -30h-232z" />
    <glyph glyph-name="uni022D" unicode="&#x22d;" horiz-adv-x="519" 
d="M248 -8q-39 0 -75 13.5t-63.5 38.5t-43.5 60t-16 79q0 38 13 76.5t39.5 70.5t68 52t99.5 20q55 0 99.5 -24t71.5 -66.5t27 -99.5q0 -28 -8 -59t-24 -59.5t-42 -51.5t-62.5 -36.5t-83.5 -13.5zM250 32q59 0 96.5 27t55.5 68t18 82q0 35 -12 63t-33.5 48t-49 31t-57.5 11
q-58 0 -96 -26.5t-56 -67.5t-18 -83q0 -45 20.5 -79.5t55.5 -54t76 -19.5zM358 450q-31 2 -49 18t-33 35q-11 15 -23 28t-32 14q-12 1 -25.5 -7.5t-24 -27.5t-16.5 -53l-32 4q5 41 20.5 68.5t37.5 41.5t46 12q29 -1 46 -17.5t30 -35.5q12 -16 25.5 -29t32.5 -14
q14 -1 26.5 7t21.5 28t14 53l32 -3q-4 -42 -18 -69.5t-34.5 -40.5t-44.5 -12zM196 689h231l-3 -30h-232z" />
    <glyph glyph-name="uni0231" unicode="&#x231;" horiz-adv-x="519" 
d="M248 -8q-39 0 -75 13.5t-63.5 38.5t-43.5 60t-16 79q0 38 13 76.5t39.5 70.5t68 52t99.5 20q55 0 99.5 -24t71.5 -66.5t27 -99.5q0 -28 -8 -59t-24 -59.5t-42 -51.5t-62.5 -36.5t-83.5 -13.5zM250 32q59 0 96.5 27t55.5 68t18 82q0 35 -12 63t-33.5 48t-49 31t-57.5 11
q-58 0 -96 -26.5t-56 -67.5t-18 -83q0 -45 20.5 -79.5t55.5 -54t76 -19.5zM251 519q1 14 13.5 24t26.5 9q13 0 22.5 -9.5t7.5 -23.5q-1 -15 -13 -24.5t-26 -9.5q-13 1 -22.5 11t-8.5 23zM192 684h231l-3 -30h-232z" />
    <glyph glyph-name="uni1ECD" unicode="&#x1ecd;" horiz-adv-x="519" 
d="M248 -8q-39 0 -75 13.5t-63.5 38.5t-43.5 60t-16 79q0 38 13 76.5t39.5 70.5t68 52t99.5 20q55 0 99.5 -24t71.5 -66.5t27 -99.5q0 -28 -8 -59t-24 -59.5t-42 -51.5t-62.5 -36.5t-83.5 -13.5zM250 32q59 0 96.5 27t55.5 68t18 82q0 35 -12 63t-33.5 48t-49 31t-57.5 11
q-58 0 -96 -26.5t-56 -67.5t-18 -83q0 -45 20.5 -79.5t55.5 -54t76 -19.5zM181 -95q1 14 13.5 24t26.5 9q13 0 22.5 -9.5t7.5 -23.5q-1 -15 -13 -24.5t-26 -9.5q-13 1 -22.5 11t-8.5 23z" />
    <glyph glyph-name="uni1ECF" unicode="&#x1ecf;" horiz-adv-x="519" 
d="M248 -8q-39 0 -75 13.5t-63.5 38.5t-43.5 60t-16 79q0 38 13 76.5t39.5 70.5t68 52t99.5 20q55 0 99.5 -24t71.5 -66.5t27 -99.5q0 -28 -8 -59t-24 -59.5t-42 -51.5t-62.5 -36.5t-83.5 -13.5zM250 32q59 0 96.5 27t55.5 68t18 82q0 35 -12 63t-33.5 48t-49 31t-57.5 11
q-58 0 -96 -26.5t-56 -67.5t-18 -83q0 -45 20.5 -79.5t55.5 -54t76 -19.5zM262 461q24 17 40.5 31t19.5 33q2 20 -5.5 33t-29.5 14q-17 1 -29.5 -6.5t-27.5 -24.5l-19 14q19 25 39.5 36.5t44.5 9.5q27 -1 44 -17.5t13 -50.5q-2 -26 -22.5 -46.5t-55.5 -41.5z" />
    <glyph glyph-name="uni1ED1" unicode="&#x1ed1;" horiz-adv-x="519" 
d="M248 -8q-39 0 -75 13.5t-63.5 38.5t-43.5 60t-16 79q0 38 13 76.5t39.5 70.5t68 52t99.5 20q55 0 99.5 -24t71.5 -66.5t27 -99.5q0 -28 -8 -59t-24 -59.5t-42 -51.5t-62.5 -36.5t-83.5 -13.5zM250 32q59 0 96.5 27t55.5 68t18 82q0 35 -12 63t-33.5 48t-49 31t-57.5 11
q-58 0 -96 -26.5t-56 -67.5t-18 -83q0 -45 20.5 -79.5t55.5 -54t76 -19.5zM340 486l-83 137l16 3l-118 -140h-45l159 181v0l116 -181h-45zM505 777l-117 -133h-34l99 133h52z" />
    <glyph glyph-name="uni1ED3" unicode="&#x1ed3;" horiz-adv-x="519" 
d="M248 -8q-39 0 -75 13.5t-63.5 38.5t-43.5 60t-16 79q0 38 13 76.5t39.5 70.5t68 52t99.5 20q55 0 99.5 -24t71.5 -66.5t27 -99.5q0 -28 -8 -59t-24 -59.5t-42 -51.5t-62.5 -36.5t-83.5 -13.5zM250 32q59 0 96.5 27t55.5 68t18 82q0 35 -12 63t-33.5 48t-49 31t-57.5 11
q-58 0 -96 -26.5t-56 -67.5t-18 -83q0 -45 20.5 -79.5t55.5 -54t76 -19.5zM366 441l-83 137l16 3l-118 -140h-45l159 181v0l116 -181h-45zM121 684l70 -133h-34l-89 133h53z" />
    <glyph glyph-name="uni1ED5" unicode="&#x1ed5;" horiz-adv-x="519" 
d="M248 -8q-39 0 -75 13.5t-63.5 38.5t-43.5 60t-16 79q0 38 13 76.5t39.5 70.5t68 52t99.5 20q55 0 99.5 -24t71.5 -66.5t27 -99.5q0 -28 -8 -59t-24 -59.5t-42 -51.5t-62.5 -36.5t-83.5 -13.5zM250 32q59 0 96.5 27t55.5 68t18 82q0 35 -12 63t-33.5 48t-49 31t-57.5 11
q-58 0 -96 -26.5t-56 -67.5t-18 -83q0 -45 20.5 -79.5t55.5 -54t76 -19.5zM361 441l-83 137l16 3l-118 -140h-45l159 181v0l116 -181h-45zM397 561q24 17 40.5 31t19.5 33q2 20 -5.5 33t-29.5 14q-17 1 -29.5 -6.5t-27.5 -24.5l-19 14q19 25 39.5 36.5t44.5 9.5
q27 -1 44 -17.5t13 -50.5q-2 -26 -22.5 -46.5t-55.5 -41.5z" />
    <glyph glyph-name="uni1ED7" unicode="&#x1ed7;" horiz-adv-x="519" 
d="M248 -8q-39 0 -75 13.5t-63.5 38.5t-43.5 60t-16 79q0 38 13 76.5t39.5 70.5t68 52t99.5 20q55 0 99.5 -24t71.5 -66.5t27 -99.5q0 -28 -8 -59t-24 -59.5t-42 -51.5t-62.5 -36.5t-83.5 -13.5zM250 32q59 0 96.5 27t55.5 68t18 82q0 35 -12 63t-33.5 48t-49 31t-57.5 11
q-58 0 -96 -26.5t-56 -67.5t-18 -83q0 -45 20.5 -79.5t55.5 -54t76 -19.5zM379 667q-30 2 -47 17.5t-31 33.5q-11 14 -22.5 26.5t-30.5 13.5q-11 1 -24 -7t-23 -26.5t-15 -50.5l-31 4q5 39 19.5 65.5t35.5 39.5t44 11q28 -1 44 -16.5t29 -33.5q11 -15 23.5 -28t31.5 -13
q20 -2 36 17t23 67l31 -3q-4 -40 -17.5 -66.5t-33 -39t-42.5 -11.5zM366 434l-83 137l16 3l-118 -140h-45l159 181v0l116 -181h-45z" />
    <glyph glyph-name="uni1ED9" unicode="&#x1ed9;" horiz-adv-x="519" 
d="M248 -8q-39 0 -75 13.5t-63.5 38.5t-43.5 60t-16 79q0 38 13 76.5t39.5 70.5t68 52t99.5 20q55 0 99.5 -24t71.5 -66.5t27 -99.5q0 -28 -8 -59t-24 -59.5t-42 -51.5t-62.5 -36.5t-83.5 -13.5zM250 32q59 0 96.5 27t55.5 68t18 82q0 35 -12 63t-33.5 48t-49 31t-57.5 11
q-58 0 -96 -26.5t-56 -67.5t-18 -83q0 -45 20.5 -79.5t55.5 -54t76 -19.5zM181 -95q1 14 13.5 24t26.5 9q13 0 22.5 -9.5t7.5 -23.5q-1 -15 -13 -24.5t-26 -9.5q-13 1 -22.5 11t-8.5 23zM368 486l-83 137l16 3l-118 -140h-45l159 181v0l116 -181h-45z" />
    <glyph glyph-name="uni1EDB" unicode="&#x1edb;" horiz-adv-x="530" 
d="M248 -8q-39 0 -75 13.5t-63.5 38.5t-43.5 60t-16 79q0 38 13 76.5t39.5 70.5t68 52t99.5 20q55 0 99.5 -24t71.5 -66.5t27 -99.5q0 -28 -8 -59t-24 -59.5t-42 -51.5t-62.5 -36.5t-83.5 -13.5zM250 32q59 0 96.5 27t55.5 68t18 82q0 35 -12 63t-33.5 48t-49 31t-57.5 11
q-58 0 -96 -26.5t-56 -67.5t-18 -83q0 -45 20.5 -79.5t55.5 -54t76 -19.5zM417 327q28 -3 45 14.5t24 64.5l37 -1q-7 -49 -23.5 -73.5t-38.5 -31.5t-48 -5zM417 619l-117 -133h-34l99 133h52z" />
    <glyph glyph-name="uni1EDD" unicode="&#x1edd;" horiz-adv-x="530" 
d="M248 -8q-39 0 -75 13.5t-63.5 38.5t-43.5 60t-16 79q0 38 13 76.5t39.5 70.5t68 52t99.5 20q55 0 99.5 -24t71.5 -66.5t27 -99.5q0 -28 -8 -59t-24 -59.5t-42 -51.5t-62.5 -36.5t-83.5 -13.5zM250 32q59 0 96.5 27t55.5 68t18 82q0 35 -12 63t-33.5 48t-49 31t-57.5 11
q-58 0 -96 -26.5t-56 -67.5t-18 -83q0 -45 20.5 -79.5t55.5 -54t76 -19.5zM417 327q28 -3 45 14.5t24 64.5l37 -1q-7 -49 -23.5 -73.5t-38.5 -31.5t-48 -5zM228 619l70 -133h-34l-89 133h53z" />
    <glyph glyph-name="uni1EDF" unicode="&#x1edf;" horiz-adv-x="530" 
d="M248 -8q-39 0 -75 13.5t-63.5 38.5t-43.5 60t-16 79q0 38 13 76.5t39.5 70.5t68 52t99.5 20q55 0 99.5 -24t71.5 -66.5t27 -99.5q0 -28 -8 -59t-24 -59.5t-42 -51.5t-62.5 -36.5t-83.5 -13.5zM250 32q59 0 96.5 27t55.5 68t18 82q0 35 -12 63t-33.5 48t-49 31t-57.5 11
q-58 0 -96 -26.5t-56 -67.5t-18 -83q0 -45 20.5 -79.5t55.5 -54t76 -19.5zM417 327q28 -3 45 14.5t24 64.5l37 -1q-7 -49 -23.5 -73.5t-38.5 -31.5t-48 -5zM262 461q24 17 40.5 31t19.5 33q2 20 -5.5 33t-29.5 14q-17 1 -29.5 -6.5t-27.5 -24.5l-19 14q19 25 39.5 36.5
t44.5 9.5q27 -1 44 -17.5t13 -50.5q-2 -26 -22.5 -46.5t-55.5 -41.5z" />
    <glyph glyph-name="uni1EE1" unicode="&#x1ee1;" horiz-adv-x="530" 
d="M248 -8q-39 0 -75 13.5t-63.5 38.5t-43.5 60t-16 79q0 38 13 76.5t39.5 70.5t68 52t99.5 20q55 0 99.5 -24t71.5 -66.5t27 -99.5q0 -28 -8 -59t-24 -59.5t-42 -51.5t-62.5 -36.5t-83.5 -13.5zM250 32q59 0 96.5 27t55.5 68t18 82q0 35 -12 63t-33.5 48t-49 31t-57.5 11
q-58 0 -96 -26.5t-56 -67.5t-18 -83q0 -45 20.5 -79.5t55.5 -54t76 -19.5zM417 327q28 -3 45 14.5t24 64.5l37 -1q-7 -49 -23.5 -73.5t-38.5 -31.5t-48 -5zM358 450q-31 2 -49 18t-33 35q-11 15 -23 28t-32 14q-12 1 -25.5 -7.5t-24 -27.5t-16.5 -53l-32 4q5 41 20.5 68.5
t37.5 41.5t46 12q29 -1 46 -17.5t30 -35.5q12 -16 25.5 -29t32.5 -14q14 -1 26.5 7t21.5 28t14 53l32 -3q-4 -42 -18 -69.5t-34.5 -40.5t-44.5 -12z" />
    <glyph glyph-name="uni1EE3" unicode="&#x1ee3;" horiz-adv-x="530" 
d="M248 -8q-39 0 -75 13.5t-63.5 38.5t-43.5 60t-16 79q0 38 13 76.5t39.5 70.5t68 52t99.5 20q55 0 99.5 -24t71.5 -66.5t27 -99.5q0 -28 -8 -59t-24 -59.5t-42 -51.5t-62.5 -36.5t-83.5 -13.5zM250 32q59 0 96.5 27t55.5 68t18 82q0 35 -12 63t-33.5 48t-49 31t-57.5 11
q-58 0 -96 -26.5t-56 -67.5t-18 -83q0 -45 20.5 -79.5t55.5 -54t76 -19.5zM417 327q28 -3 45 14.5t24 64.5l37 -1q-7 -49 -23.5 -73.5t-38.5 -31.5t-48 -5zM181 -95q1 14 13.5 24t26.5 9q13 0 22.5 -9.5t7.5 -23.5q-1 -15 -13 -24.5t-26 -9.5q-13 1 -22.5 11t-8.5 23z" />
    <glyph glyph-name="p" unicode="p" horiz-adv-x="558" 
d="M275 -8q-58 0 -104 30.5t-62 76.5l13 12l-33 -299h-47l71 582h42l-12 -128l-11 29q32 47 86 77.5t111 30.5q52 0 92.5 -23t64 -63t23.5 -92q0 -63 -31 -116t-84 -85t-119 -32zM275 33q51 0 93.5 25.5t67.5 68t25 91.5q0 42 -19 75t-52 52t-75 19q-43 0 -80.5 -19
t-63 -51.5t-34.5 -75.5l-6 -43q0 -18 6.5 -42t23 -47t44.5 -38t70 -15z" />
    <glyph glyph-name="q" unicode="q" horiz-adv-x="559" 
d="M229 -7q-49 0 -90 23t-65.5 64t-24.5 94q0 46 17.5 87t49 73t72.5 50.5t87 18.5q65 0 109 -32t60 -79l-12 -21l17 120h45l-71 -579h-47l36 304l16 -13q-11 -20 -30 -39.5t-45 -35.5t-57 -25.5t-67 -9.5zM241 32q42 0 79 19t63.5 51.5t36.5 73.5l6 42q0 20 -6.5 44.5
t-23 47.5t-45 38t-70.5 15q-51 0 -93 -25.5t-67.5 -68t-25.5 -93.5q0 -41 19 -73.5t52.5 -51.5t74.5 -19z" />
    <glyph glyph-name="r" unicode="r" horiz-adv-x="343" 
d="M154 391l-11 -104q18 37 47.5 62t64.5 39t69 14l-7 -46q-45 0 -84 -20t-64.5 -53.5t-30.5 -75.5l-26 -207h-47l48 391h41z" />
    <glyph glyph-name="racute" unicode="&#x155;" horiz-adv-x="343" 
d="M154 391l-11 -104q18 37 47.5 62t64.5 39t69 14l-7 -46q-45 0 -84 -20t-64.5 -53.5t-30.5 -75.5l-26 -207h-47l48 391h41zM330 632l-117 -133h-34l99 133h52z" />
    <glyph glyph-name="uni0157" unicode="&#x157;" horiz-adv-x="343" 
d="M154 391l-11 -104q18 37 47.5 62t64.5 39t69 14l-7 -46q-45 0 -84 -20t-64.5 -53.5t-30.5 -75.5l-26 -207h-47l48 391h41zM47 -193l-23 19q29 19 42.5 53t11.5 75l44 -1q2 -27 -5 -55t-24 -52t-46 -39z" />
    <glyph glyph-name="rcaron" unicode="&#x159;" horiz-adv-x="343" 
d="M154 391l-11 -104q18 37 47.5 62t64.5 39t69 14l-7 -46q-45 0 -84 -20t-64.5 -53.5t-30.5 -75.5l-26 -207h-47l48 391h41zM126 652l83 -137l-17 -2l120 139h45l-160 -181h-1l-115 181h45z" />
    <glyph glyph-name="uni0211" unicode="&#x211;" horiz-adv-x="343" 
d="M154 391l-11 -104q18 37 47.5 62t64.5 39t69 14l-7 -46q-45 0 -84 -20t-64.5 -53.5t-30.5 -75.5l-26 -207h-47l48 391h41zM95 632l70 -133h-34l-89 133h53zM197 632l70 -133h-34l-89 133h53z" />
    <glyph glyph-name="uni0213" unicode="&#x213;" horiz-adv-x="343" 
d="M154 391l-11 -104q18 37 47.5 62t64.5 39t69 14l-7 -46q-45 0 -84 -20t-64.5 -53.5t-30.5 -75.5l-26 -207h-47l48 391h41zM213 617q16 0 37.5 -7.5t41.5 -25.5t31.5 -50.5t8.5 -83.5h-34q4 53 -12.5 81.5t-38.5 39.5t-37 11q-29 1 -51.5 -17t-37 -48t-21.5 -67h-35
q8 51 28.5 89t51 58.5t68.5 19.5z" />
    <glyph glyph-name="s" unicode="s" horiz-adv-x="369" 
d="M170 -8q-22 0 -48 5.5t-49.5 19t-40.5 37.5l25 29q14 -19 32.5 -30.5t39.5 -16.5t41 -5q42 0 64.5 24.5t22.5 47.5q0 26 -14 41t-35.5 25t-44.5 19q-37 15 -61.5 38t-24.5 61q0 20 8 39.5t24 36t39 26.5t53 10q8 0 29 -3t46 -13.5t45 -34.5l-24 -32q-18 27 -45.5 35.5
t-50.5 8.5q-24 0 -41 -10t-25.5 -25t-8.5 -29q1 -21 12 -35t29 -23t38 -18q26 -11 48.5 -24t37 -33.5t14.5 -54.5q0 -14 -6 -33.5t-21 -38.5t-41 -31.5t-67 -12.5z" />
    <glyph glyph-name="sacute" unicode="&#x15b;" horiz-adv-x="369" 
d="M170 -8q-22 0 -48 5.5t-49.5 19t-40.5 37.5l25 29q14 -19 32.5 -30.5t39.5 -16.5t41 -5q42 0 64.5 24.5t22.5 47.5q0 26 -14 41t-35.5 25t-44.5 19q-37 15 -61.5 38t-24.5 61q0 20 8 39.5t24 36t39 26.5t53 10q8 0 29 -3t46 -13.5t45 -34.5l-24 -32q-18 27 -45.5 35.5
t-50.5 8.5q-24 0 -41 -10t-25.5 -25t-8.5 -29q1 -21 12 -35t29 -23t38 -18q26 -11 48.5 -24t37 -33.5t14.5 -54.5q0 -14 -6 -33.5t-21 -38.5t-41 -31.5t-67 -12.5zM360 632l-117 -133h-34l99 133h52z" />
    <glyph glyph-name="scircumflex" unicode="&#x15d;" horiz-adv-x="369" 
d="M170 -8q-22 0 -48 5.5t-49.5 19t-40.5 37.5l25 29q14 -19 32.5 -30.5t39.5 -16.5t41 -5q42 0 64.5 24.5t22.5 47.5q0 26 -14 41t-35.5 25t-44.5 19q-37 15 -61.5 38t-24.5 61q0 20 8 39.5t24 36t39 26.5t53 10q8 0 29 -3t46 -13.5t45 -34.5l-24 -32q-18 27 -45.5 35.5
t-50.5 8.5q-24 0 -41 -10t-25.5 -25t-8.5 -29q1 -21 12 -35t29 -23t38 -18q26 -11 48.5 -24t37 -33.5t14.5 -54.5q0 -14 -6 -33.5t-21 -38.5t-41 -31.5t-67 -12.5zM311 499l-83 137l16 3l-118 -140h-45l159 181v0l116 -181h-45z" />
    <glyph glyph-name="scedilla" unicode="&#x15f;" horiz-adv-x="369" 
d="M170 -8q-22 0 -48 5.5t-49.5 19t-40.5 37.5l25 29q14 -19 32.5 -30.5t39.5 -16.5t41 -5q42 0 64.5 24.5t22.5 47.5q0 26 -14 41t-35.5 25t-44.5 19q-37 15 -61.5 38t-24.5 61q0 20 8 39.5t24 36t39 26.5t53 10q8 0 29 -3t46 -13.5t45 -34.5l-24 -32q-18 27 -45.5 35.5
t-50.5 8.5q-24 0 -41 -10t-25.5 -25t-8.5 -29q1 -21 12 -35t29 -23t38 -18q26 -11 48.5 -24t37 -33.5t14.5 -54.5q0 -14 -6 -33.5t-21 -38.5t-41 -31.5t-67 -12.5zM51 -165q10 -12 27.5 -20.5t42.5 -10.5q35 -1 59.5 11.5t28.5 38.5q3 24 -13 41.5t-56 19.5q-16 1 -37 -2
t-34 -8l-12 27l79 72l36 -6l-78 -80l-16 13q12 5 33.5 9t41.5 2q50 -2 76.5 -25.5t21.5 -64.5q-3 -28 -21.5 -46t-46.5 -25.5t-61 -5.5q-31 2 -54 12.5t-36 24.5z" />
    <glyph glyph-name="scaron" unicode="&#x161;" horiz-adv-x="369" 
d="M170 -8q-22 0 -48 5.5t-49.5 19t-40.5 37.5l25 29q14 -19 32.5 -30.5t39.5 -16.5t41 -5q42 0 64.5 24.5t22.5 47.5q0 26 -14 41t-35.5 25t-44.5 19q-37 15 -61.5 38t-24.5 61q0 20 8 39.5t24 36t39 26.5t53 10q8 0 29 -3t46 -13.5t45 -34.5l-24 -32q-18 27 -45.5 35.5
t-50.5 8.5q-24 0 -41 -10t-25.5 -25t-8.5 -29q1 -21 12 -35t29 -23t38 -18q26 -11 48.5 -24t37 -33.5t14.5 -54.5q0 -14 -6 -33.5t-21 -38.5t-41 -31.5t-67 -12.5zM156 652l83 -137l-17 -2l120 139h45l-160 -181h-1l-115 181h45z" />
    <glyph glyph-name="uni0219" unicode="&#x219;" horiz-adv-x="369" 
d="M170 -8q-22 0 -48 5.5t-49.5 19t-40.5 37.5l25 29q14 -19 32.5 -30.5t39.5 -16.5t41 -5q42 0 64.5 24.5t22.5 47.5q0 26 -14 41t-35.5 25t-44.5 19q-37 15 -61.5 38t-24.5 61q0 20 8 39.5t24 36t39 26.5t53 10q8 0 29 -3t46 -13.5t45 -34.5l-24 -32q-18 27 -45.5 35.5
t-50.5 8.5q-24 0 -41 -10t-25.5 -25t-8.5 -29q1 -21 12 -35t29 -23t38 -18q26 -11 48.5 -24t37 -33.5t14.5 -54.5q0 -14 -6 -33.5t-21 -38.5t-41 -31.5t-67 -12.5zM96 -193l-23 19q29 19 42.5 53t11.5 75l44 -1q2 -27 -5 -55t-24 -52t-46 -39z" />
    <glyph glyph-name="t" unicode="t" horiz-adv-x="325" 
d="M172 563h48l-22 -177h122l-5 -39h-122l-42 -347h-47l42 347h-84l5 39h84z" />
    <glyph glyph-name="uni0163" unicode="&#x163;" horiz-adv-x="325" 
d="M172 563h48l-22 -177h122l-5 -39h-122l-42 -347h-47l42 347h-84l5 39h84zM30 -165q10 -12 27.5 -20.5t42.5 -10.5q35 -1 59.5 11.5t28.5 38.5q3 24 -13 41.5t-56 19.5q-16 1 -37 -2t-34 -8l-12 27l79 72l36 -6l-78 -80l-16 13q12 5 33.5 9t41.5 2q50 -2 76.5 -25.5
t21.5 -64.5q-3 -28 -21.5 -46t-46.5 -25.5t-61 -5.5q-31 2 -54 12.5t-36 24.5z" />
    <glyph glyph-name="tcaron" unicode="&#x165;" horiz-adv-x="325" 
d="M172 563h48l-22 -177h122l-5 -39h-122l-42 -347h-47l42 347h-84l5 39h84zM138 802l83 -137l-17 -2l120 139h45l-160 -181h-1l-115 181h45z" />
    <glyph glyph-name="uni021B" unicode="&#x21b;" horiz-adv-x="325" 
d="M172 563h48l-22 -177h122l-5 -39h-122l-42 -347h-47l42 347h-84l5 39h84zM75 -193l-23 19q29 19 42.5 53t11.5 75l44 -1q2 -27 -5 -55t-24 -52t-46 -39z" />
    <glyph glyph-name="u" unicode="u" horiz-adv-x="509" 
d="M187 -11q-54 0 -84.5 31t-24.5 83l35 288h47l-34 -276q-4 -34 17 -58.5t64 -26.5q39 0 74.5 20t60 54.5t29.5 78.5l26 208h47l-48 -391h-42l10 110l5 -11q-14 -30 -42.5 -55t-64.5 -40t-75 -15z" />
    <glyph glyph-name="ugrave" unicode="&#xf9;" horiz-adv-x="509" 
d="M187 -11q-54 0 -84.5 31t-24.5 83l35 288h47l-34 -276q-4 -34 17 -58.5t64 -26.5q39 0 74.5 20t60 54.5t29.5 78.5l26 208h47l-48 -391h-42l10 110l5 -11q-14 -30 -42.5 -55t-64.5 -40t-75 -15zM238 632l70 -133h-34l-89 133h53z" />
    <glyph glyph-name="uacute" unicode="&#xfa;" horiz-adv-x="509" 
d="M187 -11q-54 0 -84.5 31t-24.5 83l35 288h47l-34 -276q-4 -34 17 -58.5t64 -26.5q39 0 74.5 20t60 54.5t29.5 78.5l26 208h47l-48 -391h-42l10 110l5 -11q-14 -30 -42.5 -55t-64.5 -40t-75 -15zM427 632l-117 -133h-34l99 133h52z" />
    <glyph glyph-name="ucircumflex" unicode="&#xfb;" horiz-adv-x="509" 
d="M187 -11q-54 0 -84.5 31t-24.5 83l35 288h47l-34 -276q-4 -34 17 -58.5t64 -26.5q39 0 74.5 20t60 54.5t29.5 78.5l26 208h47l-48 -391h-42l10 110l5 -11q-14 -30 -42.5 -55t-64.5 -40t-75 -15zM378 499l-83 137l16 3l-118 -140h-45l159 181v0l116 -181h-45z" />
    <glyph glyph-name="udieresis" unicode="&#xfc;" horiz-adv-x="509" 
d="M187 -11q-54 0 -84.5 31t-24.5 83l35 288h47l-34 -276q-4 -34 17 -58.5t64 -26.5q39 0 74.5 20t60 54.5t29.5 78.5l26 208h47l-48 -391h-42l10 110l5 -11q-14 -30 -42.5 -55t-64.5 -40t-75 -15zM176 531q1 14 12 23.5t24 9.5q13 -1 22.5 -11t8.5 -24q-1 -15 -12 -24.5
t-24 -8.5q-13 0 -22.5 10.5t-8.5 24.5v0zM350 531q1 14 12 23.5t24 9.5q13 -1 22.5 -11t8.5 -24q-1 -15 -12 -24.5t-24 -8.5q-13 0 -22.5 10t-8.5 25v0z" />
    <glyph glyph-name="utilde" unicode="&#x169;" horiz-adv-x="509" 
d="M187 -11q-54 0 -84.5 31t-24.5 83l35 288h47l-34 -276q-4 -34 17 -58.5t64 -26.5q39 0 74.5 20t60 54.5t29.5 78.5l26 208h47l-48 -391h-42l10 110l5 -11q-14 -30 -42.5 -55t-64.5 -40t-75 -15zM368 463q-31 2 -49 18t-33 35q-11 15 -23 28t-32 14q-12 1 -25.5 -7.5
t-24 -27.5t-16.5 -53l-32 4q5 41 20.5 68.5t37.5 41.5t46 12q29 -1 46 -17.5t30 -35.5q12 -16 25.5 -29t32.5 -14q14 -1 26.5 7t21.5 28t14 53l32 -3q-4 -42 -18 -69.5t-34.5 -40.5t-44.5 -12z" />
    <glyph glyph-name="umacron" unicode="&#x16b;" horiz-adv-x="509" 
d="M187 -11q-54 0 -84.5 31t-24.5 83l35 288h47l-34 -276q-4 -34 17 -58.5t64 -26.5q39 0 74.5 20t60 54.5t29.5 78.5l26 208h47l-48 -391h-42l10 110l5 -11q-14 -30 -42.5 -55t-64.5 -40t-75 -15zM181 536h231l-3 -30h-232z" />
    <glyph glyph-name="ubreve" unicode="&#x16d;" horiz-adv-x="509" 
d="M187 -11q-54 0 -84.5 31t-24.5 83l35 288h47l-34 -276q-4 -34 17 -58.5t64 -26.5q39 0 74.5 20t60 54.5t29.5 78.5l26 208h47l-48 -391h-42l10 110l5 -11q-14 -30 -42.5 -55t-64.5 -40t-75 -15zM294 480q-16 0 -37.5 7.5t-41.5 25.5t-31.5 50.5t-8.5 83.5h34
q-3 -53 13 -81.5t38.5 -39t36.5 -11.5q30 0 52 17.5t37 48t21 66.5h35q-8 -51 -28.5 -89t-50.5 -58.5t-69 -19.5z" />
    <glyph glyph-name="uring" unicode="&#x16f;" horiz-adv-x="490" 
d="M238 490q0 22 11.5 39.5t30 28.5t39.5 11q27 0 45 -18.5t18 -45.5q0 -21 -11.5 -39t-29.5 -29t-40 -11q-27 0 -45 18.5t-18 45.5v0zM266 493q0 -16 11.5 -28t27.5 -12q19 0 34 14.5t15 33.5q0 17 -10.5 28.5t-27.5 11.5q-19 0 -34.5 -14t-15.5 -34v0zM187 -11
q-54 0 -84.5 31t-24.5 83l35 288h47l-34 -276q-4 -34 17 -58.5t64 -26.5q39 0 74.5 20t60 54.5t29.5 78.5l26 208h47l-48 -391h-42l10 110l5 -11q-14 -30 -42.5 -55t-64.5 -40t-75 -15z" />
    <glyph glyph-name="uhungarumlaut" unicode="&#x171;" horiz-adv-x="509" 
d="M187 -11q-54 0 -84.5 31t-24.5 83l35 288h47l-34 -276q-4 -34 17 -58.5t64 -26.5q39 0 74.5 20t60 54.5t29.5 78.5l26 208h47l-48 -391h-42l10 110l5 -11q-14 -30 -42.5 -55t-64.5 -40t-75 -15zM345 632q-28 -33 -58 -66.5t-59 -66.5h-34q26 33 53 66.5t53 66.5h45z
M483 632q-28 -33 -58 -66.5t-59 -66.5h-34q26 33 53 66.5t54 66.5h44z" />
    <glyph glyph-name="uogonek" unicode="&#x173;" horiz-adv-x="509" 
d="M349 -202q-34 1 -59.5 25t-25.5 62q0 39 27.5 73.5t71.5 56.5l31 -13l-41 -2l9 99q-14 -30 -41 -55t-62 -40t-73 -15q-54 0 -84.5 31t-24.5 83l35 288h47l-34 -276q-4 -34 17 -58.5t64 -26.5q39 0 74.5 20t60 54.5t29.5 78.5l26 208h47l-48 -391q-42 -25 -65.5 -52
t-23.5 -57q-1 -28 15 -42.5t35 -14.5q20 -1 36.5 12t29.5 32l19 -24q-14 -23 -39.5 -40t-52.5 -16z" />
    <glyph glyph-name="uhorn" unicode="&#x1b0;" horiz-adv-x="568" 
d="M187 -11q-54 0 -84.5 31t-24.5 83l35 288h47l-34 -276q-4 -34 17 -58.5t64 -26.5q39 0 74.5 20t60 54.5t29.5 78.5l26 208h47l-48 -391h-42l10 110l5 -11q-14 -30 -42.5 -55t-64.5 -40t-75 -15zM420 295q47 -3 73.5 16.5t36.5 76.5h37q-9 -56 -30.5 -83.5t-52 -35.5
t-68.5 -5z" />
    <glyph glyph-name="uni0215" unicode="&#x215;" horiz-adv-x="509" 
d="M187 -11q-54 0 -84.5 31t-24.5 83l35 288h47l-34 -276q-4 -34 17 -58.5t64 -26.5q39 0 74.5 20t60 54.5t29.5 78.5l26 208h47l-48 -391h-42l10 110l5 -11q-14 -30 -42.5 -55t-64.5 -40t-75 -15zM192 632l70 -133h-34l-89 133h53zM294 632l70 -133h-34l-89 133h53z" />
    <glyph glyph-name="uni0217" unicode="&#x217;" horiz-adv-x="509" 
d="M187 -11q-54 0 -84.5 31t-24.5 83l35 288h47l-34 -276q-4 -34 17 -58.5t64 -26.5q39 0 74.5 20t60 54.5t29.5 78.5l26 208h47l-48 -391h-42l10 110l5 -11q-14 -30 -42.5 -55t-64.5 -40t-75 -15zM310 617q16 0 37.5 -7.5t41.5 -25.5t31.5 -50.5t8.5 -83.5h-34
q4 53 -12.5 81.5t-38.5 39.5t-37 11q-29 1 -51.5 -17t-37 -48t-21.5 -67h-35q8 51 28.5 89t51 58.5t68.5 19.5z" />
    <glyph glyph-name="uni1EE5" unicode="&#x1ee5;" horiz-adv-x="509" 
d="M187 -11q-54 0 -84.5 31t-24.5 83l35 288h47l-34 -276q-4 -34 17 -58.5t64 -26.5q39 0 74.5 20t60 54.5t29.5 78.5l26 208h47l-48 -391h-42l10 110l5 -11q-14 -30 -42.5 -55t-64.5 -40t-75 -15zM181 -100q1 14 13.5 24t26.5 9q13 0 22.5 -9.5t7.5 -23.5q-1 -15 -13 -24.5
t-26 -9.5q-13 1 -22.5 11t-8.5 23z" />
    <glyph glyph-name="uni1EE7" unicode="&#x1ee7;" horiz-adv-x="509" 
d="M187 -11q-54 0 -84.5 31t-24.5 83l35 288h47l-34 -276q-4 -34 17 -58.5t64 -26.5q39 0 74.5 20t60 54.5t29.5 78.5l26 208h47l-48 -391h-42l10 110l5 -11q-14 -30 -42.5 -55t-64.5 -40t-75 -15zM272 474q24 17 40.5 31t19.5 33q2 20 -5.5 33t-29.5 14q-17 1 -29.5 -6.5
t-27.5 -24.5l-19 14q19 25 39.5 36.5t44.5 9.5q27 -1 44 -17.5t13 -50.5q-2 -26 -22.5 -46.5t-55.5 -41.5z" />
    <glyph glyph-name="uni1EE9" unicode="&#x1ee9;" horiz-adv-x="568" 
d="M187 -11q-54 0 -84.5 31t-24.5 83l35 288h47l-34 -276q-4 -34 17 -58.5t64 -26.5q39 0 74.5 20t60 54.5t29.5 78.5l26 208h47l-48 -391h-42l10 110l5 -11q-14 -30 -42.5 -55t-64.5 -40t-75 -15zM420 295q47 -3 73.5 16.5t36.5 76.5h37q-9 -56 -30.5 -83.5t-52 -35.5
t-68.5 -5zM427 632l-117 -133h-34l99 133h52z" />
    <glyph glyph-name="uni1EEB" unicode="&#x1eeb;" horiz-adv-x="568" 
d="M187 -11q-54 0 -84.5 31t-24.5 83l35 288h47l-34 -276q-4 -34 17 -58.5t64 -26.5q39 0 74.5 20t60 54.5t29.5 78.5l26 208h47l-48 -391h-42l10 110l5 -11q-14 -30 -42.5 -55t-64.5 -40t-75 -15zM420 295q47 -3 73.5 16.5t36.5 76.5h37q-9 -56 -30.5 -83.5t-52 -35.5
t-68.5 -5zM238 632l70 -133h-34l-89 133h53z" />
    <glyph glyph-name="uni1EED" unicode="&#x1eed;" horiz-adv-x="568" 
d="M187 -11q-54 0 -84.5 31t-24.5 83l35 288h47l-34 -276q-4 -34 17 -58.5t64 -26.5q39 0 74.5 20t60 54.5t29.5 78.5l26 208h47l-48 -391h-42l10 110l5 -11q-14 -30 -42.5 -55t-64.5 -40t-75 -15zM420 295q47 -3 73.5 16.5t36.5 76.5h37q-9 -56 -30.5 -83.5t-52 -35.5
t-68.5 -5zM272 474q24 17 40.5 31t19.5 33q2 20 -5.5 33t-29.5 14q-17 1 -29.5 -6.5t-27.5 -24.5l-19 14q19 25 39.5 36.5t44.5 9.5q27 -1 44 -17.5t13 -50.5q-2 -26 -22.5 -46.5t-55.5 -41.5z" />
    <glyph glyph-name="uni1EEF" unicode="&#x1eef;" horiz-adv-x="568" 
d="M187 -11q-54 0 -84.5 31t-24.5 83l35 288h47l-34 -276q-4 -34 17 -58.5t64 -26.5q39 0 74.5 20t60 54.5t29.5 78.5l26 208h47l-48 -391h-42l10 110l5 -11q-14 -30 -42.5 -55t-64.5 -40t-75 -15zM420 295q47 -3 73.5 16.5t36.5 76.5h37q-9 -56 -30.5 -83.5t-52 -35.5
t-68.5 -5zM368 463q-31 2 -49 18t-33 35q-11 15 -23 28t-32 14q-12 1 -25.5 -7.5t-24 -27.5t-16.5 -53l-32 4q5 41 20.5 68.5t37.5 41.5t46 12q29 -1 46 -17.5t30 -35.5q12 -16 25.5 -29t32.5 -14q14 -1 26.5 7t21.5 28t14 53l32 -3q-4 -42 -18 -69.5t-34.5 -40.5t-44.5 -12
z" />
    <glyph glyph-name="uni1EF1" unicode="&#x1ef1;" horiz-adv-x="568" 
d="M187 -11q-54 0 -84.5 31t-24.5 83l35 288h47l-34 -276q-4 -34 17 -58.5t64 -26.5q39 0 74.5 20t60 54.5t29.5 78.5l26 208h47l-48 -391h-42l10 110l5 -11q-14 -30 -42.5 -55t-64.5 -40t-75 -15zM420 295q47 -3 73.5 16.5t36.5 76.5h37q-9 -56 -30.5 -83.5t-52 -35.5
t-68.5 -5zM181 -100q1 14 13.5 24t26.5 9q13 0 22.5 -9.5t7.5 -23.5q-1 -15 -13 -24.5t-26 -9.5q-13 1 -22.5 11t-8.5 23z" />
    <glyph glyph-name="v" unicode="v" horiz-adv-x="455" 
d="M200 -15l-149 406h55l118 -349l-28 1l200 348h53l-244 -406h-5z" />
    <glyph glyph-name="w" unicode="w" horiz-adv-x="666" 
d="M425 -20l-91 277l-147 -276h-4l-132 410h47l108 -334l-17 5l130 240l-30 89h43l106 -328l-11 -1l185 329h48l-231 -411h-4z" />
    <glyph glyph-name="wcircumflex" unicode="&#x175;" horiz-adv-x="666" 
d="M425 -20l-91 277l-147 -276h-4l-132 410h47l108 -334l-17 5l130 240l-30 89h43l106 -328l-11 -1l185 329h48l-231 -411h-4zM448 482l-83 137l16 3l-118 -140h-45l159 181v0l116 -181h-45z" />
    <glyph glyph-name="wgrave" unicode="&#x1e81;" horiz-adv-x="666" 
d="M425 -20l-91 277l-147 -276h-4l-132 410h47l108 -334l-17 5l130 240l-30 89h43l106 -328l-11 -1l185 329h48l-231 -411h-4zM308 615l70 -133h-34l-89 133h53z" />
    <glyph glyph-name="wacute" unicode="&#x1e83;" horiz-adv-x="666" 
d="M425 -20l-91 277l-147 -276h-4l-132 410h47l108 -334l-17 5l130 240l-30 89h43l106 -328l-11 -1l185 329h48l-231 -411h-4zM497 615l-117 -133h-34l99 133h52z" />
    <glyph glyph-name="wdieresis" unicode="&#x1e85;" horiz-adv-x="666" 
d="M425 -20l-91 277l-147 -276h-4l-132 410h47l108 -334l-17 5l130 240l-30 89h43l106 -328l-11 -1l185 329h48l-231 -411h-4zM246 514q1 14 12 23.5t24 9.5q13 -1 22.5 -11t8.5 -24q-1 -15 -12 -24.5t-24 -8.5q-13 0 -22.5 10.5t-8.5 24.5v0zM420 514q1 14 12 23.5t24 9.5
q13 -1 22.5 -11t8.5 -24q-1 -15 -12 -24.5t-24 -8.5q-13 0 -22.5 10t-8.5 25v0z" />
    <glyph glyph-name="x" unicode="x" horiz-adv-x="396" 
d="M366 0h-56l-244 391h58zM218 224l135 167h54l-170 -202zM214 168l-139 -168h-53l170 201z" />
    <glyph glyph-name="y" unicode="y" horiz-adv-x="449" 
d="M87 -188l325 579h50l-323 -579h-52zM200 -4l-136 395h53l123 -370z" />
    <glyph glyph-name="yacute" unicode="&#xfd;" horiz-adv-x="487" 
d="M87 -188l325 579h50l-323 -579h-52zM200 -4l-136 395h53l123 -370zM436 615l-117 -133h-34l99 133h52z" />
    <glyph glyph-name="ydieresis" unicode="&#xff;" horiz-adv-x="464" 
d="M87 -188l325 579h50l-323 -579h-52zM200 -4l-136 395h53l123 -370zM189 514q1 14 12 23.5t24 9.5q13 -1 22.5 -11t8.5 -24q-1 -15 -12 -24.5t-24 -8.5q-13 0 -22.5 10.5t-8.5 24.5v0zM363 514q1 14 12 23.5t24 9.5q13 -1 22.5 -11t8.5 -24q-1 -15 -12 -24.5t-24 -8.5
q-13 0 -22.5 10t-8.5 25v0z" />
    <glyph glyph-name="ycircumflex" unicode="&#x177;" horiz-adv-x="600" 
d="M87 -188l325 579h50l-323 -579h-52zM200 -4l-136 395h53l123 -370zM378 482l-83 137l16 3l-118 -140h-45l159 181v0l116 -181h-45z" />
    <glyph glyph-name="uni0233" unicode="&#x233;" horiz-adv-x="449" 
d="M87 -188l325 579h50l-323 -579h-52zM200 -4l-136 395h53l123 -370zM161 519h231l-3 -30h-232z" />
    <glyph glyph-name="ygrave" unicode="&#x1ef3;" horiz-adv-x="449" 
d="M87 -188l325 579h50l-323 -579h-52zM200 -4l-136 395h53l123 -370zM218 615l70 -133h-34l-89 133h53z" />
    <glyph glyph-name="uni1EF5" unicode="&#x1ef5;" horiz-adv-x="449" 
d="M87 -188l325 579h50l-323 -579h-52zM200 -4l-136 395h53l123 -370zM286 -102q1 14 13.5 24t26.5 9q13 0 22.5 -9.5t7.5 -23.5q-1 -15 -13 -24.5t-26 -9.5q-13 1 -22.5 11t-8.5 23z" />
    <glyph glyph-name="uni1EF7" unicode="&#x1ef7;" horiz-adv-x="449" 
d="M87 -188l325 579h50l-323 -579h-52zM200 -4l-136 395h53l123 -370zM252 457q24 17 40.5 31t19.5 33q2 20 -5.5 33t-29.5 14q-17 1 -29.5 -6.5t-27.5 -24.5l-19 14q19 25 39.5 36.5t44.5 9.5q27 -1 44 -17.5t13 -50.5q-2 -26 -22.5 -46.5t-55.5 -41.5z" />
    <glyph glyph-name="uni1EF9" unicode="&#x1ef9;" horiz-adv-x="600" 
d="M87 -188l325 579h50l-323 -579h-52zM200 -4l-136 395h53l123 -370zM319 446q-31 2 -49 18t-33 35q-11 15 -23 28t-32 14q-12 1 -25.5 -7.5t-24 -27.5t-16.5 -53l-32 4q5 41 20.5 68.5t37 41.5t46.5 12q29 -1 46 -17.5t30 -35.5q12 -16 25.5 -29t32.5 -14q14 -1 26.5 7
t21.5 28t14 53l32 -3q-4 -42 -18 -69.5t-34.5 -40.5t-44.5 -12z" />
    <glyph glyph-name="z" unicode="z" horiz-adv-x="404" 
d="M125 351q-32 0 -47.5 13t-12.5 45l2 19h37v-12q-1 -12 5.5 -18.5t23.5 -6.5h253l-299 -361l-11 10h263l-5 -40h-322l301 366l8 -15h-196z" />
    <glyph glyph-name="zacute" unicode="&#x17a;" horiz-adv-x="443" 
d="M125 351q-32 0 -47.5 13t-12.5 45l2 19h37v-12q-1 -12 5.5 -18.5t23.5 -6.5h253l-299 -361l-11 10h263l-5 -40h-322l301 366l8 -15h-196zM393 615l-117 -133h-34l99 133h52z" />
    <glyph glyph-name="zdotaccent" unicode="&#x17c;" horiz-adv-x="443" 
d="M125 351q-32 0 -47.5 13t-12.5 45l2 19h37v-12q-1 -12 5.5 -18.5t23.5 -6.5h253l-299 -361l-11 10h263l-5 -40h-322l301 366l8 -15h-196zM245 530q1 14 13.5 24t26.5 9q13 0 22.5 -9.5t7.5 -23.5q-1 -15 -13 -24.5t-26 -9.5q-13 1 -22.5 11t-8.5 23z" />
    <glyph glyph-name="zcaron" unicode="&#x17e;" horiz-adv-x="443" 
d="M125 351q-32 0 -47.5 13t-12.5 45l2 19h37v-12q-1 -12 5.5 -18.5t23.5 -6.5h253l-299 -361l-11 10h263l-5 -40h-322l301 366l8 -15h-196zM221 663l83 -137l-17 -2l120 139h45l-160 -181h-1l-115 181h45z" />
    <glyph glyph-name="germandbls" unicode="&#xdf;" horiz-adv-x="570" 
d="M303 -5q-31 0 -62 9t-56 30l22 29q26 -20 54.5 -25t42.5 -5q32 0 60 12.5t50.5 34.5t36.5 50.5t18 61.5q6 48 -10.5 87t-49.5 63.5t-79 27.5h-4l5 43q35 -2 58 9t36.5 29t19.5 36t6 30q0 41 -24 72t-80 34q-47 2 -79.5 -22.5t-51.5 -69.5t-27 -104l-59 -427h-48l50 359
h-65l7 40h65l8 58q9 67 35 113.5t69 70.5t101 22q54 -2 86 -22.5t46.5 -51t14.5 -64.5q0 -22 -5.5 -47.5t-26.5 -48t-68 -38.5q39 -14 67.5 -43t42 -69.5t7.5 -91.5q-5 -43 -23.5 -78.5t-47.5 -61t-65 -39t-77 -13.5z" />
    <glyph glyph-name="ae" unicode="&#xe6;" horiz-adv-x="776" 
d="M522 -8q-36 2 -66.5 14t-54 32t-39 46.5t-21.5 58t-2 66.5q7 57 41 102t85 70t109 21q35 -2 63 -14.5t49 -33.5t35 -49t20 -61l-368 -103l-4 35l333 94l-12 -13q-8 28 -25 51t-41.5 38t-57.5 17q-45 3 -83.5 -17t-64.5 -55.5t-32 -82.5q-4 -33 4 -63.5t27 -54.5t47 -39
t65 -18q32 -1 62.5 8.5t55.5 28.5l20 -36q-31 -21 -69 -32.5t-76 -9.5zM200 -10q-47 0 -83 13.5t-56.5 39.5t-20.5 61q0 34 17 63t53 46.5t93 14.5q25 -2 49 -9t45 -19t37.5 -28t26.5 -35l-13 -32q-18 27 -39.5 45.5t-46.5 28.5t-54 9q-61 4 -89 -24t-26 -63q2 -26 18 -43
t42.5 -25t58.5 -7q29 1 58.5 10.5t51.5 31.5l17 137l27 -53l-13 -106q-20 -22 -47.5 -34.5t-55 -17t-50.5 -4.5zM339 205l7 51q4 30 -2.5 50t-20 31.5t-31 16.5t-35.5 6q-39 2 -75.5 -11t-73.5 -46l-21 33q35 31 79.5 49.5t101.5 15.5q29 -2 51 -9t37.5 -18.5t24.5 -27.5
t12.5 -36t0.5 -43l-3 -21z" />
    <glyph glyph-name="aeacute" unicode="&#x1fd;" horiz-adv-x="776" 
d="M522 -8q-36 2 -66.5 14t-54 32t-39 46.5t-21.5 58t-2 66.5q7 57 41 102t85 70t109 21q35 -2 63 -14.5t49 -33.5t35 -49t20 -61l-368 -103l-4 35l333 94l-12 -13q-8 28 -25 51t-41.5 38t-57.5 17q-45 3 -83.5 -17t-64.5 -55.5t-32 -82.5q-4 -33 4 -63.5t27 -54.5t47 -39
t65 -18q32 -1 62.5 8.5t55.5 28.5l20 -36q-31 -21 -69 -32.5t-76 -9.5zM200 -10q-47 0 -83 13.5t-56.5 39.5t-20.5 61q0 34 17 63t53 46.5t93 14.5q25 -2 49 -9t45 -19t37.5 -28t26.5 -35l-13 -32q-18 27 -39.5 45.5t-46.5 28.5t-54 9q-61 4 -89 -24t-26 -63q2 -26 18 -43
t42.5 -25t58.5 -7q29 1 58.5 10.5t51.5 31.5l17 137l27 -53l-13 -106q-20 -22 -47.5 -34.5t-55 -17t-50.5 -4.5zM339 205l7 51q4 30 -2.5 50t-20 31.5t-31 16.5t-35.5 6q-39 2 -75.5 -11t-73.5 -46l-21 33q35 31 79.5 49.5t101.5 15.5q29 -2 51 -9t37.5 -18.5t24.5 -27.5
t12.5 -36t0.5 -43l-3 -21zM555 615l-117 -133h-34l99 133h52z" />
    <glyph glyph-name="eth" unicode="&#xf0;" horiz-adv-x="520" 
d="M238 -6q-27 1 -54.5 8.5t-52 23t-43 39.5t-28.5 57.5t-9 76.5q2 42 16.5 79.5t42 66t67.5 44.5t92 14q26 -1 52 -9.5t49.5 -25t41.5 -41t27 -56.5l-15 -28q3 64 -14 130t-48 129.5t-72 118.5t-88 96l36 29q51 -44 94.5 -103t76 -126.5t50 -137.5t15.5 -136
q-2 -50 -18 -95t-46 -80.5t-73 -55t-99 -18.5zM245 33q48 -1 81.5 17t54 45.5t30 57t10.5 51.5q1 46 -15.5 76.5t-41.5 48t-50 25.5t-41 8q-43 2 -75.5 -12t-54 -37.5t-33 -53.5t-12.5 -61q-1 -56 21.5 -92.5t56.5 -54t69 -18.5zM418 674l-209 -113l-14 32l212 113z" />
    <glyph glyph-name="oslash" unicode="&#xf8;" horiz-adv-x="489" 
d="M458 382q-15 -16 -39.5 -41t-55 -56t-63.5 -65t-66.5 -68t-63.5 -65t-54.5 -56t-39.5 -41l-19 21q15 16 39.5 41t54.5 55.5t63 64.5l66 68t63.5 64.5t55 55.5t39.5 41zM248 -8q-39 0 -75 13.5t-63.5 38.5t-43.5 60t-16 79q0 38 13 76.5t39.5 70.5t68 52t99.5 20
q55 0 99.5 -24t71.5 -66.5t27 -99.5q0 -28 -8 -59t-24 -59.5t-42 -51.5t-62.5 -36.5t-83.5 -13.5zM250 32q59 0 96.5 27t55.5 68t18 82q0 35 -12 63t-33.5 48t-49 31t-57.5 11q-58 0 -96 -26.5t-56 -67.5t-18 -83q0 -45 20.5 -79.5t55.5 -54t76 -19.5z" />
    <glyph glyph-name="oslashacute" unicode="&#x1ff;" horiz-adv-x="489" 
d="M458 382q-15 -16 -39.5 -41t-55 -56t-63.5 -65t-66.5 -68t-63.5 -65t-54.5 -56t-39.5 -41l-19 21q15 16 39.5 41t54.5 55.5t63 64.5l66 68t63.5 64.5t55 55.5t39.5 41zM248 -8q-39 0 -75 13.5t-63.5 38.5t-43.5 60t-16 79q0 38 13 76.5t39.5 70.5t68 52t99.5 20
q55 0 99.5 -24t71.5 -66.5t27 -99.5q0 -28 -8 -59t-24 -59.5t-42 -51.5t-62.5 -36.5t-83.5 -13.5zM250 32q59 0 96.5 27t55.5 68t18 82q0 35 -12 63t-33.5 48t-49 31t-57.5 11q-58 0 -96 -26.5t-56 -67.5t-18 -83q0 -45 20.5 -79.5t55.5 -54t76 -19.5zM417 619l-117 -133
h-34l99 133h52z" />
    <glyph glyph-name="thorn" unicode="&#xfe;" horiz-adv-x="552" 
d="M200 760l-60 -486l-3 23q17 29 45 52t64 37t77 14q53 0 93.5 -23t63 -64t22.5 -94q0 -72 -32 -123t-84.5 -77.5t-114.5 -26.5q-60 0 -103 29.5t-58 72.5l11 13l-38 -295h-41l116 948h42zM458 215q0 41 -18.5 73.5t-50.5 52t-74 19.5q-50 0 -92.5 -24.5t-68 -65
t-25.5 -90.5q0 -41 19 -74.5t52 -53t75 -19.5q51 0 92.5 21t66 61.5t24.5 99.5z" />
    <glyph glyph-name="dcroat" unicode="&#x111;" horiz-adv-x="529" 
d="M304 649h289l-5 -37h-288zM233 -5q-56 2 -99 30.5t-65.5 75t-17.5 100.5q4 44 22.5 82t49.5 65.5t71 42t86 12.5q62 -3 107.5 -37t63.5 -82l-15 -15l60 491h48l-95 -760h-47l14 113l8 -19q-31 -46 -81.5 -74.5t-109.5 -24.5zM245 35q43 -2 80.5 15t64 49t34.5 74l6 51
q-3 38 -22.5 69t-51.5 50.5t-73 20.5q-47 3 -87 -16t-66 -55.5t-31 -86.5q-4 -46 14 -84t52.5 -61t79.5 -26z" />
    <glyph glyph-name="hbar" unicode="&#x127;" horiz-adv-x="512" 
d="M145 305q26 42 73.5 69.5t105.5 27.5q56 0 85.5 -32.5t24.5 -84.5l-35 -285h-47l33 276q3 35 -16 59t-60 25q-42 0 -79 -19.5t-61.5 -53.5t-30.5 -78l-26 -209h-47l93 760h47l-58 -471zM41 610h242l-6 -48h-242z" />
    <glyph glyph-name="dotlessi" unicode="&#x131;" horiz-adv-x="225" 
d="M113 391h47l-48 -391h-47z" />
    <glyph glyph-name="ij" unicode="&#x133;" horiz-adv-x="461" 
d="M113 391h47l-48 -391h-47zM118 515q1 14 13.5 24t26.5 9q13 0 22.5 -9.5t7.5 -23.5q-1 -15 -13 -24.5t-26 -9.5q-13 1 -22.5 11t-8.5 23zM198 -169q42 25 66.5 62t32.5 89l52 409h47l-48 -391q-9 -72 -40.5 -123.5t-87.5 -75.5zM347 515q1 14 13.5 24t26.5 9
q13 0 22.5 -9.5t7.5 -23.5q-1 -15 -13 -24.5t-26 -9.5q-13 1 -22.5 11t-8.5 23z" />
    <glyph glyph-name="kgreenlandic" unicode="&#x138;" horiz-adv-x="452" 
d="M122 135l-3 43l241 213h60zM112 0h-47l48 391h47zM205 221l173 -221h-56l-153 197z" />
    <glyph glyph-name="ldot" unicode="&#x140;" horiz-adv-x="503" 
d="M158 760h48l-94 -760h-47zM338 278q0 16 12.5 27t26.5 11q11 0 20 -9t9 -22q0 -10 -5.5 -18.5t-14.5 -13.5t-18 -5q-12 0 -21 8.5t-9 21.5v0z" />
    <glyph glyph-name="lslash" unicode="&#x142;" horiz-adv-x="212" 
d="M245 366l-5 -42l-194 -59l6 42zM161 760h48l-94 -760h-47z" />
    <glyph glyph-name="napostrophe" unicode="&#x149;" horiz-adv-x="600" 
d="M117 704q-8 -63 -17 -125t-17 -125h-42l30 250h46zM154 391l-5 -100l-9 10q26 45 73 73t107 28q59 0 89.5 -32t24.5 -85l-35 -285h-47l33 273q5 38 -17.5 62.5t-66.5 24.5q-41 0 -76.5 -19.5t-58.5 -53.5t-28 -78l-26 -209h-47l48 391h41z" />
    <glyph glyph-name="eng" unicode="&#x14b;" horiz-adv-x="512" 
d="M398 -3q-7 -62 -31 -110t-65 -75l-27 29q33 24 51.5 64t24.5 89l34 279q5 38 -17.5 62.5t-66.5 24.5q-41 0 -76.5 -19.5t-58.5 -53.5t-28 -78l-26 -209h-47l48 391h41l-5 -101l-3 11q25 45 70.5 73t103.5 28q59 0 89.5 -32t24.5 -85z" />
    <glyph glyph-name="oe" unicode="&#x153;" horiz-adv-x="729" 
d="M247 -9q-37 0 -72 13t-63.5 37t-45 59.5t-16.5 80.5q0 42 16 81t45 69.5t68.5 48.5t86.5 18q43 0 77 -12.5t59 -33.5l-31 -30q-19 15 -45 25.5t-57 10.5q-45 0 -84 -23.5t-63 -63t-24 -88.5q0 -42 20 -76.5t55 -55t81 -20.5q27 0 51 8t45 21l22 -32q-27 -17 -59 -27
t-66 -10zM493 33q29 0 57 10t50 27l20 -36q-28 -19 -62 -30t-69 -11q-58 0 -103 24.5t-70 68t-25 100.5q0 42 16 80.5t45 69t69 48.5t89 18q35 0 65 -10t54 -29.5t40.5 -49.5t24.5 -69l-357 -111l-8 36l331 102l-18 -14q-13 44 -47.5 75t-85.5 31q-48 0 -87 -23.5
t-61.5 -62.5t-22.5 -86q0 -45 20 -80.5t55 -56.5t80 -21z" />
    <glyph glyph-name="tbar" unicode="&#x167;" horiz-adv-x="325" 
d="M172 563h48l-22 -177h122l-5 -39h-122l-42 -347h-47l42 347h-84l5 39h84zM35 215h242l-6 -48h-242z" />
    <glyph glyph-name="florin" unicode="&#x192;" horiz-adv-x="303" 
d="M149 518q10 79 44.5 132t86 79.5t110.5 27.5l-5 -47q-48 0 -88 -23.5t-66 -66.5t-33 -102l-16 -130l131 -2l-6 -45l-130 2l-34 -272q-9 -79 -42.5 -131.5t-84 -79t-114.5 -27.5l6 47q48 0 87.5 23.5t65.5 66.5t33 102l34 273l-67 1l5 46l68 -1z" />
    <glyph glyph-name="uni01C6" unicode="&#x1c6;" horiz-adv-x="1007" 
d="M233 -5q-56 2 -99 30.5t-65.5 75t-17.5 100.5q4 44 22.5 82t49.5 65.5t71 42t86 12.5q62 -3 107.5 -37t63.5 -82l-15 -15l60 491h48l-95 -760h-47l14 113l8 -19q-31 -46 -81.5 -74.5t-109.5 -24.5zM245 35q43 -2 80.5 15t64 49t34.5 74l6 51q-3 38 -22.5 69t-51.5 50.5
t-73 20.5q-47 3 -87 -16t-66 -55.5t-31 -86.5q-4 -46 14 -84t52.5 -61t79.5 -26zM689 351q-32 0 -47.5 13t-12.5 45l2 19h37v-12q-1 -12 5.5 -18.5t23.5 -6.5h253l-299 -361l-11 10h263l-5 -40h-322l301 366l8 -15h-196zM785 663l83 -137l-17 -2l120 139h45l-160 -181h-1
l-115 181h45z" />
    <glyph glyph-name="uni01C9" unicode="&#x1c9;" horiz-adv-x="462" 
d="M158 760h48l-94 -760h-47zM199 -169q42 25 66.5 62t32.5 89l52 409h47l-48 -391q-9 -72 -40.5 -123.5t-87.5 -75.5zM348 515q1 14 13.5 24t26.5 9q13 0 22.5 -9.5t7.5 -23.5q-1 -15 -13 -24.5t-26 -9.5q-13 1 -22.5 11t-8.5 23z" />
    <glyph glyph-name="uni01CC" unicode="&#x1cc;" horiz-adv-x="748" 
d="M154 391l-5 -100l-9 10q26 45 73 73t107 28q59 0 89.5 -32t24.5 -85l-35 -285h-47l33 273q5 38 -17.5 62.5t-66.5 24.5q-41 0 -76.5 -19.5t-58.5 -53.5t-28 -78l-26 -209h-47l48 391h41zM485 -169q42 25 66.5 62t32.5 89l52 409h47l-48 -391q-9 -72 -40.5 -123.5
t-87.5 -75.5zM634 515q1 14 13.5 24t26.5 9q13 0 22.5 -9.5t7.5 -23.5q-1 -15 -13 -24.5t-26 -9.5q-13 1 -22.5 11t-8.5 23z" />
    <glyph glyph-name="uni01F3" unicode="&#x1f3;" horiz-adv-x="968" 
d="M233 -5q-56 2 -99 30.5t-65.5 75t-17.5 100.5q4 44 22.5 82t49.5 65.5t71 42t86 12.5q62 -3 107.5 -37t63.5 -82l-15 -15l60 491h48l-95 -760h-47l14 113l8 -19q-31 -46 -81.5 -74.5t-109.5 -24.5zM245 35q43 -2 80.5 15t64 49t34.5 74l6 51q-3 38 -22.5 69t-51.5 50.5
t-73 20.5q-47 3 -87 -16t-66 -55.5t-31 -86.5q-4 -46 14 -84t52.5 -61t79.5 -26zM689 351q-32 0 -47.5 13t-12.5 45l2 19h37v-12q-1 -12 5.5 -18.5t23.5 -6.5h253l-299 -361l-11 10h263l-5 -40h-322l301 366l8 -15h-196z" />
    <glyph glyph-name="uni0237" unicode="&#x237;" horiz-adv-x="236" 
d="M-27 -169q42 25 66.5 62t32.5 89l52 409h47l-48 -391q-9 -72 -40.5 -123.5t-87.5 -75.5z" />
    <glyph glyph-name="uni0259" unicode="&#x259;" horiz-adv-x="488" 
d="M236 358q-29 0 -56.5 -10t-50.5 -27l-20 36q29 20 63 30.5t68 10.5q59 0 103.5 -24.5t69.5 -68t25 -100.5q0 -42 -16 -80.5t-45 -69t-69 -48.5t-89 -18q-35 0 -65 10t-54 29.5t-40.5 49.5t-24.5 69l357 111l8 -36l-331 -102l18 14q14 -44 48 -75t85 -31q49 0 87.5 23.5
t61 62.5t22.5 86q0 45 -20 81t-55 56.5t-80 20.5z" />
    <glyph glyph-name="uni0272" unicode="&#x272;" horiz-adv-x="497" 
d="M1 -188l-27 29q30 26 50 65t26 88l7 58h47l-7 -57q-7 -63 -33.5 -108.5t-62.5 -74.5zM139 391l-10 -123l-3 24q23 51 74 80.5t109 29.5q55 0 85 -32.5t25 -84.5l-35 -285h-48l33 272q3 38 -16.5 63t-63.5 26q-39 0 -75 -19t-60.5 -53t-30.5 -79l-26 -210h-47l48 391h41z
" />
    <glyph glyph-name="f_f" unicode="&#xfb00;" horiz-adv-x="648" 
d="M91 0l42 347h-67l5 43h67l24 197q11 94 49 135.5t102 41.5q14 0 29.5 -3.5t28.5 -11.5l-25 -34q-6 5 -14 7.5t-19 2.5q-43 0 -68.5 -30t-34.5 -107l-25 -198h131l-5 -43h-131l-42 -347h-47zM415 0l42 347h-67l5 43h67l24 197q11 94 49 135.5t102 41.5q14 0 29.5 -3.5
t28.5 -11.5l-25 -34q-6 5 -14 7.5t-19 2.5q-43 0 -68.5 -30t-34.5 -107l-25 -198h131l-5 -43h-131l-42 -347h-47z" />
    <glyph glyph-name="uni03BC" unicode="&#x3bc;" horiz-adv-x="509" 
d="M187 -11q-54 0 -84.5 31t-24.5 83l35 288h47l-34 -276q-4 -34 17 -58.5t64 -26.5q39 0 74.5 20t60 54.5t29.5 78.5l26 208h47l-48 -391h-42l10 110l5 -11q-14 -30 -42.5 -55t-64.5 -40t-75 -15zM109 355h44l-73 -588h-44z" />
    <glyph glyph-name="pi" unicode="&#x3c0;" horiz-adv-x="313" 
d="M44 333h307l-5 -43h-45l-36 -290h-43l36 290h-123l-36 -290h-44l36 290h-53z" />
    <glyph glyph-name="uni01C5" unicode="&#x1c5;" horiz-adv-x="1181" 
d="M89 0l87 710h163q103 0 171.5 -27.5t108.5 -74t56 -106t13 -123.5q-2 -91 -34 -162t-87 -119t-126.5 -73t-154.5 -25h-197zM143 47h147q71 0 133.5 21t110.5 63t75.5 104.5t29.5 144.5q2 63 -14 114.5t-52 89t-91 58t-131 20.5h-133zM863 351q-32 0 -47.5 13t-12.5 45
l2 19h37v-12q-1 -12 5.5 -18.5t23.5 -6.5h253l-299 -361l-11 10h263l-5 -40h-322l301 366l8 -15h-196zM959 663l83 -137l-17 -2l120 139h45l-160 -181h-1l-115 181h45z" />
    <glyph glyph-name="uni01C8" unicode="&#x1c8;" horiz-adv-x="814" 
d="M176 710h48l-81 -663h390l-6 -47h-438zM551 -169q42 25 66.5 62t32.5 89l52 409h47l-48 -391q-9 -72 -40.5 -123.5t-87.5 -75.5zM700 515q1 14 13.5 24t26.5 9q13 0 22.5 -9.5t7.5 -23.5q-1 -15 -13 -24.5t-26 -9.5q-13 1 -22.5 11t-8.5 23z" />
    <glyph glyph-name="uni01CB" unicode="&#x1cb;" horiz-adv-x="1060" 
d="M683 -17h-2l-481 635l12 6l-76 -624h-47l89 725h2l482 -639l-13 -1l76 625h47zM797 -169q42 25 66.5 62t32.5 89l52 409h47l-48 -391q-9 -72 -40.5 -123.5t-87.5 -75.5zM946 515q1 14 13.5 24t26.5 9q13 0 22.5 -9.5t7.5 -23.5q-1 -15 -13 -24.5t-26 -9.5q-13 1 -22.5 11
t-8.5 23z" />
    <glyph glyph-name="uni02BC" unicode="&#x2bc;" horiz-adv-x="201" 
d="M203 704q-8 -63 -17 -125t-17 -125h-42l30 250h46z" />
    <glyph glyph-name="circumflex" unicode="&#x2c6;" horiz-adv-x="457" 
d="M378 482l-83 137l16 3l-118 -140h-45l159 181v0l116 -181h-45z" />
    <glyph glyph-name="caron" unicode="&#x2c7;" horiz-adv-x="453" 
d="M218 663l83 -137l-17 -2l120 139h45l-160 -181h-1l-115 181h45z" />
    <glyph glyph-name="uni02C9" unicode="&#x2c9;" horiz-adv-x="401" 
d="M144 714h231l-3 -30h-232z" />
    <glyph glyph-name="ordfeminine" unicode="&#xaa;" horiz-adv-x="410" 
d="M207 417q-39 0 -68.5 18.5t-44.5 51.5t-10 77q6 47 29 80t57.5 50.5t71.5 17.5q43 0 72 -20.5t40 -54.5l11 68h34l-34 -283h-38l11 86l2 -12q-10 -20 -30 -38t-46 -29.5t-57 -11.5zM220 449q30 0 56 13.5t44 36.5t23 53l5 37q-4 38 -31.5 64.5t-68.5 26.5q-46 0 -82 -31
t-43 -84q-4 -32 7.5 -58.5t35 -42t54.5 -15.5z" />
    <glyph glyph-name="ordmasculine" unicode="&#xba;" horiz-adv-x="381" 
d="M86 570q5 42 28.5 74.5t60 50t78.5 14.5q43 -2 74.5 -24t47 -57t10.5 -77q-5 -41 -29 -73.5t-60 -49.5t-79 -15q-42 3 -73.5 23.5t-47 55.5t-10.5 78zM124 567q-3 -31 8.5 -58t34.5 -43.5t54 -18.5t58 12t45 38.5t22 55.5q4 32 -7.5 59t-35 44t-54.5 19q-32 2 -59 -12.5
t-44.5 -40t-21.5 -55.5z" />
    <glyph glyph-name="gravecomb" unicode="&#x300;" horiz-adv-x="0" 
d="M106 615l70 -133h-34l-89 133h53z" />
    <glyph glyph-name="acutecomb" unicode="&#x301;" horiz-adv-x="0" 
d="M295 615l-117 -133h-34l99 133h52z" />
    <glyph glyph-name="uni0302" unicode="&#x302;" horiz-adv-x="0" 
d="M378 482l-83 137l16 3l-118 -140h-45l159 181v0l116 -181h-45z" />
    <glyph glyph-name="uni03020303" horiz-adv-x="0" 
d="M391 715q-30 2 -47 17.5t-31 33.5q-11 14 -22.5 26.5t-30.5 13.5q-11 1 -24 -7t-23 -26.5t-15 -50.5l-31 4q5 39 19.5 65.5t35.5 39.5t44 11q28 -1 44 -16.5t29 -33.5q11 -15 23.5 -28t31.5 -13q20 -2 36 17t23 67l31 -3q-4 -40 -17.5 -66.5t-33 -39t-42.5 -11.5z
M378 482l-83 137l16 3l-118 -140h-45l159 181v0l116 -181h-45z" />
    <glyph glyph-name="tildecomb" unicode="&#x303;" horiz-adv-x="0" 
d="M431 446q-31 2 -49 18t-33 35q-11 15 -23 28t-32 14q-12 1 -25.5 -7.5t-24 -27.5t-16.5 -53l-32 4q5 41 20.5 68.5t37.5 41.5t46 12q29 -1 46 -17.5t30 -35.5q12 -16 25.5 -29t32.5 -14q14 -1 26.5 7t21.5 28t14 53l32 -3q-4 -42 -18 -69.5t-34.5 -40.5t-44.5 -12z" />
    <glyph glyph-name="uni0304" unicode="&#x304;" horiz-adv-x="0" 
d="M149 519h231l-3 -30h-232z" />
    <glyph glyph-name="uni0306" unicode="&#x306;" horiz-adv-x="0" 
d="M314 493q-16 0 -37.5 7.5t-41.5 25.5t-31.5 50.5t-8.5 83.5h34q-3 -53 13 -81.5t38.5 -39t36.5 -11.5q30 0 52 17.5t37 48t21 66.5h35q-8 -51 -28.5 -89t-50.5 -58.5t-69 -19.5z" />
    <glyph glyph-name="uni03060303" horiz-adv-x="0" 
d="M407 702q-30 2 -47 17.5t-31 33.5q-11 14 -22.5 26.5t-30.5 13.5q-11 1 -24 -7t-23 -26.5t-15 -50.5l-31 4q5 39 19.5 65.5t35.5 39.5t44 11q28 -1 44 -16.5t29 -33.5q11 -15 23.5 -28t31.5 -13q20 -2 36 17t23 67l31 -3q-4 -40 -17.5 -66.5t-33 -39t-42.5 -11.5z
M314 493q-16 0 -37.5 7.5t-41.5 25.5t-31.5 50.5t-8.5 83.5h34q-3 -53 13 -81.5t38.5 -39t36.5 -11.5q30 0 52 17.5t37 48t21 66.5h35q-8 -51 -28.5 -89t-50.5 -58.5t-69 -19.5z" />
    <glyph glyph-name="uni0307" unicode="&#x307;" horiz-adv-x="0" 
d="M129 526q1 14 13.5 24t26.5 9q13 0 22.5 -9.5t7.5 -23.5q-1 -15 -13 -24.5t-26 -9.5q-13 1 -22.5 11t-8.5 23z" />
    <glyph glyph-name="uni0308" unicode="&#x308;" horiz-adv-x="0" 
d="M118 514q1 14 12 23.5t24 9.5q13 -1 22.5 -11t8.5 -24q-1 -15 -12 -24.5t-24 -8.5q-13 0 -22.5 10.5t-8.5 24.5v0zM292 514q1 14 12 23.5t24 9.5q13 -1 22.5 -11t8.5 -24q-1 -15 -12 -24.5t-24 -8.5q-13 0 -22.5 10t-8.5 25v0z" />
    <glyph glyph-name="hookabovecomb" unicode="&#x309;" horiz-adv-x="0" 
d="M136 552q24 17 40.5 31t19.5 33q2 20 -5.5 33t-29.5 14q-17 1 -29.5 -6.5t-27.5 -24.5l-19 14q19 25 39.5 36.5t44.5 9.5q27 -1 44 -17.5t13 -50.5q-2 -26 -22.5 -46.5t-55.5 -41.5z" />
    <glyph glyph-name="uni030A" unicode="&#x30a;" horiz-adv-x="0" 
d="M190 493q2 36 25.5 56.5t56.5 19.5q32 -1 52.5 -21t18.5 -51q-1 -36 -25 -56.5t-57 -19.5q-32 1 -52 21t-19 51zM220 493q0 -19 12 -32t31 -14q20 0 34.5 13t15.5 35q1 20 -11 33t-31 13q-19 1 -34.5 -12t-16.5 -36z" />
    <glyph glyph-name="uni030B" unicode="&#x30b;" horiz-adv-x="0" 
d="M298 615q-28 -33 -58 -66.5t-59 -66.5h-34q26 33 53 66.5t53 66.5h45zM436 615q-28 -33 -58 -66.5t-59 -66.5h-34q26 33 53 66.5t54 66.5h44z" />
    <glyph glyph-name="uni030C" unicode="&#x30c;" horiz-adv-x="0" 
d="M218 663l83 -137l-17 -2l120 139h45l-160 -181h-1l-115 181h45z" />
    <glyph glyph-name="uni030F" unicode="&#x30f;" horiz-adv-x="0" 
d="M106 615l70 -133h-34l-89 133h53zM208 615l70 -133h-34l-89 133h53z" />
    <glyph glyph-name="uni0311" unicode="&#x311;" horiz-adv-x="0" 
d="M368 665q16 0 37.5 -7.5t41.5 -25.5t31.5 -50.5t8.5 -83.5h-34q4 53 -12.5 81.5t-38.5 39.5t-37 11q-29 1 -51.5 -17t-37 -48t-21.5 -67h-35q8 51 28.5 89t51 58.5t68.5 19.5z" />
    <glyph glyph-name="uni0312" unicode="&#x312;" horiz-adv-x="0" 
d="M171 722l23 -19q-28 -19 -41.5 -53t-12.5 -75l-44 1q-1 27 6 55t24 52.5t45 38.5z" />
    <glyph glyph-name="uni031B" unicode="&#x31b;" horiz-adv-x="0" 
d="M144 714q47 -3 73.5 16.5t36.5 76.5h37q-9 -56 -30.5 -83.5t-52 -35.5t-68.5 -5z" />
    <glyph glyph-name="dotbelowcomb" unicode="&#x323;" horiz-adv-x="0" 
d="M21 -95q1 14 13.5 24t26.5 9q13 0 22.5 -9.5t7.5 -23.5q-1 -15 -13 -24.5t-26 -9.5q-13 1 -22.5 11t-8.5 23z" />
    <glyph glyph-name="uni0324" unicode="&#x324;" horiz-adv-x="0" 
d="M7 -107q1 14 12 23.5t24 9.5q13 -1 22.5 -11t8.5 -24q-1 -15 -12 -24.5t-24 -8.5q-13 0 -22.5 10.5t-8.5 24.5v0zM181 -107q1 14 12 23.5t24 9.5q13 -1 22.5 -11t8.5 -24q-1 -15 -12 -24.5t-24 -8.5q-13 0 -22.5 10t-8.5 25v0z" />
    <glyph glyph-name="uni0326" unicode="&#x326;" horiz-adv-x="0" 
d="M32 -185l-23 19q29 19 42.5 53t11.5 75l44 -1q2 -27 -5 -55t-24 -52t-46 -39z" />
    <glyph glyph-name="uni0327" unicode="&#x327;" horiz-adv-x="0" 
d="M124 -165q10 -12 27.5 -20.5t42.5 -10.5q35 -1 59.5 11.5t28.5 38.5q3 24 -13 41.5t-56 19.5q-16 1 -37 -2t-34 -8l-12 27l79 72l36 -6l-78 -80l-16 13q12 5 33.5 9t41.5 2q50 -2 76.5 -25.5t21.5 -64.5q-3 -28 -21.5 -46t-46.5 -25.5t-61 -5.5q-31 2 -54 12.5t-36 24.5z
" />
    <glyph glyph-name="uni0328" unicode="&#x328;" horiz-adv-x="0" 
d="M152 -198q-34 1 -59.5 25t-25.5 62q0 24 12.5 47t35 43t51.5 33l47 -14q-49 -23 -76 -48.5t-28 -54.5q-1 -28 15 -42.5t36 -14.5q20 -1 36 12t29 33l19 -24q-14 -24 -39 -41t-53 -16z" />
    <glyph glyph-name="uni032E" unicode="&#x32e;" horiz-adv-x="0" 
d="M212 -200q-16 0 -37.5 7.5t-41.5 25.5t-31.5 50.5t-8.5 83.5h34q-3 -53 13 -81.5t38.5 -39t36.5 -11.5q30 0 52 17.5t37 48t21 66.5h35q-8 -51 -28.5 -89t-50.5 -58.5t-69 -19.5z" />
    <glyph glyph-name="uni0331" unicode="&#x331;" horiz-adv-x="0" 
d="M52 -77h231l-3 -30h-232z" />
    <glyph glyph-name="uni0335" unicode="&#x335;" horiz-adv-x="0" 
d="M63 256h242l-6 -48h-242z" />
    <glyph glyph-name="zero" unicode="0" horiz-adv-x="628" 
d="M293 -3q-63 3 -109.5 29t-77 70.5t-43.5 102.5t-7 124q4 35 14 73.5t26.5 76.5t41.5 72.5t58.5 60t76 39.5t95.5 12q62 -3 109 -29.5t78 -72.5t43.5 -105t4.5 -126q-7 -66 -30 -126t-62.5 -106.5t-94 -72t-123.5 -22.5zM298 43q50 -3 93 17t77 58.5t56 92.5t29 118
q9 89 -15 151t-70.5 95.5t-106.5 35.5q-49 3 -92 -17t-77 -58.5t-56 -92t-29 -118.5q-8 -88 15 -150.5t69.5 -95.5t106.5 -36z" />
    <glyph glyph-name="one" unicode="1" horiz-adv-x="326" 
d="M120 653h147l-81 -653h-49l74 606h-97z" />
    <glyph glyph-name="two" unicode="2" horiz-adv-x="549" 
d="M60 0q106 93 173.5 161.5t105.5 118.5t55 85t21 61.5t4 48.5q0 50 -20 80.5t-52 45t-70 14.5q-51 0 -81.5 -19t-45 -46.5t-19 -54t-4.5 -41.5q0 -28 6 -51.5t20 -41.5l-32 -27q-11 15 -21 33t-15.5 39.5t-5.5 45.5q0 26 7 61t28 69t60.5 56.5t104.5 22.5q46 0 90.5 -19
t73 -59t26.5 -104q-1 -38 -12 -78t-42.5 -89t-91.5 -116t-159 -159l-19 10h339l-6 -47h-418z" />
    <glyph glyph-name="three" unicode="3" horiz-adv-x="493" 
d="M437 653l-215 -274l-39 14q23 11 46 13.5t45 0.5q49 -1 87.5 -22t61.5 -60t23 -93q0 -34 -11 -74t-36.5 -76t-68.5 -60.5t-108 -27.5q-31 -1 -64 5.5t-63 24t-54 49.5l27 32q31 -39 71.5 -52t79.5 -12q46 2 79.5 18.5t55 44t32 61t10.5 68.5q0 61 -41 97.5t-109 39.5
q-25 2 -51 -3.5t-42 -13.5l-4 4l205 259l19 -9h-272l6 46h330z" />
    <glyph glyph-name="four" unicode="4" horiz-adv-x="509" 
d="M22 173v1l439 487h1l-54 -449h92l-5 -39h-92l-21 -173h-49l21 173h-332zM417 555l-323 -363l-10 20h275l44 360z" />
    <glyph glyph-name="five" unicode="5" horiz-adv-x="528" 
d="M235 -7q-15 0 -43 5t-59.5 20.5t-58.5 46.5l31 35q21 -27 46 -39.5t47.5 -16t35.5 -3.5q63 0 101 24t55.5 62.5t17.5 80.5q0 36 -12.5 65t-34.5 50t-50.5 33t-60.5 14t-62.5 -8t-54.5 -28l-4 1l49 318h296l-6 -46h-257l-32 -229l-2 16q17 9 43 13.5t50 3.5
q38 -2 71.5 -16.5t60 -41t41.5 -62.5t15 -80q0 -26 -9.5 -62.5t-33.5 -72t-67.5 -59t-112.5 -24.5z" />
    <glyph glyph-name="six" unicode="6" horiz-adv-x="536" 
d="M256 -7q-58 0 -104.5 26.5t-73 72.5t-26.5 105q0 41 15 90t54.5 105t113 118t190.5 129l27 -39q-88 -43 -153.5 -92t-107 -99t-59.5 -97l-12 11q31 41 76 61.5t98 20.5q37 0 71 -13.5t60.5 -39t42 -60.5t15.5 -78q0 -42 -16.5 -81.5t-47 -71t-72 -50t-91.5 -18.5zM257 37
q52 0 86.5 18.5t54 46t28 57t8.5 51.5q0 44 -21 78.5t-57.5 55t-81.5 20.5q-54 0 -88 -20t-53 -49t-26.5 -57.5t-7.5 -45.5q0 -43 20.5 -78t56.5 -56t81 -21z" />
    <glyph glyph-name="seven" unicode="7" horiz-adv-x="476" 
d="M492 653l-360 -653h-64l344 618l26 -11h-366l6 46h414z" />
    <glyph glyph-name="eight" unicode="8" horiz-adv-x="526" 
d="M48 188q0 53 22.5 96t60 72t82.5 40q-34 17 -53.5 49t-15.5 71q3 29 14.5 55t32 46.5t49 32t65.5 11.5q46 0 80 -18.5t52.5 -49.5t18.5 -70q0 -49 -27.5 -83t-70.5 -52q34 -13 61.5 -38t44 -59.5t16.5 -76.5q0 -31 -10.5 -62.5t-30.5 -60t-48 -50.5t-63.5 -35t-76.5 -13
q-59 0 -105 26.5t-72 71t-26 97.5zM97 191q0 -42 20 -77.5t55 -57t81 -21.5q48 0 89 24.5t65.5 64.5t24.5 88q0 42 -21 77.5t-56.5 57t-80.5 21.5q-50 0 -90 -24.5t-63.5 -64.5t-23.5 -88zM190 513q-4 -43 27 -73.5t79 -30.5q43 0 67.5 19t34.5 45t10 45q0 46 -28.5 74
t-72.5 28q-45 0 -77.5 -28.5t-39.5 -78.5z" />
    <glyph glyph-name="nine" unicode="9" horiz-adv-x="536" 
d="M257 225q-39 2 -73.5 18.5t-60.5 44.5t-39 65.5t-9 80.5q4 41 22.5 78t50 66t73 45t90.5 14q60 -2 106 -30t70.5 -75.5t18.5 -110.5q-6 -69 -39 -128t-85.5 -110.5t-118.5 -96.5t-140 -87l-28 39q93 47 160 95.5t109 94t58 83.5l20 -13q-38 -38 -80.5 -56.5t-104.5 -16.5
zM273 267q77 -4 125.5 34t59.5 126q3 46 -15.5 82.5t-53 59t-79.5 24.5q-49 3 -89.5 -19t-65.5 -58.5t-30 -80.5q-4 -45 14 -82.5t53.5 -60.5t80.5 -25z" />
    <glyph glyph-name="uni00B2" unicode="&#xb2;" horiz-adv-x="399" 
d="M147 648q11 14 28 25.5t37 18t41 6.5q51 -1 78 -28.5t20 -80.5q-4 -33 -25 -64.5t-52 -61t-64.5 -57t-62.5 -52.5l6 32h188l-5 -40h-228l3 22q32 25 64 51.5t59.5 53.5t45.5 54t21 52q5 43 -13.5 60.5t-49.5 17.5q-26 0 -45.5 -11t-32.5 -27z" />
    <glyph glyph-name="uni00B3" unicode="&#xb3;" horiz-adv-x="404" 
d="M185 345q-35 0 -57.5 14t-34.5 29l19 28q6 -8 16 -17t24.5 -15t32.5 -5q38 1 63 25.5t29 60.5q5 36 -15.5 54.5t-51.5 18.5q-21 0 -34 -3.5t-26 -8.5l-2 5l119 140l12 -12h-143l5 36h184l-125 -154l-32 5q11 8 27.5 13.5t34.5 5.5q25 1 47 -11.5t35 -35.5t9 -54
q-4 -34 -22.5 -61t-47.5 -42.5t-66 -15.5z" />
    <glyph glyph-name="uni00B9" unicode="&#xb9;" horiz-adv-x="259" 
d="M122 658h96l-39 -330h-46l35 287h-50z" />
    <glyph glyph-name="onequarter" unicode="&#xbc;" horiz-adv-x="807" 
d="M618 758q-94 -189 -186.5 -378.5t-186.5 -379.5h-44q94 190 187 379.5t187 378.5h43zM122 658h96l-39 -330h-46l35 287h-50zM745 137l-4 -30h-249l2 15l210 219h26l-42 -339h-42l36 287l10 -4l-159 -164l-6 16h218z" />
    <glyph glyph-name="onehalf" unicode="&#xbd;" horiz-adv-x="807" 
d="M129 658h96l-39 -330h-46l35 287h-50zM591 759q-94 -190 -186.5 -379.5t-186.5 -379.5h-44q94 190 187 379.5t187 379.5h43zM501 302q11 14 28 25.5t37 18t41 6.5q51 -1 78 -28.5t20 -80.5q-4 -33 -25 -64.5t-52 -61t-64.5 -57t-62.5 -52.5l6 32h188l-5 -40h-228l3 22
q32 25 64 51.5t59.5 53.5t45.5 54t21 52q5 43 -13.5 60.5t-49.5 17.5q-26 0 -45.5 -11t-32.5 -27z" />
    <glyph glyph-name="threequarters" unicode="&#xbe;" horiz-adv-x="793" 
d="M166 345q-35 0 -57.5 14t-34.5 29l19 28q6 -8 16 -17t24.5 -15t32.5 -5q38 1 63 25.5t29 60.5q5 36 -15.5 54.5t-51.5 18.5q-21 0 -34 -3.5t-26 -8.5l-2 5l119 140l12 -12h-143l5 36h184l-125 -154l-32 5q11 8 27.5 13.5t34.5 5.5q25 1 47 -11.5t35 -35.5t9 -54
q-4 -34 -22.5 -61t-47.5 -42.5t-66 -15.5zM625 759q-94 -190 -186.5 -379.5t-186.5 -379.5h-44q94 190 187 379.5t187 379.5h43zM731 135l-4 -30h-249l2 15l210 219h26l-42 -339h-42l36 287l10 -4l-159 -164l-6 16h218z" />
    <glyph glyph-name="uni2074" unicode="&#x2074;" horiz-adv-x="364" 
d="M323 463l-4 -30h-249l2 15l210 219h26l-42 -339h-42l36 287l10 -4l-159 -164l-6 16h218z" />
    <glyph glyph-name="underscore" unicode="_" horiz-adv-x="603" 
d="M106 42h402l-5 -42h-402z" />
    <glyph glyph-name="hyphen" unicode="-" horiz-adv-x="302" 
d="M81 222h185l-5 -42h-185z" />
    <glyph glyph-name="endash" unicode="&#x2013;" horiz-adv-x="512" 
d="M127 218h303l-5 -43h-303z" />
    <glyph glyph-name="emdash" unicode="&#x2014;" horiz-adv-x="704" 
d="M126 218h505l-5 -43h-505z" />
    <glyph glyph-name="parenleft" unicode="(" horiz-adv-x="344" 
d="M103 241q3 85 23.5 161.5t53 141.5t71.5 117t78 89l28 -30q-48 -48 -94 -119.5t-77 -161.5t-34 -197q-2 -81 11 -153t37 -129.5t53 -97.5l-36 -27q-32 41 -59.5 102.5t-42.5 139t-12 164.5v0z" />
    <glyph glyph-name="bracketleft" unicode="[" horiz-adv-x="352" 
d="M182 750h176l-5 -43h-132l-100 -814h132l-5 -43h-177z" />
    <glyph glyph-name="braceleft" unicode="{" horiz-adv-x="302" 
d="M287 707q-20 0 -33 -9.5t-20.5 -33t-12.5 -65.5l-17 -142q-6 -53 -20 -84t-31 -47t-34 -26q14 -9 27 -25.5t19.5 -47t-0.5 -83.5l-17 -142q-5 -41 -3.5 -65t12 -34t30.5 -10h52l-5 -42h-49q-21 0 -39 2t-30 13.5t-16 40.5t3 83l18 150q4 27 1.5 58t-17 53.5t-47.5 23.5v0
l6 49q33 2 53 24t30 53.5t13 58.5l21 171q6 46 17.5 71t26.5 35t33.5 11.5t37.5 1.5h48l-5 -43h-52z" />
    <glyph glyph-name="quotesinglbase" unicode="&#x201a;" horiz-adv-x="147" 
d="M34 -50q-4 5 -8.5 10.5t-9.5 10.5q23 20 36 50t11 65q8 2 17 4t17 3q3 -41 -14 -78.5t-49 -64.5v0z" />
    <glyph glyph-name="quotedblbase" unicode="&#x201e;" horiz-adv-x="281" 
d="M34 -50q-4 5 -8.5 10.5t-9.5 10.5q23 20 36 50t11 65q8 2 17 4t17 3q3 -41 -14 -78.5t-49 -64.5v0zM139 -50q-4 5 -9 10.5t-10 10.5q24 20 37 50t11 65q8 2 17 4t17 3q3 -41 -14 -78.5t-49 -64.5v0z" />
    <glyph glyph-name="parenright" unicode=")" horiz-adv-x="344" 
d="M265 345q-3 -85 -23.5 -161t-53 -141.5t-71.5 -117.5t-78 -89l-29 30q49 49 95 120t76.5 161.5t33.5 197.5q3 81 -10 153t-37 130t-53 97l36 26q33 -40 60 -102t42 -139t12 -165v0z" />
    <glyph glyph-name="bracketright" unicode="]" horiz-adv-x="385" 
d="M162 750h176l-110 -900h-177l6 43h132l99 814h-131z" />
    <glyph glyph-name="braceright" unicode="}" horiz-adv-x="335" 
d="M110 -107q21 0 33 10t19.5 34t12.5 65l20 164q6 43 20.5 70t32 42t30.5 22q-14 10 -27.5 26t-19.5 47t0 84l17 142q6 42 4.5 65.5t-11.5 33t-31 9.5h-52l5 43h48q20 0 37.5 -1.5t30.5 -11.5t18 -34.5t-1 -71.5l-18 -151q-2 -18 -3.5 -44t3 -51t18.5 -42.5t42 -18.5v0
l-6 -49q-28 -1 -46.5 -18.5t-29 -42.5t-15.5 -51t-8 -44l-18 -150q-6 -46 -17 -71t-26 -34.5t-33 -11t-38 -1.5h-48l5 42h52z" />
    <glyph glyph-name="guillemotleft" unicode="&#xab;" horiz-adv-x="604" 
d="M147 240q12 10 27.5 24t33 30t36 32.5t36 32.5t33 30t27.5 24l-6 -50q-15 -13 -31.5 -29t-34 -32.5t-34 -32t-31.5 -29.5q11 -13 24 -29t26 -33t26 -32.5t24 -29.5l-6 -49zM319 240q12 10 27.5 24t33 30t36 32.5t36 32.5t33 30t27.5 24l-6 -50q-15 -13 -31.5 -29
t-34 -32.5t-34 -32t-31.5 -29.5q11 -13 24 -29t26 -33t26 -32.5t24 -29.5l-6 -49z" />
    <glyph glyph-name="quoteleft" unicode="&#x2018;" horiz-adv-x="165" 
d="M175 593q-5 -5 -11 -10l-12 -10q-25 27 -33 64.5t5 77.5q8 -1 16.5 -3t15.5 -4q-10 -35 -4.5 -65t23.5 -50v0z" />
    <glyph glyph-name="quotedblleft" unicode="&#x201c;" horiz-adv-x="250" 
d="M170 593q-5 -5 -11 -10t-13 -10q-25 27 -32.5 64.5t5.5 77.5q8 -1 16.5 -3t15.5 -4q-11 -35 -5 -65t24 -50v0zM274 593q-5 -5 -11 -10l-12 -10q-25 27 -33 64.5t5 77.5q8 -1 16.5 -3t15.5 -4q-10 -35 -4.5 -65t23.5 -50v0z" />
    <glyph glyph-name="guilsinglleft" unicode="&#x2039;" horiz-adv-x="394" 
d="M147 240q12 10 27.5 24t33 30t36 32.5t36 32.5t33 30t27.5 24l-6 -50q-15 -13 -31.5 -29t-34 -32.5t-34 -32t-31.5 -29.5q11 -13 24 -29t26 -33t26 -32.5t24 -29.5l-6 -49z" />
    <glyph glyph-name="guillemotright" unicode="&#xbb;" horiz-adv-x="604" 
d="M432 240q-12 10 -27.5 24t-33 30t-36 32.5t-36 32.5t-33 30t-27.5 24l6 -50q15 -13 31.5 -29t34 -32.5t34 -32t31.5 -29.5q-11 -13 -24 -29t-26 -33t-26 -32.5t-24 -29.5l6 -49zM260 240q-12 10 -27.5 24t-33 30t-36 32.5t-36 32.5t-33 30t-27.5 24l6 -50
q15 -13 31.5 -29t34 -32.5t34 -32t31.5 -29.5q-11 -13 -24 -29t-26 -33t-26 -32.5t-24 -29.5l6 -49z" />
    <glyph glyph-name="quoteright" unicode="&#x2019;" horiz-adv-x="165" 
d="M140 573q-4 5 -8.5 10t-9.5 10q24 20 37 50t10 65q8 2 17 4t17 3q4 -40 -13 -77.5t-50 -64.5v0z" />
    <glyph glyph-name="quotedblright" unicode="&#x201d;" horiz-adv-x="249" 
d="M121 573q-4 5 -8.5 10t-9.5 10q24 20 37 50t10 65q8 2 17 4t17 3q4 -40 -13 -77.5t-50 -64.5v0zM226 573q-4 5 -9 10l-10 10q24 20 37 50t11 65q8 2 17 4t17 3q3 -40 -14 -77.5t-49 -64.5v0z" />
    <glyph glyph-name="guilsinglright" unicode="&#x203a;" horiz-adv-x="394" 
d="M260 240q-12 10 -27.5 24t-33 30t-36 32.5t-36 32.5t-33 30t-27.5 24l6 -50q15 -13 31.5 -29t34 -32.5t34 -32t31.5 -29.5q-11 -13 -24 -29t-26 -33t-26 -32.5t-24 -29.5l6 -49z" />
    <glyph glyph-name="exclam" unicode="!" horiz-adv-x="200" 
d="M148 728h43l-71 -579h-43zM70 10q-10 7 -10 17t7 19q7 8 17.5 9.5t20.5 -4.5q9 -7 9 -18t-8 -19q-8 -9 -17.5 -9t-18.5 5z" />
    <glyph glyph-name="quotedbl" unicode="&#x22;" horiz-adv-x="312" 
d="M197 724q-8 -63 -17 -125t-17 -125h-41l30 250h45zM331 724q-8 -63 -17 -125t-17 -125h-42l31 250h45z" />
    <glyph glyph-name="numbersign" unicode="#" horiz-adv-x="574" 
d="M311 646q-13 -52 -26 -104.5t-26 -105.5h141q13 53 26 105.5t26 104.5h44q-13 -52 -26 -104.5t-26 -105.5h122q-2 -10 -4.5 -20.5t-4.5 -21.5h-123q-9 -35 -17 -70.5t-17 -70.5h122q-3 -10 -5.5 -21t-4.5 -22h-123q-12 -52 -24.5 -104.5t-25.5 -105.5h-44
q13 53 25.5 105.5t25.5 104.5h-142q-12 -52 -24.5 -104.5t-25.5 -105.5h-44q13 53 25.5 105.5t25.5 104.5h-107q2 11 5 22t5 21h107q9 35 17 70.5t17 70.5h-106q2 11 4.5 21.5t4.5 20.5h107q14 53 26.5 105.5t25.5 104.5h44zM249 394q-9 -35 -17 -70.5t-17 -70.5h141
q9 35 17 70.5t17 70.5h-141z" />
    <glyph glyph-name="percent" unicode="%" horiz-adv-x="779" 
d="M232 240q-12 0 -32 4t-40 16.5t-33.5 39t-13.5 71.5q0 44 15.5 83t45.5 64.5t75 25.5q9 0 27.5 -4t38 -16.5t33.5 -38.5t14 -71q0 -43 -15 -82.5t-43.5 -64.5t-71.5 -27zM232 275q30 1 49.5 22.5t29 53t9.5 61.5q0 34 -9 53.5t-22.5 28.5t-26 11.5t-18.5 2.5
q-31 -1 -50.5 -22t-28.5 -52t-9 -62q0 -45 15 -65.5t33 -26t28 -5.5zM561 -4q-11 0 -30 4t-38.5 17t-32.5 39t-13 69q0 44 15.5 84t45.5 65.5t75 25.5q11 0 30 -4.5t38 -18t32 -39.5t13 -70q0 -41 -15.5 -81t-45.5 -65.5t-74 -25.5zM564 31q33 1 52.5 23.5t28 54.5t8.5 61
q0 44 -15 63.5t-32.5 25t-26.5 5.5q-31 0 -51 -21t-29.5 -52t-9.5 -63q0 -45 15 -65.5t33 -26t27 -5.5zM636 546l-415 -547l-48 1l414 546h49z" />
    <glyph glyph-name="ampersand" unicode="&#x26;" horiz-adv-x="705" 
d="M584 0h-13h-19.5h-18h-7.5l-304 489q-9 14 -16.5 30.5t-11.5 34.5t-3 36q1 47 23.5 83.5t63.5 57.5t98 21q47 0 84.5 -17.5t61.5 -39.5l-28 -33q-28 22 -56.5 35t-59.5 13q-67 0 -101 -36.5t-35 -86.5q0 -12 4 -26t10 -26.5t11 -21.5zM310 359q-33 2 -68.5 -9t-65 -33.5
t-48.5 -54.5t-19 -73q-1 -44 22.5 -79t64 -54.5t89.5 -20.5q40 0 75.5 12t63 32.5t41.5 45.5l28 -33q-30 -45 -88 -73t-130 -27q-66 1 -116.5 28t-77.5 72t-25 99q2 47 24.5 86t59.5 67t81.5 43t90.5 13zM603 401h47l-151 -299l-31 27z" />
    <glyph glyph-name="quotesingle" unicode="'" horiz-adv-x="154" 
d="M191 724q-8 -63 -17 -125t-17 -125h-42l30 250h46z" />
    <glyph glyph-name="asterisk" unicode="*" horiz-adv-x="335" 
d="M217 546l-52 -28l-52 -28q-3 8 -6.5 16t-7.5 15q27 14 53 28t52 27q-22 14 -44.5 29t-45.5 29q4 7 9 13.5t9 13.5q23 -14 46.5 -28.5t45.5 -28.5l14 116h36q-4 -29 -7.5 -58t-8.5 -58q27 14 54 28.5t54 27.5q3 -7 6 -13.5t7 -13.5q-28 -14 -54.5 -29t-53.5 -29v0
q23 -14 46 -28.5t46 -28.5q-5 -7 -10.5 -14.5t-10.5 -15.5q-23 14 -46 29t-46 29q-4 -28 -7 -55.5t-8 -56.5h-32z" />
    <glyph glyph-name="comma" unicode="," horiz-adv-x="201" 
d="M26 -189l-23 19q29 19 42.5 53t11.5 75l44 -1q2 -27 -5 -55t-24 -52t-46 -39z" />
    <glyph glyph-name="period" unicode="." horiz-adv-x="164" 
d="M56 30q0 16 12.5 27t26.5 11q11 0 20 -9t9 -22q0 -10 -5.5 -18.5t-14.5 -13.5t-18 -5q-12 0 -21 8.5t-9 21.5v0z" />
    <glyph glyph-name="slash" unicode="/" horiz-adv-x="348" 
d="M432 740q-94 -190 -187 -379.5t-186 -379.5h-44q94 190 186.5 379.5t186.5 379.5h44z" />
    <glyph glyph-name="colon" unicode=":" horiz-adv-x="176" 
d="M55 30q0 16 12.5 27t26.5 11q12 0 20.5 -9t8.5 -22q0 -10 -5.5 -18.5t-14 -13.5t-17.5 -5q-13 0 -22 8.5t-9 21.5v0zM87 289q0 16 12.5 27t26.5 11q12 0 20.5 -8.5t8.5 -22.5q0 -10 -5.5 -18.5t-14 -13.5t-17.5 -5q-12 0 -21.5 8.5t-9.5 21.5v0z" />
    <glyph glyph-name="semicolon" unicode=";" horiz-adv-x="202" 
d="M113 282q0 11 5.5 19t14.5 13t18 5q12 0 20.5 -8.5t8.5 -22.5q0 -16 -12 -26.5t-26 -10.5q-12 0 -20.5 9t-8.5 22v0zM139 87q-28 -52 -56 -103.5t-56 -104.5h-40q26 53 51.5 104.5t51.5 103.5h49z" />
    <glyph glyph-name="question" unicode="?" horiz-adv-x="450" 
d="M205 262q4 32 17.5 51.5t33 34t44 28.5t50.5 34q41 32 61 69t20 78q0 40 -17 70.5t-47.5 48t-70.5 17.5q-39 0 -71.5 -13.5t-57 -38.5t-39.5 -60v0q-9 3 -18.5 6t-17.5 7q12 26 31 51t45 45.5t59.5 33t73.5 12.5q52 0 91 -24t61 -63.5t22 -88.5q0 -61 -32 -107t-88 -84
q-25 -16 -48 -29.5t-39 -34.5t-21 -62l-10 -78h-44zM196 15q-11 0 -20 8.5t-9 21.5q0 16 12 26.5t25 10.5q11 0 20.5 -8.5t9.5 -21.5q0 -16 -12 -26.5t-26 -10.5v0z" />
    <glyph glyph-name="at" unicode="@" horiz-adv-x="982" 
d="M410 -212q-82 0 -149 23.5t-115 69t-74 111.5t-26 152q0 55 18 118t57 124.5t100.5 112t148 81t200.5 30.5q83 0 150.5 -25.5t116.5 -71.5t75 -107.5t26 -133.5q0 -55 -17 -106t-46.5 -90t-69.5 -62t-87 -23q-38 0 -62 18t-31.5 51.5t1.5 78.5l9 -25q-17 -32 -48 -60
t-68.5 -45t-77.5 -17q-54 0 -96 23t-65 64t-22 94q0 62 29.5 114.5t80 84t113.5 31.5q44 0 77 -14t56 -38.5t33 -56.5l19 97h43l-39 -274q-2 -20 1 -39t16.5 -31.5t39.5 -12.5q32 0 62 19.5t53 53t36.5 76t13.5 89.5q0 84 -41 151.5t-114.5 107.5t-173.5 40
q-106 0 -184.5 -29.5t-133.5 -78t-89 -105.5t-49.5 -112.5t-15.5 -98.5q0 -78 22.5 -137.5t65 -100.5t103 -61.5t135.5 -20.5q61 0 118 19.5t108 50.5l20 -30q-37 -25 -79 -43t-86 -27t-88 -9zM456 32q39 0 75.5 18.5t63.5 51.5t35 76l8 56q-3 37 -23 66t-53.5 46t-75.5 17
q-47 0 -88 -25t-65.5 -67t-24.5 -93q0 -41 18.5 -74.5t52 -52.5t77.5 -19z" />
    <glyph glyph-name="backslash" unicode="\" horiz-adv-x="349" 
d="M148 740q47 -190 93.5 -379.5t92.5 -379.5h-48q-46 190 -92.5 379.5t-93.5 379.5h48z" />
    <glyph glyph-name="exclamdown" unicode="&#xa1;" horiz-adv-x="200" 
d="M88 -185h-43l71 579h43zM166 533q10 -7 10.5 -17t-7.5 -19q-7 -8 -17.5 -9.5t-20.5 4.5q-9 8 -8.5 18.5t7.5 18.5q8 9 17.5 9t18.5 -5z" />
    <glyph glyph-name="section" unicode="&#xa7;" horiz-adv-x="565" 
d="M349 130l-13 18q38 -10 68 -28.5t46 -48t11 -72.5q-6 -47 -39 -83.5t-84 -56t-112 -15.5q-51 3 -92.5 18t-70.5 34.5t-46 33.5l29 38q21 -18 49.5 -36t62.5 -30t69 -14q43 -2 83 9.5t67.5 37t31.5 63.5q5 38 -15.5 62t-56 39.5t-76.5 27.5q-33 12 -66 26t-58.5 33.5
t-39 47.5t-8.5 68q6 48 35.5 81t73 49.5t90.5 12.5l-6 -16q-41 15 -72 36.5t-46.5 51.5t-11.5 71q5 38 33 70.5t74.5 51.5t105.5 15q44 -3 92 -19t82 -39l-26 -36q-28 20 -67.5 34.5t-80.5 17.5q-47 3 -82.5 -10t-56 -35.5t-23.5 -48.5q-4 -37 14.5 -60.5t54.5 -39.5t82 -31
q34 -11 66.5 -25t58 -33.5t38.5 -48.5t8 -70q-7 -60 -55 -101t-121 -50zM476 277q6 39 -15.5 65.5t-59 44.5t-80.5 31q-77 5 -126.5 -26.5t-56.5 -82.5q-5 -42 16 -68t62 -44.5t96 -37.5q32 1 68.5 14.5t63.5 39.5t32 64z" />
    <glyph glyph-name="paragraph" unicode="&#xb6;" horiz-adv-x="516" 
d="M254 425q-42 0 -74.5 19.5t-51 53t-18.5 74.5q0 50 25.5 91.5t68 66t91.5 24.5h207l-93 -754h-43l88 712h-121l-88 -712h-43z" />
    <glyph glyph-name="periodcentered" unicode="&#xb7;" horiz-adv-x="184" 
d="M89 279q0 16 12.5 27t26.5 11q11 0 20 -9t9 -22q0 -10 -5.5 -18.5t-14.5 -13.5t-18 -5q-12 0 -21 8.5t-9 21.5v0z" />
    <glyph glyph-name="questiondown" unicode="&#xbf;" horiz-adv-x="419" 
d="M292 277q-4 -31 -17.5 -51t-33 -34.5t-44 -28.5t-50.5 -34q-41 -32 -61 -69t-20 -78q0 -39 17 -70t47.5 -48.5t70.5 -17.5q39 0 71.5 13.5t57 39t39.5 59.5v0q9 -3 18.5 -6t17.5 -7q-12 -26 -31 -51t-45 -45.5t-59.5 -33t-73.5 -12.5q-51 0 -90.5 24t-61.5 64t-22 88
q0 62 32.5 108t87.5 83q25 17 48 30t39 34.5t21 61.5l10 78h44zM301 524q11 0 20 -8t9 -22q0 -16 -12 -26.5t-25 -10.5q-11 0 -20.5 8.5t-9.5 21.5q0 17 12.5 27t25.5 10v0z" />
    <glyph glyph-name="dagger" unicode="&#x2020;" horiz-adv-x="300" 
d="M103 450h205l-6 -43h-205zM200 588h44l-67 -542h-43z" />
    <glyph glyph-name="daggerdbl" unicode="&#x2021;" horiz-adv-x="300" 
d="M36 297h301l-5 -43h-301zM102 450h205l-5 -43h-205zM200 588h44l-67 -542h-43z" />
    <glyph glyph-name="bullet" unicode="&#x2022;" horiz-adv-x="481" 
d="M185 292q0 28 14.5 51t38.5 37t51 14q24 0 42 -11t28.5 -30t10.5 -42q0 -28 -14.5 -51t-38 -36.5t-51.5 -13.5q-23 0 -41.5 11t-29 29.5t-10.5 41.5v0z" />
    <glyph glyph-name="ellipsis" unicode="&#x2026;" horiz-adv-x="492" 
d="M56 30q0 16 12.5 27t26.5 11q11 0 20 -9t9 -22q0 -10 -5.5 -18.5t-14.5 -13.5t-18 -5q-12 0 -21 8.5t-9 21.5v0zM220 30q0 16 12.5 27t26.5 11q11 0 20 -9t9 -22q0 -10 -5.5 -18.5t-14.5 -13.5t-18 -5q-12 0 -21 8.5t-9 21.5v0zM384 30q0 16 12.5 27t26.5 11q11 0 20 -9
t9 -22q0 -10 -5.5 -18.5t-14.5 -13.5t-18 -5q-12 0 -21 8.5t-9 21.5v0z" />
    <glyph glyph-name="perthousand" unicode="&#x2030;" horiz-adv-x="1071" 
d="M233 240q-13 0 -33.5 4t-40 17t-33 39t-13.5 71q0 43 15 82.5t45 64.5t74 26q12 0 31 -4.5t38 -17.5t32.5 -39t13.5 -69q0 -42 -14.5 -81.5t-43 -65t-71.5 -27.5zM233 275q30 2 49 23.5t28.5 52.5t9.5 61q0 34 -9 53.5t-22.5 28.5t-26 11.5t-18.5 2.5q-31 -1 -50.5 -22
t-28.5 -52t-9 -62q0 -34 9 -54t22 -29t26 -11.5t20 -2.5zM564 -4q-12 0 -31.5 4t-39 16.5t-33 38.5t-13.5 70q0 43 14.5 82.5t44 65.5t74.5 27q12 0 31.5 -4.5t38.5 -17.5t32.5 -39.5t13.5 -70.5q0 -41 -15 -80t-44 -64.5t-73 -27.5zM565 31q32 2 51.5 24.5t28 54t8.5 60.5
q0 33 -9 52t-22 28t-25.5 11.5t-19.5 2.5q-31 0 -50.5 -21.5t-28.5 -53t-9 -61.5q0 -45 15 -65.5t33 -26t28 -5.5zM636 546l-415 -547l-48 1l414 546h49zM860 -4q-14 0 -34 4.5t-39 17.5t-32 38.5t-13 68.5t14.5 82.5t44 65.5t74.5 27q12 0 31.5 -4.5t38.5 -17.5t32.5 -39.5
t13.5 -70.5q0 -41 -15 -80t-44 -64.5t-72 -27.5zM858 31q33 1 53 23.5t28.5 54.5t8.5 61q0 34 -9.5 53t-23 28t-25.5 11t-17 2q-31 0 -51 -21.5t-29 -53t-9 -61.5q0 -34 9 -53.5t21.5 -29t25 -12t18.5 -2.5z" />
    <glyph glyph-name="plus" unicode="+" horiz-adv-x="546" 
d="M297 413h43l-19 -159h159l-5 -42h-159l-20 -161h-44l20 161h-159l5 42h159z" />
    <glyph glyph-name="less" unicode="&#x3c;" horiz-adv-x="647" 
d="M521 -15q-103 64 -204.5 127.5t-204.5 126.5q118 64 235.5 127.5t235.5 126.5l-7 -57q-91 -49 -182.5 -98t-183.5 -99q80 -49 159.5 -98t158.5 -98v0z" />
    <glyph glyph-name="equal" unicode="=" horiz-adv-x="712" 
d="M122 177h509l-6 -42h-508zM146 372h509l-6 -42h-508z" />
    <glyph glyph-name="greater" unicode="&#x3e;" horiz-adv-x="625" 
d="M107 43q92 49 183.5 98t182.5 98q-79 50 -159 99t-159 98l7 57q103 -63 204.5 -126.5t204.5 -127.5q-118 -63 -235.5 -126.5t-235.5 -127.5v0z" />
    <glyph glyph-name="bar" unicode="|" horiz-adv-x="269" 
d="M181 704h44l-115 -937h-44z" />
    <glyph glyph-name="asciitilde" unicode="~" horiz-adv-x="479" 
d="M279 445q-31 2 -49 18t-33 35q-11 15 -23 28t-32 14q-12 1 -25.5 -7.5t-24 -27.5t-16.5 -53l-32 4q5 41 20.5 68.5t37 41.5t46.5 12q29 -1 46 -17.5t30 -35.5q12 -16 25.5 -29t32.5 -14q14 -1 26.5 7t21.5 28t14 53l32 -3q-4 -42 -18 -69.5t-34.5 -40.5t-44.5 -12z" />
    <glyph glyph-name="logicalnot" unicode="&#xac;" horiz-adv-x="535" 
d="M113 264h361l-16 -131h-49l10 84h-313z" />
    <glyph glyph-name="plusminus" unicode="&#xb1;" horiz-adv-x="527" 
d="M316 574h44l-20 -159h159l-4 -43h-159l-21 -160h-43l20 160h-159l4 43h159zM106 159h362l-5 -43h-362z" />
    <glyph glyph-name="multiply" unicode="&#xd7;" horiz-adv-x="507" 
d="M291 184q32 28 62.5 55t62.5 55q8 -8 15.5 -17.5t14.5 -18.5q-31 -27 -62 -54.5t-62 -55.5q25 -28 49 -55.5t49 -56.5l-41 -36q-24 28 -48.5 55.5t-49.5 55.5q-31 -28 -62 -55.5t-62 -54.5q-7 8 -15 17l-16 18q31 28 62 55.5t62 55.5l-97 111l40 37z" />
    <glyph glyph-name="divide" unicode="&#xf7;" horiz-adv-x="503" 
d="M230 94q0 16 12.5 26.5t26.5 10.5q11 0 20 -8.5t9 -22.5q0 -10 -5.5 -18.5t-14 -13.5t-17.5 -5q-13 0 -22 9t-9 22v0zM263 361q0 16 12.5 26.5t26.5 10.5q11 0 20 -8.5t9 -21.5q0 -16 -12 -26.5t-26 -10.5q-12 0 -21 8.5t-9 21.5v0zM100 252h362l-6 -43h-362z" />
    <glyph glyph-name="fraction" unicode="&#x2044;" horiz-adv-x="300" 
d="M405 759q-94 -190 -186.5 -379.5t-186.5 -379.5h-44q94 190 187 379.5t187 379.5h43z" />
    <glyph glyph-name="uni2206" unicode="&#x2206;" horiz-adv-x="502" 
d="M326 733l103 -458h-35l-79 366l-170 -366h-34l215 458v0zM142 304h267l-4 -29h-267z" />
    <glyph glyph-name="product" unicode="&#x220f;" horiz-adv-x="609" 
d="M295 754h223l-100 -815h-43l95 773h-137l-95 -773h-43z" />
    <glyph glyph-name="summation" unicode="&#x2211;" horiz-adv-x="512" 
d="M172 754h357l-25 -42h-280l58 -368l-148 -369h280l14 -42h-357l165 411z" />
    <glyph glyph-name="minus" unicode="&#x2212;" horiz-adv-x="753" 
d="M112 219h362l-5 -42h-362z" />
    <glyph glyph-name="uni2215" unicode="&#x2215;" horiz-adv-x="349" 
d="M406 740q-94 -190 -187 -379.5t-186 -379.5h-44q94 190 186.5 379.5t186.5 379.5h44z" />
    <glyph glyph-name="uni2219" unicode="&#x2219;" horiz-adv-x="193" 
d="M102 237q-24 2 -39 20t-12 42q3 25 22 40t43 14q23 -1 38 -19.5t12 -42.5q-3 -23 -22 -39t-42 -15z" />
    <glyph glyph-name="radical" unicode="&#x221a;" horiz-adv-x="536" 
d="M535 605h34l-329 -568l-99 300h-87l5 29h107l84 -247z" />
    <glyph glyph-name="infinity" unicode="&#x221e;" horiz-adv-x="442" 
d="M265 303q-2 -22 -19 -38.5t-41 -26t-50 -9.5q-27 0 -44.5 10t-26 26t-8.5 32q0 18 11.5 36.5t33 31t51.5 12.5q26 0 48.5 -9.5t35 -26t9.5 -38.5v0zM235 297q0 24 16.5 42t42.5 28t53 10q26 0 43 -10t24.5 -25.5t7.5 -31.5q0 -18 -10.5 -36.5t-31 -31.5t-52.5 -13
q-24 0 -45 8.5t-34.5 24t-13.5 35.5v0zM235 302q3 20 -18.5 32.5t-47.5 12.5q-30 0 -45.5 -15.5t-15.5 -32.5q0 -14 11.5 -27.5t38.5 -13.5q26 0 51 12.5t26 31.5v0zM265 302q-2 -19 19.5 -31.5t46.5 -12.5q32 0 47 16.5t15 31.5t-12 28t-39 13q-25 0 -49.5 -12.5
t-27.5 -32.5v0z" />
    <glyph glyph-name="integral" unicode="&#x222b;" horiz-adv-x="336" 
d="M293 707q-20 0 -33 -9.5t-20.5 -33t-12.5 -65.5l-74 -609q-7 -54 -18 -83t-26 -40.5t-33.5 -13.5t-40.5 -2h-48l6 42h51q21 0 33.5 10t20 34t12.5 65l77 629v0q6 46 17 71t26.5 35t34 11.5t37.5 1.5h48l-5 -43h-52z" />
    <glyph glyph-name="approxequal" unicode="&#x2248;" horiz-adv-x="486" 
d="M226 135q-31 2 -49 18t-33 35q-11 15 -23 28t-32 14q-12 1 -25.5 -7.5t-24 -27.5t-16.5 -53l-32 4q5 41 20.5 68.5t37 41.5t46.5 12q29 -1 46 -17.5t30 -35.5q12 -16 25.5 -29t32.5 -14q14 -1 26.5 7t21.5 28t14 53l32 -3q-4 -42 -18 -69.5t-34.5 -40.5t-44.5 -12z
M240 300q-31 2 -49 18t-33 35q-11 15 -23 28t-32 14q-12 1 -25.5 -7.5t-24 -27.5t-16.5 -53l-32 4q5 41 20.5 68.5t37 41.5t46.5 12q29 -1 46 -17.5t30 -35.5q12 -16 25.5 -29t32.5 -14q14 -1 26.5 7t21.5 28t14 53l32 -3q-4 -42 -18 -69.5t-34.5 -40.5t-44.5 -12z" />
    <glyph glyph-name="notequal" unicode="&#x2260;" horiz-adv-x="712" 
d="M626 506q-45 -47 -94.5 -98.5t-101 -104.5l-103 -106t-101 -104.5t-94.5 -98.5l-22 22q45 47 94.5 98.5t101 104.5t103 106.5t101 105t95.5 98.5zM122 177h509l-6 -42h-508zM146 372h509l-6 -42h-508z" />
    <glyph glyph-name="lessequal" unicode="&#x2264;" horiz-adv-x="554" 
d="M480 219q-102 63 -204 126.5t-204 127.5q118 63 235.5 127t234.5 127l-7 -57q-90 -49 -182 -98t-183 -99q80 -49 159 -98t158 -99v0zM68 124h362l-5 -43h-362z" />
    <glyph glyph-name="greaterequal" unicode="&#x2265;" horiz-adv-x="555" 
d="M151 727q103 -63 205 -127t204 -127q-118 -64 -235.5 -127.5t-235.5 -126.5l7 57q91 50 183 99t182 98q-79 50 -158 99t-159 98zM76 124h362l-5 -43h-362z" />
    <glyph glyph-name="dollar" unicode="$" horiz-adv-x="572" 
d="M246 -68l53 436l3 25l47 382h33l-48 -392l-3 -27l-52 -424h-33zM501 617q-31 17 -77.5 33.5t-93.5 17.5q-46 0 -76.5 -13t-48.5 -33t-25.5 -41.5t-8.5 -37.5q-1 -35 20.5 -61t57 -45.5t74.5 -38.5q43 -19 82.5 -43t64.5 -61t23 -95q-1 -33 -15 -69.5t-42 -67.5t-72 -50.5
t-106 -18.5q-52 1 -95 14t-76 32.5t-56 40.5l27 38q21 -20 52.5 -38.5t70 -30t79.5 -12.5q59 0 99 24t61 61.5t22 76.5q1 43 -21 72.5t-57 50.5t-74 38q-31 14 -62 30.5t-56 37t-39 48t-12 64.5q2 53 30.5 91.5t75 59t102.5 20.5q36 -1 71 -9t67 -20.5t58 -28.5z" />
    <glyph glyph-name="cent" unicode="&#xa2;" horiz-adv-x="436" 
d="M270 456h33l-64 -524h-33zM372 28q-27 -17 -59 -27t-66 -10q-37 0 -72 13t-63.5 37t-45 59.5t-16.5 80.5q0 42 16 81t45 69.5t68.5 48.5t86.5 18t84 -14.5t62 -40.5l-29 -31q-19 20 -49 33t-65 13q-45 0 -84 -23.5t-63 -63t-24 -88.5q0 -42 20 -76.5t55 -55t81 -20.5
q27 0 51 8t45 21z" />
    <glyph glyph-name="sterling" unicode="&#xa3;" horiz-adv-x="570" 
d="M331 350l-6 -48h-247l6 48h247zM169 516q6 47 32.5 79.5t69.5 49t96 16.5q69 0 106 -25.5t53 -68.5l-38 -24q-10 22 -24 38t-37.5 24.5t-64.5 8.5q-50 0 -80.5 -14.5t-45.5 -39.5t-19 -56l-43 -343l-2 -23q-1 -9 -5 -27t-11 -36t-18 -28h-7h234q50 0 73 10.5t26 38.5
l7 51h43l-5 -49q-3 -26 -13 -48.5t-38 -36t-86 -13.5h-363l6 47h45q23 0 35 11t19.5 39t13.5 80z" />
    <glyph glyph-name="currency" unicode="&#xa4;" horiz-adv-x="502" 
d="M407 443q10 -16 15 -35t4 -40q-1 -28 -12.5 -52.5t-30.5 -44.5l32 -37l-25 -22q-8 10 -16.5 19t-16.5 18q-40 -28 -88 -28q-24 1 -45 9t-36 21v0l-41 -36l-21 24l41 36q-11 16 -16.5 36t-4.5 42v0q1 28 11.5 51.5t28.5 43.5q-7 9 -14 17.5t-15 17.5l25 21l30 -34
q20 14 43 22.5t48 8.5q25 -1 46 -10t37 -24v0l39 33l20 -23zM178 353q-1 -41 26.5 -70t68.5 -30q32 0 59 15t44.5 41.5t17.5 58.5q1 42 -26 71t-69 30q-31 0 -58.5 -15.5t-44.5 -41.5t-18 -59v0z" />
    <glyph glyph-name="yen" unicode="&#xa5;" horiz-adv-x="661" 
d="M160 287h346l-4 -40h-346zM156 131h345l-4 -41h-345zM316 285l-212 425h58l193 -384l-17 -2l285 386h61l-318 -425l-35 -285h-50z" />
    <glyph glyph-name="colonmonetary" unicode="&#x20a1;" horiz-adv-x="698" 
d="M567 743l-389 -792h-45l389 792h45zM703 743l-389 -792h-45l388 792h46zM607 32q-22 -11 -50 -21.5t-60.5 -16.5t-68.5 -6q-69 0 -130.5 23t-108.5 66t-74 104.5t-27 138.5q0 50 12.5 104t40 105.5t72 92.5t108 65.5t148.5 24.5q63 0 116.5 -18.5t93.5 -47.5l-26 -43
q-34 26 -81 43.5t-100 18.5q-89 1 -152.5 -29t-103.5 -80t-59 -111t-19 -122q0 -64 22 -117t62 -91t93 -59t114 -21q32 0 60.5 6t53.5 15.5t46 19.5z" />
    <glyph glyph-name="franc" unicode="&#x20a3;" horiz-adv-x="578" 
d="M176 710h397l-6 -47h-347l-36 -292h308l-6 -47h-308l-39 -324h-50zM29 175h231l-3 -30h-232z" />
    <glyph glyph-name="lira" unicode="&#x20a4;" horiz-adv-x="600" 
d="M340 371l-6 -45h-250l6 45h250zM324 245l-5 -44h-250l6 44h249zM174 516q6 47 32.5 79.5t69 49t96.5 16.5q68 0 105 -25.5t54 -68.5l-39 -24q-7 17 -16.5 30t-23 22t-34 14t-51.5 5q-50 0 -81 -14.5t-46 -39.5t-19 -56l-42 -343l-2 -23q-1 -7 -3.5 -19t-6.5 -26
t-10 -26.5t-14 -19.5v0h227q50 0 73 10.5t26 38.5l6 51h44l-5 -49q-4 -26 -14 -48.5t-38 -36t-85 -13.5h-363l6 47h44q23 0 35.5 11t19.5 39t13 80z" />
    <glyph glyph-name="uni20A6" unicode="&#x20a6;" horiz-adv-x="830" 
d="M460 369h367l-3 -35h-367zM444 334h-411l3 35h411zM701 -17h-2l-481 640l14 1l-75 -624h-49l88 725h3l482 -645l-16 5l76 625h49z" />
    <glyph glyph-name="peseta" unicode="&#x20a7;" horiz-adv-x="575" 
d="M516 520h84l-1 -36h-85zM164 484h-89l2 36h88zM333 710q36 0 71.5 -10.5t64.5 -32t46 -55t17 -80.5q0 -42 -14.5 -83t-45.5 -75.5t-79 -55t-115 -20.5h-108l-36 -298h-50l87 710h162zM285 345q57 0 94.5 19t60 47.5t32 59.5t9.5 55q0 38 -18.5 69t-53.5 49t-84 18h-110
l-39 -317h109z" />
    <glyph glyph-name="uni20A9" unicode="&#x20a9;" horiz-adv-x="999" 
d="M71 429h898l-3 -36h-898zM112 708h56l156 -639l-10 3l197 397l16 -63l-225 -439zM440 708h49l165 -639l-14 4l315 635h52l-375 -740z" />
    <glyph glyph-name="dong" unicode="&#x20ab;" horiz-adv-x="601" 
d="M386 687h222l-4 -35h-222zM65 35h466l-4 -35h-466zM282 117q-56 2 -98.5 30.5t-64.5 76.5t-15 107q8 62 40.5 106.5t81 68t103.5 20.5q38 -2 69.5 -19.5t53.5 -45.5t29 -64l-8 -10l49 388h47l-80 -651h-47l15 119l2 -20q-26 -54 -72 -81.5t-105 -24.5zM296 158
q42 -2 77 15t58.5 49.5t31.5 74.5l7 50q-4 37 -21.5 68t-47 50.5t-70.5 21.5q-44 3 -82.5 -16t-64 -55t-31.5 -85q-6 -46 11 -84.5t51.5 -62.5t80.5 -26z" />
    <glyph glyph-name="Euro" unicode="&#x20ac;" horiz-adv-x="748" 
d="M96 422h343l-4 -41h-343zM82 302h343l-5 -40h-342zM660 32q-22 -11 -50 -21.5t-60.5 -16.5t-68.5 -6q-69 0 -130.5 23t-108.5 66t-74 104.5t-27 138.5q0 50 12.5 104t40 105.5t72 92.5t108 65.5t148.5 24.5q63 0 116.5 -18.5t93.5 -47.5l-26 -43q-34 26 -81 43.5
t-100 18.5q-89 1 -152.5 -29t-103.5 -80t-59 -111t-19 -122q0 -64 22 -117t62 -91t93 -59t114 -21q32 0 60.5 6t53.5 15.5t46 19.5z" />
    <glyph glyph-name="uni20AD" unicode="&#x20ad;" horiz-adv-x="610" 
d="M49 427h506l-6 -47h-507zM185 390l-6 -35l4 9l394 346h63l-329 -291l275 -419h-62l-253 388l-96 -82l-37 -306h-49l87 710h49z" />
    <glyph glyph-name="uni20B1" unicode="&#x20b1;" horiz-adv-x="567" 
d="M497 588h119l-4 -36h-120zM486 457h114l-4 -36h-114zM164 421h-122l5 36h122zM180 552h-122l5 36h122zM332 710q36 0 71.5 -10.5t64.5 -32t46 -55t17 -80.5q0 -42 -14.5 -83t-45.5 -75.5t-79 -55t-115 -20.5h-108l-36 -298h-50l87 710h162zM284 345q57 0 94.5 19t60 47.5
t32 59.5t9.5 55q0 38 -18.5 69t-53.5 49t-84 18h-110l-39 -317h109z" />
    <glyph glyph-name="uni20B2" unicode="&#x20b2;" horiz-adv-x="741" 
d="M633 35q-24 -14 -58.5 -24.5t-73 -16.5t-73.5 -5q-55 1 -102 13.5t-85.5 35t-68 53t-49 68.5t-29 81t-7.5 90q3 54 19.5 109t48 104.5t78.5 87.5t108.5 60t139.5 21q59 -1 111 -18t93 -46l-23 -43q-36 26 -84.5 42t-98.5 16q-72 1 -127.5 -19t-95.5 -54.5t-65.5 -78
t-38.5 -90t-15 -90.5q-1 -48 10.5 -90.5t35 -78.5t57.5 -62.5t78.5 -43t97.5 -19.5q42 -2 89.5 5t81.5 23l25 207h-161l6 46h211zM453 801h44l-115 -937h-44z" />
    <glyph glyph-name="uni20B5" unicode="&#x20b5;" horiz-adv-x="698" 
d="M607 32q-22 -11 -50 -21.5t-60.5 -16.5t-68.5 -6q-69 0 -130.5 23t-108.5 66t-74 104.5t-27 138.5q0 50 12.5 104t40 105.5t72 92.5t108 65.5t148.5 24.5q63 0 116.5 -18.5t93.5 -47.5l-26 -43q-34 26 -81 43.5t-100 18.5q-89 1 -152.5 -29t-103.5 -80t-59 -111t-19 -122
q0 -64 22 -117t62 -91t93 -59t114 -21q32 0 60.5 6t53.5 15.5t46 19.5zM437 811h44l-115 -937h-44z" />
    <glyph glyph-name="uni20B9" unicode="&#x20b9;" horiz-adv-x="585" 
d="M145 298l6 47h88q71 0 112.5 25.5t62 63t24.5 73.5q4 32 -4.5 60t-27.5 49.5t-48.5 34t-67.5 12.5h-100l6 47h390l-6 -47h-232l-60 34q40 0 78 -9.5t68 -31.5t45 -58t9 -89q-5 -40 -21.5 -77.5t-47 -67.5t-76 -48t-108.5 -18h-90zM438 0l-159 322l58 1l158 -323h-57z
M165 478l4 41h403l-5 -41h-402z" />
    <glyph glyph-name="uni20BA" unicode="&#x20ba;" horiz-adv-x="629" 
d="M570 316v-21.5t-2 -22.5q-10 -76 -44 -128t-86 -83.5t-116 -46t-135 -14.5h-49l87 710h49l-85 -689v26q62 0 118 11.5t100 37t72.5 69.5t36.5 108q2 8 2 16v15zM451 392l16 -31l-400 -209l-16 31zM435 519l16 -31l-400 -207l-15 31z" />
    <glyph glyph-name="uni20BC" unicode="&#x20bc;" horiz-adv-x="716" 
d="M414 831h43l-102 -831h-42zM585 464q8 62 -12 107t-61 69.5t-98 24.5q-56 0 -103.5 -24.5t-78.5 -69.5t-39 -107l-57 -470h-48l58 472q9 78 48 133t98 84t128 29v0q69 0 120.5 -29t77.5 -84t16 -133l-58 -472h-48z" />
    <glyph glyph-name="uni20BD" unicode="&#x20bd;" horiz-adv-x="548" 
d="M14 184h261l-4 -44h-262zM33 344h164l-4 -44h-164zM336 710q36 0 71.5 -10.5t64.5 -32t46 -55t17 -80.5q0 -42 -14.5 -83t-45.5 -75.5t-79 -55t-115 -20.5h-108l-36 -298h-50l87 710h162zM288 345q57 0 94.5 19t60 47.5t32 59.5t9.5 55q0 38 -18.5 69t-53.5 49t-84 18
h-110l-39 -317h109z" />
    <glyph glyph-name="asciicircum" unicode="^" horiz-adv-x="472" 
d="M379 482q-10 19 -22.5 40.5t-25 43.5t-23.5 41q-15 -19 -33 -41t-36 -43.5t-33 -40.5h-34q35 45 71 90.5t72 90.5v0q25 -45 49 -90.5t49 -90.5h-34z" />
    <glyph glyph-name="grave" unicode="`" horiz-adv-x="201" 
d="M106 615l70 -133h-34l-89 133h53z" />
    <glyph glyph-name="dieresis" unicode="&#xa8;" horiz-adv-x="372" 
d="M118 514q1 14 12 23.5t24 9.5q13 -1 22.5 -11t8.5 -24q-1 -15 -12 -24.5t-24 -8.5q-13 0 -22.5 10.5t-8.5 24.5v0zM292 514q1 14 12 23.5t24 9.5q13 -1 22.5 -11t8.5 -24q-1 -15 -12 -24.5t-24 -8.5q-13 0 -22.5 10t-8.5 25v0z" />
    <glyph glyph-name="macron" unicode="&#xaf;" horiz-adv-x="401" 
d="M149 519h231l-3 -30h-232z" />
    <glyph glyph-name="acute" unicode="&#xb4;" horiz-adv-x="243" 
d="M295 615l-117 -133h-34l99 133h52z" />
    <glyph glyph-name="cedilla" unicode="&#xb8;" horiz-adv-x="454" 
d="M124 -165q10 -12 27.5 -20.5t42.5 -10.5q35 -1 59.5 11.5t28.5 38.5q3 24 -13 41.5t-56 19.5q-16 1 -37 -2t-34 -8l-12 27l79 72l36 -6l-78 -80l-16 13q12 5 33.5 9t41.5 2q50 -2 76.5 -25.5t21.5 -64.5q-3 -28 -21.5 -46t-46.5 -25.5t-61 -5.5q-31 2 -54 12.5t-36 24.5z
" />
    <glyph glyph-name="breve" unicode="&#x2d8;" horiz-adv-x="489" 
d="M303 493q-16 0 -37.5 7.5t-41.5 25.5t-31.5 50.5t-8.5 83.5h34q-3 -53 13 -81.5t38.5 -39t36.5 -11.5q30 0 52 17.5t37 48t21 66.5h35q-8 -51 -28.5 -89t-50.5 -58.5t-69 -19.5z" />
    <glyph glyph-name="dotaccent" unicode="&#x2d9;" horiz-adv-x="207" 
d="M124 530q1 14 13.5 24t26.5 9q13 0 22.5 -9.5t7.5 -23.5q-1 -15 -13 -24.5t-26 -9.5q-13 1 -22.5 11t-8.5 23z" />
    </font>
</defs>
</svg>
