<?xml version="1.0" standalone="no"?>
<!DOCTYPE svg PUBLIC "-//W3C//DTD SVG 1.1//EN" "http://www.w3.org/Graphics/SVG/1.1/DTD/svg11.dtd" >
<svg xmlns="http://www.w3.org/2000/svg" xmlns:xlink="http://www.w3.org/1999/xlink" version="1.1">
<metadata>
Created by FontForge 20201107 at Fri Mar 10 18:08:55 2023
 By Unknown
</metadata>
<defs>
<font id="icomoon" horiz-adv-x="1024" >
  <font-face 
    font-family="icomoon"
    font-weight="400"
    font-stretch="normal"
    units-per-em="1024"
    panose-1="0 0 0 0 0 0 0 0 0 0"
    ascent="960"
    descent="-64"
    bbox="-0.0879121 -85 1024 939.054"
    underline-thickness="0"
    underline-position="0"
    unicode-range="U+0001-FFFD"
  />
<missing-glyph 
 />
    <glyph glyph-name=".notdef" unicode="&#xfffd;" 
 />
    <glyph glyph-name="uni0000" horiz-adv-x="0" 
d="M0 0v0v0v0z" />
    <glyph glyph-name="uni0001" horiz-adv-x="0" 
d="M0 0v0v0v0z" />
    <glyph glyph-name="space" unicode=" " horiz-adv-x="512" 
d="M0 0v0v0v0z" />
    <glyph glyph-name="uniE900" unicode="&#xe900;" 
d="M585 183l213 214q13 12 13 29.5t-13 30.5l-213 213q-13 13 -30.5 13t-29.5 -13q-13 -12 -13 -30t13 -30l183 -183l-183 -184q-13 -12 -13 -29.5t13 -30.5q12 -12 29.5 -12t30.5 12v0zM286 183l213 214q13 12 13 29.5t-13 30.5l-213 213q-12 13 -30 13t-30 -13
q-13 -12 -13 -30t13 -30l183 -183l-183 -184q-13 -12 -13 -29.5t13 -30.5q12 -12 30 -12t30 12v0z" />
    <glyph glyph-name="uniE901" unicode="&#xe901;" 
d="M469 811h-298q-27 0 -50.5 -10t-40.5 -28q-17 -17 -27 -40.5t-10 -49.5v-598q0 -26 10 -49.5t27 -40.5q18 -17 41 -27.5t50 -10.5h597q26 0 49.5 10t40.5 28q18 17 28 40.5t10 49.5v299q0 18 -12.5 30.5t-30.5 12.5q-17 0 -29.5 -12.5t-12.5 -30.5v-299q0 -8 -3.5 -16
t-9.5 -14t-13.5 -9t-16.5 -3h-597q-9 0 -17 3t-13 9q-6 6 -9.5 14t-3.5 16v598q0 8 3.5 16t9.5 14q5 6 13 9t17 3h298q18 0 30.5 12.5t12.5 30.5t-12.5 30.5t-30.5 12.5v0zM759 862l-405 -405q-4 -4 -7 -9t-4 -11l-43 -171q-1 -4 -1 -9.5t1 -10.5q4 -18 19.5 -27t32.5 -4
l170 42q6 2 11 4.5t9 6.5l406 406q19 19 29 43.5t10 50.5q0 25 -10 50t-29 44q-20 20 -44.5 29.5t-50.5 9.5q-25 0 -49.5 -9.5t-44.5 -29.5v0zM819 802q8 7 16.5 10.5t17.5 3.5q10 0 18.5 -3.5t15.5 -10.5t10.5 -16t3.5 -18t-3.5 -18t-10.5 -16l-397 -397l-90 -22l23 90z
" />
    <glyph glyph-name="uniE902" unicode="&#xe902;" 
d="M672 544v96l-192 224h-352q-26 0 -45 -19t-19 -45v-736q0 -26 18.5 -45t45.5 -19h480q27 0 45.5 18.5t18.5 45.5v64h256q40 0 68 28t28 68v224q0 40 -28 68t-68 28h-256v0zM640 128v-64q0 -13 -9.5 -22.5t-22.5 -9.5h-480q-13 0 -22.5 9.5t-9.5 22.5v736q0 13 9.5 22.5
t22.5 9.5h320v-160q0 -27 18.5 -45.5t45.5 -18.5h128v-64h-256q-40 0 -68 -28t-28 -68v-224q0 -40 28 -68t68 -28h256v0zM480 816l150 -176h-118q-13 0 -22.5 9.5t-9.5 22.5v144v0zM384 512h544q26 0 45 -18.5t19 -45.5v-224q0 -26 -18.5 -45t-45.5 -19h-544q-26 0 -45 18.5
t-19 45.5v224q0 26 18.5 45t45.5 19zM448 416v-192h32v192h64v32h-160v-32h64zM640 336l-64 112h32l48 -84l48 84h32l-64 -112l64 -112h-32l-48 84l-48 -84h-32zM832 416v-192h32v192h64v32h-160v-32h64z" />
    <glyph glyph-name="uniE903" unicode="&#xe903;" 
d="M171 725h298q27 0 50 -10t41 -27q17 -18 27 -41t10 -50v-409l-140 141q-13 12 -30.5 12t-29.5 -12q-13 -13 -13 -30.5t13 -29.5l213 -214q3 -3 6.5 -5t7.5 -4q7 -3 16 -3t16 3q4 1 7.5 3.5t6.5 5.5l213 214q13 12 13 29.5t-13 30.5q-12 12 -29.5 12t-30.5 -12l-140 -141
v409q0 44 -17 83t-46 68t-68 46t-83 17h-298q-18 0 -30.5 -12.5t-12.5 -30.5t12.5 -30.5t30.5 -12.5v0z" />
    <glyph glyph-name="uniE904" unicode="&#xe904;" 
d="M981 128v469q0 27 -10 50.5t-27 40.5q-18 17 -41 27t-50 10h-361l-73 109q-5 9 -14.5 14t-20.5 5h-213q-27 0 -50.5 -10t-40.5 -27q-17 -18 -27 -41t-10 -50v-597q0 -26 10 -49.5t27 -40.5q18 -18 41 -28t50 -10h682q27 0 50.5 10t40.5 28q17 17 27 40.5t10 49.5v0z
M896 128q0 -9 -3.5 -16.5t-9.5 -13.5q-5 -6 -13 -9.5t-17 -3.5h-682q-9 0 -17 3.5t-13 9.5q-6 6 -9.5 13.5t-3.5 16.5v597q0 9 3.5 17t9.5 13q5 6 13 9.5t17 3.5h190l73 -109q6 -9 15.5 -14t19.5 -5h384q9 0 17 -3.5t13 -9.5q6 -5 9.5 -13t3.5 -17v-469z" />
    <glyph glyph-name="uniE905" unicode="&#xe905;" 
d="M909 336q18 19 27.5 42.5t9.5 48.5q0 24 -9.5 47.5t-27.5 42.5l-367 367q-6 5 -13.5 8.5t-16.5 3.5h-427q-17 0 -29.5 -12.5t-12.5 -30.5v-426q0 -9 3 -16.5t9 -14.5l367 -366q19 -18 42.5 -27.5t47.5 -9.5q25 0 48.5 9.5t42.5 27.5zM848 397l-306 -306q-6 -7 -14 -10
t-16 -3t-16 3t-14 10l-354 353v367h366l354 -354q6 -7 9.5 -14.5t3.5 -15.5q0 -9 -3.5 -16.5t-9.5 -13.5v0zM299 597q17 0 29.5 12.5t12.5 30.5t-12.5 30.5t-29.5 12.5q-18 0 -30.5 -12.5t-12.5 -30.5t12.5 -30.5t30.5 -12.5v0z" />
    <glyph glyph-name="uniE906" unicode="&#xe906;" 
d="M896 768v-555h-256q-23 0 -45 -6t-40 -16v449q0 27 10 50t27 40q18 18 41 28t50 10h213zM469 191q-18 10 -40 16t-45 6h-256v555h213q27 0 50 -10t41 -28q17 -17 27 -40t10 -50v-449zM939 853h-256q-44 0 -83 -16.5t-68 -45.5q-6 -5 -10.5 -11t-9.5 -12q-5 6 -9.5 12
t-10.5 11q-29 29 -68 45.5t-83 16.5h-256q-17 0 -29.5 -12.5t-12.5 -29.5v-640q0 -18 12.5 -30.5t29.5 -12.5h299q18 0 33.5 -6.5t26.5 -18.5q12 -12 18.5 -27.5t6.5 -32.5q0 -18 12.5 -30.5t30.5 -12.5t30.5 12.5t12.5 30.5q0 17 6.5 32.5t18.5 27.5q11 12 26.5 18.5
t33.5 6.5h299q17 0 29.5 12.5t12.5 30.5v640q0 17 -12.5 29.5t-29.5 12.5v0z" />
    <glyph glyph-name="uniE907" unicode="&#xe907;" 
d="M277 896q-31 0 -58 -12t-47 -32t-32 -47t-12 -58v-640q0 -31 12 -58.5t32 -47.5t47 -32t58 -12h576q18 0 30.5 12.5t12.5 30.5v853q0 18 -12.5 30.5t-30.5 12.5h-576zM811 171v-128h-534q-13 0 -24.5 5t-20.5 13q-9 9 -14 20.5t-5 25.5q0 13 5 24.5t14 20.5t20.5 14
t24.5 5h534zM277 811h534v-555h-534q-17 0 -33 -3.5t-31 -10.5v505q0 13 5 24.5t14 20.5t20.5 14t24.5 5v0z" />
    <glyph glyph-name="uniE908" unicode="&#xe908;" 
d="M482 695l226 -226h-495q-17 0 -29.5 -12.5t-12.5 -29.5q0 -18 12.5 -30.5t29.5 -12.5h495l-226 -226q-13 -12 -13 -30t13 -30q12 -13 30 -13t30 13l299 298q3 3 5 6.5t4 7.5q3 8 3 16.5t-3 16.5q-1 4 -3.5 7.5t-5.5 6.5l-299 298q-12 13 -30 13t-30 -13
q-13 -12 -13 -29.5t13 -30.5v0z" />
    <glyph glyph-name="uniE909" unicode="&#xe909;" 
d="M896 43v85q0 44 -17 83t-45 68q-29 29 -68 45.5t-83 16.5h-342q-44 0 -83 -16.5t-68 -45.5q-28 -29 -45 -68t-17 -83v-85q0 -18 12.5 -30.5t30.5 -12.5q17 0 29.5 12.5t12.5 30.5v85q0 27 10 50t28 40q17 18 40.5 28t49.5 10h342q26 0 49.5 -10t40.5 -28q18 -17 28 -40
t10 -50v-85q0 -18 12.5 -30.5t29.5 -12.5q18 0 30.5 12.5t12.5 30.5v0zM725 640q0 44 -16.5 83t-45.5 68t-68 45.5t-83 16.5t-83 -16.5t-68 -45.5t-45.5 -68t-16.5 -83t16.5 -83t45.5 -68t68 -45.5t83 -16.5t83 16.5t68 45.5t45.5 68t16.5 83v0zM640 640q0 -27 -10 -50
t-28 -40q-17 -18 -40 -28t-50 -10t-50 10t-40 28q-18 17 -28 40t-10 50t10 50t28 40q17 18 40 28t50 10t50 -10t40 -28q18 -17 28 -40t10 -50z" />
    <glyph glyph-name="uniE90A" unicode="&#xe90a;" 
d="M784 52q5 -4 12 -6.5t15 -2.5q17 0 29.5 12.5t12.5 29.5v683q0 7 -2 14t-7 13q-11 13 -28.5 15t-31.5 -9l-427 -341l-3 -3t-3 -4q-11 -13 -9 -31t15 -29zM768 174l-316 253l316 252v-505zM256 128v597q0 18 -12.5 30.5t-30.5 12.5q-17 0 -29.5 -12.5t-12.5 -30.5v-597
q0 -18 12.5 -30.5t29.5 -12.5q18 0 30.5 12.5t12.5 30.5z" />
    <glyph glyph-name="uniE90B" unicode="&#xe90b;" 
d="M240 801q-5 5 -12 7.5t-15 2.5q-17 0 -29.5 -12.5t-12.5 -30.5v-683q0 -7 2 -13.5t7 -12.5q11 -14 28.5 -16t31.5 9l427 341q1 2 3 3.5t3 3.5q11 14 9 31.5t-15 28.5zM256 679l316 -252l-316 -253v505zM768 725v-597q0 -18 12.5 -30.5t30.5 -12.5q17 0 29.5 12.5
t12.5 30.5v597q0 18 -12.5 30.5t-29.5 12.5q-18 0 -30.5 -12.5t-12.5 -30.5z" />
    <glyph glyph-name="uniE90C" unicode="&#xe90c;" 
d="M236 847q-4 3 -10 4.5t-13 1.5q-17 0 -29.5 -12.5t-12.5 -29.5v-768q0 -6 1.5 -12t4.5 -11q10 -15 27.5 -19t31.5 6l598 384q3 2 6.5 5.5t6.5 7.5q9 14 5.5 31.5t-18.5 27.5zM256 733l476 -306l-476 -306v612z" />
    <glyph glyph-name="uniE90D" unicode="&#xe90d;" 
d="M684 262l-2 -2l-2 -2l-2 -2l-2 -2q-40 -39 -93 -61t-114 -22q-62 0 -116 23.5t-95 63.5q-40 41 -63.5 95t-23.5 116t23.5 116.5t63.5 95.5q41 40 95 63.5t116 23.5t116.5 -23.5t95.5 -63.5q40 -41 63.5 -95.5t23.5 -116.5q0 -60 -22.5 -113.5t-61.5 -93.5v0zM926 73
l-157 157q40 49 62 110t22 129q0 80 -30 150t-82 122t-122 82t-150 30q-79 0 -149 -30t-122 -82t-82.5 -122t-30.5 -150q0 -79 30.5 -149t82.5 -122t122 -82.5t149 -30.5q68 0 129.5 22.5t110.5 61.5l157 -156q12 -13 30 -13t30 13q13 12 13 29.5t-13 30.5v0z" />
    <glyph glyph-name="uniE90E" unicode="&#xe90e;" 
d="M683 427q0 35 -13.5 66t-36.5 54t-54.5 36.5t-66.5 13.5t-66.5 -13.5t-54.5 -36.5t-36.5 -54t-13.5 -66q0 -36 13.5 -67t36.5 -54t54.5 -36.5t66.5 -13.5t66.5 13.5t54.5 36.5t36.5 54t13.5 67zM597 427q0 -18 -6.5 -33.5t-18.5 -27.5q-11 -11 -26.5 -18t-33.5 -7
t-33.5 7t-26.5 18q-12 12 -18.5 27.5t-6.5 33.5q0 17 6.5 32.5t18.5 27.5q11 12 26.5 18.5t33.5 6.5t33.5 -6.5t26.5 -18.5q12 -12 18.5 -27.5t6.5 -32.5zM867 281q1 4 3 6.5t5 4.5q4 3 8 5t9 2h4q26 0 49.5 10t40.5 27q18 18 28 41t10 50q0 26 -10 49.5t-28 40.5
q-17 17 -40.5 27.5t-49.5 10.5h-7q-3 0 -6.5 0.5t-6.5 2.5q-4 2 -7 5.5t-5 7.5q0 1 -0.5 2t-0.5 2q0 2 -0.5 3.5t-1.5 3.5q1 11 3 16t5 8l2 2q19 19 28.5 42.5t9.5 48.5q0 24 -9.5 47.5t-28.5 42.5t-42.5 28.5t-48.5 9.5q-24 0 -47.5 -9.5t-42.5 -28.5l-2 -2l-6 -4t-6 -3
q-5 -1 -9.5 -1t-9.5 3q-3 1 -6 3t-5 5q-3 3 -4.5 7.5t-1.5 9.5v4q0 26 -10 49.5t-28 40.5q-17 17 -40.5 27.5t-49.5 10.5t-49.5 -10t-40.5 -28q-18 -17 -28 -40.5t-10 -49.5v-7q0 -4 -1 -7l-2 -6q-2 -4 -5.5 -7.5t-8.5 -5.5h-1h-2q-2 -1 -4 -1.5t-4 -0.5q-10 1 -15 2.5
t-8 4.5l-3 3q-18 19 -42 28t-48 9q-25 0 -48.5 -9t-42.5 -28q-18 -19 -27.5 -42.5t-9.5 -48.5q0 -24 9.5 -48t27.5 -42l2 -2q3 -3 5 -6t3 -7t0.5 -9t-2.5 -9v-1.5t-1 -0.5q-1 -4 -3 -7t-5 -5q-3 -3 -7.5 -5t-8.5 -2h-4q-26 0 -49.5 -10t-40.5 -27q-18 -18 -28 -41t-10 -50
q0 -26 10 -49.5t28 -40.5q17 -18 40.5 -28t49.5 -10h7q3 0 6.5 -0.5t6.5 -2.5q4 -2 7.5 -5.5t5.5 -8.5q0 -1 0.5 -3t1.5 -4q-1 -11 -3 -15.5t-5 -7.5l-2 -3q-19 -19 -28.5 -42.5t-9.5 -47.5q0 -25 9.5 -48.5t28.5 -42.5t42.5 -28t48.5 -9q24 0 47.5 9t42.5 28l2 2q3 3 6 4.5
t6 2.5q5 2 9.5 1.5t9.5 -2.5l0.5 -0.5t1.5 -0.5q4 -1 6.5 -3t5.5 -5q3 -4 4.5 -8t1.5 -8v-4q0 -27 10.5 -50.5t27.5 -40.5t40.5 -27t49.5 -10q27 0 50.5 10t40.5 27q17 18 27 41t10 50v6q0 4 1 7.5t3 6.5q2 4 5.5 7t7.5 5q2 1 4 1.5t4 0.5q10 0 15 -2t8 -5l3 -3
q18 -18 42 -27.5t48 -9.5q25 0 48.5 9.5t42.5 28.5q18 18 27.5 42t9.5 48q0 25 -9.5 48.5t-28.5 42.5l-2 2q-2 2 -4 5.5t-3 6.5q-1 4 -0.5 9t2.5 9v0zM785 542q0 6 -1 9.5t-2 6.5v-3v-3v-3q1 -2 1.5 -3.5t1.5 -3.5v-3.5v-0.5q8 -19 21.5 -33t30.5 -23q12 -6 25 -9.5t26 -3.5
h8q9 0 16.5 -3t13.5 -9t9.5 -13.5t3.5 -16.5t-3.5 -17t-9.5 -13q-6 -6 -13.5 -9.5t-16.5 -3.5h-4q-20 0 -38.5 -7t-32.5 -19q-11 -8 -19 -19t-13 -23q-9 -19 -10 -38.5t4 -37.5q4 -14 11 -26t17 -23l3 -3q6 -6 9.5 -14t3.5 -16t-3.5 -16t-9.5 -14t-14 -9.5t-16 -3.5t-16 3.5
t-14 9.5l-3 2q-15 15 -32.5 23t-36.5 10q-14 1 -28 -1.5t-28 -8.5q-18 -7 -32 -20.5t-23 -30.5q-6 -12 -9.5 -25t-3.5 -27v-7q0 -9 -3.5 -17t-8.5 -14q-6 -5 -14 -8.5t-17 -3.5q-8 0 -16 3.5t-14 9.5q-6 5 -9 13t-3 17v4q-1 21 -8 39t-20 33q-9 10 -20.5 18t-24.5 13
q-18 8 -37.5 9t-37.5 -4q-13 -3 -25.5 -10t-22.5 -17l-3 -3q-7 -7 -14.5 -10t-16.5 -3q-8 0 -15.5 3t-14.5 9q-6 7 -9 14.5t-3 16.5q0 8 3 16t9 14l3 2q14 15 22 33t10 37q1 14 -1.5 28t-7.5 27q-8 19 -21.5 33t-30.5 23q-12 6 -25 9t-26 4h-8q-9 0 -16.5 3t-13.5 9
t-9.5 13.5t-3.5 16.5t3.5 17t9.5 13q6 6 13.5 9.5t16.5 3.5h4q21 0 39.5 7.5t32.5 19.5q11 9 19 20.5t13 25.5q8 18 9 37t-4 37q-4 14 -11 26.5t-17 22.5l-3 3q-6 6 -9.5 14t-3.5 16t3 16t10 14q6 7 14 10t16 3t16 -3t14 -9l3 -3q15 -15 32.5 -23t36.5 -9q12 -1 24 0.5
t23 5.5q3 0 6 1l6 2h-2h-2l-10.5 -1.5t-5.5 -2.5h3q1 0 2.5 0.5t2.5 0.5q2 0 4 1l4 2h3.5h0.5q18 8 32.5 21.5t22.5 29.5q7 12 10 25t3 27v8q0 8 3.5 16t9.5 14t13.5 9t16.5 3t16.5 -3t13.5 -9t9.5 -14t3.5 -16v-4q0 -21 6.5 -39t18.5 -33q9 -10 19.5 -18t23.5 -14
q18 -8 37.5 -9t38.5 4q13 4 25.5 11t22.5 17l3 3q7 6 14.5 9t15.5 3q9 0 16.5 -3t14.5 -9q6 -6 9 -14t3 -16q0 -9 -3 -16.5t-9 -13.5l-3 -3q-14 -15 -22 -33t-10 -37q-1 -12 0.5 -23.5t5.5 -23.5q0 -3 1 -5.5t2 -5.5v2v2v0z" />
    <glyph glyph-name="uniE90F" unicode="&#xe90f;" 
d="M102 588q-8 -6 -12.5 -14.5t-4.5 -18.5v-470q0 -26 10 -49.5t28 -40.5q17 -17 40.5 -27.5t49.5 -10.5h598q26 0 49.5 10t40.5 28q17 17 27.5 40.5t10.5 49.5v470q0 9 -4.5 18t-12.5 15l-384 299q-11 9 -25.5 9t-26.5 -9zM683 43v384q0 17 -12.5 29.5t-30.5 12.5h-256
q-18 0 -30.5 -12.5t-12.5 -29.5v-384h-128q-8 0 -16 3t-14 9t-9 14t-3 16v449l341 265l341 -265v-449q0 -8 -3 -16t-9 -14t-14 -9t-16 -3h-128zM427 43v341h170v-341h-170z" />
    <glyph glyph-name="uniE910" unicode="&#xe910;" 
d="M981 427q0 48 -9 94q-10 46 -27.5 88t-43.5 80q-25 38 -57 70q-32 31 -70 57q-37 25 -79 43t-88 27q-46 10 -95 10t-95 -10q-46 -9 -88 -27t-79 -43q-38 -26 -70 -57q-32 -32 -57 -70q-26 -38 -43.5 -80t-27.5 -88q-9 -46 -9 -94q0 -49 9 -95q10 -46 27.5 -88t43.5 -80
q25 -37 57 -69t70 -57q37 -26 79 -44t88 -27q46 -10 95 -10t95 10q46 9 88 27t79 44q38 25 70 57t57 69q26 38 43.5 80t27.5 88q9 46 9 95zM896 427q0 -80 -30 -150t-82 -122q-53 -52 -122.5 -82t-149.5 -30t-149.5 30t-122.5 82q-52 52 -82 122t-30 150q0 79 30 149t82 122
q53 52 122.5 82.5t149.5 30.5t149.5 -30.5t122.5 -82.5q52 -52 82 -122t30 -149v0zM469 597v-170q0 -18 12.5 -30.5t30.5 -12.5t30.5 12.5t12.5 30.5v170q0 18 -12.5 30.5t-30.5 12.5t-30.5 -12.5t-12.5 -30.5v0zM512 213q18 0 30.5 12.5t12.5 30.5t-12.5 30.5t-30.5 12.5
t-30.5 -12.5t-12.5 -30.5t12.5 -30.5t30.5 -12.5z" />
    <glyph glyph-name="uniE911" unicode="&#xe911;" 
d="M896 466v-39q0 -80 -30 -150t-83 -122q-52 -52 -122 -82t-149 -30q-80 0 -150 30t-122 83q-52 52 -82 122t-30 149q0 80 30 149.5t83 122.5q52 52 122 82t149 30q43 0 82.5 -9t73.5 -24q16 -8 32.5 -1.5t23.5 22.5q8 16 1.5 32.5t-22.5 23.5q-42 20 -90.5 30.5
t-100.5 10.5q-48 0 -94 -9q-46 -10 -88.5 -27.5t-79.5 -43.5q-38 -25 -70 -57t-57 -69q-25 -38 -43 -80t-28 -88q-9 -46 -9 -95q0 -48 9 -94q10 -46 27.5 -88.5t43.5 -79.5q25 -38 57 -70t69 -57q38 -26 80 -43.5t88 -27.5q46 -9 95 -9q48 0 94 9q46 10 88.5 27.5t79.5 43.5
q38 25 70 57t57 69q25 38 43 80t28 88q9 46 9 95v39q0 18 -12.5 30.5t-29.5 12.5q-18 0 -30.5 -12.5t-12.5 -30.5v0zM909 798l-397 -397l-98 98q-12 13 -30 13t-30 -13q-13 -12 -13 -30t13 -30l128 -128q12 -13 30 -13t30 13l427 427q12 12 12 30t-12 30q-13 13 -30.5 13
t-29.5 -13v0z" />
    <glyph glyph-name="uniE912" unicode="&#xe912;" 
d="M981 427q0 48 -9 94q-10 46 -27.5 88t-43.5 80q-25 38 -57 70q-32 31 -70 57q-37 25 -79 43t-88 27q-46 10 -95 10t-95 -10q-46 -9 -88 -27t-79 -43q-38 -26 -70 -57q-32 -32 -57 -70q-26 -38 -43.5 -80t-27.5 -88q-9 -46 -9 -94q0 -49 9 -95q10 -46 27.5 -88t43.5 -80
q25 -37 57 -69t70 -57q37 -26 79 -44t88 -27q46 -10 95 -10t95 10q46 9 88 27t79 44q38 25 70 57t57 69q26 38 43.5 80t27.5 88q9 46 9 95zM896 427q0 -80 -30 -150t-82 -122q-53 -52 -122.5 -82t-149.5 -30t-149.5 30t-122.5 82q-52 52 -82 122t-30 150q0 79 30 149t82 122
q53 52 122.5 82.5t149.5 30.5t149.5 -30.5t122.5 -82.5q52 -52 82 -122t30 -149v0zM354 525l98 -98l-98 -98q-13 -13 -13 -30.5t13 -29.5q12 -13 30 -13t30 13l98 97l98 -97q12 -13 30 -13t30 13q13 12 13 29.5t-13 30.5l-98 98l98 98q13 12 13 29.5t-13 30.5q-12 12 -30 12
t-30 -12l-98 -98l-98 98q-12 12 -30 12t-30 -12q-13 -13 -13 -30.5t13 -29.5z" />
    <glyph glyph-name="uniE913" unicode="&#xe913;" 
d="M725 811v-86h-85q-18 0 -33.5 -6.5t-26.5 -18.5q-12 -11 -18.5 -26.5t-6.5 -33.5v-128q0 -18 12.5 -30.5t29.5 -12.5h116l-21 -85h-95q-17 0 -29.5 -12.5t-12.5 -30.5v-298h-86v298q0 18 -12.5 30.5t-29.5 12.5h-86v85h86q17 0 29.5 12.5t12.5 30.5v128q0 35 13.5 66
t36.5 55q24 23 55 36.5t66 13.5h85zM768 896h-128q-53 0 -99.5 -20t-81.5 -55t-55 -81.5t-20 -99.5v-85h-85q-18 0 -30.5 -12.5t-12.5 -30.5v-171q0 -17 12.5 -29.5t30.5 -12.5h85v-299q0 -18 12.5 -30.5t30.5 -12.5h170q18 0 30.5 12.5t12.5 30.5v299h85q15 0 26.5 9
t15.5 23l42 171q5 17 -4.5 32t-26.5 19q-2 1 -5 1.5t-5 0.5h-128v85h128q18 0 30.5 12.5t12.5 30.5v170q0 18 -12.5 30.5t-30.5 12.5v0z" />
    <glyph glyph-name="uniE914" unicode="&#xe914;" 
d="M299 896q-53 0 -100 -20t-81 -55q-35 -35 -55 -81.5t-20 -99.5v-427q0 -53 20 -99.5t55 -81.5q34 -34 81 -54.5t100 -20.5h426q53 0 100 20.5t81 54.5q35 35 55 81.5t20 99.5v427q0 53 -20 99.5t-55 81.5q-34 35 -81 55t-100 20h-426zM299 811h426q36 0 67 -13.5
t54 -36.5q23 -24 36.5 -55t13.5 -66v-427q0 -35 -13.5 -66t-36.5 -54q-23 -24 -54 -37t-67 -13h-426q-36 0 -67 13t-54 37q-23 23 -36.5 54t-13.5 66v427q0 35 13.5 66t36.5 55q23 23 54 36.5t67 13.5v0zM725 460q-5 31 -18 59t-33 50q-24 28 -57 46.5t-71 23.5q-15 3 -31 3
t-32 -2q-44 -7 -80 -29.5t-61 -54.5q-24 -33 -35 -74t-4 -85q6 -43 28.5 -79t55.5 -61q33 -24 73.5 -35t84.5 -4q44 6 80 28.5t60 54.5q24 33 35 74t5 85v0zM640 447q4 -26 -2.5 -50.5t-20.5 -44.5q-15 -20 -36.5 -33t-47.5 -17q-27 -4 -51.5 2.5t-43.5 21.5
q-20 14 -33.5 36t-17.5 48t2.5 50.5t21.5 44.5t36.5 33t47.5 17q10 2 19.5 1.5t17.5 -1.5q24 -3 43.5 -14t34.5 -28q12 -14 20 -30.5t11 -35.5h-1zM747 619q17 0 29.5 12.5t12.5 29.5q0 18 -12.5 30.5t-29.5 12.5q-18 0 -30.5 -12.5t-12.5 -30.5q0 -17 12.5 -29.5
t30.5 -12.5z" />
    <glyph glyph-name="uniE915" unicode="&#xe915;" 
d="M226 653l226 -226l-226 -226q-13 -13 -13 -30.5t13 -29.5q12 -13 30 -13t30 13l226 225l226 -225q12 -13 30 -13t30 13q13 12 13 29.5t-13 30.5l-226 226l226 226q13 12 13 29.5t-13 30.5q-12 12 -30 12t-30 -12l-226 -226l-226 226q-12 12 -30 12t-30 -12
q-13 -13 -13 -30.5t13 -29.5v0z" />
    <glyph glyph-name="uniE916" unicode="&#xe916;" 
d="M1023 360l-212 221v251q0 9 -6.5 15t-15.5 6h-128q-8 0 -14.5 -6t-6.5 -15v-74l-66 69q-13 13 -28.5 19.5t-33.5 6.5v0v0q-17 0 -33 -6.5t-28 -19.5l-450 -467l62 -59l108 112v-328q0 -35 25 -60t60 -25h149q9 0 15.5 6.5t6.5 14.5v278h170v-278q0 -8 6.5 -14.5
t15.5 -6.5h149q35 0 60 25t25 60v328l108 -112l62 59v0zM683 811h85v-186l-85 89v97v0zM768 85h-128v235q0 9 -6.5 15t-14.5 6h-214q-8 0 -14.5 -6t-6.5 -15v-235h-128v417l256 266l256 -266v-417v0z" />
    <glyph glyph-name="uniE917" unicode="&#xe917;" 
d="M226 525l256 -256q12 -13 30 -13t30 13l256 256q13 12 13 29.5t-13 30.5q-12 12 -30 12t-30 -12l-226 -226l-226 226q-12 12 -30 12t-30 -12q-13 -13 -13 -30.5t13 -29.5v0z" />
    <glyph glyph-name="uniE918" unicode="&#xe918;" 
d="M939 512q0 44 -9 86t-25 80t-39 73q-23 34 -52 63t-63 52q-35 23 -73 39t-80 25t-86 9t-86 -9t-80 -25t-73 -39q-34 -23 -63 -52t-52 -63q-23 -35 -39 -73t-25 -80t-9 -86q0 -18 2 -36t5 -36q9 -49 27.5 -95.5t43.5 -88.5q44 -73 100 -135q57 -61 107 -105.5t84 -68.5
l34 -25q11 -7 24 -7t24 7l34 25q34 24 84 68.5t107 105.5q56 62 99 135q26 42 44.5 88.5t27.5 95.5q3 18 5 36t2 36v0zM853 512q0 -14 -1 -28.5t-4 -28.5q-7 -40 -23 -79t-38 -76q-30 -52 -69 -97q-38 -45 -76 -82.5t-72 -64.5q-33 -28 -55 -44q-22 15 -57 42
q-34 27 -73 64.5t-78 83.5t-70 98q-22 37 -38 76t-23 79q-3 14 -4 28.5t-1 28.5q0 71 26.5 133t73.5 108q46 47 108 73.5t133 26.5t133 -26.5t108 -73.5q47 -46 73.5 -108t26.5 -133v0zM683 512q0 35 -13.5 66.5t-36.5 54.5t-54.5 36.5t-66.5 13.5t-66.5 -13.5t-54.5 -36.5
t-36.5 -54.5t-13.5 -66.5t13.5 -66.5t36.5 -54.5t54.5 -36.5t66.5 -13.5t66.5 13.5t54.5 36.5t36.5 54.5t13.5 66.5zM597 512q0 -18 -6.5 -33.5t-18.5 -26.5q-11 -12 -26.5 -18.5t-33.5 -6.5t-33.5 6.5t-26.5 18.5q-12 11 -18.5 26.5t-6.5 33.5t6.5 33.5t18.5 26.5
q11 12 26.5 18.5t33.5 6.5t33.5 -6.5t26.5 -18.5q12 -11 18.5 -26.5t6.5 -33.5z" />
    <glyph glyph-name="uniE919" unicode="&#xe919;" 
d="M981 217q1 23 -6.5 44t-21.5 39q-15 18 -36 30t-47 16q-25 3 -53 10t-57 17q-14 5 -28.5 7t-28.5 1q-21 -2 -41 -11.5t-37 -25.5l-31 -30q-56 35 -106 84.5t-89 110.5l31 31q10 11 17.5 23.5t12.5 26.5q7 20 7 42t-9 43q-9 25 -16 53t-11 58q-3 23 -14 42.5t-27 34.5
q-17 16 -39.5 24.5t-47.5 8.5h-127h-6t-6 -1q-26 -2 -48.5 -14t-38.5 -31t-23.5 -43t-5.5 -51q5 -49 16 -99q11 -49 28 -98.5t40 -96.5q24 -48 53 -94q24 -39 53 -76q29 -36 63 -70t72 -65q39 -31 81 -58q41 -27 86 -50q46 -23 94.5 -40.5t100.5 -29.5t107 -18q3 0 6 -0.5
t6 -0.5q26 0 49.5 10.5t40.5 27.5q18 18 27.5 41t9.5 50v128zM896 217v-128q0 -9 -3.5 -17t-8.5 -14q-6 -5 -14 -8.5t-16 -3.5q-51 5 -98 16q-48 11 -92.5 27t-84.5 36q-41 21 -78 45q-39 25 -74 53t-65.5 58.5t-56.5 63.5t-47 68q-27 42 -49 85q-21 44 -36.5 88.5
t-25.5 89.5q-10 44 -14 88q-1 9 1.5 17t8.5 14q5 7 12.5 11t16.5 4l131 1q9 0 16.5 -3t13.5 -8q5 -5 8.5 -11.5t4.5 -14.5q5 -35 13.5 -67.5t19.5 -61.5q2 -7 2 -14.5t-2 -13.5q-1 -5 -4 -9.5t-6 -7.5l-54 -54q-10 -10 -12 -24.5t5 -26.5q25 -45 56 -84q30 -40 64.5 -74
t73.5 -63q38 -29 78 -51q13 -7 27 -5t24 12l55 54q5 5 11.5 8t13.5 4q5 0 10 -0.5t10 -2.5q32 -12 65 -20t64 -12q8 -1 14.5 -5t11.5 -10t7.5 -13.5t2.5 -15.5v0z" />
    <glyph glyph-name="uniE91A" unicode="&#xe91a;" 
d="M128 601l360 -252q10 -8 23.5 -8t24.5 8l360 252v-430q0 -9 -3.5 -17t-9.5 -13q-6 -6 -13.5 -9.5t-16.5 -3.5h-682q-9 0 -17 3.5t-13 9.5q-6 6 -9.5 13.5t-3.5 16.5v430zM43 683v-0.5v-0.5v-511q0 -27 10 -50t27 -41q17 -17 40.5 -27t50.5 -10h682q27 0 50 10t41 27
q17 17 27 40.5t10 50.5v511v0.5v0.5q0 27 -10 50t-27 40q-18 17 -41 27.5t-50 10.5h-682q-27 0 -50 -10.5t-41 -27.5q-17 -17 -27 -40t-10 -50v0zM891 702l-379 -266l-379 266q1 3 3 5.5t5 5.5q5 6 13 9t17 3h682q9 0 17 -3t13 -9q3 -3 5 -5.5t3 -5.5v0z" />
    <glyph glyph-name="uniEAA1" unicode="&#xeaa1;" 
d="M939 939h-854q-35 0 -60 -25t-25 -61v-853q0 -35 25 -60t60 -25h854q35 0 60 25t25 60v853q0 36 -25 61t-60 25v0zM939 0h-854v853v0v0h854v-853zM149 43h726q8 0 14.5 6t6.5 15v725q0 9 -6.5 15.5t-14.5 6.5h-726q-8 0 -14.5 -6.5t-6.5 -15.5v-725q0 -9 6.5 -15t14.5 -6
v0zM327 85l317 317q12 12 27.5 18.5t32.5 6.5t32.5 -6.5t27.5 -18.5l89 -89v-228h-526v0zM853 768v-395l-58 59q-19 18 -42 27.5t-49 9.5t-49 -9.5t-42 -27.5l-346 -347h-96v103l140 141q13 12 30.5 12t30.5 -12l39 -39l30 30l-39 39q-25 25 -60.5 25t-60.5 -25l-110 -110
v519h682v0zM363 469q44 0 75 31.5t31 75.5t-31 75.5t-75 31.5t-75.5 -31.5t-31.5 -75.5t31.5 -75.5t75.5 -31.5v0zM363 640q26 0 45 -19t19 -45q0 -27 -19 -45.5t-45 -18.5q-27 0 -45.5 18.5t-18.5 45.5q0 26 18.5 45t45.5 19z" />
    <glyph glyph-name="uniEB07" unicode="&#xeb07;" 
d="M853 939h-682q-36 0 -61 -25t-25 -61v-853q0 -35 25 -60t61 -25h682q36 0 61 25t25 60v853q0 36 -25 61t-61 25v0zM853 853v-170q-35 10 -75 18t-83.5 13.5t-89.5 8.5q-46 2 -93 2t-93 -2q-46 -3 -89.5 -8.5t-83.5 -13.5t-75 -18v170h682v0zM853 0h-682v638q34 11 74 19
t83.5 14t89.5 9t94 3t94 -3t89.5 -9t83.5 -14t74 -19v-638v0v0v0zM512 640q-60 0 -114.5 -22.5t-96.5 -64.5q-42 -43 -65 -97.5t-23 -114.5q0 -59 22.5 -114t65.5 -97q42 -42 96.5 -64.5t114.5 -22.5t114.5 22.5t96.5 64.5t65 97t23 114q0 60 -22.5 114.5t-65.5 97.5
q-42 42 -96.5 64.5t-114.5 22.5v0zM512 128q-44 0 -83 17t-68 46t-46 67q-16 39 -16 83t16 83q17 39 46 68t68 46t83 17t83 -17t68 -46t46 -68q16 -39 16 -83t-16 -83q-17 -38 -46 -67t-68 -46t-83 -17zM384 341h-43q0 -70 50 -120t121 -50v42q-53 0 -90.5 37.5t-37.5 90.5z
M768 811h43v-43h-43v43zM213 811h86v-43h-86v43zM341 811h43v-43h-43v43v0zM427 811h42v-43h-42v43v0z" />
    <glyph glyph-name="uniEBCE" unicode="&#xebce;" 
d="M939 725h-854q-35 0 -60 -25t-25 -60v-597q0 -36 25 -61t60 -25h854q35 0 60 25t25 61v597q0 35 -25 60t-60 25zM939 43h-854v597h854v-597zM149 85h555q9 0 15 6.5t6 15.5v469q0 9 -6 15t-15 6h-555q-8 0 -14.5 -6t-6.5 -15v-469q0 -9 6.5 -15.5t14.5 -6.5v0zM171 555
h512v-427h-512v427v0zM832 427q26 0 45 18.5t19 45.5q0 26 -19 45t-45 19t-45 -19t-19 -45q0 -27 19 -45.5t45 -18.5zM832 512q9 0 15 -6.5t6 -14.5q0 -9 -6 -15.5t-15 -6.5t-15 6.5t-6 15.5q0 8 6 14.5t15 6.5v0zM768 171h128v-43h-128v43zM768 256h128v-43h-128v43z
M733 867l-22 37l-219 -132l-176 133l-26 -35l188 -140q3 -2 6 -3.5t7 -1.5q2 0 5 1l6 2l231 139v0z" />
    <glyph glyph-name="uniEC50" unicode="&#xec50;" 
d="M977 535q-17 14 -42 27.5t-56 24.5q-56 20 -128.5 33t-153.5 18v45q0 6 -5.5 17t-27.5 18q-11 3 -24 5t-27 2h0.5h0.5q7 0 15 1.5t16 3.5q4 1 19.5 8t25.5 26q5 9 7 24.5t-6 36.5v0q-13 36 -6 57.5t8 23.5q4 5 4 11.5t-4 11.5q-3 5 -9 7.5t-12 1.5q-1 0 -22.5 -4.5
t-47.5 -17.5q-37 -18 -56 -43.5t-19 -58.5q0 -22 8.5 -40.5t24.5 -31.5q12 -8 25 -12.5t28 -4.5h-0.5h-0.5q-14 0 -27.5 -2t-24.5 -5q-22 -7 -27.5 -18t-5.5 -17v-45q-81 -5 -153.5 -18t-128.5 -33q-31 -12 -56 -25t-42 -28q-29 -23 -38 -46.5t-9 -39.5v-341q0 -32 32 -73
t135 -74q35 -11 75 -19q40 -9 84 -14.5t90 -8.5q47 -3 96 -3t96 3q46 3 90 8.5t84 14.5q40 8 75 19q103 33 135 74t32 73v341q0 16 -9 39.5t-38 47.5v0zM469 814q0 30 25 47.5t49 25.5q-2 -15 -1 -34.5t9 -41.5q3 -9 3.5 -15.5t-2.5 -11.5q-3 -7 -10 -10l-7 -3h-1h-1
q-13 -4 -25.5 -2.5t-21.5 8.5q-8 6 -12.5 15.5t-4.5 21.5v0zM469 676q5 2 16 4.5t27 2.5t27 -2.5t16 -4.5v-200q-5 -2 -16 -4.5t-27 -2.5t-27 2.5t-16 4.5v200v0zM174 507q49 17 114 29t139 16v-83q0 -6 5.5 -17t27.5 -18q11 -4 24.5 -5.5t27.5 -1.5t27.5 2t24.5 5
q22 7 27.5 18t5.5 17v83q74 -4 139 -16t114 -29q54 -20 71.5 -37t17.5 -22q0 -7 -23.5 -26.5t-84.5 -38.5q-32 -10 -69 -18q-36 -8 -76.5 -13t-84.5 -8t-89 -3t-89 3t-84.5 8t-76.5 13q-37 8 -69 18q-61 19 -84.5 38.5t-23.5 26.5q0 5 17.5 22t71.5 37v0zM939 255
q-14 -1 -28.5 -4t-27.5 -9q-12 -7 -21.5 -18t-17.5 -22q-8 -12 -16.5 -22t-18.5 -13q-6 -2 -17 1t-22 7q-15 6 -32 10.5t-34 1.5q-15 -3 -28 -12t-25 -19q-10 -9 -20 -16t-19 -8q-7 -1 -17.5 4.5t-20.5 11.5q-14 8 -29.5 15.5t-32.5 7.5t-32.5 -7.5t-28.5 -15.5
q-11 -6 -21 -11.5t-18 -4.5t-18 8t-20 16q-12 10 -25 19t-28 12q-17 2 -34 -2t-32 -10q-11 -4 -22 -7t-17 -1q-10 3 -18.5 13t-16.5 21q-8 12 -17 23t-22 17q-13 7 -28 9.5t-28 4.5v81q16 -9 36.5 -17.5t44.5 -16.5q35 -11 75 -20q40 -8 84 -14t90 -9q47 -3 96 -3t96 3
q46 3 90 9t84 14q40 9 75 20q25 8 45 16.5t37 17.5v-81v0zM831 42q-32 -10 -69 -18q-36 -8 -76.5 -13.5t-84.5 -7.5q-44 -3 -89 -3t-89 3q-44 2 -84.5 7.5t-76.5 13.5q-37 8 -69 18q-61 19 -84.5 38t-23.5 27v105q11 -1 20.5 -3t17.5 -6q5 -2 11 -10t12 -17q11 -14 24.5 -29
t32.5 -21q17 -5 33.5 -1t32.5 10q12 4 23.5 7.5t20.5 1.5q7 -1 15.5 -7.5t17.5 -13.5q13 -11 28.5 -21.5t34.5 -12.5h2h2q16 0 30.5 7t28.5 15q11 6 21.5 11.5t18.5 5.5t18.5 -5.5t21.5 -11.5q15 -8 30.5 -15.5t33.5 -6.5q18 2 33.5 12.5t28.5 21.5q9 7 18 13.5t16 8.5
q8 1 20 -2.5t23 -7.5q17 -5 33.5 -9.5t32.5 0.5q20 6 33.5 21t24.5 30l12 16t11 11q8 3 17.5 5t19.5 3v-105q0 -8 -23.5 -27t-84.5 -38v0z" />
    <glyph glyph-name="uniEC72" unicode="&#xec72;" 
d="M768 939h-512q-35 0 -60 -25t-25 -61v-810q0 -36 25 -61t60 -25v-42h85v42h342v-42h85v42q35 0 60 25t25 61v810q0 36 -25 61t-60 25v0zM256 853h213v-810h-213v810v0zM768 43h-256v810h256v-810v0v0zM384 555h43v-299h-43v299zM555 555h42v-299h-42v299z" />
    <glyph glyph-name="uniEC80" unicode="&#xec80;" 
d="M972 720q-22 23 -52.5 42t-68.5 35q-34 14 -73 24q-39 11 -82 18t-90 11q-46 3 -94 3t-94 -3q-47 -4 -90 -11t-82 -18q-39 -10 -73 -24q-38 -16 -68.5 -35t-52.5 -42q-26 -27 -39 -57.5t-13 -65.5v-64q0 -8 6.5 -14.5t14.5 -6.5h982q8 0 14.5 6.5t6.5 14.5v64
q0 35 -13 65.5t-39 57.5v0zM85 555v42q0 4 0.5 7.5t1.5 6.5q2 -6 7.5 -10t12.5 -4q8 0 14.5 6.5t6.5 15.5q0 8 -6.5 14.5t-14.5 6.5q-3 0 -6 -1t-5 -2q15 28 46.5 48t62.5 33q30 12 64.5 21t73.5 16q-1 -2 -1.5 -4t-0.5 -4q0 -9 6.5 -15.5t15.5 -6.5q8 0 14.5 6.5t6.5 15.5
q0 3 -1 6.5t-4 6.5q32 4 65.5 6t67.5 2q24 0 47.5 -1t46.5 -3q-4 -3 -6.5 -7.5t-2.5 -9.5q0 -9 6.5 -15.5t15.5 -6.5q8 0 14.5 6.5t6.5 15.5q0 4 -1.5 7.5t-4.5 6.5q53 -6 100 -17t85 -26q41 -17 80.5 -46.5t39.5 -74.5v-42h-854v0zM687 461q-12 -17 -22 -25.5t-25 -8.5
t-25 8.5t-22 25.5q-13 17 -31 34t-50 17t-50 -17t-31 -34q-12 -17 -22 -25.5t-25 -8.5t-25 8.5t-22 25.5q-13 17 -31 34t-50 17t-50 -17t-31 -34q-12 -17 -22 -25.5t-25 -8.5t-25 8.5t-22 25.5l-13 17l-34 -26l13 -17q13 -17 31 -34t50 -17t50 17t31 34q12 16 22 25t25 9
t25 -9t22 -25q13 -17 31 -34t50 -17t50 17t31 34q12 16 22 25t25 9t25 -9t22 -25q13 -17 31 -34t50 -17t50 17t31 34q12 16 22 25t25 9t25 -9t22 -25q13 -17 31 -34t50 -17t50 17t31 34l13 17l-34 26l-13 -17q-12 -17 -22 -25.5t-25 -8.5t-25 8.5t-22 25.5q-13 17 -31 34
t-50 17t-50 -17t-31 -34v0zM64 384q-23 0 -35.5 -10t-17.5 -20q-6 -10 -8.5 -23.5t-2.5 -31.5q0 -19 2.5 -32.5t8.5 -23.5q5 -10 17.5 -20t35.5 -10h-43q-8 0 -14.5 -6t-6.5 -15v-64q0 -53 37.5 -90.5t90.5 -37.5h768q53 0 90.5 37.5t37.5 90.5v64q0 9 -6.5 15t-14.5 6h-43
q23 0 35.5 10t17.5 20q6 10 8.5 23.5t2.5 32.5q0 18 -2.5 31.5t-8.5 23.5q-5 10 -17.5 20t-35.5 10h-896zM939 128q0 -18 -12.5 -30.5t-30.5 -12.5h-768q-18 0 -30.5 12.5t-12.5 30.5v43h854v-43v0zM960 341q7 0 14 -5t7 -37t-6.5 -37.5t-14.5 -5.5h-896q-7 0 -14 5.5
t-7 37.5t6.5 37t14.5 5h896zM256 661q0 -9 -6 -15t-15 -6t-15.5 6t-6.5 15t6.5 15.5t15.5 6.5t15 -6.5t6 -15.5zM384 619q0 -9 -6 -15.5t-15 -6.5t-15.5 6.5t-6.5 15.5t6.5 15t15.5 6t15 -6t6 -15zM512 661q0 -9 -6 -15t-15 -6t-15.5 6t-6.5 15t6.5 15.5t15.5 6.5t15 -6.5
t6 -15.5zM640 619q0 -9 -6 -15.5t-15 -6.5t-15.5 6.5t-6.5 15.5t6.5 15t15.5 6t15 -6t6 -15zM768 661q0 -9 -6 -15t-15 -6t-15.5 6t-6.5 15t6.5 15.5t15.5 6.5t15 -6.5t6 -15.5zM896 619q0 -9 -6 -15.5t-15 -6.5t-15.5 6.5t-6.5 15.5t6.5 15t15.5 6t15 -6t6 -15z" />
    <glyph glyph-name="uniEC92" unicode="&#xec92;" 
d="M1022 457l-171 384q-2 5 -7.5 8.5t-11.5 3.5h-128h-3.5t-3.5 -1l-123 -41l-380 42q-6 1 -11.5 -2t-8.5 -8t-3 -11.5t3 -11.5l79 -118l-37 -74q-3 -5 -2.5 -10.5t3.5 -10.5q3 -4 7.5 -7t10.5 -3q-3 -1 -5 -2.5t-5 -2.5q-29 -17 -67.5 -42t-72.5 -64q-42 -47 -63.5 -105
t-21.5 -125q0 -52 17 -95t50 -76q32 -31 71 -49q39 -17 73.5 -25t59.5 -10q25 -1 28 -1h213v0h1q10 0 89 11.5t142 73.5q33 33 50 76t17 95q0 67 -21.5 125t-63.5 105q-35 39 -73 64t-68 42q-2 1 -4.5 2.5t-4.5 2.5q6 0 10.5 3t7.5 7q3 5 3.5 10.5t-2.5 10.5l-6 12h30
q3 0 6 1t6 3l108 72l160 -279q3 -5 8 -7.5t10 -2.5h86q5 0 10 2.5t8 6.5q3 5 3 10.5t-2 10.5v0zM269 640l22 43h229l21 -43h-272v0zM235 806l308 -35l-23 -46h-231l-54 81v0zM513 85v0h-1v0h-213h-0.5h-0.5q-1 0 -63 8t-108 53q-21 21 -31.5 48t-10.5 62q0 21 2.5 40t7.5 36
q75 23 149.5 -5t150.5 -69q45 -23 91 -45t93 -33q19 -5 37.5 -7t35.5 -2q14 0 28 1.5t27 4.5q-5 -9 -10.5 -16.5t-12.5 -14.5q-45 -45 -107.5 -53t-63.5 -8v0zM725 256q0 -8 -0.5 -15.5t-1.5 -15.5q-39 -13 -77 -11q-38 1 -76 12.5t-77 30.5l-78 39q-44 24 -90 45.5
t-93 33.5q-32 7 -61 8.5t-57 -3.5q28 53 72.5 85t81.5 53q12 7 22.5 13.5t19.5 12.5q5 4 18 17.5t13 35.5h128q0 -22 13 -35.5t19 -17.5q8 -6 18.5 -12.5t23.5 -13.5q27 -16 59 -36q32 -21 59.5 -51.5t45.5 -73.5q18 -42 18 -101v0zM930 469l-165 288q-2 4 -5.5 6.5
t-7.5 3.5q-5 1 -9.5 0.5t-7.5 -3.5l-123 -81h-44l-11 21l34 68l116 39h111l152 -342h-40v0zM505 442l18 -11q56 -34 86.5 -72t30.5 -103h43q0 39 -10 71t-31 59q-20 27 -46 46.5t-51 34.5l-18 11l-22 -36v0z" />
    <glyph glyph-name="uniEC9B" unicode="&#xec9b;" 
d="M1023 775q-1 11 -8 19.5t-17 12.5q-37 16 -82 26q-44 10 -92.5 15t-99.5 5t-103 -6q-57 -7 -110 -21q-52 -13 -98 -32.5t-84 -44.5t-67 -56q-27 -26 -50 -64t-33.5 -87.5t-4.5 -110.5q6 -62 38 -137q-3 -15 -12.5 -44t-27.5 -60q-30 -52 -73.5 -78.5t-98.5 -26.5v-85
q80 0 143 38t104 111q13 22 21.5 42.5t14.5 38.5q15 -14 34 -25t42 -19q34 -11 60 -13t29 -2q60 0 111.5 22t97.5 67q38 38 70 87.5t64 103.5q21 36 44 73t49.5 73.5t57.5 71.5q30 35 67 66q9 8 12.5 18.5t1.5 21.5v0zM718 495q-34 -57 -64 -102q-29 -44 -60 -74.5
t-66 -46.5t-80 -16q-1 0 -57 10t-72 63q25 53 57.5 93.5t60.5 66.5q44 42 93 70.5t93 38.5l21 5l-9 41l-21 -4q-50 -12 -104 -43t-102 -76q-30 -28 -65 -71.5t-61 -100.5q-33 88 -22.5 159.5t63.5 125.5q24 25 56 46q33 21 72 37t85 28q45 11 96 17q69 8 139 4.5t128 -17.5
q-58 -60 -101 -126t-80 -128v0z" />
    <glyph glyph-name="uniECA3" unicode="&#xeca3;" 
d="M964 495q-29 29 -66.5 44.5t-78.5 15.5q-23 0 -40.5 -4t-32.5 -8q-12 -3 -21.5 -5t-20.5 -2q-13 0 -26 2.5t-27 6.5q-15 3 -30.5 6.5t-31.5 3.5q-41 0 -78.5 -15.5t-66.5 -44.5t-44.5 -66.5t-15.5 -78.5q0 -17 3 -32.5t7 -30.5q3 -13 6 -26.5t3 -25.5q0 -11 -2.5 -21
t-5.5 -21q-4 -15 -7.5 -32.5t-3.5 -40.5q0 -41 15.5 -78.5t44.5 -66.5q30 -30 68 -45t77 -15t77 15t68 45q26 25 36 47t16 39q5 15 11.5 28t22.5 29q17 17 29.5 23t27.5 11q18 6 39.5 16.5t47.5 35.5q30 30 45 68t15 77.5t-15 77.5t-45 68v0zM904 265q-15 -15 -27.5 -21
t-26.5 -11q-18 -6 -40.5 -16.5t-49.5 -37.5t-37.5 -49.5t-17.5 -40.5q-5 -15 -10.5 -27t-20.5 -27q-35 -35 -84.5 -35t-85.5 35q-17 17 -26 39t-9 46q0 14 2.5 26t6.5 24q3 14 6.5 29.5t3.5 35.5t-3.5 38.5t-7.5 34.5q-3 12 -5.5 22.5t-2.5 19.5q0 24 9 45.5t26 38.5t39 26
t46 9q9 0 19.5 -2t22.5 -5q16 -4 34.5 -7.5t38.5 -3.5q19 0 35 3t29 7q13 3 25 5.5t26 2.5q24 0 46 -9t39 -26q35 -35 35 -84.5t-35 -84.5v0zM190 427q23 0 43 7.5t35 22.5q38 38 29.5 98t-58.5 110t-110.5 59t-98.5 -29v0q-37 -38 -28.5 -98t58.5 -110q29 -30 63.5 -45
t66.5 -15zM91 635q8 8 34.5 2t52.5 -32q27 -26 33 -52.5t-3 -35.5q-9 -8 -35 -2t-53 32q-26 26 -32 52.5t3 35.5v0zM404 640q22 0 42 7.5t36 22.5q37 38 28.5 98.5t-58.5 110.5t-110.5 58.5t-97.5 -29.5v0q-38 -37 -29.5 -97.5t58.5 -110.5q30 -30 64 -45t67 -15v0zM304 848
q9 9 35 3t53 -33q26 -26 32 -52.5t-3 -34.5q-8 -9 -34.5 -3t-52.5 32q-27 27 -33 53t3 35v0zM281 324q-22 22 -48 37t-54 20q-31 6 -59 -1t-47 -26q-19 -20 -26.5 -48t-0.5 -59q5 -27 19.5 -53t37.5 -49q22 -22 48 -36.5t54 -20.5l14 -2t14 -1q23 0 43 8t35 23
q19 19 26.5 47t0.5 59q-5 27 -19.5 53.5t-37.5 48.5v0zM251 176q-4 -4 -12 -5t-18 1q-14 3 -29.5 12t-28.5 22t-22 28t-12 30q-2 10 -1 17.5t5 11.5v0q3 3 7.5 4.5t10.5 1.5q2 0 5 -0.5t7 -0.5q14 -3 29.5 -12t28.5 -22t22 -28.5t12 -29.5q2 -10 1 -18t-5 -12v0zM615 657
q22 -22 48 -36.5t54 -20.5l14 -2t14 -1q23 0 43 8t35 23q19 19 26.5 47t0.5 59q-5 27 -20 53.5t-37 48.5t-48.5 37t-53.5 20q-31 6 -59 -1t-47 -26q-19 -20 -26.5 -47.5t-1.5 -59.5q6 -27 20.5 -53t37.5 -49v0zM645 805v0q3 3 7.5 4.5t10.5 1.5q3 0 6 -0.5t6 -1.5
q14 -2 29.5 -11t28.5 -22t22 -28.5t12 -30.5q2 -9 0.5 -17t-4.5 -12q-4 -4 -12 -5t-18 1q-14 3 -29.5 12t-28.5 22t-22 28t-12 30q-2 10 -1 17.5t5 11.5v0z" />
    <glyph glyph-name="uniECCB" unicode="&#xeccb;" 
d="M919 444q48 38 76.5 94.5t28.5 122.5q0 58 -22 108q-22 51 -59.5 88.5t-87.5 59.5q-51 22 -108 22q-49 0 -94 -17q-44 -16 -79.5 -44.5t-60.5 -67.5q-26 -39 -36 -85q-40 -1 -74 -4.5t-63 -9.5q-54 -12 -89 -31.5t-53 -49.5q-13 -22 -21.5 -45t-15.5 -44q-3 -11 -6 -20.5
t-7 -18.5l-18 33v0v0q-5 9 -14.5 14.5t-19.5 5.5h-53q-18 0 -30.5 -12.5t-12.5 -30.5q0 -17 12.5 -30t30.5 -13h75l5 -9l-0.5 -0.5l-0.5 -0.5q-20 -17 -36.5 -36.5t-26.5 -51.5q-9 -28 -12.5 -69t-3.5 -110v-43q0 -23 11.5 -45.5t30.5 -36.5v-88q0 -27 19 -45.5t45 -18.5h86
q26 0 45 18.5t19 45.5v35q44 -6 98 -10t115 -4q62 0 115.5 4t97.5 10v-35q0 -27 19 -45.5t45 -18.5h86q26 0 45 18.5t19 45.5v88q19 14 30.5 36.5t11.5 45.5v43q0 66 -4 109t-13 71q-8 25 -19.5 42t-25.5 30v0zM693 233q7 6 17 12.5t23 13.5q25 14 65 26.5t94 13.5
q1 -11 2 -24t1 -29q-36 -20 -75 -26.5t-107 -6.5zM847 394q12 -10 21.5 -21t15.5 -32q-114 -3 -174.5 -46t-63.5 -46q-2 -1 -3 -3l-2 -4q-26 5 -60 9.5t-69 4.5t-69 -4.5t-60 -9.5l-2 4t-3 3q-3 3 -63.5 46t-175.5 46q5 17 12 26.5t17 18.5q48 13 101 21q52 9 107.5 14
t112.5 5q57 1 114 -2q32 -19 68 -29.5t76 -10.5q24 0 47.5 4t45.5 12q2 -1 3.5 -2.5l3.5 -3.5v0zM132 299q54 -1 94 -13.5t65 -26.5q13 -7 23 -13.5t17 -11.5l-20 -21q-68 1 -107 7t-75 26q0 16 1 29t2 24v0zM747 896q48 0 91 -18q43 -19 74.5 -51t50.5 -74q18 -43 18 -92
q0 -48 -18 -91q-19 -43 -50.5 -74.5t-74.5 -50.5q-43 -18 -91 -18q-49 0 -92 18q-42 19 -74 50.5t-51 74.5q-18 43 -18 91q0 49 18 92q19 42 51 74t74 51q43 18 92 18zM243 515q6 19 12.5 37t15.5 34q11 17 58 33.5t141 19.5q4 -49 24 -92.5t53 -77.5q-43 1 -86 0
q-43 -2 -85 -5.5t-83 -9.5q-41 -5 -79 -13q10 18 16.5 37t12.5 37v0zM256 -21q0 -9 -6.5 -15.5t-14.5 -6.5h-86q-8 0 -14.5 6.5t-6.5 15.5v69q16 -5 49 -12.5t79 -15.5v-41v0zM139 134v0q-3 1 -7 6.5t-4 8.5v43v3.5v3.5q39 -18 82.5 -23t109.5 -5q4 0 8 1.5t7 4.5l13 13
q15 4 63.5 13.5t100.5 9.5t100.5 -9.5t63.5 -13.5l13 -13q3 -3 7 -4.5t8 -1.5q66 0 109.5 5t82.5 23v-3.5v-3.5v-43q0 -3 -4 -8.5t-7 -6.5q-1 0 -28 -8q-26 -8 -75 -17t-117 -16q-69 -8 -153 -8t-153 8q-68 7 -117 16t-75 17q-27 8 -28 8v0zM875 -43h-86q-8 0 -14.5 6.5
t-6.5 15.5v41q47 8 79.5 15.5t48.5 12.5v-69q0 -9 -6.5 -15.5t-14.5 -6.5v0zM683 640h85q35 0 60 25t25 60q0 36 -25 61t-60 25h-107q-8 0 -14.5 -6.5t-6.5 -15.5v-277h43v128v0zM683 768h85q18 0 30.5 -12.5t12.5 -30.5q0 -17 -12.5 -29.5t-30.5 -12.5h-85v85v0z" />
    <glyph glyph-name="uniECE4" unicode="&#xece4;" 
d="M555 683q35 0 60 25t25 60t-25 60t-60 25q-36 0 -61 -25t-25 -60t25 -60t61 -25zM555 811q17 0 29.5 -12.5t12.5 -30.5t-12.5 -30.5t-29.5 -12.5q-18 0 -30.5 12.5t-12.5 30.5t12.5 30.5t30.5 12.5zM606 493q42 -16 84.5 -20t77.5 -4v86q-95 0 -145.5 23.5t-70.5 76.5
q-4 10 -12 17t-18 10q-11 2 -21.5 -1t-17.5 -10q-52 -49 -87 -107t-53 -126q-4 -14 1.5 -27.5t17.5 -20.5q43 -25 78 -50.5t65 -52.5l-76 -197l80 -31l85 224q5 12 2.5 24.5t-11.5 21.5q-31 31 -68.5 60t-81.5 57q11 34 28 64t40 58q19 -26 45 -44.5t58 -30.5v0zM832 384
q-79 0 -135.5 -56.5t-56.5 -135.5t56.5 -135.5t135.5 -56.5t135.5 56.5t56.5 135.5t-56.5 135.5t-135.5 56.5zM832 43q-62 0 -105.5 43.5t-43.5 105.5t43.5 105.5t105.5 43.5t105.5 -43.5t43.5 -105.5t-43.5 -105.5t-105.5 -43.5zM192 384q-79 0 -135.5 -56.5t-56.5 -135.5
t56.5 -135.5t135.5 -56.5t135.5 56.5t56.5 135.5t-56.5 135.5t-135.5 56.5zM192 43q-62 0 -105.5 43.5t-43.5 105.5t43.5 105.5t105.5 43.5t105.5 -43.5t43.5 -105.5t-43.5 -105.5t-105.5 -43.5v0z" />
    <glyph glyph-name="uniECE7" unicode="&#xece7;" 
d="M1003 469h-418l224 224q9 -5 19 -8t21 -3q17 0 31.5 6.5t26.5 17.5l111 111q6 6 6 15t-6 15l-86 85q-6 7 -15 7t-15 -7l-110 -110v0v0q-20 -20 -23.5 -47.5t10.5 -51.5l-126 -126h-34q-41 0 -66.5 1t-37.5 7q-10 4 -21 16.5t-32 42.5q-6 8 -14.5 13t-18.5 6h-1.5h-0.5
q35 0 60 25t25 60t-25 60t-60 25q-36 0 -61 -25t-25 -60t25 -60t60 -25q-9 0 -17.5 -4t-14.5 -12q-38 -44 -61 -108t-30 -90h-282q-8 0 -14.5 -6t-6.5 -15v-21q0 -32 6.5 -57.5t19.5 -46.5q15 -22 37.5 -39.5t54.5 -29.5q29 -11 68 -19t91 -13l-62 -62q-23 14 -50.5 10.5
t-47.5 -23.5l-111 -111q-6 -6 -6 -15t6 -15l86 -85q3 -3 7 -4.5t8 -1.5t8 1.5t7 4.5l110 111q12 11 18 26t6 31q0 11 -2.5 21.5t-8.5 19.5l88 88q38 -3 82.5 -4t96.5 -1q72 0 131 3q60 3 109 9t87 15q39 10 68 22q59 25 88 65.5t29 99.5v21q0 9 -6.5 15t-14.5 6v0zM202 62v0
v0l-95 -96l-56 55l96 96q11 11 27.5 11t27.5 -11q6 -6 9 -13t3 -15q0 -7 -3 -14.5t-9 -12.5zM822 792v0l95 95l56 -55l-96 -96q-6 -5 -13 -8t-15 -3q-7 0 -14.5 3t-12.5 8q-12 12 -12 28t12 28zM384 768q0 18 12.5 30.5t30.5 12.5q17 0 29.5 -12.5t12.5 -30.5t-12.5 -30.5
t-29.5 -12.5q-18 0 -30.5 12.5t-12.5 30.5zM430 565q11 -13 23.5 -22.5t27.5 -16.5q18 -7 38.5 -10t48.5 -4l-43 -43h-133q6 21 16 46.5t22 49.5v0zM149 333q-36 14 -50 34.5t-14 59.5h397l-125 -125q-74 3 -125 11t-83 20v0zM512 299h-50t-47 1l127 127h397
q0 -34 -53.5 -81t-373.5 -47v0z" />
    <glyph glyph-name="uniED65" unicode="&#xed65;" 
d="M512 299q-53 0 -90.5 -37.5t-37.5 -90.5t37.5 -90.5t90.5 -37.5t90.5 37.5t37.5 90.5t-37.5 90.5t-90.5 37.5zM512 128q-18 0 -30.5 12.5t-12.5 30.5q0 17 12.5 29.5t30.5 12.5t30.5 -12.5t12.5 -29.5q0 -18 -12.5 -30.5t-30.5 -12.5zM356 373l-17 -13l26 -33l17 13
q57 44 130 44t130 -44l17 -13l26 33l-17 13q-34 27 -74 40q-41 14 -82 14t-82 -14q-40 -13 -74 -40v0zM512 555v0q-68 0 -132.5 -24t-116.5 -68l-16 -13l28 -33l16 14q48 41 105 61t116 20t116 -20t105 -61l16 -14l28 32l-17 14q-51 44 -115.5 68t-132.5 24zM173 554
l-16 -14l28 -32l16 14q67 59 147 89q81 29 164 29t164 -29q80 -30 147 -89l16 -14l28 32l-16 14q-72 64 -160 97q-88 32 -179 32t-179 -32q-88 -33 -160 -97v0zM942 645q-44 40 -95 71q-50 31 -104.5 52t-112.5 32t-118 11t-118 -11t-112.5 -32t-104.5 -52q-51 -31 -95 -71
l-16 -15l29 -31l16 14q41 38 88 67q47 28 98 48t105 30t110 10t110 -10t105 -30t98 -48q47 -29 88 -67l16 -14l29 31l-16 15v0z" />
  </font>
</defs>
</svg>
