<?xml version="1.0" standalone="no"?>
<!DOCTYPE svg PUBLIC "-//W3C//DTD SVG 1.1//EN" "http://www.w3.org/Graphics/SVG/1.1/DTD/svg11.dtd" >
<svg xmlns="http://www.w3.org/2000/svg" xmlns:xlink="http://www.w3.org/1999/xlink" version="1.1">
<metadata>
Created by FontForge 20201107 at Tue Feb 14 11:14:54 2017
 By Unknown
FREE FOR PERSONAL USE
</metadata>
<defs>
<font id="Amontillados" horiz-adv-x="478" >
  <font-face 
    font-family="Amontillados"
    font-weight="400"
    font-style="italic"
    font-stretch="normal"
    units-per-em="1000"
    panose-1="0 0 0 0 0 0 0 0 0 0"
    ascent="750"
    descent="-250"
    x-height="222"
    cap-height="456"
    bbox="-255 -157 1023.74 555"
    underline-thickness="50"
    underline-position="-100"
    slope="-12"
    unicode-range="U+0020-FB02"
  />
<missing-glyph horiz-adv-x="198" 
 />
    <glyph glyph-name=".notdef" horiz-adv-x="198" 
 />
    <glyph glyph-name="B" unicode="B" horiz-adv-x="438" 
d="M161 -48q-23 0 -49.5 4.5t-49 16t-37.5 31.5t-15 52q0 10 3.5 28.5t17 37.5t40 33t71.5 14q9 24 18.5 51t18.5 50t16 38.5t10 15.5q2 0 4 -1l29 -20l3 -3q4 -4 4 -12q0 -9 -4 -18v-1q-8 -17 -18 -40t-22 -49l26 6.5t40 13t45.5 19.5t42.5 25.5t31.5 32t12.5 38.5
q0 18 -9.5 30.5t-26 21t-38 12.5t-45.5 4q-30 0 -65.5 -7t-66.5 -19.5t-52 -31t-21 -40.5q0 -5 6.5 -11.5t29.5 -6.5q7 0 16.5 1t21.5 3q1 0 3 -1l3 -3q0 -1 -0.5 -1t-0.5 -1q-16 -32 -21.5 -40.5t-9.5 -8.5q-6 0 -18.5 6t-25 15.5t-21.5 23t-9 28.5q0 23 12 47.5t40.5 45
t76.5 34t121 13.5q1 0 13 -0.5t30 -4t38.5 -10.5t38 -20t29 -33t11.5 -48q0 -37 -33.5 -73t-108.5 -71h4q2 0 4.5 0.5t5.5 0.5q9 0 20.5 -2t22 -8.5t17.5 -18.5t7 -33q0 -34 -22.5 -62.5t-57 -49.5t-76.5 -32.5t-81 -11.5zM121 115q-35 -4 -58 -22.5t-23 -56.5q0 -3 4 -9.5
t14 -13.5t27.5 -12t45.5 -5q20 0 54 5t67 18t57 36t24 59q0 19 -19.5 26t-45.5 7q-22 0 -43 -3q2 -4 2 -6l7 -45q0 -6 -5 -6q-1 0 -3 2.5t-7.5 6.5t-17 8.5t-32.5 9.5q-11 -23 -22.5 -40.5t-11.5 -25.5t3 -16t3 -13q0 -3 -5 -3q-12 2 -23.5 14t-11.5 29q0 9 4.5 19.5
t15.5 36.5z" />
    <glyph glyph-name="C" unicode="C" horiz-adv-x="244" 
d="M88 230q-41 17 -59.5 46t-18.5 70q0 34 11 57t24 37.5t24.5 20.5t13.5 6q4 0 6 -1l53 -26q1 0 1 -2q0 -3 -13.5 -6.5t-29.5 -13t-29.5 -28.5t-13.5 -52q0 -20 6 -34.5t14.5 -25t16.5 -16t12 -7.5q66 85 146 129q41 22 73.5 28.5t53.5 6.5q39 0 59 -13.5t20 -36.5
q0 -20 -11 -39q-22 -40 -58 -63t-74 -35t-72.5 -15.5t-53.5 -3.5q-13 0 -23 0.5t-15 1.5q-29 -40 -44 -77t-15 -69q0 -59 33.5 -80.5t108.5 -21.5q30 0 72.5 2.5t110.5 9.5q20 2 39.5 3t36.5 1q45 0 79.5 -7.5t58 -18t35.5 -22.5t12 -22q0 -1 -2 -3q-2 0 -6 2q-21 12 -61 17
t-97.5 6t-132 0.5t-164.5 2.5q-88 2 -134.5 35t-46.5 100q0 18 6 42.5t13.5 47t15 38t9.5 15.5q3 4 5.5 7.5t4.5 6.5zM399 391q-16 0 -36 -7.5t-37 -16.5t-29 -17l-12 -8q-30 -20 -59 -45.5t-53 -54.5h10q63 6 108.5 25.5t75.5 41.5t44 40.5t14 21.5q0 11 -7.5 15.5
t-18.5 4.5z" />
    <glyph glyph-name="D" unicode="D" horiz-adv-x="435" 
d="M230 321q1 -1 3 -4q4 -6 4 -14q0 -6 -4 -18t-10.5 -27.5t-14.5 -32.5t-15 -34l-10 -20q6 -2 11.5 -3.5t11.5 -3.5v-1q3 -1 6 -4q6 -6 7 -13l7 -47q0 1 0 -2.5t-6 -3.5q-2 0 -2 1q-2 0 -16.5 10.5t-41.5 15.5q-12 -23 -23.5 -42t-11.5 -29q0 -8 3 -16t3 -13t-5 -5
q-12 2 -23.5 15t-11.5 31q0 10 5 23t15 37q-32 -3 -56.5 -21.5t-24.5 -53.5q0 -16 8.5 -27t21 -17.5t27 -9.5t26.5 -3q23 0 48 6t49 15.5t45 22t36 24.5q13 10 31 28.5t34.5 44t28.5 57.5t12 70q0 36 -14 61.5t-33.5 42t-40.5 25t-36 10.5q-14 2 -22 2.5t-19 0.5
q-33 0 -65 -7t-56.5 -22t-40 -38.5t-15.5 -56.5q0 -5 6.5 -11.5t29.5 -6.5q8 0 17.5 1t21.5 3q1 0 3 -1l3 -3q0 -1 -0.5 -1t-0.5 -1l-22 -48q-1 -1 -3 -2.5t-5 -1.5q-7 0 -20 6t-25.5 16.5t-21.5 24.5t-9 30q0 24 10 50.5t37 48.5t74 36t121 14q2 -1 15 -1t41 -7
q62 -14 97 -56t37 -112q-2 -38 -17 -78q-13 -35 -39.5 -76.5t-76.5 -79.5q-12 -10 -33 -21.5t-47.5 -21.5t-57 -16.5t-61.5 -6.5q-23 0 -46.5 5t-42 17.5t-30 33t-11.5 51.5q0 11 4 31t17.5 39.5t40 34t71.5 14.5q9 25 19 54t19 53.5t16 40.5t10 16t4 -1l30 -21v0z" />
    <glyph glyph-name="E" unicode="E" horiz-adv-x="361" 
d="M172 -32q-54 1 -87 15t-51 33.5t-24 42t-6 41.5q0 42 19 70t47 44.5t60.5 23t58.5 6.5q4 0 7.5 -0.5t5.5 -0.5h5q-8 8 -12.5 15.5t-8.5 14.5q-60 15 -85.5 40.5t-25.5 45.5q0 8 3 16q26 -26 52 -36.5t49 -18.5q3 14 13 30q16 23 34.5 37.5t37.5 23t35.5 11.5t28.5 3
q20 0 35 -5.5t25 -12.5l4.5 -3t10 -8.5t9.5 -14.5t4 -21q0 -28 -16 -47t-39 -30t-48 -16t-43 -5q-8 0 -15 0.5t-15 1.5q5 -14 13 -19.5t15.5 -8t13 -4t5.5 -5.5q0 -8 -2.5 -13t-16.5 -5q-8 0 -24.5 1.5t-30.5 1.5q-54 0 -83 -17.5t-42.5 -39t-15.5 -40t-2 -20.5
q4 -28 16 -46.5t27 -29t31.5 -15t31.5 -4.5q34 0 59 5t44.5 14.5t36.5 23.5t36 32q4 4 6 4q5 0 5 -4q0 -2 -2 -4q-23 -27 -43 -44t-35 -27q-18 -11 -33 -16l-6 -2.5t-16.5 -5.5t-25 -5.5t-30.5 -2.5zM389 371q-6 8 -15.5 10t-17.5 2q-21 0 -41 -11t-37 -24q-19 -15 -36 -34
l-2 -4l-2 -4q19 -3 39 -3t41 3t38 10q14 5 26 15t12 24q0 6 -5 16z" />
    <glyph glyph-name="F" unicode="F" horiz-adv-x="355" 
d="M254 327q-8 1 -29 5.5t-47.5 12.5t-55.5 20t-52.5 28t-39 36.5t-15.5 46.5q0 15 4 25.5t8.5 17t8.5 9.5t3 3q1 0 3 -2q1 -1 1 -2q0 -17 9.5 -32t24 -28t32.5 -24t35 -20q15 -9 39 -18q20 -8 50.5 -16t72.5 -14q7 15 24 29.5t38.5 26t46.5 18.5t49 7q14 0 29.5 -3t29 -10
t22.5 -19t11 -30q0 -22 -14.5 -36t-39.5 -22.5t-57.5 -12t-69.5 -3.5h-18t-18 1q0 -1 -2 -3l-2 -4l-10 -20t-14 -30q7 1 15 2t16 1q10 0 22.5 -2t22.5 -8t17 -15.5t7 -24.5q0 -7 -7 -19.5t-26 -12.5q-5 0 -5 7t-4 15.5t-15.5 15.5t-39.5 7q-7 0 -14.5 -1.5t-9.5 -9.5
q-37 -77 -55.5 -133t-18.5 -88q0 -12 9.5 -25.5t9.5 -20.5q0 -1 -2 -2.5t-3 -1.5t-3 1q-17 3 -29 13q-11 8 -20 25t-9 48q0 37 11.5 77.5t40.5 100.5q-8 -2 -16.5 -5.5t-20.5 -3.5q-8 0 -16 4.5t-8 8.5q0 1 9 4.5t21 7t24.5 7.5t20.5 6q11 23 21.5 43t19.5 40
q-6 0 -11.5 0.5t-10.5 1.5zM437 362q-1 0 12 0.5t29.5 3.5t30 10t13.5 19q0 9 -13.5 15t-33.5 6q-25 0 -55.5 -11t-53.5 -37v-1q17 -2 33 -3t38 -2z" />
    <glyph glyph-name="G" unicode="G" horiz-adv-x="334" 
d="M93 -151q-18 -6 -44 -6q-12 0 -26.5 2.5t-27 9.5t-20.5 17.5t-8 27.5q0 19 13 33t31 23t38 13t35 4q23 0 38 -3t25 -6t14.5 -6t6.5 -3q5 6 11 16q5 8 13 20.5t19 31.5q-58 -29 -105 -29q-49 0 -71.5 28.5t-25.5 76.5q1 63 29.5 116t65.5 90q-29 14 -42 29t-13 30t8 27
q3 -3 11 -11.5t19 -17.5t23.5 -15.5t25.5 -6.5q12 13 30.5 30.5t43.5 33t54.5 26t63.5 10.5q27 0 46.5 -11t19.5 -38q0 -32 -19.5 -53t-49 -33.5t-62.5 -17.5t-60 -5q-26 0 -42 3q-31 -25 -51 -51.5t-31.5 -51t-16 -45t-4.5 -33.5q0 -17 3.5 -29.5t8.5 -20.5q5 -10 13 -17
q18 -14 43 -14q37 0 63 15t42.5 37t24 46.5t7.5 43.5q0 21 -2.5 30.5t-6 13.5t-6 5.5t-2.5 6.5t5 5q10 0 19.5 -7t17.5 -18.5t13 -25.5t5 -29q0 -35 -13.5 -72t-30 -67t-31 -49.5t-15.5 -19.5q10 -4 29.5 -9t43.5 -10t51.5 -8.5t53.5 -3.5q6 0 33.5 3.5t60 13t60.5 26
t36 43.5q0 3 3 3q4 1 9 -13.5t5 -29.5q0 -10 -3 -20v-1q0 -3 -8.5 -15t-29.5 -24.5t-56 -22.5t-87 -10q-43 0 -95.5 12t-129.5 38q-21 -21 -44 -37.5t-55 -23.5zM363 393q-11 6 -25 6t-30.5 -5.5t-31.5 -13.5q0 -1 -6.5 -4.5t-17.5 -10t-25 -17t-29 -25.5q10 -2 19.5 -2
h19.5h20.5t21.5 2l14.5 2.5t31 9t30.5 17.5t14 27q0 3 -2.5 8.5t-3.5 5.5zM146 -74q-17 6 -32.5 8.5t-28.5 2.5q-14 0 -25 -2.5t-19 -4.5q-9 -3 -16 -6q-5 -4 -10.5 -10.5t-5.5 -14.5q0 -10 9.5 -15.5t26.5 -5.5q21 0 48.5 11t52.5 37z" />
    <glyph glyph-name="H" unicode="H" horiz-adv-x="603" 
d="M47 281q-20 2 -26 13t-6 21q0 22 14.5 34.5t33.5 18.5t37 7.5t25 1.5q29 0 57.5 -1t54.5 -1q48 0 79 8t50 36l11 23q1 0 1.5 1t3.5 1q11 -7 21 -13q8 -5 14.5 -12t6.5 -12q0 -2 -3 -9.5t-10.5 -24.5t-21.5 -47.5t-36 -78.5q57 -8 95 -12.5t66 -6.5q5 13 10 25.5t10 23.5
q13 25 27 52q12 23 28 51.5t35 56.5q1 0 3 4.5t10 4.5q40 -14 67 -47.5t27 -75.5q0 -51 -40.5 -85.5t-118.5 -39.5q-11 -26 -24.5 -56t-24.5 -61t-18.5 -62.5t-7.5 -61.5q0 -3 0.5 -8t3.5 -9.5t8.5 -8t15.5 -3.5q23 0 33 16t10 31q0 4 -0.5 7.5t-0.5 5.5q0 4 4 4
q10 0 18.5 -15t8.5 -28q0 -11 -6 -20t-15.5 -15.5t-21 -10t-21.5 -3.5q-36 0 -60 27t-24 66q0 24 2.5 45t8.5 44.5t16 51t25 65.5q-47 1 -88 2.5t-78 3.5q-11 -24 -19.5 -48.5t-16.5 -47.5l-4 -12l-2.5 -8t-4.5 -19t-4 -23t-2 -19q0 -11 9 -25t9 -19q0 -4 -4 -4q-2 0 -3 1
q-18 3 -31 13q-11 8 -20.5 24t-9.5 45q0 36 15 73.5t28 70.5q-23 1 -43.5 1.5t-38.5 0.5q-37 0 -63.5 -3.5t-43.5 -11.5q-4 -2 -6 -2l-2 2q0 10 12 21t33.5 20.5t50.5 15.5t64 6q28 0 55 -3q11 30 22.5 56.5t21.5 48.5q-15 -5 -32 -6.5t-35 -1.5q-13 0 -26.5 0.5t-27.5 0.5
q-20 0 -47 -1t-51.5 -6t-42 -14.5t-17.5 -27.5q0 -8 1.5 -12t1.5 -5q0 -2 -8 -4q-4 -1 -7 -1zM661 377q-2 -3 -9 -15.5t-17 -32.5t-23 -45.5t-26 -54.5q17 2 32.5 8t27.5 17.5t19 30t7 45.5q0 12 -2 24t-6 26v1q-1 -1 -1.5 -2t-1.5 -2z" />
    <glyph glyph-name="I" unicode="I" horiz-adv-x="282" 
d="M92 -42q-7 1 -20 5t-26 12.5t-23 22.5t-10 35q0 23 15.5 33.5t30.5 10.5q6 0 11.5 -1t5.5 -6q0 -2 -4.5 -6t-9.5 -9.5t-9.5 -13t-4.5 -15.5q0 -5 1.5 -12t5.5 -13.5t11 -11.5t19 -5q26 0 63 61t82 169l22 53q8 19 16.5 45.5t19 50.5t24 42.5t31.5 22.5q-6 -1 -11 -2
q-11 -2 -19 -5q-6 -2 -27.5 -12t-50 -30.5t-59 -50.5t-52.5 -70q0 -1 -3 -6t-7 -12t-7 -16t-3 -18q0 -7 3.5 -13.5t14.5 -6.5q8 0 22 4.5t34 15.5h1q6 0 6 -4l-7 -50q0 -1 -2 -3.5t-7 -3.5q-23 4 -47 9.5t-39 27.5q-11 17 -13.5 31.5t-2.5 18.5q0 36 19 67t47.5 55.5
t62.5 43t63.5 31t50 19t22.5 7.5q3 0 6 0.5t6 0.5q10 0 20.5 -5t19 -12.5t14 -15t5.5 -11.5q-1 -7 -11.5 -10.5t-18.5 -11.5q-9 -9 -24.5 -41t-31 -69t-29 -71t-19.5 -48q0 -1 -6.5 -16.5t-17.5 -38t-26 -49t-33 -49t-38 -37.5t-40 -15q-8 0 -16 2z" />
    <glyph glyph-name="J" unicode="J" horiz-adv-x="325" 
d="M309 276q-14 -38 -35.5 -89t-50.5 -111q26 13 41 30.5t15 45.5q0 2 -0.5 6t3.5 4q0 -1 8 -8.5t8 -32.5q0 -19 -16 -40t-63 -34q-3 -1 -6.5 -1.5t-6.5 -2.5q-13 -24 -27.5 -45t-30.5 -37.5t-33.5 -26t-37.5 -9.5q-10 0 -14 1q-11 1 -19 4q-7 2 -12.5 6t-5.5 9
q-1 1 -10 11.5t-9 26.5q0 18 12 29.5t32 19t45.5 12.5t52.5 11q14 26 28.5 58.5t30.5 70.5l22 53q8 20 17 46t20 50t24 42.5t30 22.5q-6 -1 -11 -2q-11 -2 -19 -5q-6 -2 -27.5 -12t-50 -30.5t-59 -50.5t-52.5 -70q0 -1 -3 -6t-7 -12t-7 -16t-3 -18q0 -8 3.5 -14t14.5 -6
q8 0 22 4.5t35 15.5h3q4 0 4 -4l-7 -50l-5.5 -5.5t-14.5 -3.5q-32 0 -50.5 13t-27.5 29.5t-11.5 30.5t-2.5 16q0 36 19 67t48 55.5t62.5 43t63 31t50 19t22.5 7.5q3 0 6 0.5t6 0.5q10 0 20.5 -5t19 -12.5t14 -15t5.5 -12.5t-5 -7q-27 -9 -40 -36.5t-27 -61.5zM95 -26
q20 20 40 56q-4 -2 -20 -4.5t-34 -7.5t-32 -13.5t-14 -23.5q0 -1 0.5 -5t3 -9t7.5 -9t15 -4q7 0 15 4.5t19 15.5z" />
    <glyph glyph-name="K" unicode="K" horiz-adv-x="511" 
d="M580 398q3 -14 3 -25q0 -32 -20.5 -57t-52 -43.5t-68.5 -32t-69 -20.5q27 -4 44.5 -14t27 -24.5t13 -31.5t3.5 -35q0 -23 -3 -43t-3 -34q0 -24 5.5 -38t12 -22t12 -11.5t5.5 -5.5q0 -1 -2 -3q-1 -1 -2 -1q-28 1 -45 11t-26 25.5t-12 34.5t-3 39q0 17 1 32t1 27
q0 18 -8.5 29.5t-20.5 18.5t-25 10.5t-22 4.5q-8 -16 -12 -28q-15 -36 -32 -68q-15 -27 -34 -52.5t-40 -35.5q-8 -4 -22 -5.5t-25 -1.5t-14 1q-6 1 -16.5 5.5t-20 13.5t-16.5 23t-7 35q0 23 15.5 33.5t30.5 10.5q6 0 11.5 -1t5.5 -6q0 -2 -4.5 -6t-9.5 -10t-9.5 -13
t-4.5 -15q0 -5 1.5 -12t5.5 -13.5t11 -11.5t19 -5q22 0 43 28.5t38.5 67.5t32 79.5t24.5 64.5q5 13 12 30.5t14 36.5q-16 -5 -42.5 -6.5t-57.5 -2t-62.5 -2t-57.5 -5.5t-42 -13t-16 -24q0 -7 1.5 -12t1.5 -7q0 -4 -4.5 -4.5t-7.5 -0.5q-22 0 -28 11.5t-6 20.5q0 21 12 34
t30 19.5t39.5 8.5t40.5 2q27 0 53.5 -1.5t50.5 -1.5q20 0 40 1.5t37 6t29.5 13.5t17.5 23l11 23l1 1q2 2 3 2h-1q0 -1 7 -4t15 -8t15 -11.5t7 -14.5q0 -5 -2 -9t-7.5 -15.5t-16 -33.5t-27.5 -63q11 4 22 7.5t22 8.5q7 3 31 16.5t50 33.5t46.5 45t20.5 51q0 3 -0.5 7.5
t3.5 4.5q-1 0 9.5 -6t18.5 -31z" />
    <glyph glyph-name="L" unicode="L" horiz-adv-x="322" 
d="M313 169q-15 -34 -25.5 -58.5t-20 -45.5t-21 -41.5t-28.5 -46.5q14 -7 35 -16t45.5 -16.5t52 -13t54.5 -5.5q18 0 44 2t51.5 8.5t46.5 18.5t30 33q6 0 8 -12t2 -22q0 -12 -6 -27l-5.5 -7.5t-21 -16.5t-44 -16.5t-73.5 -7.5q-21 0 -45.5 3t-53 10.5t-62 20.5t-72.5 33
q-1 0 -2 1t-2 1t-2 1q-8 -12 -23 -23t-33 -20t-38.5 -14.5t-38.5 -5.5q-23 0 -41.5 12t-18.5 41q0 16 10 28t26 19.5t34.5 11t35.5 3.5t31.5 -2t22.5 -4q6 9 18 34t27.5 59.5t33.5 76t37 84.5l8 18q7 16 15 39t17 45.5t18.5 41t19.5 25.5q-1 2 -1.5 2.5t-1.5 2.5
q-54 -21 -87 -42.5t-52 -40t-25.5 -32t-6.5 -19.5q0 -8 6.5 -12t23.5 -4q12 0 32 3q1 0 4 -2t1 -4l-20 -39q-3 -3 -8 -3q-8 0 -19.5 6t-22 16.5t-17.5 24t-7 28.5q0 31 20.5 54.5t52 41.5t68.5 31t69 25q3 0 6 0.5t7 0.5q10 0 20.5 -5t19 -12.5t14 -15t5.5 -11.5q0 -6 -6 -8
q-17 -6 -30.5 -25t-26.5 -49t-28 -70.5t-36 -90.5zM151 -34q-14 5 -25.5 7t-21.5 2q-12 0 -21 -2.5t-15 -4.5q-7 -3 -12 -6t-10.5 -9t-5.5 -14q0 -16 26 -16q17 0 40 10t45 33z" />
    <glyph glyph-name="M" unicode="M" horiz-adv-x="621" 
d="M519 -62q-7 12 -10 35.5t-3 50.5q0 45 15.5 103.5t38.5 127.5q-21 -30 -47 -63.5t-50.5 -64.5t-44.5 -55.5t-29 -36.5h-1q-3 -4 -8 -4q-3 0 -5 1l-4 2l-36 23l-5.5 5.5t-3.5 9.5q0 3 1 5v1q7 24 17 60t21 71q-20 -33 -39.5 -59.5t-34.5 -45.5q-18 -22 -34 -39
q-28 -28 -65.5 -47.5t-70.5 -19.5q-25 0 -46.5 9t-37 24t-24.5 34.5t-9 41.5q0 34 22 65q9 14 25 25q14 10 36 18.5t56 11.5q1 0 7.5 -1t12.5 -8l31 -38q1 -1 1 -5q-2 -3 -4 -3q-2 1 -6 2t-9.5 1.5t-13.5 0.5q-14 0 -33.5 -5t-37 -16.5t-29.5 -28.5t-12 -41q0 -26 17 -40
t40 -14q42 0 82.5 29t76.5 72.5t67 94.5t54 94.5t37 72.5t17 29q0 -1 7.5 -4.5t16.5 -9t16.5 -12.5t7.5 -16q0 -5 -2.5 -11.5t-5.5 -13.5q-2 -4 -10 -25.5t-19.5 -54t-24 -72.5t-23.5 -82q41 44 79.5 96.5t69 97.5t49 75.5t20.5 30.5l7.5 -4t16 -9.5t16 -12.5t7.5 -14
q0 -6 -3.5 -14.5t-11.5 -28.5t-21 -57.5t-32 -101.5q-22 -74 -32.5 -135.5t-10.5 -96.5q0 -13 6.5 -27t29.5 -14q22 0 29 13.5t7 22.5q0 15 -3 23q0 1 0.5 3t2.5 2q6 0 12 -5t11 -12.5t8 -16.5t3 -16q0 -12 -7.5 -21t-17.5 -14.5t-20.5 -8.5t-17.5 -3q-28 0 -49 20.5
t-33 43.5z" />
    <glyph glyph-name="N" unicode="N" horiz-adv-x="538" 
d="M411 -45q-4 11 -4 33q0 57 22.5 130t68.5 170q-32 -32 -77 -85t-99 -127q-5 -7 -12.5 -18.5t-15.5 -22t-15.5 -18.5t-11.5 -8t-5 1q-1 0 -2 1l-32 15q-6 2 -6.5 11t-0.5 7q-1 1 1 4t6 17q10 38 23 77.5t27.5 77.5t29 72.5t26.5 61.5q-20 -6 -50 -6q-85 0 -131.5 -4
t-68 -11t-25.5 -15.5t-4 -17.5q0 -6 1.5 -11t1.5 -7q0 -4 -5 -4.5t-7 -0.5q-22 0 -28 12t-6 21q0 23 14 35.5t33 18.5t36.5 7.5t25.5 1.5q29 0 58 -1t56 -1q43 0 78 7t49 36l11 23l3 3h-1q0 -1 7 -4t15.5 -8t15.5 -11.5t7 -14.5q0 -6 -5 -16q-3 -5 -16.5 -34t-31.5 -70
t-37.5 -89.5t-34.5 -91.5q34 48 103.5 134t184.5 200q0 4 6 4h-1q0 -1 6.5 -4t15 -8.5t15 -11.5t6.5 -13t-4.5 -15t-16 -27.5t-31 -57.5t-49.5 -105q-35 -80 -56 -146t-21 -97q0 -1 0.5 -5.5t3 -10t8.5 -10t17 -4.5q12 0 20.5 5t13.5 12t7 15.5t2 15.5q0 3 -0.5 6t-0.5 5
q0 5 3 5q10 0 18.5 -15t8.5 -28q0 -22 -19.5 -35.5t-38.5 -13.5q-13 0 -24.5 3.5t-19.5 8.5q-10 5 -18 13q-6 5 -12 13.5t-11 20.5z" />
    <glyph glyph-name="O" unicode="O" horiz-adv-x="454" 
d="M438 167q-9 -40 -29.5 -78t-49.5 -67.5t-65 -47.5t-76 -18q-49 0 -80.5 31t-38.5 83q-5 0 -10 -0.5t-10 -0.5q-7 0 -10 1q-1 0 -12 1t-24 8t-24 21t-11 40q0 1 1 7t6 13t15 12.5t28 5.5q-1 -2 -1 -5q-1 -3 -1 -12q0 -7 2 -15t7 -14.5t15 -11t27 -4.5q8 70 34 128t61 99
t74.5 64t74.5 23q15 0 31 -4.5t29.5 -15.5t22.5 -29t9 -44q0 -11 -2 -23t-5 -25q1 -1 4.5 -4t7 -10t6 -18t2.5 -28q0 -12 -1.5 -27.5t-6.5 -34.5zM308 141q-21 -15 -48 -28q-23 -11 -56 -23t-74 -17q8 -42 29 -60t47 -18q34 0 61 14t47.5 35.5t35 48t23.5 51.5t13.5 45.5
t4.5 31.5q-14 -21 -35 -41.5t-48 -38.5zM371 352q-4 4 -10 8q-5 3 -13 5.5t-18 2.5q-39 0 -74 -29t-62 -69.5t-44.5 -83t-20.5 -68.5q41 5 86.5 27.5t84.5 54.5q5 4 18.5 16t28 28.5t25.5 36t11 38.5q0 21 -12 33z" />
    <glyph glyph-name="P" unicode="P" horiz-adv-x="451" 
d="M492 250q-9 -39 -33.5 -72t-58.5 -56.5t-74 -37t-79 -13.5q-26 0 -48 6q-13 -32 -21.5 -57t-8.5 -36q0 1 2 -6t2 -18q0 -3 -2.5 -6t-5.5 -3l-5.5 2.5t-11.5 9.5t-11.5 20t-5.5 34q0 16 5 34t17 50q-11 11 -21 29t-10 45q0 38 20 69t44.5 53.5t47 36t28.5 16.5q6 2 13.5 4
t14.5 2q8 0 13 -3.5t5 -16.5q0 -6 -3 -13.5t-13 -29.5t-29 -65.5t-52 -121.5l16 -3q5 -1 16 -1q34 0 69.5 17.5t64.5 45.5t47.5 61.5t18.5 66.5q0 24 -10.5 48t-30.5 43.5t-49 31.5t-66 12q-33 0 -69.5 -11.5t-68.5 -31.5t-57.5 -47.5t-36.5 -60.5q-2 -5 -2 -13
q0 -12 4.5 -21t10 -15t10 -8.5l4.5 -2.5q0 -7 -4 -11.5t-9.5 -7.5t-11 -4.5t-7.5 -1.5q-14 0 -22 6.5t-12.5 15t-6 17t-1.5 13.5q0 13 4.5 26t11 25t13 21.5t11.5 14.5q12 13 35 33t55 39t72.5 32.5t88.5 13.5q51 0 88.5 -12.5t62 -33.5t36 -49.5t11.5 -59.5q0 -11 -1.5 -22
t-3.5 -22zM159 234q-8 -11 -11.5 -25t-3.5 -28q0 -32 20 -55q12 29 25.5 61t24.5 58q13 31 27 59l2 4q2 4 2 7q0 2 -2 2q-15 -10 -30 -23q-13 -11 -28 -26.5t-26 -33.5z" />
    <glyph glyph-name="Q" unicode="Q" horiz-adv-x="469" 
d="M108 80q-5 0 -10 -0.5t-10 -0.5q-2 0 -5 0.5t-5 0.5q-20 1 -36 8q-14 6 -24.5 18t-10.5 35v5q2 9 7 17q5 6 13 11.5t24 5.5h7q-1 -2 -1 -5q-1 -3 -1 -10q0 -14 9 -27.5t42 -13.5q8 64 35 116.5t63 90.5t76 59t74 21q15 0 31 -4.5t29.5 -14t22.5 -25t9 -37.5q0 -23 -9 -48
q3 -2 12.5 -12.5t9.5 -42.5q0 -42 -20 -86t-52.5 -80.5t-73.5 -60t-84 -23.5h-12.5t-11.5 2q5 -2 8.5 -4t8.5 -3q2 -2 11.5 -5.5t23.5 -8t30.5 -7.5t32.5 -3t29.5 4t22.5 14l3 3q0 -1 1 -2q0 -1 0.5 -1.5t0.5 -2.5q0 -5 -1 -6q0 -1 -3 -10.5t-10 -20t-20.5 -19.5t-34.5 -9
q-17 0 -44 8.5t-64 37.5q-14 9 -28 17q-12 7 -25.5 12.5t-25.5 5.5t-19 -4t-10.5 -9.5t-5 -11t-1.5 -7.5t0.5 -3.5t0.5 -2.5l-2 -3h-1v-1q-12 0 -16.5 9.5t-4.5 14.5q0 16 7 26.5t17 16t20 7.5t15 2t9 -0.5t9 -1.5q-26 26 -32 69zM320 147q-22 -15 -50 -27
q-24 -11 -57 -21.5t-74 -15.5q4 -31 21 -47.5t59 -16.5q12 0 26.5 2.5t30.5 9t32 19t30 32.5q35 49 49.5 84.5t17.5 53.5q-16 -20 -36.5 -38.5t-48.5 -34.5zM387 340q-5 3 -11 7q-5 3 -13.5 5.5t-18.5 2.5q-11 0 -23 -3.5t-26 -11.5q-33 -19 -60.5 -45.5t-47.5 -55.5
t-32.5 -58.5t-15.5 -55.5q40 6 87 26t87 49q5 3 19 14.5t28.5 27.5t26 33.5t11.5 34.5q0 20 -11 30z" />
    <glyph glyph-name="R" unicode="R" 
d="M508 250q-9 -38 -29.5 -70.5t-51 -56.5t-70 -38t-85.5 -14h-14q5 -7 17.5 -21t30 -28t37.5 -24.5t41 -10.5q12 0 23 4q5 0 5 -3q0 -4 -2 -6l-3 -4q-9 -11 -25.5 -21.5t-40.5 -10.5q-17 0 -34 6t-34 22h-1q-17 15 -33 35.5t-31 49.5q-11 -26 -17.5 -46.5t-6.5 -29.5
q0 1 2 -7t2 -16q0 -3 -2 -6t-6 -3q1 0 -4 2t-11.5 8.5t-12.5 19.5t-6 36q0 17 5.5 34.5t17.5 49.5q-12 11 -22 29t-10 45q0 39 20 70t44.5 53.5t47 35.5t28.5 16q6 2 13.5 4t14.5 2q8 0 13 -3.5t5 -16.5q0 -6 -3 -13.5t-13 -29.5t-29 -65.5t-52 -121.5q6 -1 11.5 -1.5
t11.5 -0.5q39 0 76 16.5t66.5 42.5t47 58.5t17.5 64.5q0 24 -9.5 49.5t-29 46t-48 33.5t-66.5 13q-35 0 -77 -13.5t-78 -35.5t-60.5 -49.5t-24.5 -55.5q0 -18 10 -30.5t16 -14.5l2 -1h1v-1q0 -7 -4 -11.5t-9.5 -7.5t-11 -4.5t-7.5 -1.5q-14 0 -22 6.5t-12.5 15t-6 17
t-1.5 13.5q0 35 24.5 70t65.5 62.5t94.5 45t110.5 17.5q52 0 90 -12.5t62.5 -34t36 -50t11.5 -59.5q0 -20 -5 -43zM179 127q12 29 25.5 60.5t25.5 57.5q13 30 27 59q0 2 1 4q2 4 2 6q0 3 -2 3q-3 0 -18.5 -12t-33.5 -31t-32.5 -43t-14.5 -49q0 -14 4.5 -28.5t15.5 -26.5z
" />
    <glyph glyph-name="S" unicode="S" horiz-adv-x="382" 
d="M139 214q11 -2 22.5 -2h22.5q61 0 106.5 14.5t75.5 34t44.5 40t14.5 31.5q0 17 -28 29.5t-74 12.5q-54 0 -99 -14.5t-77 -37.5t-50 -52t-18 -58q0 -18 6 -30t18 -21.5t30 -17.5t42 -18q34 -14 62.5 -22.5t42.5 -23.5q34 7 53 8t34 3q4 0 8 -1q8 -2 8 -6q0 -5 -7 -13
t-23 -10q-19 -3 -35 -5.5t-33 -4.5v-4q0 -12 -11 -30.5t-32 -35t-52 -28.5t-73 -12q-35 0 -53 13.5t-18 31.5q0 27 47 47t122 36q-16 8 -45.5 21t-74.5 31q-85 35 -85 101q0 8 4 26t15 40t31 45.5t52.5 43t78 32.5t108.5 14q48 1 78 -10t47 -26.5t23 -33.5t6 -32
q0 -26 -16 -51.5t-57 -55.5q-32 -23 -64.5 -36t-59.5 -19.5t-44 -7.5l-17 -1q-12 0 -22.5 8t-18.5 18t-13.5 20t-7.5 15q0 3 2 3.5t3 0.5h1zM89 -19q19 0 40 5t40 13.5t34.5 18.5t24.5 21q-56 -12 -85.5 -22.5t-43.5 -18.5q-17 -10 -19 -17h9z" />
    <glyph glyph-name="T" unicode="T" horiz-adv-x="265" 
d="M312 346q5 -5 5 -12t-3.5 -14.5t-8.5 -15.5q-2 -3 -5.5 -9.5t-9.5 -19t-16.5 -33.5t-25.5 -54q-36 -78 -55 -134t-19 -88q0 -6 3 -12t6.5 -12t6.5 -11.5t3 -9.5q0 -1 -1.5 -3t-3.5 -2t-11.5 2.5t-20.5 11.5t-20 26.5t-9 47.5q0 42 11.5 82t31 83t45 91t54.5 105
q2 5 3 5.5t3 0.5q-2 0 10.5 -6.5t26.5 -18.5zM662 458q-6 -14 -20.5 -30.5t-38.5 -30t-57.5 -22.5t-78.5 -9q-17 0 -36.5 1t-39.5 3q-68 7 -109 11.5t-71 4.5q-43 0 -70.5 -7t-43.5 -20.5t-22 -32.5t-6 -44q0 -16 6.5 -31t6.5 -25q0 -2 -2.5 -2.5t-4.5 -0.5q-11 1 -22.5 4
t-21.5 10.5t-16.5 20.5t-6.5 33q0 57 47 91t135 37q43 1 106.5 0.5t130.5 3t129.5 13t104.5 30.5q2 0 2 -3q0 -4 -1 -5z" />
    <glyph glyph-name="U" unicode="U" horiz-adv-x="559" 
d="M555 -23q9 -5 16 -16t7 -25q0 -22 -19 -36t-39 -14q-13 0 -24 3.5t-19 8.5q-10 5 -18 13q-11 8 -19.5 23.5t-8.5 44.5q0 41 9 80t29 88q-12 -19 -26 -44.5t-27.5 -48t-25 -38.5t-16.5 -16q-11 1 -33 5.5t-44.5 16t-39 31t-16.5 49.5q0 23 10 55.5t24 67t29 66t25 53.5
q-20 -6 -51 -6q-86 0 -132 -4t-67.5 -11t-25 -16t-3.5 -18q0 -6 1.5 -10.5t1.5 -6.5q0 -4 -5 -4.5t-7 -0.5q-22 0 -28 12t-6 21q0 23 14.5 35.5t33 18.5t36.5 7.5t25 1.5q30 0 60 -1.5t57 -1.5q20 0 40 1.5t37 6t29.5 13.5t17.5 23l11 23q1 1 1.5 2t2.5 1t3 -1q3 0 9.5 -4.5
t13 -10.5t12 -12t5.5 -9q0 -5 -1 -8.5t-5.5 -12.5t-13 -26.5t-23.5 -50.5q-9 -20 -21 -47t-22.5 -54t-18 -51.5t-7.5 -39.5q0 -24 9.5 -37.5t21 -20t21.5 -7.5t12 -1q24 45 52 91.5t55.5 90t52.5 82t44 67t30.5 45l11.5 16.5h-1q0 -1 6.5 -4t15 -8t15 -11.5t6.5 -13.5
q0 -8 -4 -15t-15 -26t-30.5 -56.5t-50.5 -107.5q-37 -82 -57.5 -148t-20.5 -97q0 -2 1 -7t4 -9.5t9 -8t15 -3.5q19 0 28 10t12 22t3 22t3 10q1 0 1.5 -0.5t1.5 -0.5z" />
    <glyph glyph-name="V" unicode="V" horiz-adv-x="498" 
d="M595 339q-43 -72 -81.5 -135.5t-69 -111t-50.5 -75.5t-24 -28t-8 4q-2 2 -3 4q-32 48 -43.5 98t-11.5 95q0 31 3 57t8 46q5 23 12 41q-20 -6 -51 -6q-86 0 -132 -4t-67.5 -11t-25 -16t-3.5 -18q0 -6 1.5 -10.5t1.5 -6.5q0 -4 -5 -4.5t-7 -0.5q-22 0 -28 12t-6 21
q0 23 14.5 35.5t33 18.5t36.5 7.5t25 1.5q30 0 60 -1.5t57 -1.5q20 0 40 1.5t37 6t29.5 13.5t17.5 23l11 23q1 1 1.5 2t2.5 1t3 -1q3 0 9.5 -4.5t13 -10.5t12 -12t5.5 -9q0 -7 -5 -17q-35 -69 -47 -124.5t-12 -94.5q0 -45 9.5 -71.5t14.5 -34.5q12 22 30.5 55t40 72.5
t43 82.5t38.5 84.5t28 78.5t11 65q0 13 -4.5 22.5t-4.5 15.5q0 1 3 3q6 0 17 -2.5t21.5 -11t18.5 -24.5t8 -44q0 -17 -5.5 -43.5t-22.5 -55.5z" />
    <glyph glyph-name="W" unicode="W" horiz-adv-x="645" 
d="M757 436q0 -3 0.5 -6.5t0.5 -8.5q0 -17 -4.5 -44.5t-21.5 -57.5q-39 -69 -78 -132.5t-70 -112t-51 -77t-21 -28.5q-7 0 -13.5 12t-11.5 29.5t-8.5 38t-6.5 38t-4.5 29.5t-2.5 12t-6 -12t-12 -29.5t-16 -38t-18.5 -38t-19.5 -29.5t-19 -12q-5 0 -9 4q-2 2 -3 4q0 1 -1 2
q-31 48 -42 97t-11 94q0 31 3 57t8 46q5 23 12 41q-20 -6 -51 -6q-85 0 -131 -4t-67.5 -11t-25.5 -15.5t-4 -17.5q0 -7 1.5 -12t1.5 -6q0 -4 -5.5 -4.5t-7.5 -0.5q-22 0 -28 12.5t-6 20.5q0 23 15 35.5t34 18.5t37 7.5t24 1.5q30 0 60 -1.5t57 -1.5q45 0 75 8t49 36l11 23
l1 1l2 2q3 0 4 -1q3 0 9.5 -4.5t13 -10.5t12 -12t5.5 -9q0 -7 -5 -17q-35 -69 -47 -125t-12 -95q0 -42 8.5 -67.5t14.5 -35.5q20 33 38.5 77.5t33.5 85.5q18 48 33 98q1 7 7 25t12 37t11.5 33.5l5.5 14.5q15 -8 24 -12t14.5 -7t7.5 -6t2 -9t-6 -19t-16 -48q1 1 -5 -15.5
t-13 -44t-13 -61.5t-6 -67q0 -8 0.5 -18t1.5 -20t3.5 -18.5t6.5 -12.5q13 23 31.5 56t38.5 71.5t40 79.5t36 80t26 74t10 62q0 12 -4.5 21.5t-4.5 15.5q0 3 4 4q7 0 16 -2t18 -8t16.5 -17.5t11.5 -30.5v-6z" />
    <glyph glyph-name="X" unicode="X" horiz-adv-x="568" 
d="M563 57q1 0 2 1q1 0 2 0.5t3 0.5q5 0 5 -3l-2 -4q-20 -31 -43 -44t-47 -13q-20 0 -40.5 10.5t-37.5 31.5t-28 52t-11 71q0 14 1.5 28.5t5.5 30.5q-4 -1 -9.5 -1t-9.5 -1l-2 -5q-17 -40 -35 -77.5t-29 -60.5q-2 -2 -7.5 -14t-13.5 -25.5t-18.5 -24t-23.5 -10.5q-4 0 -6 1
l-30 14q-7 3 -13 15.5t-10 27.5t-6.5 29.5t-2.5 23.5q0 52 38 85.5t110 45.5q13 29 22.5 54t17.5 47q-11 -6 -28 -10t-42 -4q-8 0 -15 0.5t-14 0.5q-74 0 -114.5 -4.5t-59.5 -12t-22 -16t-3 -16.5q0 -7 1.5 -12t1.5 -6q0 -2 -8 -4q-4 -1 -7 -1q-20 2 -26 13t-6 21
q0 22 14.5 34.5t33.5 18.5t37 7.5t25 1.5q29 0 58.5 -1t56.5 -1q47 0 78 8t50 37h-1l12 23l1 1q0 2 2 2q3 0 4 -1q2 -2 7.5 -6t11.5 -9t11 -10.5t5 -11.5q-2 -14 -4 -25.5t-5.5 -25t-10.5 -31.5t-17 -44q2 1 6 0.5t6 0.5q17 51 42 87t51.5 58.5t52.5 32.5t45 10
q8 0 16.5 -4.5t15.5 -11t11.5 -15t4.5 -17.5q0 -29 -18 -53t-46 -44.5t-62 -36.5t-66 -28q-6 -27 -9 -51.5t-3 -43.5q0 -58 20 -91.5t47 -33.5q18 0 37.5 12.5t39.5 26.5zM230 78q10 21 24.5 52.5t31.5 68.5q-24 -12 -42 -30q-16 -16 -28.5 -42.5t-12.5 -65.5q0 -6 0.5 -12
t1.5 -12q4 0 7.5 8t17.5 33zM581 427q-54 -14 -87.5 -54.5t-49.5 -86.5q48 24 77 46.5t44.5 40.5t20.5 30t5 14q0 8 -4.5 9t-5.5 1z" />
    <glyph glyph-name="Y" unicode="Y" horiz-adv-x="495" 
d="M465 -33q8 -6 13 -15.5t5 -17.5q0 -14 -7 -21.5t-16 -11.5t-18 -5t-14 -1q-19 0 -32.5 2.5t-24.5 8.5t-22 14.5t-25 20.5q-3 -1 -5 -2l-6 -3q-51 -23 -90 -32t-68 -9q-63 0 -91.5 24t-28.5 53q0 11 4 21.5t6 10.5q2 -2 2 -3q5 -19 25 -30.5t43 -18t42.5 -9t24.5 -2.5
q22 0 43 2.5t39.5 6t33 8t23.5 8.5q-2 5 -2 11v13q0 25 6 54.5t17 58.5q-23 29 -32 61t-9 60q0 26 4.5 47.5t9.5 33.5q3 8 5 13t4 9t3 7q-20 -6 -50 -6q-86 0 -132.5 -4.5t-68 -11t-25 -15.5t-3.5 -18q0 -6 1.5 -10.5t1.5 -6.5q0 -4 -5 -4.5t-7 -0.5q-22 0 -28 12.5t-6 20.5
q0 23 14.5 35.5t33.5 18.5t37 7.5t24 1.5q31 0 60.5 -1.5t56.5 -1.5q20 0 40 1.5t37 6t29.5 13.5t17.5 23l11 23q3 3 4 3h-1q0 -1 7 -4t15 -8t15 -12t7 -14q0 -3 -11.5 -28.5t-36.5 -79.5v-1q0 -1 -1 -3t-2 -2q-9 -20 -12.5 -37t-3.5 -32q0 -11 1.5 -24t5.5 -24t11 -18.5
t17 -7.5q13 0 31.5 18.5t41.5 45.5q60 82 86.5 157t26.5 121q0 16 -6 29t-6 21q0 1 3 3q5 0 16.5 -3t23 -12t20.5 -26t9 -45q0 -17 -4.5 -35t-10.5 -32q-15 -35 -48 -93.5t-97 -130.5q-19 -19 -35.5 -32t-30.5 -21q-11 -30 -19 -54.5t-12 -44.5q-1 -2 -1 -4t-1 -4q13 3 33 3
q15 0 31.5 -4t32.5 -15zM443 -49q-5 2 -11 5q-5 2 -12.5 3.5t-17.5 1.5q-8 0 -16 -1t-18 -4q1 -10 9 -17t18 -11.5t20 -6.5t15 -2q22 0 24 13q0 13 -11 19z" />
    <glyph glyph-name="Z" unicode="Z" horiz-adv-x="377" 
d="M327 76q2 -3 2 -9v-11q0 -24 -11.5 -39.5t-28.5 -24.5t-38.5 -13t-40.5 -4q-25 0 -49.5 4t-45 9.5t-35 9.5t-19.5 4q-29 11 -38 27t-9 33q0 14 6.5 29t14.5 28t14.5 21t7.5 8q37 45 98.5 87t145.5 98q-31 2 -68 9t-79 24q-14 6 -25 16q-10 8 -17.5 20t-7.5 29v7t3 15
t10.5 14.5t22.5 6.5q11 0 25 -7q-3 -4 -5 -8q-4 -10 -4 -20q0 -29 39.5 -45t97.5 -16q21 0 38 1t34.5 4t37.5 9.5t46 18.5h3q2 0 12.5 -14t10.5 -37q0 -12 -3.5 -15.5t-23 -12.5t-62 -30.5t-119.5 -68.5q-110 -68 -165.5 -119.5t-55.5 -64.5q0 -9 15 -13.5t34.5 -6t39 -1
t28.5 0.5q19 0 43 1.5t46.5 6.5t40.5 15t26 28q2 2 3 2h-1h1q4 0 5 -6z" />
    <glyph glyph-name="a" unicode="a" horiz-adv-x="219" 
d="M-5 122q12 18 25 35t26.5 30t26 20.5t22.5 7.5q6 0 11 -3q9 -6 16.5 -11.5t12.5 -9.5q6 -4 11 -8q1 0 3 5t3.5 11t3.5 11.5t3 6.5q2 0 9 -4t14.5 -10.5t13 -14.5t5.5 -17q0 -1 -5 -11t-12 -25t-16 -33t-16 -35t-12 -30.5t-5 -18.5q0 -3 2 -3q5 0 16.5 10.5t23.5 23
t22.5 23t12.5 10.5q1 0 3.5 -1t2.5 -5q0 -5 -7 -15q-21 -27 -35.5 -41t-25 -20.5t-17 -7.5t-10.5 -1q-17 0 -24 10.5t-7 24.5q0 19 8 41.5t16 39.5q-11 -13 -25.5 -29.5t-29 -32t-26 -28t-14.5 -16.5t-11 -4q-15 0 -30 10t-15 31q0 15 7 36.5t23 47.5zM31 46q9 6 26.5 25.5
t34.5 40.5q20 25 44 53q-10 5 -17 5q-17 0 -42.5 -28t-49.5 -82q-4 -7 -4 -11q0 -5 4 -5q2 0 3 1q1 0 1 1z" />
    <glyph glyph-name="b" unicode="b" horiz-adv-x="190" 
d="M0 165q13 40 32 77t38.5 68.5t37 56t28.5 38.5v1q2 2 7.5 4.5t12.5 2.5h5t5 -1l36 -19q2 -2 6.5 -8.5t4.5 -19.5v-6v-1q-3 -23 -19.5 -58.5t-51.5 -76.5q4 1 12 1q15 -1 21 -12.5t6 -28.5q0 -39 -12 -72.5t-31.5 -58t-43.5 -39t-47 -14.5q-63 0 -63 86q0 32 10 62zM62 20
q19 3 33.5 13.5t28.5 35.5q0 -2 -5 -2h-7q-26 0 -38.5 14.5t-12.5 35.5q0 8 2 19.5t8 26.5q-4 -2 -14 -6q-29 -73 -29 -109q0 -12 4.5 -20.5t21.5 -8.5q5 0 8 1zM160 180q0 13 -7 13q-6 0 -13 -8.5t-13 -22t-10 -31t-4 -34.5t8 -17q7 0 13.5 13t12 29.5t9.5 31.5t4 18v8z
M182 374q-3 0 -14 -15.5t-27 -41t-34.5 -59t-35.5 -70.5q31 22 52.5 50t34.5 55t19 48t6 29q0 1 -0.5 1.5t-0.5 1.5v1z" />
    <glyph glyph-name="c" unicode="c" horiz-adv-x="168" 
d="M79 127q18 2 31.5 9t22.5 15.5t13.5 16.5t4.5 11q0 9 -6.5 10.5t-10.5 1.5q-14 0 -27 -10t-24 -22q-13 -14 -25 -31q-17 -26 -23 -44t-6 -31q0 -17 4 -25t9.5 -11t10 -2.5t5.5 0.5q15 0 30.5 10.5t29.5 22.5t25 22.5t17 10.5q2 0 4 -1t2 -6q0 -4 -2 -7q-20 -20 -34 -32.5
t-23 -20.5q-11 -9 -17 -14q-22 -7 -41 -7q-24 0 -38 9t-21 20q-8 13 -10 30q-1 5 -1 15q0 32 12.5 57t27.5 43q18 21 41 37q25 15 48 15q13 0 22.5 -3.5t17.5 -8.5t15 -11q6 -9 6 -20q0 -17 -7.5 -28.5t-18 -19t-20.5 -11t-15 -3.5q-14 0 -22 5q-5 3 -9 6h-1q0 2 3 2z" />
    <glyph glyph-name="d" unicode="d" horiz-adv-x="226" 
d="M126 107q-15 -18 -32.5 -37.5t-33 -35.5t-27.5 -26t-15 -10q-14 0 -28.5 9t-14.5 30q0 20 13.5 50.5t33.5 59t42.5 48.5t40.5 20q7 0 16.5 -5.5t17.5 -12t12.5 -11.5t3.5 -3q32 57 50 100.5t28 73t14 44t9 14.5q1 0 7 -2q18 -12 27 -22t9 -23q1 -8 -3 -16.5t-9 -19.5
t-19.5 -41t-29.5 -62q-18 -38 -39 -81q-16 -34 -27 -61q-11 -23 -19 -44t-8 -26q0 -2 1 -2q5 0 16.5 10.5t23.5 23t22.5 23t12.5 10.5q1 0 3.5 -1t2.5 -6q0 -2 -1 -5.5t-6 -8.5q-20 -26 -34.5 -40t-25 -21t-17 -8t-11.5 -1q-17 0 -24 10.5t-7 24.5q0 19 8.5 41.5t16.5 39.5z
M36 60q-4 -7 -4 -11q0 -5 4 -5q3 0 9 5t14 13.5t17.5 19.5t18.5 22q22 26 48 61q-10 5 -16 5q-16 0 -40.5 -27.5t-50.5 -82.5z" />
    <glyph glyph-name="e" unicode="e" horiz-adv-x="167" 
d="M-22 34q-1 5 -1.5 9t-0.5 9q0 16 4.5 32t11.5 30t15 25.5t15 19.5q13 14 25 24.5t20 16.5q10 7 18 11q14 7 23 7q8 0 16.5 -4t16 -10t12 -12.5t4.5 -10.5q0 -22 -11 -41t-27.5 -33t-34.5 -22t-33 -8q-7 0 -10 1q-8 -20 -8 -35q0 -12 3.5 -18t7.5 -8.5t8 -2t6 0.5
q14 0 29 10.5t28.5 22.5t24.5 22.5t18 10.5q2 0 4 -1t2 -6q0 -3 -4 -7q-26 -27 -44.5 -46t-26.5 -21q-23 -8 -45 -8q-29 0 -47.5 14.5t-18.5 27.5zM117 135q11 13 15.5 20.5t4.5 11.5q0 5 -7 5q-11 -2 -23 -10q-11 -7 -25 -21t-30 -40h4q11 0 25.5 6.5t35.5 27.5z" />
    <glyph glyph-name="f" unicode="f" horiz-adv-x="121" 
d="M-66 -33q-1 -2 9 19.5t25 54.5t32.5 72.5t32.5 73.5h-42q2 8 6 14q3 5 7.5 10t12.5 5h29q27 60 41.5 96t22.5 53q2 4 4.5 12l5 16t4.5 14t3 6q3 0 10 -4.5t15 -11t14 -15.5t6 -18q0 -7 -3 -13q-1 -2 -4 -7.5t-9.5 -20t-18.5 -40t-31 -67.5h38q-4 -8 -8 -14q-4 -5 -9 -10
t-11 -5h-10t-15 -2q-2 -17 -7 -52.5t-12.5 -76t-18 -79t-22.5 -60.5q-14 -26 -31 -33.5t-28 -7.5q-8 0 -10 1q-3 0 -4 1l1 -1l-1 1q-1 0 -2 1q-2 0 -8 2t-12 6.5t-10.5 11.5t-4.5 18q0 17 5.5 32.5t7.5 17.5zM11 -62q9 19 16 44t12.5 49t9 44.5t5.5 32.5q-8 -16 -14 -29
t-11 -23q-5 -11 -9 -21l-8.5 -18t-19 -41t-19 -44t-8.5 -27q0 -5 3.5 -6.5t6.5 -1.5q19 0 36 41z" />
    <glyph glyph-name="g" unicode="g" horiz-adv-x="226" 
d="M-13 -124q-2 0 -11 0.5t-20 3.5t-20 10t-10 21q0 16 8.5 27t20.5 17.5t26 9t26 2.5q19 0 33.5 -3.5t19.5 -5.5q4 9 8 16t9.5 18.5t13.5 30t20 50.5l13 34q-11 -13 -25.5 -29.5t-29 -32t-26 -28t-14.5 -16.5t-11 -4q-15 0 -30 10t-15 31q0 20 14 50t34 58.5t42.5 48.5
t40.5 20q6 0 11 -3q9 -6 16 -11.5t12 -9.5q6 -4 11 -8q1 0 3 5t3.5 11t3.5 11.5t3 6.5q3 0 9.5 -4t14 -10.5t13 -14.5t5.5 -17q0 -2 -16.5 -40t-44.5 -97q-2 -2 -4 -9q-1 -4 -1 -7t2 -3q5 0 16.5 10.5t24 23t22.5 23t12 10.5q1 0 3.5 -1t2.5 -5q0 -5 -7 -15
q-20 -26 -34.5 -39.5t-24.5 -20.5t-17 -8t-11 -1h-5q0 -1 -3 -8t-7.5 -15.5t-9 -16t-6.5 -10.5q5 -2 17.5 -5.5t29 -7t35 -6t36.5 -2.5q2 0 22 1t44.5 7t47 18t28.5 35q2 2 3 2q2 1 5.5 -7t3.5 -22q0 -33 -29 -56t-90 -23q-34 0 -72.5 11t-97.5 35q-20 -19 -41 -32t-56 -14z
M39 46q9 6 26.5 25.5t34.5 40.5q20 25 44 53q-10 5 -17 5q-10 0 -18.5 -5.5t-14.5 -13.5q-3 -3 -13 -15.5t-21 -28t-20 -31.5t-9 -27q0 -5 4 -5q2 0 3 1q1 0 1 1zM48 -65q-21 7 -40 7q-20 0 -30.5 -3t-15.5 -7.5t-6 -9t-1 -7.5q0 -15 23 -15q14 0 33 8t37 27z" />
    <glyph glyph-name="h" unicode="h" horiz-adv-x="221" 
d="M48 229q26 59 40.5 94t21.5 53q2 6 5 14t5.5 15.5t4.5 13t3 5.5q2 0 9.5 -4t15 -11t13.5 -16t6 -18q0 -6 -3 -13t-5 -12l-5 -9q-3 -7 -11 -24t-18 -38t-20.5 -43.5t-19.5 -40.5q-12 -26 -22 -48q-8 -19 -16 -35.5t-10 -21.5q7 9 22.5 27.5t34 39t38.5 39t35 28.5
q11 -5 21 -11q8 -5 14.5 -11.5t6.5 -14.5q0 -2 -5.5 -13t-14 -26.5t-18.5 -34.5t-18.5 -36t-14 -31t-5.5 -20q0 -1 1 -2q4 0 15.5 10.5t24.5 23t23.5 23t12.5 10.5q1 0 3 -1.5t2 -5.5q0 -5 -7 -15q-21 -26 -35.5 -39.5t-24.5 -20.5t-16.5 -8t-10.5 -1q-17 0 -24.5 9.5
t-7.5 24.5q0 29 11.5 61t37.5 79q-23 -26 -46 -54q-20 -25 -42 -56t-41 -65l-7 0.5t-14.5 4t-14 11t-6.5 22.5q0 10 4 22q1 3 3 8t9 21.5l21 49.5t39 91z" />
    <glyph glyph-name="i" unicode="i" horiz-adv-x="101" 
d="M89 289q9 -5 16.5 -14.5t7.5 -20.5q0 1 -0.5 -4t-2.5 -12t-6 -13t-10 -6q-1 0 -6.5 2.5t-11.5 7t-11 10t-5 10.5v2q1 3 4 9t6 13t6.5 12t6.5 5q4 0 6 -1zM-19 12q-4 7 -4 19q0 22 10 54.5t23 62.5q14 35 33 72q1 2 1.5 5t6.5 3q4 0 10.5 -4t12 -11t9.5 -15t4 -15t-3 -11
q-5 -10 -15.5 -29.5t-22 -41.5t-20 -42.5t-8.5 -32.5q0 -3 2 -3t13 10.5t23.5 23t23.5 23t13 10.5t4 -1.5t2 -5.5q0 -5 -7 -15q-18 -25 -32 -39t-24.5 -20.5t-17.5 -8t-11 -1.5q-2 0 -10 1.5t-16 11.5z" />
    <glyph glyph-name="j" unicode="j" horiz-adv-x="102" 
d="M168 -113q-14 -4 -28.5 -6t-31.5 -2q-30 0 -67 9t-87 32q-4 2 -5.5 3t-5.5 3q-11 -10 -22 -18.5t-23.5 -15t-28 -10t-34.5 -3.5q-6 0 -14.5 1t-16.5 5t-14 11.5t-6 20.5q0 14 10 24.5t23.5 17t28 9.5t24.5 3q18 0 31 -3.5t18 -5.5q1 -1 16 23.5t36 63t43.5 86.5t39.5 93
q1 1 1.5 2t3.5 1q2 0 8.5 -4t13 -10.5t12 -14.5t5.5 -16q0 -5 -1 -8q-12 -25 -26 -51q-12 -23 -27 -50.5t-31 -54.5q0 -3 1 -3q5 0 17 10.5t25.5 23t25.5 23t15 10.5q1 0 3 -1.5t2 -5.5q0 -6 -9 -15q-24 -27 -40.5 -41t-27.5 -20.5t-18 -7t-11 -0.5q-8 -14 -18.5 -29.5
t-15.5 -19.5q5 -2 17 -5t27.5 -7t33.5 -6.5t36 -2.5h10q4 0 24 2.5t43.5 9t45 18t28.5 30.5q0 3 2 3q1 0 3 -3q4 -6 4 -20q0 -5 -2.5 -16t-9.5 -23t-20.5 -23t-35.5 -16zM-91 -62q-12 5 -22.5 6.5t-18.5 1.5q-20 0 -31 -3.5t-16.5 -8t-6.5 -9.5t-1 -8q0 -13 22 -13
q14 0 34 7.5t40 26.5zM95 301q8 -6 19 -16.5t11 -24.5q0 -3 -2 -9h1q-2 0 -1.5 -1t-0.5 -3l-2 -4t-4.5 -8.5t-5 -8t-5.5 -3.5q-4 0 -10.5 3.5t-12.5 8.5t-10.5 10.5t-4.5 9.5q0 3 2.5 11t6.5 16t7.5 14.5t5.5 6.5t6 -2z" />
    <glyph glyph-name="k" unicode="k" horiz-adv-x="220" 
d="M54 100q-21 -42 -31 -71.5t-18 -29.5q-8 1 -20 8t-12 27q0 15 8.5 37.5t16.5 40.5q19 42 30 68t18.5 42.5t12 27t9.5 21.5q-12 -6 -21 -15.5t-15 -24.5q-1 -1 -1 -2q-1 -1 -2 -1q-2 0 -3 2t-1 12q0 7 2 17t8 19.5t17.5 17.5t31.5 11q4 15 10.5 31.5t14.5 30.5
q3 5 8.5 13.5t15 16.5t24 14t34.5 6q22 0 43 -9.5t24 -33.5q0 -26 -16.5 -43t-38 -27.5t-42 -16t-28.5 -8.5q-8 -17 -17.5 -36.5t-17.5 -36.5q10 7 23 12t27 5t29 -6l4.5 -2.5t10 -7.5t10.5 -13t5 -19q0 -9 -3 -18.5t-13.5 -19t-31.5 -19.5t-57 -20q0 -4 0.5 -16.5t3.5 -26
t10 -24t21 -10.5q4 0 16 10.5t25 22.5t24 22.5t13 10.5q1 0 3.5 -1t2.5 -5q0 -5 -7 -15q-20 -26 -34.5 -39.5t-24.5 -20.5t-17 -8t-11 -1q-19 0 -34 11q-13 9 -24.5 29.5t-14.5 60.5zM147 195q-4 4 -11 4q-11 0 -27.5 -9.5t-27.5 -18.5q-2 -3 -7 -16t-14 -34q10 3 25.5 9.5
t29.5 15.5t24 19.5t10 22.5q0 3 -2 7zM173 367q-7 -11 -11.5 -23t-11.5 -26q2 1 4.5 2t4.5 2q10 5 17.5 10t12.5 9q6 4 10 7l-1 -1q1 0 10 8t9 26q0 5 -3 10.5t-11 5.5q-5 0 -12 -5.5t-18 -24.5z" />
    <glyph glyph-name="l" unicode="l" horiz-adv-x="100" 
d="M137 421q10 -6 23 -18.5t13 -27.5q0 -7 -3 -13q-21 -52 -46 -102.5t-51 -102.5q0 -1 -8.5 -19.5t-18.5 -42t-18.5 -44t-8.5 -25.5q0 -2 1 -2q5 0 16.5 10.5t23.5 23t22.5 23t13.5 10.5q1 0 3 -1.5t2 -5.5q0 -3 -1 -6.5t-6 -8.5q-21 -26 -35.5 -39.5t-24.5 -20.5t-16.5 -8
t-10.5 -1q-18 0 -25.5 10.5t-7.5 24.5q0 19 8 40.5t16 38.5q29 65 48.5 108t32 72.5t20 48t13.5 33.5q1 3 3 11t4.5 16t5 14t4.5 7q3 0 8 -3z" />
    <glyph glyph-name="m" unicode="m" horiz-adv-x="336" 
d="M225 2q-14 7 -15.5 23t3.5 35q4 20 14.5 48t30.5 65q-23 -25 -46 -54q-20 -25 -42.5 -56.5t-41.5 -64.5q-15 1 -26 7q-9 5 -14 17.5t3 35.5q1 3 3 8.5t4.5 12.5t5 12.5t3.5 8.5q11 32 34 73q-23 -25 -46 -54q-20 -25 -42.5 -56.5t-41.5 -64.5q-15 1 -26 7q-9 5 -14 17.5
t3 35.5q8 29 25.5 59.5t28.5 58.5q5 13 9.5 24t6.5 24v1v1q0 2 3 2q1 0 8 -2q3 -3 5 -4q6 -4 12.5 -10t11.5 -12.5t7 -14.5t-1 -16q-11 -23 -25 -43.5t-31 -43.5q25 32 50 59q21 23 44 46.5t41 35.5q15 -7 26 -14q9 -6 14 -14.5t0 -17.5q-6 -11 -19 -33t-25 -46
q10 12 25 29.5t32 36t34 34.5t31 25q14 -7 25 -14q9 -6 14.5 -14.5t0.5 -17.5q-8 -13 -24.5 -40.5t-28.5 -56.5q-4 -6 -6 -14q-8 -17 -12.5 -29t-2.5 -14q2 0 4 1q5 2 14.5 9t19 16.5t18.5 19.5t14 17q0 1 2 2q3 3 6 1q2 -1 4 -5.5t-7 -15.5q-17 -21 -34 -36.5t-22 -20.5
q-14 -10 -23 -11.5t-14 -0.5h-1l-9 3v0z" />
    <glyph glyph-name="n" unicode="n" horiz-adv-x="220" 
d="M36 82q25 32 50 59q21 23 44 46.5t41 35.5q15 -7 26 -14q9 -6 14 -14.5t0 -17.5q-8 -13 -24 -40.5t-29 -56.5q-2 -4 -6 -14q-8 -17 -12.5 -29t-2.5 -14q2 0 4 1q5 2 14.5 9t19 16.5t18.5 19.5t14 17q0 1 2 2q3 3 6 1q2 -1 4.5 -5.5t-7.5 -15.5q-17 -21 -33.5 -36.5
t-22.5 -20.5q-14 -10 -23 -11.5t-14 -0.5q-4 1 -10 3q-14 7 -15.5 23t3.5 35q4 20 14.5 48t30.5 65q-23 -25 -46 -54q-20 -25 -42 -56.5t-41 -64.5q-15 1 -26 7q-9 5 -14 17.5t2 35.5q9 29 26 59.5t28 58.5q1 4 4.5 12.5t6.5 17t4.5 14t0.5 4.5v1v1q0 2 3 2q2 1 4 0l4 -2
t3 -2t3 -2q12 -8 24 -22t5 -31q-1 -2 -3 -7t-13 -22q-12 -17 -23 -33.5t-16 -24.5z" />
    <glyph glyph-name="o" unicode="o" horiz-adv-x="196" 
d="M151 223q18 -1 23.5 -14t5.5 -27q0 -19 -4 -33t-9 -30q6 0 13 4t13.5 9t11.5 9t7 4t5 -3t3 -6q0 -6 -8 -13t-18.5 -13t-21 -10t-15.5 -4q-24 -42 -51.5 -70t-62.5 -28q-17 0 -28.5 6t-18.5 15.5t-9.5 21t-2.5 22.5q0 17 5.5 35.5t13.5 35.5t18 30.5t20 21.5
q16 12 28 12.5t20 1.5q25 23 62 23zM54 19q10 0 20 7t19.5 17.5t18.5 23.5t16 26q0 -2 -7 -2h-9q-20 0 -32.5 8.5t-14.5 31.5q-17 -22 -24.5 -42.5t-7.5 -37.5q0 -14 5 -23t16 -9zM128 111q6 0 9 1q11 25 15 42.5t4 24.5q0 13 -7 13q-5 0 -10.5 -6t-10.5 -15.5t-8.5 -21
t-3.5 -21.5q0 -17 12 -17z" />
    <glyph glyph-name="p" unicode="p" horiz-adv-x="246" 
d="M-74 -69q7 18 19 47.5t25.5 62t27.5 65.5t25 60t17.5 43.5t5.5 16.5l7 -3.5t15.5 -10t15 -15t6.5 -17.5q13 16 30 29t34 13q6 0 14 -3l21 -10q7 -5 12 -12q5 -6 8.5 -15t3.5 -22q0 -5 -2.5 -16.5t-8 -27.5t-14.5 -35t-21 -37q-2 -3 -5 -9t-3 -10q0 -2 2 -2q1 0 12.5 10.5
t25 22.5t25 22.5t13.5 10.5q7 0 7 -6q0 -5 -7 -15l-40 -40t-22 -21t-13.5 -8t-13.5 -1q-4 0 -10 1.5t-8 4.5q-20 -15 -40 -15q-2 0 -10.5 0.5t-19 4.5t-20 13.5t-13.5 27.5q-4 -9 -6.5 -14l-5.5 -11l-8.5 -17t-15.5 -32q-1 6 -5 -7t-10.5 -31t-13.5 -34t-14 -16
q-9 0 -17.5 9.5t-8.5 25.5q0 11 4 23zM70 125q-10 -17 -15.5 -35.5t-5.5 -38.5q0 -33 17 -33q10 0 23 10q7 6 20 24.5t25.5 41.5t21.5 46t9 38q0 4 -1.5 11.5t-16.5 7.5q-10 0 -22 -9.5t-23.5 -22t-20 -24.5t-11.5 -16z" />
    <glyph glyph-name="q" unicode="q" horiz-adv-x="236" 
d="M29 0q-3 -4 -11 -4q-16 0 -32 10t-16 30q0 21 15 51.5t36 58.5t45 48t42 20q6 0 14 -4.5t15.5 -9.5t13 -9.5t6.5 -5.5q4 10 4 12l6 14q3 6 5 15q4 0 12 -5t15.5 -13t13.5 -18t6 -20q0 -1 -11 -22t-24 -47.5t-24 -51t-11 -32.5q0 -3 2 -3q5 0 17 10.5t25 23t24 23t13 10.5
q1 0 4 -1t3 -6t-7 -15q-23 -26 -38.5 -40t-26 -20.5t-17 -7.5t-12.5 -1q-2 0 -3 0.5t-2 0.5q-2 0 -5 -4t-8 -15.5t-13 -33t-20 -57.5q-2 -5 -5.5 -6.5t-5.5 -1.5q-8 0 -18 9.5t-10 24.5q0 12 8 33.5t19.5 48t25 55t24.5 54.5q-12 -13 -27 -28t-28.5 -29.5t-24.5 -25.5
t-14 -15zM149 161q0 2 1 3q-10 5 -18 5q-10 0 -19 -5.5t-15 -13.5q-3 -3 -14 -15.5t-22.5 -28t-21 -31.5t-9.5 -27q0 -5 4 -5q5 0 21.5 16t35 36.5t35.5 40t22 25.5z" />
    <glyph glyph-name="r" unicode="r" horiz-adv-x="177" 
d="M174 90q5 -3 5 -7q0 -6 -7 -14q-22 -27 -36.5 -41t-24.5 -20.5t-16.5 -7.5t-11.5 -1q-18 0 -24 11t-6 27q0 8 2 20t4 16v-1q6 24 18 51.5t36 70.5q-17 -4 -29.5 -4.5t-24.5 -2.5q-8 -29 -20.5 -53.5t-25 -42.5t-23 -28.5t-13.5 -10.5q-5 0 -6 2.5t-1 4.5q0 3 8 13.5
t19 26t23 37t21 47.5q1 1 1 3q-8 -2 -15 -2q-11 0 -22 4.5t-11 15.5q0 15 6 25t14 16t16 8.5t13 3.5h6q14 0 17 -11t3 -16q0 -6 -2 -16l-1 -6q22 3 42 8.5t23 5.5t10 -3t13.5 -8t12 -11t5.5 -13q0 -3 -12 -24.5t-26 -48.5t-26 -52.5t-12 -36.5v-1q3 0 5 1q4 2 15.5 12.5
t23.5 22t21.5 21t10.5 9.5h2zM44 240q-4 -2 -8.5 -10t-4.5 -15q0 -9 14 -9q5 0 6.5 10t1.5 12q0 3 -0.5 8t-5.5 5q-1 0 -1.5 -0.5t-1.5 -0.5z" />
    <glyph glyph-name="s" unicode="s" horiz-adv-x="138" 
d="M-5 60q-10 -7 -14 -13q-4 -5 -4 -11t9 -11q13 -5 25 -5q10 0 20.5 5.5t15.5 22.5q2 4 2 9q0 11 -4 27q-16 -5 -29 -11t-21 -13zM-34 60q14 14 33.5 24t38.5 18q-4 10 -11 18.5t-9 19.5q-5 19 0 38.5t15.5 35t24.5 26t28 13.5q20 4 36 4.5t27 -0.5q1 0 2 -1q3 -3 3 -4
q0 -2 -0.5 -3.5t-5.5 -5.5q-10 -7 -23 -17.5t-24 -23t-18.5 -26.5t-7.5 -28q3 -23 8.5 -49.5t4.5 -50.5t-14 -41.5t-47 -22.5q-14 -2 -27.5 0t-25 8t-18 15.5t-6.5 23.5t16 29z" />
    <glyph glyph-name="t" unicode="t" horiz-adv-x="104" 
d="M169 355q4 0 13.5 1t21 1.5t24 1.5t22.5 2q3 0 3 -3q0 -12 -8 -18t-20.5 -7.5t-28 -1t-29.5 0.5h-9q-8 -17 -21.5 -46t-27.5 -58q-16 -33 -34 -71q-16 -34 -27 -61q-11 -23 -19 -44t-8 -26q0 -2 1 -2q5 0 16.5 10.5t23.5 23t22.5 23t13.5 10.5q1 0 3 -1.5t2 -5.5
q0 -3 -1 -6.5t-6 -8.5q-21 -25 -35.5 -39t-24.5 -20.5t-16.5 -8t-11.5 -1.5q-18 0 -25 10.5t-7 24.5q0 19 8 40.5t16 38.5q24 54 39.5 87.5t25 56.5t16.5 39t15 35q-55 0 -103.5 1t-80.5 1q-47 0 -82.5 -4t-51.5 -16q-3 -2 -8.5 -7t-10.5 -8t-9.5 -1.5t-4.5 10.5q0 1 0.5 11
t8.5 20.5t28.5 19.5t59.5 9h12.5t14.5 -1q69 -5 126 -9t111 -4q2 4 5 15t7 23t7.5 21.5t5.5 10.5q3 0 10 -4.5t14.5 -11t13.5 -15.5t6 -18q0 -5 -2 -10.5t-4 -9.5z" />
    <glyph glyph-name="u" unicode="u" horiz-adv-x="223" 
d="M220 85q4 -2 4 -7t-7 -15q-21 -26 -36 -40t-25.5 -20.5t-17 -7.5t-10.5 -1q-17 0 -23.5 10.5t-6.5 23.5q0 19 8 41.5t16 39.5q-41 -47 -70 -78.5t-42 -31.5q-19 0 -26 10.5t-7 24.5q0 13 4 28t9.5 29t11 25.5t8.5 19.5q3 6 8.5 21l11 30t10 26.5l4.5 11.5q2 0 8.5 -4
t14 -10.5t13.5 -14.5t6 -17q0 -3 -5.5 -15t-14 -29t-18 -36.5t-16.5 -37.5q-3 -6 -3 -10q0 -5 4 -5t13.5 9t21.5 23t25 30t24 29t18 22t7 8q9 12 12.5 21.5t5 16t2 10.5t4.5 4q3 0 10 -4t13.5 -10.5t12 -15t5.5 -16.5q0 -1 -5 -10.5t-12 -25t-16 -33.5t-16 -34.5t-12 -30
t-5 -18.5q0 -3 2 -3q5 0 17 10.5t24 23t22.5 23t12.5 10.5h1v0z" />
    <glyph glyph-name="v" unicode="v" horiz-adv-x="193" 
d="M134 324q9 4 20 4q13 0 23.5 -7t18 -17.5t12 -23.5t4.5 -25q0 -23 -11.5 -46.5t-35.5 -52.5t-61 -66.5t-87 -88.5q-1 0 -7.5 0.5t-14 4t-13.5 11t-6 21.5q0 23 11.5 49.5t25.5 52t25.5 48.5t11.5 39v1v2l3 2q7 0 15 -4.5t14.5 -11.5t11 -16t4.5 -17q0 -4 -2 -10
t-15.5 -25t-28.5 -41t-27 -42t-12 -29q0 -4 1.5 -5t0.5 -1q6 6 17.5 18t31.5 33q21 22 39.5 47.5t31.5 50.5t20.5 47.5t7.5 38.5q0 14 -5 24.5t-10 18.5q-6 9 -14 16z" />
    <glyph glyph-name="w" unicode="w" horiz-adv-x="291" 
d="M220 323q8 4 19 4q13 0 25 -7.5t20.5 -18.5t13.5 -24.5t5 -25.5q0 -24 -10 -47t-31 -51.5t-54 -65t-79 -87.5q-1 0 -8 0.5t-15 4.5t-14.5 12.5t-6.5 24.5q0 4 0.5 11.5t2.5 9.5q-10 -11 -23 -25.5t-34 -37.5q-1 0 -8 0.5t-14.5 4.5t-14 12.5t-6.5 24.5q0 15 5.5 32.5
t13 35.5t15 35.5t12.5 32.5q1 2 1 2.5t1 2.5q0 1 1.5 6.5t3.5 12.5t3.5 13.5t1.5 9.5v1q1 -1 -0.5 1t3.5 4q6 0 14 -5t15.5 -12.5t13 -16.5t5.5 -18q0 -2 -0.5 -3.5t-0.5 -3.5q-2 -6 -13.5 -24.5t-24.5 -40t-23.5 -41.5t-10.5 -29q0 -5 2 -6.5t1 -1.5q3 3 14 15t25 29t29 37
t26 40q2 4 6 13t8 19t7 20t3 18q0 2 -0.5 3t-0.5 3q1 -1 -0.5 1t3.5 4q2 0 9.5 -4.5t16 -11.5t15.5 -16.5t7 -18.5q0 -5 -1 -8q-2 -6 -13.5 -24t-24.5 -39.5t-23.5 -41.5t-10.5 -30q0 -8 3 -8q5 6 15.5 18t29.5 33t34.5 45t26.5 48t17 46t6 39q0 14 -5.5 26.5t-11.5 20.5
q-8 10 -17 18z" />
    <glyph glyph-name="x" unicode="x" horiz-adv-x="205" 
d="M200 85q5 -3 5 -8q0 -6 -7 -14q-21 -25 -36 -39t-25 -20.5t-16.5 -8t-11.5 -1.5q-9 0 -15 4q-26 11 -35 29t-9 29q-42 -26 -62.5 -38t-28.5 -16t-10 -3t-6 1q-9 0 -13 6q-2 3 -3 7q36 21 64 40.5t50 37.5q-4 16 -7 32.5t-6 30.5q-4 16 -7 31q1 0 0 4.5t-3 10l-4 11
t-2 7.5q0 3 3.5 3.5t5.5 0.5q24 0 35.5 -4.5t17 -15t7 -27.5t4.5 -43q18 18 29.5 32t17.5 24t8 15.5t3 7.5q1 5 0.5 7.5t4.5 2.5q-3 0 3.5 -1t15.5 -4.5t17 -11.5t8 -22q0 -9 -9.5 -21.5t-23.5 -25.5t-32 -26.5t-34 -24.5q3 -19 7 -33q4 -12 9.5 -22t13.5 -10q3 0 14.5 10.5
t25 22.5t24 22.5t12.5 10.5h1v0z" />
    <glyph glyph-name="y" unicode="y" horiz-adv-x="224" 
d="M370 -17q0 -5 2.5 -11.5t2.5 -14.5q0 -6 -2 -15t-8.5 -19.5t-18.5 -20t-31 -15.5h-1q-13 -3 -27 -5.5t-31 -2.5q-34 0 -72 11.5t-98 35.5q-20 -20 -43 -33.5t-61 -13.5q-5 0 -14 1t-18 5t-16 11.5t-7 21.5t9 24t21.5 16t26.5 9t25 3t21 -1.5t18 -3.5q9 -3 16 -5
q10 15 19 37t16.5 44t13.5 41t10 28q-25 -26 -42.5 -46t-30.5 -34.5t-23 -22t-19 -7.5q-17 0 -24 10t-7 24q0 19 8.5 41.5t16.5 39.5h-1q19 45 29.5 77.5t15.5 32.5q4 0 10.5 -4.5t13 -11.5t11.5 -15t5 -15q0 -2 -5.5 -14t-13.5 -29t-17.5 -36.5t-17.5 -37.5h1q-3 -8 -3 -10
q0 -5 4 -5t13 9t21.5 22.5t25.5 29t24 29t18 22l7 8.5q9 12 12.5 21.5t5 16.5t2.5 10.5t5 3.5q3 0 9.5 -4t13 -10.5t12 -14.5t5.5 -16q0 2 -2 -3.5t-9 -22t-19.5 -46t-34.5 -75.5q-1 -2 -1 -5q0 -4 2 -4q4 0 15.5 10.5t23.5 23t22.5 23t13.5 10.5q2 0 4 -1.5t2 -5.5
q0 -5 -7 -15q-21 -26 -35.5 -39.5t-24.5 -20t-16.5 -7.5t-10.5 -1h-3q-8 -16 -15.5 -31.5t-10.5 -17.5q6 -2 18.5 -5.5t29 -7t34 -6t34.5 -2.5h10q4 0 24 2.5t43 9t43 18.5t25 31q0 2 2 2q1 0 2 -1q2 -2 3 -4zM50 -62q-12 5 -22.5 6.5t-19.5 1.5q-20 0 -30.5 -3t-15 -7.5
t-5.5 -9t-1 -7.5q0 -15 24 -15q14 0 33.5 7.5t36.5 26.5z" />
    <glyph glyph-name="z" unicode="z" horiz-adv-x="185" 
d="M395 -21q3 -9 3 -22q0 -15 -7 -29t-21 -25t-36.5 -17.5t-53.5 -6.5q-17 0 -35 3t-38 8.5t-44 14.5t-54 21q-20 -20 -42.5 -33.5t-60.5 -13.5q-5 0 -14.5 1t-18.5 5.5t-16 12t-7 21.5q0 13 9 23t22 16t27 9t24 3q11 0 21.5 -1.5t18.5 -3.5q9 -3 16 -5q10 22 10 33
t-10.5 23t-28.5 12q-17 3 -21.5 9t-4.5 12q0 26 22.5 64t61.5 81q-16 -4 -29.5 -4.5t-24.5 -2.5q-8 -29 -20.5 -54t-25 -43t-22.5 -28t-13 -10q-5 0 -6.5 3t-1.5 5t8 12.5t19.5 26.5t24 37.5t20.5 46.5q0 2 1 3q-2 0 -6 -1t-10 -1q-10 0 -20.5 4t-12.5 16q0 15 6 25t14 16
t16 8.5t13 3.5h6q14 0 17 -11t3 -16q0 -4 -0.5 -8.5t-2.5 -13.5q23 3 43 8.5t22 5.5t8.5 -2.5t14 -7.5t13.5 -11.5t6 -13.5q0 -8 -11 -18t-25 -25t-29 -37t-22 -52q31 -6 42.5 -22t11.5 -33q0 -20 -8 -35.5t-10 -18.5q5 -2 17 -5l28 -7t34.5 -6.5t36.5 -2.5h10q4 0 23.5 2.5
t42.5 9t43 18.5t25 31q2 2 3 2t2 -1.5t4 -7.5zM48 240q-4 -2 -8.5 -9.5t-4.5 -13.5q0 -5 3 -8t12 -3q5 0 6.5 7.5t1.5 13.5q0 4 -1.5 9t-4.5 5t-4 -1zM73 -62q-12 5 -22.5 6.5t-19.5 1.5q-19 0 -29.5 -3t-15 -7.5t-5.5 -9t-1 -7.5q0 -15 24 -15q14 0 33 7.5t36 26.5z" />
    <glyph glyph-name="space" unicode=" " horiz-adv-x="198" 
 />
    <glyph glyph-name="hyphen" unicode="-" horiz-adv-x="304" 
d="M42 139q1 4 11 6.5t25 4t34 2.5t39 1q46 1 104 0q5 0 8 -0.5t4 -6.5q0 -10 -10.5 -21.5t-27.5 -11.5h-15.5h-35.5t-45 0.5t-44.5 1.5t-35 3t-15.5 5q-2 3 0.5 8.5t3.5 7.5z" />
    <glyph glyph-name="equal" unicode="=" horiz-adv-x="304" 
d="M42 191q1 4 11 7.5t25 5.5t34 3.5t39 1.5q47 1 105 -1q5 0 8 -0.5t4 -7.5q0 -13 -10.5 -27.5t-27.5 -13.5h-15.5h-35.5t-45.5 0.5t-45 2t-35 3.5t-15.5 6q-2 4 0.5 10.5t3.5 9.5zM42 118q1 4 11 7.5t25 5.5t34 3.5t39 1.5q47 1 105 -1q5 0 8 -0.5t4 -7.5
q0 -13 -10.5 -27.5t-27.5 -13.5h-15.5h-35.5t-45.5 0.5t-45 2t-35 3.5t-15.5 6q-2 4 0.5 10.5t3.5 9.5z" />
    <glyph glyph-name="greater" unicode="&#x3e;" horiz-adv-x="299" 
d="M80 77q0 4 9 9.5t22.5 11.5t30.5 12t34 11q-15 5 -34 11t-35 12t-27 11.5t-11 8.5q-1 4 2 8t5 6q2 3 10 3t20 -2t26 -5.5t29 -7.5q34 -10 77 -24q8 -2 7 -7q2 -10 -2.5 -22.5t-15.5 -15.5q-2 -1 -24 -8t-48 -14.5t-48 -12t-25 -1.5q-2 3 -2 8.5v7.5z" />
    <glyph glyph-name="colon" unicode=":" horiz-adv-x="98" 
d="M62 203q11 -5 17.5 -19t-4.5 -29q-3 -4 -4.5 -7t-7.5 -11q-3 -4 -9 -4q-3 0 -6 2q-2 2 -7 7.5t-9 9.5q-8 5 -5 13q5 7 11 17t13 20q1 1 3 2q3 1 8 -1zM46 110q11 -5 17.5 -19t-4.5 -29q-2 -4 -4 -7t-8 -11q-3 -4 -9 -4q-3 0 -6 2q-2 2 -7 7.5t-9 9.5q-8 6 -5 13
q5 7 11 17t13 20q1 1 3 2q3 1 8 -1z" />
    <glyph glyph-name="semicolon" unicode=";" horiz-adv-x="110" 
d="M76 133q-11 2 -21 14t-4 29q2 5 2.5 8t4.5 12q1 4 8 6h6q3 -1 9 -5.5t11 -6.5q10 -3 8 -11q-5 -17 -13 -42q-1 -2 -3 -3q-4 -2 -8 -1zM15 12q-4 0 -4 3v3q0 6 3.5 18t8 25.5t8 25.5t4.5 16q3 7 12 7q8 2 15.5 3.5t10.5 2.5q2 -1 5 -2l3.5 -3.5t0.5 -4.5q-2 -9 -2.5 -12
t-2.5 -8q-5 -12 -13 -25.5t-17 -24.5t-17.5 -17.5t-14.5 -6.5z" />
    <glyph glyph-name="slash" unicode="/" horiz-adv-x="240" 
d="M220 379q9 -8 4.5 -19t-11.5 -23q-2 -3 -5.5 -9.5t-9.5 -19t-16.5 -33.5t-25.5 -54q-20 -42 -37 -83.5t-29 -77t-18 -63t-4 -41.5q1 -8 6.5 -17t10.5 -15q2 -3 -1 -6q0 -2 -3 -2q-1 0 -1.5 0.5t-1.5 0.5l-6 1.5t-14.5 6.5t-17 14t-14.5 26q-8 19 -5.5 53.5t14.5 72.5
q6 18 18 47t27 61t29.5 62.5t25.5 51.5q5 11 12 24q5 11 13 27l17 34q0 1 0.5 1.5t0.5 1.5t1 1q3 3 7 1q1 -1 14 -9.5t20 -14.5z" />
    <glyph glyph-name="plus" unicode="+" horiz-adv-x="250" 
d="M155 247q7 -4 5 -28t-7 -55q15 0 28.5 -0.5t24.5 -0.5h23q5 0 8 -0.5t4 -7.5q0 -13 -10.5 -27.5t-27.5 -13.5h-60q-8 -34 -14 -56q-4 -12 -6 -23q-2 -5 -3 -8t-8 -2q-6 1 -12.5 5.5t-11.5 11t-7 14t0 15.5q0 2 2.5 14t7.5 30q-31 1 -54.5 3.5t-25.5 7.5q-2 4 0.5 10.5
t3.5 9.5q2 8 28 11.5t60 5.5q9 35 18 63t15 29q5 1 10.5 -2.5t8.5 -5.5z" />
    <glyph glyph-name="period" unicode="." horiz-adv-x="138" 
d="M53 51q11 -5 20 -19t1 -29q-2 -4 -3 -7t-6 -11q-2 -4 -9 -4q-3 0 -6 2q-2 2 -8 7.5t-11 9.5q-8 6 -7 13q4 7 8.5 17t9.5 20q0 1 2 2q3 2 9 -1z" />
    <glyph glyph-name="comma" unicode="," horiz-adv-x="83" 
d="M15 -57q-4 0 -7 3q-1 1 -1 3q0 6 2.5 18t5.5 25.5t5.5 25.5t2.5 16q2 7 12 7q5 2 11.5 3.5t9.5 2.5q3 -1 5 -2q4 -4 4 -8q0 -9 -0.5 -12t-1.5 -8q0 -8 -6 -21t-13.5 -25t-15.5 -20t-13 -8z" />
    <glyph glyph-name="parenleft" unicode="(" horiz-adv-x="207" 
d="M44 -112q-18 3 -26 20t-9.5 43t3 58.5t12.5 65.5q18 78 53 177q18 49 31.5 76t27.5 48q11 20 21.5 33t18.5 21q13 13 23.5 18t17.5 7q8 2 14 -1q11 -4 22 -13t7 -35q-2 -11 -13.5 -18t-19.5 1q-21 10 -41.5 -10t-40.5 -55q-15 -26 -27.5 -56.5t-21.5 -56.5
q-11 -31 -20 -61q-15 -58 -21.5 -95t-6.5 -59.5t4 -32.5t10 -14q9 -7 17 -7t12.5 -0.5t5 -4t-4.5 -16.5q-8 -10 -16 -17q-7 -7 -15.5 -12t-16.5 -4z" />
    <glyph glyph-name="parenright" unicode=")" horiz-adv-x="192" 
d="M-2 -112q-8 -1 -13.5 4t-8.5 12q-4 7 -6 17q2 13 4.5 16.5t7 4t12.5 0.5t21 7q7 4 17.5 14t23 32.5t27.5 59.5t33 95q8 30 14 61q5 26 10 56.5t5 56.5q1 35 -8.5 55t-36.5 10q-12 -8 -19.5 -1t-2.5 18q11 26 27 35t28 13q7 3 15 1q7 -2 14 -7t13 -18q4 -8 6.5 -21
t2.5 -33q1 -21 0 -48t-11 -76q-21 -99 -48 -177q-12 -33 -26 -65.5t-30 -58.5t-34 -43t-37 -20z" />
    <glyph glyph-name="asterisk" unicode="*" horiz-adv-x="338" 
d="M298 423q1 -6 -19 -21h22q4 0 6.5 -0.5t4.5 -6.5q0 -11 -9.5 -24t-23.5 -13h-21q6 -7 11 -12.5t9 -9.5q4 -5 8 -9l3 -6t-2 -7q-9 -8 -24 -9t-25 10l-18 20q-3 -10 -5 -18t-4 -14q-2 -7 -3 -13q-2 -4 -3 -7t-7 -2q-11 3 -21 14.5t-6 25.5q0 1 1 6t3 13q-8 -4 -14 -7.5
t-11 -5.5q-6 -3 -11 -5q-4 -1 -6.5 -2t-7.5 3q-4 8 -3.5 19.5t6.5 20.5q-8 1 -12.5 3t-5.5 3q-2 4 0.5 10t2.5 8q1 5 15.5 8t35.5 5q-14 18 -23 31.5t-7 17.5q3 3 8.5 5t7.5 4q6 2 18 -7.5t28 -25.5q7 23 13 40t11 17q3 2 8.5 -1.5t7.5 -5.5q5 -2 5 -17.5t-4 -36.5
q21 10 36.5 16t18.5 4q4 -3 4.5 -9t1.5 -9z" />
    <glyph glyph-name="backslash" unicode="\" horiz-adv-x="240" 
d="M20 379q7 6 20 14.5t14 9.5q1 0 1.5 0.5t1.5 0.5q2 0 4 -2q26 -52 54 -105.5t51.5 -105t38.5 -99.5t15 -88q0 -30 -9 -47.5t-20 -26.5q-13 -11 -29 -13q-1 0 -1.5 -0.5t-1.5 -0.5q-2 0 -3.5 2t-1.5 3q0 8 9 19t9 23q0 16 -6.5 43.5t-18.5 62t-28 73.5t-35 79
q-15 33 -25.5 54t-16.5 33.5t-9.5 19t-5.5 9.5q-5 8 -9 15.5t-4 14.5q0 6 6 12z" />
    <glyph glyph-name="bracketleft" unicode="[" horiz-adv-x="120" 
d="M103 357q16 33 33.5 53.5t33.5 31.5t29 15t20 4t6 0.5t1 0.5q1 0 1 -2q0 -4 -12 -10t-17 -12q-15 -12 -32 -49t-33.5 -83t-30.5 -92.5t-23 -77.5q-16 -51 -25 -100.5t-9 -79.5q0 -17 4 -27t12 -22q0 -2 -0.5 -4t-1.5 -2l-2 2q-13 6 -24 20q-9 12 -16 33t-7 55
q0 14 1.5 31.5t10.5 53t28 97t53 164.5z" />
    <glyph glyph-name="bracketright" unicode="]" horiz-adv-x="212" 
d="M196 312q-18 -71 -32.5 -122.5t-25 -88.5t-18.5 -59.5t-13 -34.5q-15 -32 -31.5 -52t-32 -31t-28.5 -15t-20 -4h-5q-1 0 -2 1q-1 0 -1 -0.5t-1 -0.5t-1 1q0 5 11 9.5t19 12.5q8 9 18.5 27.5t21.5 43t22 54t20 60.5q8 27 19.5 66.5t22 81.5t18 81t7.5 65q0 19 -4.5 30.5
t-12.5 24.5q1 1 1 3v1l2 1q1 0 1 -0.5t1 -0.5q0 -1 7.5 -5.5t16 -17.5t16 -35t7.5 -58q0 -20 -3 -38z" />
    <glyph glyph-name="multiply" unicode="&#xd7;" horiz-adv-x="198" 
d="M154 43q-7 -2 -23 16t-34 44q-11 -11 -20.5 -20t-17.5 -17l-16 -16q-4 -3 -6.5 -5t-7.5 2q-9 9 -12 27t9 29l43 43q-9 14 -16.5 26.5l-13.5 22.5q-7 11 -12 21q-2 4 -3 7t4 8q11 6 28.5 4.5t25.5 -15.5q2 -2 8.5 -12t15.5 -26q23 21 41.5 36t23.5 13q4 -2 6.5 -8.5
t4.5 -8.5q5 -8 -11 -28.5t-39 -46.5q18 -31 31.5 -57t10.5 -31q-3 -4 -9.5 -5t-10.5 -3z" />
    <glyph glyph-name="grave" unicode="`" horiz-adv-x="181" 
d="M160 266q10 -1 9 -6.5t-9 -12.5q-6 -4 -12 -7t-13.5 -4t-18 0t-26.5 5q-45 12 -66 38q-8 12 -10.5 22.5t-3.5 17.5v1v2q0 2 1 2l2 2h1v-1q0 -2 1 -2q11 -17 41.5 -28t78.5 -24z" />
    <glyph glyph-name="circumflex" unicode="&#x2c6;" horiz-adv-x="205" 
d="M34 295q32 2 53.5 6.5t34.5 19.5l2 2v-1l1 1v-3q0 -20 14 -37t37 -39l12 -11q5 -3 3 -8t-9 -10q-10 -5 -18.5 -5.5t-24.5 13.5q-21 22 -24 51q-1 7 -1 14.5t2 12.5q-5 -12 -15 -22q-21 -20 -51 -24q-22 -1 -28 5t-11 16q-2 8 -0.5 14t7.5 4z" />
    <glyph glyph-name="dieresis" unicode="&#xa8;" horiz-adv-x="187" 
d="M172 251q-8 -10 -24 -15t-28 6q-3 4 -5.5 5.5t-9.5 8.5q-3 2 -1 9q1 3 3 6q2 2 9 6t12 8q7 7 14 3q6 -5 14.5 -12t16.5 -15q1 -1 2 -3q0 -4 -3 -7zM82 274q-8 -10 -24 -15t-28 7q-3 3 -5.5 4.5t-9.5 8.5q-3 3 -1 10q1 3 3 5t9 6.5t12 7.5q7 7 14 4q6 -5 14.5 -12
t16.5 -15q1 -1 2 -3q0 -5 -3 -8z" />
    <glyph glyph-name="acute" unicode="&#xb4;" horiz-adv-x="181" 
d="M46 271q48 13 78.5 24t41.5 28v2q0 1 1 1h1l2 -2l1 -2v-2v-1q-1 -7 -3.5 -17.5t-10.5 -22.5q-21 -26 -66 -38q-16 -4 -26.5 -5t-18 0t-13.5 4t-12 7q-8 7 -9 12.5t9 6.5z" />
    <glyph glyph-name="ring" unicode="&#x2da;" horiz-adv-x="97" 
d="M72 295q7 -1 9 -5.5t1 -10.5t-4 -12t-5 -9q-9 -12 -18 -19t-23 -6q-17 1 -17.5 12t2.5 18q2 6 7 13t10 9q5 4 13 8t25 2zM44 266q-4 -5 -5 -11.5t4 -6.5q7 1 14 11t8 15q0 5 -5.5 3.5t-15.5 -11.5z" />
    <glyph glyph-name="caron" unicode="&#x2c7;" horiz-adv-x="205" 
d="M171 232q-32 -2 -53.5 -6.5t-34.5 -19.5l-2 -2v1l-1 -1v3q0 20 -14 37t-37 39l-12 11q-5 3 -3 8t9 10q10 5 18.5 5.5t24.5 -13.5q21 -22 24 -51q1 -7 1 -14.5t-2 -12.5q5 12 15 22q21 19 51 24q22 1 28 -5t11 -16q2 -8 0.5 -14t-7.5 -4z" />
    <glyph glyph-name="tilde" unicode="&#x2dc;" horiz-adv-x="223" 
d="M77 308q11 -6 21.5 -14t20.5 -13q1 -2 11 -6.5t23.5 -7.5t29 -1.5t28.5 11.5q0 2 1 2t1 -1l-2 -4q0 -1 -0.5 -1.5t-0.5 -1.5q-5 -9 -11 -16q-5 -7 -13 -13t-18 -8q-11 -4 -22 -2q-10 2 -22 8.5t-24 23.5q-8 8 -17 14q-8 5 -16.5 8t-16.5 -1q-14 -6 -17.5 -13.5t-3.5 -9.5
q-2 -2 -3 -2h-1v-1q-3 0 -4 1l-2 2q-4 5 -2 11.5t7 11.5q5 6 13 12q11 9 21.5 11t18.5 0z" />
    <glyph glyph-name="fraction" unicode="&#x2044;" horiz-adv-x="240" 
d="M220 379q9 -8 4.5 -19t-11.5 -23q-2 -3 -5.5 -9.5t-9.5 -19t-16.5 -33.5t-25.5 -54q-20 -42 -37 -83.5t-29 -77t-18 -63t-4 -41.5q1 -8 6.5 -17t10.5 -15q2 -3 -1 -6q0 -2 -3 -2q-1 0 -1.5 0.5t-1.5 0.5l-6 1.5t-14.5 6.5t-17 14t-14.5 26q-8 19 -5.5 53.5t14.5 72.5
q6 18 18 47t27 61t29.5 62.5t25.5 51.5q5 11 12 24q5 11 13 27l17 34q0 1 0.5 1.5t0.5 1.5t1 1q3 3 7 1q1 -1 14 -9.5t20 -14.5z" />
    <glyph glyph-name="exclam" unicode="!" horiz-adv-x="323" 
d="M157 -31q-5 2 -10 6.5t-8 10.5t-4 13t3 14q2 3 3 5.5t5 10.5q2 3 8 3q3 0 6 -1q2 -2 7.5 -7t10.5 -9q7 -5 6 -12q-4 -6 -7.5 -15.5t-8.5 -17.5q-1 -1 -3 -2q-3 -2 -8 1zM172 56q-4 8 -1 16.5t8 17.5q1 3 3.5 8.5t7 15.5t11 27t17.5 44q13 34 25 67.5t21 63t13.5 52.5
t3.5 36q1 8 -1.5 16t-5.5 14q0 4 2 5q0 2 1 2l1 -1q0 -1 1 -1q1 -1 11.5 -9.5t17.5 -38.5q2 -18 -1 -48t-12 -61q-5 -15 -13.5 -39t-19 -50t-21 -50.5t-17.5 -41.5q-4 -9 -8 -20q-4 -9 -9 -21.5t-11 -26.5q-1 -2 -1 -3v-1q-3 -1 -5 0q0 1 -7 10t-11 17z" />
    <glyph glyph-name="dollar" unicode="$" horiz-adv-x="396" 
d="M263 393q4 -4 1 -12q29 -4 45.5 -15.5t20.5 -22.5q6 -17 -0.5 -35t-37.5 -39q-25 -19 -51.5 -25.5t-41.5 -8.5q-2 -5 -3.5 -9.5t-3.5 -9.5q8 -2 17 -5t16.5 -7.5t12 -10.5t4.5 -13v-2q0 -12 -14.5 -28t-46.5 -25q-5 -2 -9 -2.5t-8 -1.5v-7q1 -5 3.5 -9t4.5 -7q2 -2 0 -4
q-1 -1 -2 -1q-1 -1 -2 -1h-3.5t-8 2t-8.5 6.5t-6 13.5q-2 2 -2 6q-22 2 -31 12.5t-4 21.5q1 2 4 3.5t11 3.5q4 0 2.5 -1.5t-3.5 -4.5t-2 -6t7 -6q4 -1 7.5 -0.5t7.5 0.5q2 11 4 23t7 26l5 15l-26 11q-56 21 -52 65q1 10 8.5 24t22.5 28.5t38.5 26.5t55.5 17q8 1 15 2t14 1
l8 17q1 0 1 1v1q2 2 4 1q1 0 8 -3.5zM118 275q-2 -22 9 -31.5t35 -18.5l7 16q-8 6 -13 14t-7 12q0 2 1 2h2h1q7 -1 14 -1h13l33 72q0 1 1 4l5 10q-43 -7 -71 -31t-30 -48zM316 335q-7 22 -64 22l-30 -69q-2 -5 -4 -9t-4 -9q27 4 47 13t33 19t18 19t4 14zM185 196
q-5 -13 -9 -24.5t-6 -21.5q10 4 18.5 8.5t14.5 9.5l7 7t-1 10l-9 5z" />
    <glyph glyph-name="Euro" unicode="&#x20ac;" horiz-adv-x="369" 
d="M51 207q2 4 19 6t41 3l2 12q-66 2 -66 8q0 5 3 8t11 5t22 2.5t36 1.5q8 26 22 46t28 34q16 17 34 29q15 10 29 13.5t26 3.5q14 0 25.5 -4t19.5 -9q10 -6 17 -13q7 -10 7 -22q0 -20 -9 -33.5t-20.5 -22t-23 -12.5t-16.5 -4q-8 0 -14.5 2t-11.5 4q-6 3 -11 7q0 2 3 2
q20 3 35.5 11t26 17.5t15.5 18.5t5 12q0 11 -7.5 12.5t-11.5 1.5q-15 0 -30 -11t-28 -25q-15 -16 -28 -36q-4 -6 -7.5 -11t-5.5 -10q23 -1 34.5 -1h15.5t4 -0.5t1 -3.5q0 -6 -9 -13.5t-23 -7.5h-36l-3 -12h61q9 0 10 -4q0 -8 -9 -14.5t-23 -6.5h-43q0 -20 5 -29t11 -12.5
t11 -3t6 0.5q16 0 34 11.5t34.5 26t29 26t18.5 11.5q2 0 4 -1t2 -7q0 -5 -2 -8l-38 -38t-26 -23q-12 -11 -20 -15q-29 -8 -46 -8q-27 0 -43 10t-24 23q-10 15 -12 34v2q-30 0 -47.5 1.5t-17.5 5.5q0 2 1.5 4.5t2.5 4.5z" />
    <glyph glyph-name="perthousand" unicode="&#x2030;" horiz-adv-x="513" 
d="M158 405q18 -2 22 -16.5t1 -33t-10.5 -36t-11.5 -25.5q-20 -35 -42 -56t-53 -19q-20 1 -30 12t-13 25t-0.5 29t5.5 24q6 19 18.5 38.5t22.5 27.5q6 5 14.5 11.5t19 11t25 7t32.5 0.5zM85 318q-8 -10 -14 -24t-7.5 -27t1.5 -22t12 -9q15 1 29.5 16t26.5 35.5t20 41t9 33.5
q1 10 -4.5 14t-16 -0.5t-25 -18.5t-31.5 -39zM203 -76q-18 2 -22 16.5t-1 33t10 36t12 25.5q20 35 42 56t53 19q20 -2 30 -12.5t13 -24.5t0.5 -29t-5.5 -24q-6 -19 -18.5 -38.5t-22.5 -27.5q-6 -5 -14.5 -11.5t-19 -11t-25 -7t-32.5 -0.5zM276 11q8 10 14 24t7.5 26.5
t-1.5 22t-12 9.5q-15 -1 -29.5 -16t-26.5 -35.5t-20 -41t-9 -33.5q-1 -10 4.5 -14t16 0.5t25 18.5t31.5 39zM356 -76q-18 2 -22 16.5t-1 33t10 36t12 25.5q20 35 42 56t53 19q20 -2 30 -12.5t13 -24.5t0.5 -29t-5.5 -24q-6 -19 -18.5 -38.5t-22.5 -27.5q-6 -5 -14.5 -11.5
t-19 -11t-25 -7t-32.5 -0.5zM429 11q8 10 14 24t7.5 26.5t-1.5 22t-12 9.5q-15 -1 -29.5 -16t-26.5 -35.5t-20 -41t-9 -33.5q-1 -10 4.5 -14t16 0.5t25 18.5t31.5 39zM289 379q9 -8 4.5 -19t-11.5 -23q-2 -3 -5.5 -9.5t-9.5 -19t-16.5 -33.5t-25.5 -54q-20 -42 -37 -83.5
t-29 -77t-18 -63t-4 -41.5q1 -8 6.5 -17t10.5 -15q2 -3 -1 -6q0 -2 -3 -2q-1 0 -1.5 0.5t-1.5 0.5l-6 1.5t-14.5 6.5t-17 14t-14.5 26q-8 19 -5.5 53.5t14.5 72.5q6 18 18 47t27 61t29.5 62.5t25.5 51.5q5 11 12 24q5 11 13 27l17 34q0 1 0.5 1.5t0.5 1.5t1 1q3 3 7 1
q1 -1 14 -9.5t20 -14.5z" />
    <glyph glyph-name="percent" unicode="%" horiz-adv-x="361" 
d="M158 405q18 -2 22 -16.5t1 -33t-10.5 -36t-11.5 -25.5q-20 -35 -42 -56t-53 -19q-20 1 -30 12t-13 25t-0.5 29t5.5 24q6 19 18.5 38.5t22.5 27.5q6 5 14.5 11.5t19 11t25 7t32.5 0.5zM85 318q-8 -10 -14 -24t-7.5 -27t1.5 -22t12 -9q15 1 29.5 16t26.5 35.5t20 41t9 33.5
q1 10 -4.5 14t-16 -0.5t-25 -18.5t-31.5 -39zM203 -76q-18 2 -22 16.5t-1 33t10 36t12 25.5q20 35 42 56t53 19q20 -2 30 -12.5t13 -24.5t0.5 -29t-5.5 -24q-6 -19 -18.5 -38.5t-22.5 -27.5q-6 -5 -14.5 -11.5t-19 -11t-25 -7t-32.5 -0.5zM276 11q8 10 14 24t7.5 26.5
t-1.5 22t-12 9.5q-15 -1 -29.5 -16t-26.5 -35.5t-20 -41t-9 -33.5q-1 -10 4.5 -14t16 0.5t25 18.5t31.5 39zM295 379q9 -8 4.5 -19t-11.5 -23q-2 -3 -5.5 -9.5t-9.5 -19t-16.5 -33.5t-25.5 -54q-20 -42 -37 -83.5t-29 -77t-18 -63t-4 -41.5q1 -8 6.5 -17t10.5 -15
q2 -3 -1 -6q0 -2 -3 -2q-1 0 -1.5 0.5t-1.5 0.5l-6 1.5t-14.5 6.5t-17 14t-14.5 26q-8 19 -5.5 53.5t14.5 72.5q6 18 18 47t27 61t29.5 62.5t25.5 51.5q5 11 12 24q5 11 13 27l17 34q0 1 0.5 1.5t0.5 1.5t1 1q3 3 7 1q1 -1 14 -9.5t20 -14.5z" />
    <glyph glyph-name="numbersign" unicode="#" horiz-adv-x="559" 
d="M21 163q5 11 16.5 10.5t25.5 -3.5q5 0 17.5 -2.5t44.5 -6.5l6 14q18 38 33 74.5t27 69.5q-37 -1 -64 -4t-40 -10q-8 -3 -14.5 -11.5t-10.5 -14.5q-3 -3 -6 -1q-3 0 -3 2v3l-0.5 6.5t1.5 15.5t7.5 20.5t19.5 22.5q16 14 49.5 22.5t72.5 10.5h7q5 20 7 35t0 24
q-1 8 -6.5 17t-10.5 15q-2 3 1 6q0 2 3 2q1 0 1.5 -0.5t1.5 -0.5l6 -1.5t14.5 -6t17 -14t14.5 -25.5q5 -9 6.5 -23t-0.5 -31q36 -2 76 -6t74 -9q8 26 11.5 46t1.5 31q-1 8 -6.5 17t-10.5 15q-2 3 1 6q0 2 3 2q1 0 1.5 -0.5t1.5 -0.5l6 -1.5t14.5 -6.5t17 -14.5t14.5 -25.5
q5 -12 6 -32t-3 -44l67 -9h4q4 -1 4 -6q0 -1 -1.5 -5.5t-3 -11t-3.5 -13t-4 -10.5q-5 -11 -16.5 -10.5t-25.5 2.5q-4 1 -11.5 2.5t-23.5 3.5q-10 -27 -29 -69.5t-38 -83.5q27 2 47.5 5t30.5 8q8 3 14 11.5t11 14.5q1 3 6 1q1 0 3 -2v-3q0 -1 0.5 -7t-1.5 -15.5t-8 -20.5
t-20 -22q-14 -13 -45 -21.5t-69 -10.5q-1 -2 -12.5 -26t-29.5 -59q-1 -2 -1 -3t-1 -1q-3 -3 -7 -1q-1 1 -14 9.5t-20 14.5q-9 8 -4.5 19t11.5 23q2 3 5 9t9 17q-32 2 -68 5.5t-68 8.5l-8 -16q-6 -12 -12 -25q-5 -11 -12.5 -26.5t-16.5 -33.5q-1 -2 -1 -3t-1 -1q-4 -4 -7 -2
q-1 1 -14 9.5t-20 14.5q-9 8 -4.5 19t10.5 23q3 5 8.5 15t16.5 34q-12 2 -33.5 4t-49.5 6h-5q-3 1 -3 6q0 1 1.5 5.5t3 11t3.5 13t4 10.5zM366 309q-29 3 -57 5t-54 4l-4 -12q-3 -12 -10 -29t-15.5 -37.5t-18 -42.5t-19.5 -43h3q35 -4 69.5 -6t65.5 -3q4 7 7 14.5t7 15.5
q16 34 30.5 67t25.5 64z" />
    <glyph glyph-name="less" unicode="&#x3c;" horiz-adv-x="198" 
d="M177 77v-7.5t-2 -8.5q-3 -3 -25 1.5t-48 12t-48 14.5t-24 8q-11 3 -15.5 15.5t-2.5 22.5q-1 5 7 7q43 14 77 24q15 4 29 7.5t26 5.5t20 2t10 -3q2 -2 5 -6t2 -8q0 -3 -11 -8.5t-27 -11.5t-35 -12t-34 -11q16 -5 33.5 -11t31 -12t22.5 -11.5t9 -9.5z" />
    <glyph glyph-name="guilsinglleft" unicode="&#x2039;" horiz-adv-x="198" 
d="M177 77v-7.5t-2 -8.5q-3 -3 -25 1.5t-48 12t-48 14.5t-24 8q-11 3 -15.5 15.5t-2.5 22.5q-1 5 7 7q43 14 77 24q15 4 29 7.5t26 5.5t20 2t10 -3q2 -2 5 -6t2 -8q0 -3 -11 -8.5t-27 -11.5t-35 -12t-34 -11q16 -5 33.5 -11t31 -12t22.5 -11.5t9 -9.5z" />
    <glyph glyph-name="guilsinglright" unicode="&#x203a;" horiz-adv-x="198" 
d="M21 77q0 4 9 9.5t22.5 11.5t30.5 12t34 11q-15 5 -34 11t-35 12t-27 11.5t-11 8.5q-1 4 2 8t5 6q2 3 10 3t20 -2t26 -5.5t29 -7.5q34 -10 77 -24q8 -2 7 -7q2 -10 -2.5 -22.5t-15.5 -15.5q-2 -1 -24 -8t-48 -14.5t-48 -12t-25 -1.5q-2 3 -2 8.5v7.5z" />
    <glyph glyph-name="endash" unicode="&#x2013;" horiz-adv-x="279" 
d="M16 139q1 4 11 6.5t25 4t34 2.5t39 1q46 1 104 0q5 0 8 -0.5t4 -6.5q0 -10 -10.5 -21.5t-27.5 -11.5h-15.5h-35.5t-45 0.5t-44.5 1.5t-35 3t-15.5 5q-2 3 0.5 8.5t3.5 7.5z" />
    <glyph glyph-name="emdash" unicode="&#x2014;" horiz-adv-x="496" 
d="M21 140q2 3 20.5 5.5t47 4.5t64.5 3t74 1q87 1 198 -1q9 0 15 -0.5t8 -5.5q0 -10 -20 -21t-52 -11h-30.5h-67t-85 0.5t-84.5 1.5t-66 2.5t-29 4.5q-3 3 1 8.5t6 7.5z" />
    <glyph glyph-name="underscore" unicode="_" horiz-adv-x="458" 
d="M21 -41q3 4 29.5 7t66 4.5t86.5 2t90 0.5q27 0 51 -0.5t42 -0.5h39q9 0 15 -0.5t8 -5.5q0 -20 -35 -26t-104 -6h-96.5t-96 1t-74 3.5t-29.5 6.5t3 8t5 6z" />
    <glyph glyph-name="minus" unicode="&#x2212;" horiz-adv-x="251" 
d="M16 139q1 4 11 6.5t25 4t34 2.5t39 1q46 1 104 0q5 0 8 -0.5t4 -6.5q0 -10 -10.5 -21.5t-27.5 -11.5h-15.5h-35.5t-45 0.5t-44.5 1.5t-35 3t-15.5 5q-2 3 0.5 8.5t3.5 7.5z" />
    <glyph glyph-name="quotesingle" unicode="'" horiz-adv-x="145" 
d="M181 326q-5 0 -8 3q-1 1 -1 3q0 6 2 18t5 25.5t5 25.5t2 16q3 7 13 7q6 2 14 3.5t11 2.5l6 -2q6 -4 6 -8q0 -9 -0.5 -12t-0.5 -8q0 -8 -6.5 -21t-15 -25t-17.5 -20t-15 -8z" />
    <glyph glyph-name="quoteright" unicode="&#x2019;" horiz-adv-x="146" 
d="M181 326q-5 0 -8 3q-1 1 -1 3q0 6 2 18t5 25.5t5 25.5t2 16q3 7 13 7q6 2 14 3.5t11 2.5l6 -2q6 -4 6 -8q0 -9 -0.5 -12t-0.5 -8q0 -8 -6.5 -21t-15 -25t-17.5 -20t-15 -8z" />
    <glyph glyph-name="quotedblright" unicode="&#x201d;" horiz-adv-x="146" 
d="M181 326q-5 0 -8 3q-1 1 -1 3q0 6 2 18t5 25.5t5 25.5t2 16q3 7 13 7q6 2 14 3.5t11 2.5l6 -2q6 -4 6 -8q0 -9 -0.5 -12t-0.5 -8q0 -8 -6.5 -21t-15 -25t-17.5 -20t-15 -8zM255 326q-5 0 -8 3q-1 1 -1 3q0 6 2 18t5 25.5t5 25.5t2 16q3 7 13 7q6 2 14 3.5t11 2.5l6 -2
q6 -4 6 -8q0 -9 -0.5 -12t-0.5 -8q0 -8 -6.5 -21t-15 -25t-17.5 -20t-15 -8z" />
    <glyph glyph-name="quotedblleft" unicode="&#x201c;" horiz-adv-x="145" 
d="M301 429q7 -2 8 -3t1 -3q0 -6 -2 -18.5t-5 -26t-5 -25t-2 -15.5q-4 -7 -13 -7q-6 -2 -14 -3.5t-11 -2.5q-3 0 -6 2q-6 2 -6 8q0 9 0.5 12t0.5 8q0 8 6.5 21t15 25t17.5 20t15 8zM227 429q7 -2 8 -3t1 -3q0 -6 -2 -18.5t-5 -26t-5 -25t-2 -15.5q-4 -7 -13 -7
q-6 -2 -14 -3.5t-11 -2.5q-3 0 -6 2q-6 2 -6 8q0 9 0.5 12t0.5 8q0 8 6.5 21t15 25t17.5 20t15 8z" />
    <glyph glyph-name="trademark" unicode="&#x2122;" horiz-adv-x="568" 
d="M204 374q8 -5 5.5 -11.5t-5.5 -14.5q-3 -4 -10 -16.5t-24 -51.5q-23 -52 -31.5 -88t-3.5 -53q2 -5 6.5 -10t8.5 -9q0 -1 1 -2t-1 -2q0 -1 -2 -1h-3l-4 1t-10.5 4t-14 8.5t-13.5 15.5q-8 11 -9.5 32.5t4.5 44.5q3 10 8.5 24.5t12.5 30t14.5 31t13.5 27.5q3 7 7 15
q3 7 7 16.5t9 20.5l2 2q1 1 5 1l12 -6t15 -9zM557 460q-3 -7 -16 -23t-30 -26q-20 -11 -48 -18t-63 -7q-29 0 -62 3q-55 5 -87.5 9t-56.5 4q-31 0 -50 -3.5t-32 -11.5q-12 -7 -19.5 -22t-11.5 -29q0 -1 -1 -6t-1 -11.5v-12.5t2 -9q2 -5 3 -9t4 -8q0 -2 1 -4.5t0 -3.5t-5 -1
q-13 1 -29 8t-22 26q0 2 -0.5 4t-0.5 4q-2 20 1.5 33.5t8.5 22.5q30 56 135 59q36 1 86 0.5t102 1.5t101 9.5t84 25.5q2 0 2.5 0.5t1.5 0.5h1h2v-1q1 -2 0.5 -3t-0.5 -2zM402 147q-13 5 -14 20t4 32q3 17 12 42t27 58q-21 -22 -41 -48q-17 -22 -37 -50.5t-36 -57.5
q-14 0 -23 6q-8 5 -12.5 16t1.5 31q1 3 3 8t4 11t4 11.5t3 7.5q5 14 12.5 30t18.5 35q-22 -22 -42 -48q-18 -22 -37.5 -50.5t-36.5 -57.5q-14 0 -23 6q-8 5 -12.5 16t2.5 31q8 26 22.5 53.5t25.5 51.5q3 6 6 14t5 14.5t3 11t0 4.5v1v1h1l2 1q3 0 7 -2l4 -4q11 -7 22 -19.5
t5 -26.5q-3 -4 -9 -14q-5 -8 -14.5 -23.5t-26.5 -40.5q22 28 44 53q19 21 39.5 41.5t36.5 30.5q13 -6 23 -12q8 -5 13 -13t0 -16q-6 -9 -17.5 -29t-22.5 -41q9 10 22.5 26t28.5 32t30.5 30.5t27.5 22.5q13 -6 23 -12q8 -5 13 -13t0 -16q-7 -11 -21.5 -35.5t-25.5 -49.5
q-2 -3 -3 -6.5t-3 -6.5q-7 -15 -8.5 -26t-3.5 -12t2 -4.5t5.5 -7.5t-2.5 -7t-22 -3h-1q-2 1 -4 1t-4 2zM554 207q-1 -12 -10 -25.5t-26 -11.5h-8t-12 1q-5 0 -7 7q-1 3 -1 6q1 3 3.5 11t4.5 13q3 11 10 12q8 -2 19 -1.5t22 -1.5q2 -1 3 -2q2 -2 2 -8zM11 207q-1 5 2 8
q1 1 3 2q11 2 22 1.5t19 1.5q7 -1 10 -12q2 -5 4.5 -13t3.5 -11q0 -3 -1 -6q-2 -7 -7 -7q-9 -1 -12 -1h-8q-17 -2 -26 11.5t-10 25.5z" />
    <glyph glyph-name="ellipsis" unicode="&#x2026;" horiz-adv-x="380" 
d="M76 51q11 -5 20 -19t1 -29q-2 -4 -3 -7t-6 -11q-2 -4 -9 -4q-3 0 -6 2q-2 2 -8 7.5t-11 9.5q-8 6 -7 13q4 7 8.5 17t9.5 20q0 1 2 2q3 2 9 -1zM167 51q11 -5 20 -19t1 -29q-2 -4 -3 -7t-6 -11q-2 -4 -9 -4q-3 0 -6 2q-2 2 -8 7.5t-11 9.5q-8 6 -7 13q4 7 8.5 17t9.5 20
q0 1 2 2q3 2 9 -1zM263 51q11 -5 20 -19t1 -29q-2 -4 -3 -7t-6 -11q-2 -4 -9 -4q-3 0 -6 2q-2 2 -8 7.5t-11 9.5q-8 6 -7 13q4 7 8.5 17t9.5 20q0 1 2 2q3 2 9 -1z" />
    <glyph glyph-name="question" unicode="?" horiz-adv-x="447" 
d="M330 293q1 1 2 1q2 0 2 -2l-9 -15t-14 -21t-17.5 -20t-19.5 -13q-23 -7 -47 -10q-20 -2 -44 -0.5t-44 12.5q-35 17 -40 41.5t8 53.5q6 14 20.5 31.5t38 34.5t54.5 31t70 21q43 7 71.5 0t45 -22t23 -33t5.5 -33q-2 -32 -21 -70t-61 -68q-43 -33 -65 -66t-32 -58.5
t-12.5 -39.5t-6.5 -8l-10 7q-1 -2 -2.5 0.5t-2.5 5.5l-2 6l-1 3q1 10 2.5 16.5t4.5 14t7.5 18t11.5 28.5q11 28 32.5 53t43 47t38.5 42t20 38q2 18 -5.5 33.5t-23 26t-38.5 14t-51 -1.5q-57 -11 -92.5 -33t-43.5 -43q-4 -10 4.5 -24.5t33 -23t65.5 -5t101 30.5h1zM213 40
q10 -2 19 -12.5t4 -26.5q-2 -5 -2 -7.5t-3 -11.5q-2 -4 -7 -6q-3 -1 -5 0q-3 2 -8.5 5t-10.5 5q-7 4 -8 11q3 8 5 18t5 21q0 1 2 2q4 2 9 2z" />
    <glyph glyph-name="ampersand" unicode="&#x26;" horiz-adv-x="515" 
d="M287 110q2 6 30 9.5t62 5.5q40 2 89 2q4 0 6 -0.5t4 -5.5q0 -8 -8.5 -18t-22.5 -11q-2 0 -11 -0.5t-23 -0.5q-23 -26 -43 -42t-35 -25q-18 -11 -33 -16q-11 -4 -23 -8q-11 -3 -25 -5.5t-30 -1.5q-41 1 -69 9t-47 20t-30 27t-16 30q-12 36 0 81q10 29 36 50.5t60 31.5
q19 6 37.5 8t32.5 3q17 1 31 0l-11 13q-3 4 -5.5 8t-4.5 8q-6 2 -12 3.5t-12 3.5l-9 4q-51 20 -67 41.5t-8 43.5q5 -5 14.5 -11t14.5 -9l12 -6q1 0 1 -0.5t1 -0.5q24 -14 48 -21q2 -2 5 -2.5t5 -1.5q2 8 5 15t8 14q14 20 31.5 32t30.5 18q23 13 43.5 17.5t37.5 3.5t30.5 -6
t22.5 -11q4 0 14 -10q4 -5 8 -11t6 -14q1 -6 0.5 -13.5t-2.5 -15.5q-4 -15 -14.5 -26.5t-25 -20t-31.5 -14.5t-32 -9q-5 -1 -9 -1.5t-9 -0.5q-1 0 -1.5 -0.5t-1.5 -0.5q-12 -1 -24.5 -1t-25.5 2q5 -11 18 -18t16 -8q6 -2 14 -5.5t15.5 -7t13 -6.5t6.5 -4q3 -6 -22.5 -6
t-60.5 5q-51 5 -82.5 -4.5t-49.5 -25.5q-15 -12 -23 -26t-11 -26q-4 -14 -4 -28q4 -27 16 -44t27 -27.5t31.5 -14.5t31.5 -4q32 0 55 4.5t40.5 13.5t33 21.5t32.5 27.5h-35.5t-33.5 0.5t-25 2t-11 3.5q-2 3 0 7.5t3 6.5zM441 375q-2 1 -2.5 2t-1.5 2t-2 1q-23 11 -47.5 3.5
t-45.5 -21.5q-25 -17 -48 -41l-4 -8q39 -6 80 0q22 4 39 10q14 5 26 14.5t11 23.5q-1 3 -1.5 6t-3.5 8z" />
    <glyph glyph-name="Ccedilla" unicode="&#xc7;" horiz-adv-x="244" 
d="M88 230q-63 26 -73 81q-7 28 -3.5 51t11.5 40.5t18 30t17 18.5q8 10 17 15h1q1 0 3 0.5t4 0.5q4 0 6 -1l53 -26h1v-3q0 -3 -7 -5q-13 -2 -32.5 -11t-33.5 -34q-6 -13 -9.5 -25t-3.5 -24v-8t1 -9q2 -15 9 -27t14.5 -20t14.5 -13t10 -6q66 85 146 129q41 22 73.5 28.5
t53.5 6.5q27 0 47 -7.5t27 -20.5q14 -24 -6 -61q-4 -7 -8 -12.5t-7 -9.5q-4 -5 -8 -9q-29 -28 -61.5 -45t-64 -26t-60 -12t-49.5 -3q-13 0 -23 0.5t-15 1.5q-34 -47 -48.5 -89.5t-8.5 -76.5q10 -46 38 -64q16 -9 40 -13.5t62 -4.5q30 0 72.5 2.5t110.5 9.5q20 2 39.5 3
t36.5 1q89 0 139 -24q20 -11 30 -21.5t15 -18.5v-1q1 -1 1.5 -3t-0.5 -3l-2 -2q-2 0 -6 2q-29 17 -90.5 20t-155.5 3q-45 1 -97 1t-112 2q-58 3 -95 16q-1 -4 -2.5 -11t-6.5 -15q11 -1 20 -5q8 -4 14.5 -10.5t7.5 -18.5q1 -5 -2.5 -11.5t-8.5 -11.5q-10 -8 -17.5 -9t-13.5 0
q-7 1 -12 5q-14 9 -16 21.5t0 26.5q-1 0 -2.5 -0.5t-3.5 -0.5q-50 1 -71.5 11t-29.5 23h1q-5 6 -5.5 11t0.5 11q0 10 10 20q9 14 19 17q0 3 4 3l2 2l1 -1q-8 -11 -6 -22t7.5 -20t12 -15t7.5 -7q8 -6 18.5 -9.5t21.5 -5.5l12 -1.5t9 -2.5q-2 2 2.5 14t9.5 20q-37 19 -53 49
q-10 17 -14.5 50t12.5 83q5 15 10 28t10 23q5 11 11 21zM399 391q-16 0 -36 -7.5t-37 -16.5t-29 -17l-12 -8q-30 -20 -59 -45.5t-53 -54.5h10q55 5 99.5 22.5t75.5 37.5t48 38.5t19 26.5q2 10 -3 15q-8 9 -23 9zM105 -88q-2 -12 0 -19.5t6.5 -11.5t10 -4.5t10.5 3.5l6 12
q-1 6 -5 10q-7 9 -28 10z" />
    <glyph glyph-name="ccedilla" unicode="&#xe7;" horiz-adv-x="168" 
d="M79 127q9 1 20.5 5.5t21.5 10.5t17 12.5t9 10.5q5 10 3 17q-1 3 -3 5q-14 8 -29 -1t-29 -22q-16 -16 -31 -37q-21 -32 -25.5 -52.5t-2.5 -33.5q3 -15 13 -23q12 -8 27.5 -2.5t30.5 16.5t28 23.5t22 20.5q2 2 5 3q6 2 9 -1q1 -1 1 -3v-4.5t-2 -4.5q-20 -20 -34 -32.5
t-23 -20.5q-11 -9 -17 -14q-33 -9 -53 -6q1 -4 1.5 -8.5t0.5 -10.5q9 4 18 5q8 1 15.5 -1.5t12.5 -11.5q2 -4 2.5 -10.5t-1.5 -11.5q-5 -10 -10 -13.5t-10 -5.5t-11 -1q-14 1 -20.5 9.5t-11.5 20.5q-1 -1 -1.5 -2t-2.5 -2q-39 -20 -59.5 -20.5t-31.5 5.5v1q-6 2 -8 6t-4 9
q-5 7 -1 18q2 14 8 22q-1 2 1 3q0 2 2 2h1q-2 -12 4 -19.5t14 -12t15 -6t9 -2.5q18 -1 37 5q10 5 15 5q-2 2 -2.5 14t0.5 18q-14 5 -21.5 14t-11.5 18q-4 10 -6 21q-5 35 7.5 62.5t28.5 47.5q18 23 44 42q23 14 42 15t33 -4q16 -6 28 -19q8 -11 6 -24.5t-10 -26.5
q-16 -21 -30.5 -27t-25.5 -4q-13 2 -26 11q-1 0 -1 0.5t1 0.5l1 1h1zM41 -38q6 -20 18 -22t15 8q2 6 0 11q-4 4 -8 6q-9 4 -25 -3z" />
    <glyph glyph-name="guillemotright" unicode="&#xbb;" horiz-adv-x="484" 
d="M99 77q0 4 9 9.5t22.5 11.5t30.5 12t34 11q-15 5 -34 11t-35 12t-27 11.5t-11 8.5q-1 4 2 8t5 6q2 3 10 3t20 -2t26 -5.5t29 -7.5q34 -10 77 -24q8 -2 7 -7q2 -10 -2.5 -22.5t-15.5 -15.5q-2 -1 -24 -8t-48 -14.5t-48 -12t-25 -1.5q-2 3 -2 8.5v7.5zM247 77q0 4 9 9.5
t22.5 11.5t30.5 12t34 11q-15 5 -34 11t-35 12t-27 11.5t-11 8.5q-1 4 2 8t5 6q2 3 10 3t20 -2t26 -5.5t29 -7.5q34 -10 77 -24q8 -2 7 -7q2 -10 -2.5 -22.5t-15.5 -15.5q-2 -1 -24 -8t-48 -14.5t-48 -12t-25 -1.5q-2 3 -2 8.5v7.5z" />
    <glyph glyph-name="guillemotleft" unicode="&#xab;" horiz-adv-x="459" 
d="M368 77v-7.5t-2 -8.5q-3 -3 -25 1.5t-48 12t-48 14.5t-24 8q-11 3 -15.5 15.5t-2.5 22.5q-1 5 7 7q43 14 77 24q15 4 29 7.5t26 5.5t20 2t10 -3q2 -2 5 -6t2 -8q0 -3 -11 -8.5t-27 -11.5t-35 -12t-34 -11q16 -5 33.5 -11t31 -12t22.5 -11.5t9 -9.5zM220 77v-7.5t-2 -8.5
q-3 -3 -25 1.5t-48 12t-48 14.5t-24 8q-11 3 -15.5 15.5t-2.5 22.5q-1 5 7 7q43 14 77 24q15 4 29 7.5t26 5.5t20 2t10 -3q2 -2 5 -6t2 -8q0 -3 -11 -8.5t-27 -11.5t-35 -12t-34 -11q16 -5 33.5 -11t31 -12t22.5 -11.5t9 -9.5z" />
    <glyph glyph-name="cent" unicode="&#xa2;" horiz-adv-x="446" 
d="M189 114q-2 2 0 13q-24 1 -38 11t-21 22q-9 14 -11 31q-5 38 8 68.5t31 52.5q20 26 49 46q19 12 35 15t30 1q4 10 5 13t2 5q2 6 4 10.5t7 3.5q5 -2 8 -13.5t1 -27.5q5 -3 8.5 -6t6.5 -5q4 -3 6 -5q9 -12 7 -27t-11 -29q-15 -20 -29 -27t-26 -7q-10 -27 -20.5 -55
t-20.5 -51q12 4 24.5 12.5t24 18.5t21.5 19.5t17 15.5q3 3 6 4q5 2 9 -2l2 -4q0 -5 -3 -9q-43 -43 -62 -59q-11 -10 -19 -15q-8 -2 -15.5 -4t-14.5 -3q-5 -11 -8.5 -17.5t-4.5 -6.5q-3 -1 -5 4t-3 7zM228 274q2 0 4 0.5t4 0.5l20 57q-11 -8 -20 -17.5t-16 -18.5
q-8 -11 -15 -21q-23 -35 -28 -57.5t-3 -36.5q3 -17 14 -26q3 -3 7 -3q6 23 16.5 53t21.5 61q-2 1 -3 2l-2 2t-2 1q-2 0 -2 1t2 1l1 1h1zM293 344q-2 -7 -7 -21t-12 -31q11 6 18.5 12.5t9.5 11.5q4 7 4.5 11.5t-0.5 7.5q-1 4 -4 6z" />
    <glyph glyph-name="at" unicode="@" horiz-adv-x="556" 
d="M509 318q6 -24 6 -48q0 -47 -22 -97t-54.5 -91t-68 -67.5t-62.5 -26.5q-21 0 -29 13t-8 30q0 23 10 51.5t21 49.5q-14 -16 -32.5 -36.5t-36.5 -40t-32.5 -34.5t-18.5 -21q-5 -5 -13 -5q-20 0 -38 12t-18 39q0 26 17.5 64t42.5 73t53.5 60t49.5 25q5 0 13 -4
q11 -8 20.5 -14.5t16.5 -11.5q8 -6 13 -11q1 0 3.5 6.5t5 14.5t4.5 15t3 7q3 0 11.5 -5t17.5 -13t16.5 -18.5t7.5 -21.5q0 -8 -4 -15q-8 -13 -21 -40.5t-26 -56t-22.5 -52t-9.5 -28.5q0 -1 1 -1q31 11 54 40t39 64t24 70t8 59q0 15 -3 24q-7 19 -17.5 31.5t-21.5 20.5
q-12 9 -26 14l-23 4q-59 -2 -101.5 -26t-70.5 -52q-33 -33 -55 -74q-26 -44 -35.5 -79t-9.5 -63q0 -34 10.5 -57.5t24.5 -37.5q15 -17 35 -27q19 -11 44 -11q18 0 35.5 5.5t34.5 14.5q1 0 5 -2t8.5 -5t8.5 -7.5t4 -8.5q0 -10 -16.5 -16t-36.5 -10q-24 -4 -53 -7
q-56 0 -92.5 31.5t-54 78t-16 100t21.5 97.5q27 59 65 102.5t80 72t85 42.5t80 14q33 0 58.5 -9.5t43.5 -24t29.5 -33t16.5 -36.5zM195 56q11 8 33 32t44 50q26 30 54 66q-10 7 -21 7q-20 0 -52 -34.5t-64 -102.5q-4 -8 -4 -14t5 -6q2 0 3 1q1 0 2 1z" />
    <glyph glyph-name="questiondown" unicode="&#xbf;" horiz-adv-x="447" 
d="M198.021 102.018q-1 -1 -2 -1q-2 0 -2 2q3 5 8.99902 14.999q6 10 13.999 20.999q8 10.999 17.499 19.999q9.5 8.99902 19.499 12.999q22.999 7 46.9971 9.99902q19.999 2 43.9971 0.5q23.999 -1.5 43.998 -12.499q34.9971 -16.999 39.9971 -41.4971
q5 -24.499 -7.99902 -53.4971q-6 -13.999 -20.499 -31.498t-37.998 -34.498q-23.498 -16.999 -54.4961 -30.998t-69.9961 -20.999q-42.9971 -6.99902 -71.4951 0q-28.499 7 -44.998 21.999t-22.998 32.998q-6.5 17.999 -5.5 32.998q2 31.998 20.999 69.9961
q18.999 37.9971 60.9961 67.9951q42.9971 32.998 64.9961 65.9961t31.998 58.4961q9.99902 25.499 12.499 39.498t6.5 7.99902l9.99902 -6.99902q1 2 2.5 -0.5t2.5 -5.5q1 -2.99902 2 -5.99902l1 -3q-1 -10 -2.5 -16.499q-1.5 -6.5 -4.5 -13.999q-3 -7.5 -7.49902 -17.999
q-4.5 -10.499 -11.5 -28.498q-10.999 -27.999 -32.498 -52.9971q-21.498 -24.998 -42.9971 -46.9971t-38.498 -41.9971q-16.998 -19.999 -19.998 -37.998q-2 -17.999 5.49902 -33.498q7.5 -15.499 22.999 -25.998q15.499 -10.5 38.498 -13.999q22.998 -3.5 50.9961 1.49902
q56.9971 11 92.4951 32.998q35.4971 21.999 43.4971 42.998q4 9.99902 -4.5 24.498q-8.49902 14.499 -32.998 22.999q-24.498 8.49902 -65.4961 4.99902q-40.9971 -3.49902 -100.993 -30.498h-1zM315.013 355.002q-9.99902 2 -18.999 12.5q-8.99902 10.499 -3.99902 26.498
q2 5 2 7.5q0 2.49902 2.99902 11.499q2 4 7 5.99902q3 1 5 0q3 -1.99902 8.49902 -4.99902q5.5 -3 10.499 -5q7 -4 8 -10.999q-3 -8 -5 -17.999t-4.99902 -20.999q0 -1 -2 -2q-4 -2 -9 -2z" />
    <glyph glyph-name="exclamdown" unicode="&#xa1;" horiz-adv-x="323" 
d="M285.01 419.998q5 -2 9.99902 -6.5q5 -4.49902 8 -10.499q2.99902 -5.99902 3.99902 -12.999t-2.99902 -13.999q-2 -3 -3 -5.5t-5 -10.499q-2 -3 -7.99902 -3q-3 0 -6 1q-2 2 -7.5 7q-5.49902 4.99902 -10.499 8.99902q-6.99902 5 -5.99902 11.999
q3.99902 6 7.49902 15.499q3.5 9.5 8.49902 17.499q1 1 3 2q3 2 8 -1zM270.011 333.004q3.99902 -8 1 -16.499q-3 -8.5 -8 -17.499q-1 -3 -3.5 -8.5q-2.49902 -5.5 -6.99902 -15.499t-10.999 -26.998q-6.5 -16.999 -17.499 -43.9971q-13 -33.998 -24.999 -67.4961
t-20.999 -62.9961q-8.99902 -29.498 -13.499 -52.4971q-4.49902 -22.999 -3.49902 -35.998q-1 -7.99902 1.49902 -15.999q2.5 -7.99902 5.5 -13.999q0 -4 -2 -5q0 -1.99902 -1 -1.99902l-1 1q0 0.999023 -1 0.999023q-0.999023 1 -11.499 9.5
q-10.499 8.49902 -17.499 38.4971q-2 17.999 1 47.9971q3 29.999 11.999 60.9971q5 14.999 13.5 38.9971q8.49902 23.999 18.998 49.9971q10.5 25.998 20.999 50.4971q10.499 24.498 17.499 41.4971q4 9 8 19.999q3.99902 8.99902 8.99902 21.499q5 12.499 10.999 26.498
q1 2 1 3v1q3 1 5 0q0 -1 6.99902 -10q7 -8.99902 11 -16.998z" />
    <glyph glyph-name="quotesinglbase" unicode="&#x201a;" horiz-adv-x="93" 
d="M33 -57q-4 0 -7 3q-1 1 -1 3q0 6 2.5 18t5.5 25.5t5.5 25.5t2.5 16q2 5 14.5 8t18.5 5l4 -2q5 -3 5 -7q0 -10 -0.5 -13t-1.5 -8q0 -8 -6 -21t-13.5 -25t-15.5 -20t-13 -8z" />
    <glyph glyph-name="quotedblbase" unicode="&#x201e;" horiz-adv-x="146" 
d="M19 -57q-4 0 -7 3q-1 1 -1 3q0 6 2.5 18t5.5 25.5t5.5 25.5t2.5 16q2 7 12 7q5 2 11.5 3.5t9.5 2.5q3 -1 5 -2q4 -4 4 -8q0 -9 -0.5 -12t-1.5 -8q0 -8 -6 -21t-13.5 -25t-15.5 -20t-13 -8zM85 -57q-4 0 -7 3q-1 1 -1 3q0 6 2.5 18t5.5 25.5t5.5 25.5t2.5 16q2 7 12 7
q5 2 11.5 3.5t9.5 2.5q3 -1 5 -2q4 -4 4 -8q0 -9 -0.5 -12t-1.5 -8q0 -8 -6 -21t-13.5 -25t-15.5 -20t-13 -8z" />
    <glyph glyph-name="cedilla" unicode="&#xb8;" horiz-adv-x="95" 
d="M37 4q1 0 1.5 -6.5t0.5 -12.5q9 4 18 5q8 1 15.5 -1.5t12.5 -11.5q2 -4 2.5 -10.5t-1.5 -11.5q-5 -10 -10 -13.5t-10 -5.5t-11 -1q-14 1 -20.5 9.5t-11.5 20.5q-1 -1 -1.5 -2t-2.5 -2q-11 -5 -26.5 -11.5t-31.5 -8.5t-29 2t-17 19q-2 6 -1 14.5t3 15.5t5 11.5t5 3.5
q-2 -12 4 -19.5t14 -12t15 -6t9 -2.5q18 -1 37 5q6 2 9.5 3.5t7.5 1.5q-2 0 -2 5t-1 11q-1 7 -1 16q5 -2 9 -3q8 -2 9 -2zM41 -28q6 -20 18 -22t15 8q2 6 0 11q-4 4 -8 6q-9 4 -25 -3z" />
    <glyph glyph-name="quoteleft" unicode="&#x2018;" horiz-adv-x="165" 
d="M142 429q7 -2 8 -3t1 -3q0 -6 -2 -18.5t-5 -26t-5 -25t-2 -15.5q-4 -7 -13 -7q-6 -2 -14 -3.5t-11 -2.5q-3 0 -6 2q-6 2 -6 8q0 9 0.5 12t0.5 8q0 8 6.5 21t15 25t17.5 20t15 8z" />
    <glyph glyph-name="fi" unicode="&#xfb01;" horiz-adv-x="222" 
d="M93 11q-6 11 -3 32.5t11 47t18.5 51.5t19.5 45h-47q-1 -1 -1 -2q-2 -17 -7 -52.5t-12.5 -76t-18 -79t-22.5 -60.5q-11 -20 -23.5 -29t-23.5 -11q-13 -3 -26 1l1 -1h-1l-2 2q-4 1 -22 10q-10 6 -12 17q-2 9 -1 19t4 19t5.5 15.5t3.5 7.5q5 14 11 25q5 12 16 36.5t24 53
l26 57t22 48.5h-42q2 8 6 14q3 5 7.5 10t12.5 5h29q27 60 41.5 96t22.5 53q4 9 8 21t6 23v2l3 2q5 0 8 -3q6 -4 14 -10t14 -14t8.5 -17t-2.5 -18l-10 -21l-53 -114h47q0 1 0.5 1t0.5 1l1 1l2 5q0 1 2 2q3 1 9 0q6 -3 12.5 -9t11.5 -13.5t6.5 -16.5t-2.5 -16
q-6 -13 -21 -37.5t-26 -53.5q-5 -8 -6 -14q-7 -17 -10.5 -29t-1.5 -14h4q5 2 13.5 9.5t18 17t18 19.5t14.5 17l2 2q1 1 5 1q3 -1 5 -6t-7 -16q-15 -20 -31.5 -35.5t-22.5 -20.5q-13 -10 -22 -11.5t-14 -0.5h-1q-4 0 -8 3q-8 3 -12 9zM11 -62q9 19 16 44t12.5 49t9 44.5
t5.5 32.5q-8 -16 -14 -29t-11 -23q-5 -11 -9 -21q-12 -27 -23 -51q-9 -20 -18 -40.5t-12 -31.5v-1q-1 -1 -1 -3q-1 -3 0 -5q0 -6 6 -6q3 -1 6 0q9 1 17 12t16 29zM201 288q11 -5 20 -19t1 -29l-9 -18q-2 -4 -9 -4q-3 0 -6 2q-2 2 -8 7.5t-11 9.5q-8 6 -7 13q4 7 8.5 17
t9.5 20q0 1 2 2q3 2 9 -1z" />
    <glyph glyph-name="fl" unicode="&#xfb02;" horiz-adv-x="221" 
d="M243 421q6 -4 14 -10t14 -14t8 -17t-3 -18q-21 -52 -46 -102.5t-51 -102.5v-1q-17 -36 -29 -64q-11 -24 -19 -44.5t-6 -22.5q3 -2 12 4.5t20 16.5t22 21.5t17 20.5l2 2q1 1 5 1q2 -1 4.5 -6t-7.5 -16q-17 -20 -33.5 -36t-22.5 -20q-14 -10 -23 -12t-14 0q-18 3 -23 15.5
t-3 29.5t9 35.5t14 32.5l32 73h-44q-1 -1 -1 -2q-2 -17 -7 -52.5t-12.5 -76t-18 -79t-22.5 -60.5q-11 -20 -23.5 -29t-23.5 -11q-13 -3 -26 1l1 -1h-1l-2 2q-4 1 -22 10q-10 6 -12 17q-2 9 -1 19t4 19t5.5 15.5t3.5 7.5q5 14 11 25q5 12 16 36.5t24 53l26 57t22 48.5h-42
q2 8 6 14q3 5 7.5 10t12.5 5h29q27 60 41.5 96t22.5 53q4 9 8 21t6 23v2l3 2q5 0 8 -3q6 -4 14 -10t14 -14t8.5 -17t-2.5 -18l-10 -21l-53 -114h43q2 3 2.5 6t2.5 5q27 60 42 95.5t22 53.5q4 10 7 21t7 23v2l3 2q3 0 8 -3zM11 -62q9 19 16 44t12.5 49t9 44.5t5.5 32.5
q-8 -16 -14 -29t-11 -23q-5 -11 -9 -21q-12 -27 -23 -51q-9 -20 -18 -40.5t-12 -31.5v-1q-1 -1 -1 -3q-1 -3 0 -5q0 -6 6 -6q3 -1 6 0q9 1 17 12t16 29z" />
    <glyph glyph-name="Lslash" unicode="&#x141;" horiz-adv-x="322" 
d="M156 101q0 3 6 8t17 11t25.5 12t30.5 12l46 105l8 18q4 11 10 26t12.5 31.5t13 32.5t11.5 29q2 5 6 12.5t7 10.5l10 9l-3 5l-6 -2q-8 -2 -28 -12l-5 -3q-41 -23 -65.5 -41.5t-36.5 -30.5l-15 -16l-12 -16q-2 -4 -3.5 -11.5t5.5 -12.5q6 -4 19 -5t38 3q1 0 3 -1q3 -3 2 -5
l-20 -39q-1 -1 -3 -2.5t-7 -0.5q-7 2 -18 8t-22 15l-3 3h-1q-13 12 -17 29q-8 30 7 57t41 44q36 26 75.5 40.5t83.5 30.5h3q12 3 23 -0.5t19.5 -10t15 -14.5t10.5 -14q1 -3 1 -5q0 -4 -6 -7q-7 -2 -13.5 -5.5t-11.5 -8.5q-11 -11 -17 -24t-9 -21q-5 -11 -13 -31.5t-17.5 -45
t-19.5 -50t-18 -45.5q14 5 26 9q6 2 11 4t8 2t6 -5q3 -9 -3 -23.5t-22 -20.5q-2 -1 -16 -6t-34 -12l-43 -91l-10 -18q-5 -8 -10 -17.5t-10 -17.5q6 -3 16.5 -8t27.5 -12q27 -11 57.5 -19t62.5 -11q6 0 33 -0.5t59 4.5t61 17.5t40 37.5q2 2 3 2q2 1 3 0l3 -6q2 -14 3 -26.5
t-6 -28.5q-5 -10 -16 -18q-9 -8 -25 -14.5t-42 -10.5q-24 -3 -52.5 -4.5t-63.5 4t-79 20t-99 42.5q-1 0 -2 1t-2 1t-2 1q-13 -19 -43.5 -36.5t-62.5 -23.5t-58 3.5t-29 43.5q-2 11 6 24t20 21q16 11 35.5 15.5t39 5t35.5 -2t24 -4.5q7 9 19.5 36t29.5 65q-23 -7 -39 -10.5
t-18 -0.5q-2 2 -1.5 8t0.5 8zM151 -34q-23 8 -40.5 9t-29.5 -2q-14 -4 -25 -11q-5 -3 -10.5 -9t-5.5 -14q0 -9 10.5 -13t27 -1.5t36 12.5t37.5 29z" />
    <glyph glyph-name="lslash" unicode="&#x142;" horiz-adv-x="100" 
d="M137 421q6 -4 14 -10t14 -14t8 -17t-3 -18q-19 -46 -40.5 -90.5t-44.5 -89.5q7 2 13 3.5t11 3.5l9 3q4 1 7 1.5t5 -3.5q2 -8 -3 -19.5t-18 -16.5l-44 -14q-6 -12 -14.5 -31.5t-16 -37.5t-12.5 -31.5t-3 -14.5q3 -2 12 4.5t20 16.5t22 21.5t17 20.5l2 2q1 1 5 1
q2 -1 4.5 -6t-7.5 -16q-17 -20 -33.5 -36t-22.5 -20q-14 -10 -23 -12t-14 0q-18 3 -23 15.5t-3 29.5t9 35.5t14 32.5l3 6q-17 -5 -29 -7t-14 0q-2 3 -1 7.5t1 6.5q0 5 18 13.5t42 17.5q10 23 17.5 41.5t12.5 27.5q27 60 42 95.5t22 53.5q4 10 7 21t7 23v2l3 2q3 0 8 -3z" />
    <glyph glyph-name="Zcaron" unicode="&#x17d;" horiz-adv-x="377" 
d="M327 76q1 -2 1 -6q3 -12 0 -29q-10 -32 -34.5 -46.5t-56 -18t-65 1t-60.5 10.5q-14 4 -25 7t-19 5q-2 1 -2.5 1t-2.5 1h-2q-30 11 -39 29t-8 35q0 14 6.5 28t14.5 26q10 14 22 28q14 17 31.5 34t34.5 31q12 10 32.5 24.5t44.5 31t49.5 33t46.5 28.5l1 1l4 2q-31 2 -68 9
t-79 24q-19 9 -31 22q-11 11 -16.5 27t2.5 39q5 10 13 15q7 5 17 5.5t26 -7.5q-7 -13 -8 -24t4 -22t22 -21t42.5 -15.5t55 -6.5t60.5 2.5t60 12.5l15 5q7 2 15.5 5.5t17.5 7.5h4q3 0 5 -3q1 0 1 -1q2 -2 2 -3q1 -1 6 -14t7 -23q0 -2 1 -3q2 -13 -8 -20t-23 -12l-20 -10
t-40 -21t-54.5 -30.5t-62.5 -37.5q-50 -30 -92.5 -59.5t-71.5 -55.5q-18 -16 -31 -30.5t-18 -19.5q-2 -4 -4 -7t-3 -6q-2 -5 -1 -8t3 -5q2 -3 5 -4q12 -5 31 -7t38.5 -2.5t35 0.5t20.5 1h2q13 0 27 1t29 3q27 5 50 15.5t32 30.5q3 3 4 2q1 1 2 0zM388 447q-32 -2 -53.5 -6.5
t-34.5 -19.5l-2 -2v1l-1 -1v3q0 20 -14 37t-37 39l-12 11q-5 3 -3 8t9 10q10 5 18.5 5.5t24.5 -13.5q21 -22 24 -51q1 -7 1 -14.5t-2 -12.5q5 12 15 22q21 19 51 24q22 1 28 -5t11 -16q2 -8 0.5 -14t-7.5 -4z" />
    <glyph glyph-name="zcaron" unicode="&#x17e;" horiz-adv-x="185" 
d="M395 -21q3 -9 3 -22q0 -15 -7 -29t-21 -25t-36.5 -17.5t-53.5 -6.5q-17 0 -35 3t-38 8.5t-44 14.5t-54 21q-20 -20 -42.5 -33.5t-60.5 -13.5q-5 0 -14.5 1t-18.5 5.5t-16 12t-7 21.5q0 13 9 23t22 16t27 9t24 3q11 0 21.5 -1.5t18.5 -3.5q9 -3 16 -5q10 22 10 33
t-10.5 23t-28.5 12q-17 3 -21.5 9t-4.5 12q0 26 22.5 64t61.5 81q-16 -4 -29.5 -4.5t-24.5 -2.5q-8 -29 -20.5 -54t-25 -43t-22.5 -28t-13 -10q-5 0 -6.5 3t-1.5 5t8 12.5t19.5 26.5t24 37.5t20.5 46.5q0 2 1 3q-2 0 -6 -1t-10 -1q-10 0 -20.5 4t-12.5 16q0 15 6 25t14 16
t16 8.5t13 3.5h6q14 0 17 -11t3 -16q0 -4 -0.5 -8.5t-2.5 -13.5q23 3 43 8.5t22 5.5t8.5 -2.5t14 -7.5t13.5 -11.5t6 -13.5q0 -8 -11 -18t-25 -25t-29 -37t-22 -52q31 -6 42.5 -22t11.5 -33q0 -20 -8 -35.5t-10 -18.5q5 -2 17 -5l28 -7t34.5 -6.5t36.5 -2.5h10q4 0 23.5 2.5
t42.5 9t43 18.5t25 31q2 2 3 2t2 -1.5t4 -7.5zM48 240q-4 -2 -8.5 -9.5t-4.5 -13.5q0 -5 3 -8t12 -3q5 0 6.5 7.5t1.5 13.5q0 4 -1.5 9t-4.5 5t-4 -1zM73 -62q-12 5 -22.5 6.5t-19.5 1.5q-19 0 -29.5 -3t-15 -7.5t-5.5 -9t-1 -7.5q0 -15 24 -15q14 0 33 7.5t36 26.5z
M195 267q-32 -2 -53.5 -6.5t-34.5 -19.5l-2 -2v1l-1 -1v3q0 20 -14 37t-37 39l-12 11q-5 3 -3 8t9 10q10 5 18.5 5.5t24.5 -13.5q21 -22 24 -51q1 -7 1 -14.5t-2 -12.5q5 12 15 22q21 19 51 24q22 1 28 -5t11 -16q2 -8 0.5 -14t-7.5 -4z" />
    <glyph glyph-name="Scaron" unicode="&#x160;" horiz-adv-x="382" 
d="M139 214q11 -2 22.5 -2h22.5q61 0 106.5 14.5t75.5 34t44.5 40t14.5 31.5q0 17 -28 29.5t-74 12.5q-54 0 -99 -14.5t-77 -37.5t-50 -52t-18 -58q0 -18 6 -30t18 -21.5t30 -17.5t42 -18q34 -14 62.5 -22.5t42.5 -23.5q34 7 53 8t34 3q4 0 8 -1q8 -2 8 -6q0 -5 -7 -13
t-23 -10q-19 -3 -35 -5.5t-33 -4.5v-4q0 -12 -11 -30.5t-32 -35t-52 -28.5t-73 -12q-35 0 -53 13.5t-18 31.5q0 27 47 47t122 36q-16 8 -45.5 21t-74.5 31q-85 35 -85 101q0 8 4 26t15 40t31 45.5t52.5 43t78 32.5t108.5 14q48 1 78 -10t47 -26.5t23 -33.5t6 -32
q0 -26 -16 -51.5t-57 -55.5q-32 -23 -64.5 -36t-59.5 -19.5t-44 -7.5l-17 -1q-12 0 -22.5 8t-18.5 18t-13.5 20t-7.5 15q0 3 2 3.5t3 0.5h1zM89 -19q19 0 40 5t40 13.5t34.5 18.5t24.5 21q-56 -12 -85.5 -22.5t-43.5 -18.5q-17 -10 -19 -17h9zM439 466q-32 -2 -53.5 -6.5
t-34.5 -19.5l-2 -2v1l-1 -1v3q0 20 -14 37t-37 39l-12 11q-5 3 -3 8t9 10q10 5 18.5 5.5t24.5 -13.5q21 -22 24 -51q1 -7 1 -14.5t-2 -12.5q5 12 15 22q21 19 51 24q22 1 28 -5t11 -16q2 -8 0.5 -14t-7.5 -4z" />
    <glyph glyph-name="OE" unicode="&#x152;" horiz-adv-x="732" 
d="M529 -7q-63 2 -97.5 18.5t-50.5 39.5q-34 -42 -77.5 -66t-86.5 -29q-39 -5 -61 3t-33.5 24t-16 38.5t-7.5 48.5q-8 0 -15 -1t-15 1q-21 1 -37 9q-14 7 -25 21t-9 40q1 12 7 21q5 8 15 13.5t28 3.5q-4 -15 -1 -28q2 -11 10.5 -21.5t28.5 -12.5h11l4 33q7 42 23.5 81
t38 72.5t46.5 59.5t49 41q18 11 38 18.5t40.5 8t40 -6t35.5 -23.5q16 -16 20 -45.5t-6 -65.5l4 -4t6.5 -9t6 -15.5t3.5 -24.5l17 6q19 6 37.5 8t32.5 3q17 1 31 0l-11 13q-3 4 -5.5 8t-4.5 8q-6 2 -12 3.5t-12 3.5l-9 4q-51 20 -67 41.5t-8 43.5q5 -5 14.5 -11t14.5 -9
l12 -6q1 0 1 -0.5t1 -0.5q24 -14 48 -21q2 -2 5 -2.5t5 -1.5q2 8 5 15t8 14q14 20 31.5 32t30.5 18q23 13 43.5 17.5t37.5 3.5t30.5 -6t22.5 -11q4 0 14 -10q4 -5 8 -11t6 -14q1 -6 0.5 -13.5t-2.5 -15.5q-4 -15 -14.5 -26.5t-25 -20t-31.5 -14.5t-32 -9q-5 -1 -9 -1.5
t-9 -0.5q-1 0 -1.5 -0.5t-1.5 -0.5q-12 -1 -24.5 -1t-25.5 2q5 -11 18 -18t16 -8q6 -2 14 -5.5t15.5 -7t13 -6.5t6.5 -4q3 -6 -22.5 -6t-60.5 5q-51 5 -82.5 -4.5t-49.5 -25.5q-14 -11 -21.5 -24t-11.5 -24q0 -2 -1 -3q-4 -11 -4 -21v-8q4 -27 16 -44t27 -27.5t31.5 -14.5
t31.5 -4q34 0 58 5.5t42.5 15t34.5 23.5t35 31q5 4 9 8q9 7 15 3q-1 -2 -2 -5q-2 -7 -7 -13q-23 -26 -43 -42t-35 -25q-18 -11 -33 -16q-11 -4 -23 -8q-11 -3 -25 -5.5t-30 -1.5zM371 352q-10 9 -23 13q-11 3 -28.5 2t-39.5 -15q-21 -13 -40.5 -32t-36 -41t-30 -44.5
t-23.5 -43.5q-7 -14 -13 -33.5t-8 -39.5q41 6 87 28t84 54q14 13 27 25q11 11 22 22.5t17 21.5q7 9 11.5 20.5t5.5 23.5t-2 22.5t-10 16.5zM308 141q-21 -15 -48 -28q-23 -11 -56 -23t-74 -17q-10 -42 2 -59t36.5 -16.5t56 14.5t60.5 34.5t50.5 43.5t25.5 42q1 6 2 11t2 9
l2 8q6 17 18 32q4 17 6 29q-14 -21 -35 -41.5t-48 -38.5zM746 375q-2 1 -2.5 2t-1.5 2t-2 1q-23 11 -47.5 3.5t-45.5 -21.5q-25 -17 -48 -41l-4 -8q39 -6 80 0q22 4 39 10q14 5 26 14.5t11 23.5q-1 3 -1.5 6t-3.5 8z" />
    <glyph glyph-name="scaron" unicode="&#x161;" horiz-adv-x="138" 
d="M-5 60q-10 -7 -14 -13q-4 -5 -4 -11t9 -11q13 -5 25 -5q10 0 20.5 5.5t15.5 22.5q2 4 2 9q0 11 -4 27q-16 -5 -29 -11t-21 -13zM-34 60q14 14 33.5 24t38.5 18q-4 10 -11 18.5t-9 19.5q-5 19 0 38.5t15.5 35t24.5 26t28 13.5q20 4 36 4.5t27 -0.5q1 0 2 -1q3 -3 3 -4
q0 -2 -0.5 -3.5t-5.5 -5.5q-10 -7 -23 -17.5t-24 -23t-18.5 -26.5t-7.5 -28q3 -23 8.5 -49.5t4.5 -50.5t-14 -41.5t-47 -22.5q-14 -2 -27.5 0t-25 8t-18 15.5t-6.5 23.5t16 29zM199 297q-32 -2 -53.5 -6.5t-34.5 -19.5l-2 -2v1l-1 -1v3q0 20 -14 37t-37 39l-12 11q-5 3 -3 8
t9 10q10 5 18.5 5.5t24.5 -13.5q21 -22 24 -51q1 -7 1 -14.5t-2 -12.5q5 12 15 22q21 19 51 24q22 1 28 -5t11 -16q2 -8 0.5 -14t-7.5 -4z" />
    <glyph glyph-name="oe" unicode="&#x153;" horiz-adv-x="302" 
d="M151 223q11 0 17 -6t8.5 -14t3 -16.5t-0.5 -15.5q11 11 20.5 18.5t16.5 12.5q8 5 15 9q21 12 32 4q8 -6 13.5 -11t10.5 -9l1 -1q1 -2 3 -5t2 -8q0 -22 -11 -41t-28 -34q-20 -18 -42.5 -25t-34.5 -3q-8 -18 -8 -29t2 -18q3 -8 8 -12q12 -8 27 -2.5t29 16.5t27 23.5
t22 20.5q2 2 5 3q7 2 9 -1q2 -1 2 -3q0 -5 -4 -9q-26 -27 -44.5 -46t-26.5 -21q-27 -9 -45 -8t-29.5 7.5t-17.5 16t-9 17.5v1l-2 9q-18 -23 -38 -35t-46 -10q-24 2 -36 15t-15.5 30t-1 35t6.5 29t10 23t12.5 23t13.5 19.5t13 13.5q16 12 28 12.5t20 1.5q25 23 62 23zM54 19
q20 1 37.5 20.5t31.5 45.5q-26 -3 -40.5 7t-19.5 26q-10 -12 -16.5 -29t-8.5 -32.5t1.5 -26.5t14.5 -11zM253 135q13 15 17 23t2.5 11t-5 3h-4.5q-8 -2 -18 -8q-8 -5 -18.5 -14.5t-21.5 -23.5q-5 -7 -9 -13l-8 -12q7 -1 19.5 2t27.5 15q4 3 7.5 6t7.5 8zM128 111q6 0 9 1
q8 19 13 35t6 24q3 24 -7.5 21t-19.5 -20q-5 -8 -8.5 -19t-4 -20.5t2 -15.5t9.5 -6z" />
    <glyph glyph-name="Ydieresis" unicode="&#x178;" horiz-adv-x="495" 
d="M556 425q-8 -10 -24 -15t-28 6q-3 4 -5.5 5.5t-9.5 8.5q-3 2 -1 9q1 3 3 6q2 2 9 6t12 8q7 7 14 3q6 -5 14.5 -12t16.5 -15q1 -1 2 -3q0 -4 -3 -7zM466 448q-8 -10 -24 -15t-28 7q-3 3 -5.5 4.5t-9.5 8.5q-3 3 -1 10q1 3 3 5t9 6.5t12 7.5q7 7 14 4q6 -5 14.5 -12
t16.5 -15q1 -1 2 -3q0 -5 -3 -8zM465 -33q8 -6 13 -15.5t5 -17.5q0 -14 -7 -21.5t-16 -11.5t-18 -5t-14 -1q-19 0 -32.5 2.5t-24.5 8.5t-22 14.5t-25 20.5q-3 -1 -5 -2l-6 -3q-51 -23 -90 -32t-68 -9q-63 0 -91.5 24t-28.5 53q0 11 4 21.5t6 10.5q2 -2 2 -3q5 -19 25 -30.5
t43 -18t42.5 -9t24.5 -2.5q22 0 43 2.5t39.5 6t33 8t23.5 8.5q-2 5 -2 11v13q0 25 6 54.5t17 58.5q-23 29 -32 61t-9 60q0 26 4.5 47.5t9.5 33.5q3 8 5 13t4 9t3 7q-20 -6 -50 -6q-86 0 -132.5 -4.5t-68 -11t-25 -15.5t-3.5 -18q0 -6 1.5 -10.5t1.5 -6.5q0 -4 -5 -4.5
t-7 -0.5q-22 0 -28 12.5t-6 20.5q0 23 14.5 35.5t33.5 18.5t37 7.5t24 1.5q31 0 60.5 -1.5t56.5 -1.5q20 0 40 1.5t37 6t29.5 13.5t17.5 23l11 23q3 3 4 3h-1q0 -1 7 -4t15 -8t15 -12t7 -14q0 -3 -11.5 -28.5t-36.5 -79.5v-1q0 -1 -1 -3t-2 -2q-9 -20 -12.5 -37t-3.5 -32
q0 -11 1.5 -24t5.5 -24t11 -18.5t17 -7.5q13 0 31.5 18.5t41.5 45.5q60 82 86.5 157t26.5 121q0 16 -6 29t-6 21q0 1 3 3q5 0 16.5 -3t23 -12t20.5 -26t9 -45q0 -17 -4.5 -35t-10.5 -32q-15 -35 -48 -93.5t-97 -130.5q-19 -19 -35.5 -32t-30.5 -21q-11 -30 -19 -54.5
t-12 -44.5q-1 -2 -1 -4t-1 -4q13 3 33 3q15 0 31.5 -4t32.5 -15zM443 -49q-5 2 -11 5q-5 2 -12.5 3.5t-17.5 1.5q-8 0 -16 -1t-18 -4q1 -10 9 -17t18 -11.5t20 -6.5t15 -2q22 0 24 13q0 13 -11 19z" />
    <glyph glyph-name="Agrave" unicode="&#xc0;" 
d="M107 3q-40 -2 -64.5 16t-33 45t-1.5 58t30 55q10 14 28 25q15 10 39 18.5t59 11.5q3 0 7 -1q7 -2 11 -8l25 -38q2 -2 0 -5q-1 -2 -5 -2t-8 1t-8.5 1.5t-10.5 0.5q-13 0 -31 -3t-38 -14t-33.5 -25t-18.5 -30q-3 -13 -3.5 -25.5t3.5 -23t13.5 -17t26.5 -6.5q20 0 49 12
t59 32q35 23 75 61t79 82q-17 0 -34.5 -4t-34.5 -10q-11 -5 -16 -11.5t-6.5 -13t-0.5 -13t2 -9.5v-3q0 -1 -1 -1q-2 -2 -8 -2h-5q-16 2 -22.5 9t-8.5 15q-2 10 1 22q5 19 22 29t35.5 14.5t34 5t18.5 0.5h11h37q29 33 55 65t45.5 56.5t31.5 40l12 15.5q4 4 7 2l4.5 -3t9.5 -7
t11 -7.5t9 -6.5q9 -9 5 -20t-12 -23q-3 -5 -19.5 -35t-38.5 -75q32 5 53 18.5t29 44.5q0 1 1 2q2 2 4 -2q1 -2 3.5 -16.5t-4.5 -31t-28 -29.5t-66 -12h-4l-18 -39q-38 -85 -57.5 -143.5t-14.5 -87.5q0 -4 1 -6q59 27 117 30.5t106 -3.5q55 -8 107 -26q4 -2 11 -4
q5 -2 14 -4.5t21 -5.5q28 -8 63.5 -11.5t69.5 2t62 20t40 42.5q2 2 3 2q2 1 3 -2.5t3 -6.5q8 -19 2.5 -37t-17.5 -34q-24 -24 -58.5 -30.5t-72 -2t-74.5 16.5t-67 25q-59 27 -114.5 29.5t-99 -5t-70.5 -18.5t-30 -12t-8 1q-2 0 -8.5 2t-14.5 7t-17 14t-15 25q-7 20 -4.5 54
t14.5 72q8 26 24.5 62.5t33.5 73.5h-1q-6 -1 -12 -1h-12q-19 -23 -40 -47t-42 -46.5t-41.5 -42.5t-38.5 -35q-14 -12 -31 -21.5t-34.5 -16.5t-34 -11t-29.5 -4zM459 299q-9 -10 -19.5 -22.5t-21.5 -26.5h16q7 14 13.5 26t11.5 23zM635 460q10 -1 9 -6.5t-9 -12.5
q-6 -4 -12 -7t-13.5 -4t-18 0t-26.5 5q-45 12 -66 38q-8 12 -10.5 22.5t-3.5 17.5v1v2q0 2 1 2l2 2h1v-1q0 -2 1 -2q11 -17 41.5 -28t78.5 -24z" />
    <glyph glyph-name="Aacute" unicode="&#xc1;" 
d="M107 3q-40 -2 -64.5 16t-33 45t-1.5 58t30 55q10 14 28 25q15 10 39 18.5t59 11.5q3 0 7 -1q7 -2 11 -8l25 -38q2 -2 0 -5q-1 -2 -5 -2t-8 1t-8.5 1.5t-10.5 0.5q-13 0 -31 -3t-38 -14t-33.5 -25t-18.5 -30q-3 -13 -3.5 -25.5t3.5 -23t13.5 -17t26.5 -6.5q20 0 49 12
t59 32q35 23 75 61t79 82q-17 0 -34.5 -4t-34.5 -10q-11 -5 -16 -11.5t-6.5 -13t-0.5 -13t2 -9.5v-3q0 -1 -1 -1q-2 -2 -8 -2h-5q-16 2 -22.5 9t-8.5 15q-2 10 1 22q5 19 22 29t35.5 14.5t34 5t18.5 0.5h11h37q29 33 55 65t45.5 56.5t31.5 40l12 15.5q4 4 7 2l4.5 -3t9.5 -7
t11 -7.5t9 -6.5q9 -9 5 -20t-12 -23q-3 -5 -19.5 -35t-38.5 -75q32 5 53 18.5t29 44.5q0 1 1 2q2 2 4 -2q1 -2 3.5 -16.5t-4.5 -31t-28 -29.5t-66 -12h-4l-18 -39q-38 -85 -57.5 -143.5t-14.5 -87.5q0 -4 1 -6q59 27 117 30.5t106 -3.5q55 -8 107 -26q4 -2 11 -4
q5 -2 14 -4.5t21 -5.5q28 -8 63.5 -11.5t69.5 2t62 20t40 42.5q2 2 3 2q2 1 3 -2.5t3 -6.5q8 -19 2.5 -37t-17.5 -34q-24 -24 -58.5 -30.5t-72 -2t-74.5 16.5t-67 25q-59 27 -114.5 29.5t-99 -5t-70.5 -18.5t-30 -12t-8 1q-2 0 -8.5 2t-14.5 7t-17 14t-15 25q-7 20 -4.5 54
t14.5 72q8 26 24.5 62.5t33.5 73.5h-1q-6 -1 -12 -1h-12q-19 -23 -40 -47t-42 -46.5t-41.5 -42.5t-38.5 -35q-14 -12 -31 -21.5t-34.5 -16.5t-34 -11t-29.5 -4zM459 299q-9 -10 -19.5 -22.5t-21.5 -26.5h16q7 14 13.5 26t11.5 23zM506 465q48 13 78.5 24t41.5 28v2q0 1 1 1
h1l2 -2l1 -2v-2v-1q-1 -7 -3.5 -17.5t-10.5 -22.5q-21 -26 -66 -38q-16 -4 -26.5 -5t-18 0t-13.5 4t-12 7q-8 7 -9 12.5t9 6.5z" />
    <glyph glyph-name="Acircumflex" unicode="&#xc2;" 
d="M107 3q-40 -2 -64.5 16t-33 45t-1.5 58t30 55q10 14 28 25q15 10 39 18.5t59 11.5q3 0 7 -1q7 -2 11 -8l25 -38q2 -2 0 -5q-1 -2 -5 -2t-8 1t-8.5 1.5t-10.5 0.5q-13 0 -31 -3t-38 -14t-33.5 -25t-18.5 -30q-3 -13 -3.5 -25.5t3.5 -23t13.5 -17t26.5 -6.5q20 0 49 12
t59 32q35 23 75 61t79 82q-17 0 -34.5 -4t-34.5 -10q-11 -5 -16 -11.5t-6.5 -13t-0.5 -13t2 -9.5v-3q0 -1 -1 -1q-2 -2 -8 -2h-5q-16 2 -22.5 9t-8.5 15q-2 10 1 22q5 19 22 29t35.5 14.5t34 5t18.5 0.5h11h37q29 33 55 65t45.5 56.5t31.5 40l12 15.5q4 4 7 2l4.5 -3t9.5 -7
t11 -7.5t9 -6.5q9 -9 5 -20t-12 -23q-3 -5 -19.5 -35t-38.5 -75q32 5 53 18.5t29 44.5q0 1 1 2q2 2 4 -2q1 -2 3.5 -16.5t-4.5 -31t-28 -29.5t-66 -12h-4l-18 -39q-38 -85 -57.5 -143.5t-14.5 -87.5q0 -4 1 -6q59 27 117 30.5t106 -3.5q55 -8 107 -26q4 -2 11 -4
q5 -2 14 -4.5t21 -5.5q28 -8 63.5 -11.5t69.5 2t62 20t40 42.5q2 2 3 2q2 1 3 -2.5t3 -6.5q8 -19 2.5 -37t-17.5 -34q-24 -24 -58.5 -30.5t-72 -2t-74.5 16.5t-67 25q-59 27 -114.5 29.5t-99 -5t-70.5 -18.5t-30 -12t-8 1q-2 0 -8.5 2t-14.5 7t-17 14t-15 25q-7 20 -4.5 54
t14.5 72q8 26 24.5 62.5t33.5 73.5h-1q-6 -1 -12 -1h-12q-19 -23 -40 -47t-42 -46.5t-41.5 -42.5t-38.5 -35q-14 -12 -31 -21.5t-34.5 -16.5t-34 -11t-29.5 -4zM459 299q-9 -10 -19.5 -22.5t-21.5 -26.5h16q7 14 13.5 26t11.5 23zM499 473q32 2 53.5 6.5t34.5 19.5l2 2v-1
l1 1v-3q0 -20 14 -37t37 -39l12 -11q5 -3 3 -8t-9 -10q-10 -5 -18.5 -5.5t-24.5 13.5q-21 22 -24 51q-1 7 -1 14.5t2 12.5q-5 -12 -15 -22q-21 -20 -51 -24q-22 -1 -28 5t-11 16q-2 8 -0.5 14t7.5 4z" />
    <glyph glyph-name="Atilde" unicode="&#xc3;" 
d="M107 3q-40 -2 -64.5 16t-33 45t-1.5 58t30 55q10 14 28 25q15 10 39 18.5t59 11.5q3 0 7 -1q7 -2 11 -8l25 -38q2 -2 0 -5q-1 -2 -5 -2t-8 1t-8.5 1.5t-10.5 0.5q-13 0 -31 -3t-38 -14t-33.5 -25t-18.5 -30q-3 -13 -3.5 -25.5t3.5 -23t13.5 -17t26.5 -6.5q20 0 49 12
t59 32q35 23 75 61t79 82q-17 0 -34.5 -4t-34.5 -10q-11 -5 -16 -11.5t-6.5 -13t-0.5 -13t2 -9.5v-3q0 -1 -1 -1q-2 -2 -8 -2h-5q-16 2 -22.5 9t-8.5 15q-2 10 1 22q5 19 22 29t35.5 14.5t34 5t18.5 0.5h11h37q29 33 55 65t45.5 56.5t31.5 40l12 15.5q4 4 7 2l4.5 -3t9.5 -7
t11 -7.5t9 -6.5q9 -9 5 -20t-12 -23q-3 -5 -19.5 -35t-38.5 -75q32 5 53 18.5t29 44.5q0 1 1 2q2 2 4 -2q1 -2 3.5 -16.5t-4.5 -31t-28 -29.5t-66 -12h-4l-18 -39q-38 -85 -57.5 -143.5t-14.5 -87.5q0 -4 1 -6q59 27 117 30.5t106 -3.5q55 -8 107 -26q4 -2 11 -4
q5 -2 14 -4.5t21 -5.5q28 -8 63.5 -11.5t69.5 2t62 20t40 42.5q2 2 3 2q2 1 3 -2.5t3 -6.5q8 -19 2.5 -37t-17.5 -34q-24 -24 -58.5 -30.5t-72 -2t-74.5 16.5t-67 25q-59 27 -114.5 29.5t-99 -5t-70.5 -18.5t-30 -12t-8 1q-2 0 -8.5 2t-14.5 7t-17 14t-15 25q-7 20 -4.5 54
t14.5 72q8 26 24.5 62.5t33.5 73.5h-1q-6 -1 -12 -1h-12q-19 -23 -40 -47t-42 -46.5t-41.5 -42.5t-38.5 -35q-14 -12 -31 -21.5t-34.5 -16.5t-34 -11t-29.5 -4zM459 299q-9 -10 -19.5 -22.5t-21.5 -26.5h16q7 14 13.5 26t11.5 23zM536 482q11 -6 21.5 -14t20.5 -13
q1 -2 11 -6.5t23.5 -7.5t29 -1.5t28.5 11.5q0 2 1 2t1 -1l-2 -4q0 -1 -0.5 -1.5t-0.5 -1.5q-5 -9 -11 -16q-5 -7 -13 -13t-18 -8q-11 -4 -22 -2q-10 2 -22 8.5t-24 23.5q-8 8 -17 14q-8 5 -16.5 8t-16.5 -1q-14 -6 -17.5 -13.5t-3.5 -9.5q-2 -2 -3 -2h-1v-1q-3 0 -4 1l-2 2
q-4 5 -2 11.5t7 11.5q5 6 13 12q11 9 21.5 11t18.5 0z" />
    <glyph glyph-name="Adieresis" unicode="&#xc4;" 
d="M107 3q-40 -2 -64.5 16t-33 45t-1.5 58t30 55q10 14 28 25q15 10 39 18.5t59 11.5q3 0 7 -1q7 -2 11 -8l25 -38q2 -2 0 -5q-1 -2 -5 -2t-8 1t-8.5 1.5t-10.5 0.5q-13 0 -31 -3t-38 -14t-33.5 -25t-18.5 -30q-3 -13 -3.5 -25.5t3.5 -23t13.5 -17t26.5 -6.5q20 0 49 12
t59 32q35 23 75 61t79 82q-17 0 -34.5 -4t-34.5 -10q-11 -5 -16 -11.5t-6.5 -13t-0.5 -13t2 -9.5v-3q0 -1 -1 -1q-2 -2 -8 -2h-5q-16 2 -22.5 9t-8.5 15q-2 10 1 22q5 19 22 29t35.5 14.5t34 5t18.5 0.5h11h37q29 33 55 65t45.5 56.5t31.5 40l12 15.5q4 4 7 2l4.5 -3t9.5 -7
t11 -7.5t9 -6.5q9 -9 5 -20t-12 -23q-3 -5 -19.5 -35t-38.5 -75q32 5 53 18.5t29 44.5q0 1 1 2q2 2 4 -2q1 -2 3.5 -16.5t-4.5 -31t-28 -29.5t-66 -12h-4l-18 -39q-38 -85 -57.5 -143.5t-14.5 -87.5q0 -4 1 -6q59 27 117 30.5t106 -3.5q55 -8 107 -26q4 -2 11 -4
q5 -2 14 -4.5t21 -5.5q28 -8 63.5 -11.5t69.5 2t62 20t40 42.5q2 2 3 2q2 1 3 -2.5t3 -6.5q8 -19 2.5 -37t-17.5 -34q-24 -24 -58.5 -30.5t-72 -2t-74.5 16.5t-67 25q-59 27 -114.5 29.5t-99 -5t-70.5 -18.5t-30 -12t-8 1q-2 0 -8.5 2t-14.5 7t-17 14t-15 25q-7 20 -4.5 54
t14.5 72q8 26 24.5 62.5t33.5 73.5h-1q-6 -1 -12 -1h-12q-19 -23 -40 -47t-42 -46.5t-41.5 -42.5t-38.5 -35q-14 -12 -31 -21.5t-34.5 -16.5t-34 -11t-29.5 -4zM459 299q-9 -10 -19.5 -22.5t-21.5 -26.5h16q7 14 13.5 26t11.5 23zM652 429q-8 -10 -24 -15t-28 6
q-3 4 -5.5 5.5t-9.5 8.5q-3 2 -1 9q1 3 3 6q2 2 9 6t12 8q7 7 14 3q6 -5 14.5 -12t16.5 -15q1 -1 2 -3q0 -4 -3 -7zM562 452q-8 -10 -24 -15t-28 7q-3 3 -5.5 4.5t-9.5 8.5q-3 3 -1 10q1 3 3 5t9 6.5t12 7.5q7 7 14 4q6 -5 14.5 -12t16.5 -15q1 -1 2 -3q0 -5 -3 -8z" />
    <glyph glyph-name="Aring" unicode="&#xc5;" 
d="M107 3q-40 -2 -64.5 16t-33 45t-1.5 58t30 55q10 14 28 25q15 10 39 18.5t59 11.5q3 0 7 -1q7 -2 11 -8l25 -38q2 -2 0 -5q-1 -2 -5 -2t-8 1t-8.5 1.5t-10.5 0.5q-13 0 -31 -3t-38 -14t-33.5 -25t-18.5 -30q-3 -13 -3.5 -25.5t3.5 -23t13.5 -17t26.5 -6.5q20 0 49 12
t59 32q35 23 75 61t79 82q-17 0 -34.5 -4t-34.5 -10q-11 -5 -16 -11.5t-6.5 -13t-0.5 -13t2 -9.5v-3q0 -1 -1 -1q-2 -2 -8 -2h-5q-16 2 -22.5 9t-8.5 15q-2 10 1 22q5 19 22 29t35.5 14.5t34 5t18.5 0.5h11h37q29 33 55 65t45.5 56.5t31.5 40l12 15.5q4 4 7 2l4.5 -3t9.5 -7
t11 -7.5t9 -6.5q9 -9 5 -20t-12 -23q-3 -5 -19.5 -35t-38.5 -75q32 5 53 18.5t29 44.5q0 1 1 2q2 2 4 -2q1 -2 3.5 -16.5t-4.5 -31t-28 -29.5t-66 -12h-4l-18 -39q-38 -85 -57.5 -143.5t-14.5 -87.5q0 -4 1 -6q59 27 117 30.5t106 -3.5q55 -8 107 -26q4 -2 11 -4
q5 -2 14 -4.5t21 -5.5q28 -8 63.5 -11.5t69.5 2t62 20t40 42.5q2 2 3 2q2 1 3 -2.5t3 -6.5q8 -19 2.5 -37t-17.5 -34q-24 -24 -58.5 -30.5t-72 -2t-74.5 16.5t-67 25q-59 27 -114.5 29.5t-99 -5t-70.5 -18.5t-30 -12t-8 1q-2 0 -8.5 2t-14.5 7t-17 14t-15 25q-7 20 -4.5 54
t14.5 72q8 26 24.5 62.5t33.5 73.5h-1q-6 -1 -12 -1h-12q-19 -23 -40 -47t-42 -46.5t-41.5 -42.5t-38.5 -35q-14 -12 -31 -21.5t-34.5 -16.5t-34 -11t-29.5 -4zM459 299q-9 -10 -19.5 -22.5t-21.5 -26.5h16q7 14 13.5 26t11.5 23zM617 493q7 -1 9 -5.5t1 -10.5t-4 -12t-5 -9
q-9 -12 -18 -19t-23 -6q-17 1 -17.5 12t2.5 18q2 6 7 13t10 9q5 4 13 8t25 2zM589 464q-4 -5 -5 -11.5t4 -6.5q7 1 14 11t8 15q0 5 -5.5 3.5t-15.5 -11.5z" />
    <glyph glyph-name="AE" unicode="&#xc6;" horiz-adv-x="747" 
d="M107 -7q-40 -2 -64.5 16t-33 45t-1.5 58t30 55q10 14 28 25q15 10 39 18.5t59 11.5q3 0 7 -1q7 -2 11 -8l25 -38q2 -2 0 -5q-1 -2 -5 -2t-8 1t-8.5 1.5t-10.5 0.5q-13 0 -31 -3t-38 -14t-33.5 -25t-18.5 -30q-3 -11 -4 -27t5 -27v-1q3 -5 8 -9q5 -3 12.5 -5.5t18.5 -2.5
q20 0 49 12t59 32q35 23 75 61t79 82q-6 0 -11.5 -0.5t-10.5 -1.5q-11 -2 -20 -4t-15 -4q-7 -2 -12 -4q-11 -5 -16 -11.5t-6.5 -13t-0.5 -13t2 -9.5v-3q0 -1 -1 -1q-2 -2 -8 -2h-5q-16 2 -22.5 9t-8.5 15q-2 10 1 22q5 19 22 29t35.5 14.5t34 5t18.5 0.5h48q25 28 47 55
t41 50q-7 14 -1 31l16 -12q19 23 29.5 37.5t11.5 15.5q4 4 7 2l4.5 -3t9.5 -7t11 -7.5t9 -6.5q9 -9 5 -20t-12 -23q-2 -2 -4.5 -7t-7.5 -13q4 -2 12 -4q2 -2 5 -2.5t5 -1.5q2 8 5 15t8 14q14 20 31.5 32t30.5 18q23 13 43.5 17.5t37.5 3.5t30.5 -6t22.5 -11q4 0 14 -10
q4 -5 8 -11t6 -14q1 -6 0.5 -13.5t-2.5 -15.5q-4 -15 -14.5 -26.5t-25 -20t-31.5 -14.5t-32 -9q-5 -1 -9 -1.5t-9 -0.5q-1 0 -1.5 -0.5t-1.5 -0.5q-12 -1 -24.5 -1t-25.5 2q5 -11 18 -18t16 -8q6 -2 14 -5.5t15.5 -7t13 -6.5t6.5 -4q3 -6 -22.5 -6t-60.5 5q-51 5 -82.5 -4.5
t-49.5 -25.5q-15 -12 -23 -26t-11 -26q-4 -14 -4 -28q4 -27 16 -44t27 -27.5t31.5 -14.5t31.5 -4q34 0 58 5.5t42.5 15t34.5 23.5t35 31q5 4 9 8q9 7 15 3q-1 -2 -2 -5q-2 -7 -7 -13q-23 -26 -43 -42t-35 -25q-18 -11 -33 -16q-11 -4 -23 -8q-11 -3 -25 -5.5t-30 -1.5
q-60 2 -94 17t-51 37q-23 -70 -18 -99q0 -4 1 -6q59 27 117 30.5t106 -3.5q55 -8 107 -26q4 -2 11 -4q5 -2 14 -4.5t21 -5.5q22 -5 45.5 -8.5t49.5 -2.5q4 0 24.5 3t44.5 9.5t45 19t26 32.5q2 2 3 2q2 1 3 -2.5t3 -6.5q8 -19 2.5 -37t-17.5 -34q-19 -19 -44 -26
q-18 -5 -40 -7t-49.5 1t-61.5 12.5t-77 28.5q-59 27 -114.5 29.5t-99 -5t-70.5 -18.5t-30 -12t-8 1q-2 0 -8.5 2t-14.5 7t-17 14t-15 25q-7 20 -4.5 54t14.5 72q8 26 24.5 62.5t33.5 73.5h-1q-6 -1 -12 -1h-12q-19 -23 -40 -47t-42 -46.5t-41.5 -42.5t-38.5 -35
q-14 -12 -31 -21.5t-34.5 -16.5t-34 -11t-29.5 -4zM778 375q-2 1 -2.5 2t-1.5 2t-2 1q-23 11 -47.5 3.5t-45.5 -21.5q-25 -17 -48 -41l-4 -8q39 -6 80 0q22 4 39 10q14 5 26 14.5t11 23.5q-1 3 -1.5 6t-3.5 8zM528 299q-7 -12 -13.5 -26t-14.5 -29h3q18 5 34.5 6.5t29.5 2.5
q15 1 29 0l-11 13q-3 4 -5.5 8t-4.5 8q-6 2 -12 3.5t-12 3.5l-9 4zM459 289q-9 -10 -19.5 -22.5t-21.5 -26.5h16z" />
    <glyph glyph-name="Egrave" unicode="&#xc8;" horiz-adv-x="361" 
d="M172 -32q-54 1 -87 15t-51 33.5t-24 42t-6 41.5q0 42 19 70t47 44.5t60.5 23t58.5 6.5q4 0 7.5 -0.5t5.5 -0.5h5q-8 8 -12.5 15.5t-8.5 14.5q-60 15 -85.5 40.5t-25.5 45.5q0 8 3 16q26 -26 52 -36.5t49 -18.5q3 14 13 30q16 23 34.5 37.5t37.5 23t35.5 11.5t28.5 3
q20 0 35 -5.5t25 -12.5l4.5 -3t10 -8.5t9.5 -14.5t4 -21q0 -28 -16 -47t-39 -30t-48 -16t-43 -5q-8 0 -15 0.5t-15 1.5q5 -14 13 -19.5t15.5 -8t13 -4t5.5 -5.5q0 -8 -2.5 -13t-16.5 -5q-8 0 -24.5 1.5t-30.5 1.5q-54 0 -83 -17.5t-42.5 -39t-15.5 -40t-2 -20.5
q4 -28 16 -46.5t27 -29t31.5 -15t31.5 -4.5q34 0 59 5t44.5 14.5t36.5 23.5t36 32q4 4 6 4q5 0 5 -4q0 -2 -2 -4q-23 -27 -43 -44t-35 -27q-18 -11 -33 -16l-6 -2.5t-16.5 -5.5t-25 -5.5t-30.5 -2.5zM389 371q-6 8 -15.5 10t-17.5 2q-21 0 -41 -11t-37 -24q-19 -15 -36 -34
l-2 -4l-2 -4q19 -3 39 -3t41 3t38 10q14 5 26 15t12 24q0 6 -5 16zM455 463q10 -1 9 -6.5t-9 -12.5q-6 -4 -12 -7t-13.5 -4t-18 0t-26.5 5q-45 12 -66 38q-8 12 -10.5 22.5t-3.5 17.5v1v2q0 2 1 2l2 2h1v-1q0 -2 1 -2q11 -17 41.5 -28t78.5 -24z" />
    <glyph glyph-name="Eacute" unicode="&#xc9;" horiz-adv-x="361" 
d="M172 -32q-54 1 -87 15t-51 33.5t-24 42t-6 41.5q0 42 19 70t47 44.5t60.5 23t58.5 6.5q4 0 7.5 -0.5t5.5 -0.5h5q-8 8 -12.5 15.5t-8.5 14.5q-60 15 -85.5 40.5t-25.5 45.5q0 8 3 16q26 -26 52 -36.5t49 -18.5q3 14 13 30q16 23 34.5 37.5t37.5 23t35.5 11.5t28.5 3
q20 0 35 -5.5t25 -12.5l4.5 -3t10 -8.5t9.5 -14.5t4 -21q0 -28 -16 -47t-39 -30t-48 -16t-43 -5q-8 0 -15 0.5t-15 1.5q5 -14 13 -19.5t15.5 -8t13 -4t5.5 -5.5q0 -8 -2.5 -13t-16.5 -5q-8 0 -24.5 1.5t-30.5 1.5q-54 0 -83 -17.5t-42.5 -39t-15.5 -40t-2 -20.5
q4 -28 16 -46.5t27 -29t31.5 -15t31.5 -4.5q34 0 59 5t44.5 14.5t36.5 23.5t36 32q4 4 6 4q5 0 5 -4q0 -2 -2 -4q-23 -27 -43 -44t-35 -27q-18 -11 -33 -16l-6 -2.5t-16.5 -5.5t-25 -5.5t-30.5 -2.5zM389 371q-6 8 -15.5 10t-17.5 2q-21 0 -41 -11t-37 -24q-19 -15 -36 -34
l-2 -4l-2 -4q19 -3 39 -3t41 3t38 10q14 5 26 15t12 24q0 6 -5 16zM325 472q48 13 78.5 24t41.5 28v2q0 1 1 1h1l2 -2l1 -2v-2v-1q-1 -7 -3.5 -17.5t-10.5 -22.5q-21 -26 -66 -38q-16 -4 -26.5 -5t-18 0t-13.5 4t-12 7q-8 7 -9 12.5t9 6.5z" />
    <glyph glyph-name="Ecircumflex" unicode="&#xca;" horiz-adv-x="361" 
d="M172 -32q-54 1 -87 15t-51 33.5t-24 42t-6 41.5q0 42 19 70t47 44.5t60.5 23t58.5 6.5q4 0 7.5 -0.5t5.5 -0.5h5q-8 8 -12.5 15.5t-8.5 14.5q-60 15 -85.5 40.5t-25.5 45.5q0 8 3 16q26 -26 52 -36.5t49 -18.5q3 14 13 30q16 23 34.5 37.5t37.5 23t35.5 11.5t28.5 3
q20 0 35 -5.5t25 -12.5l4.5 -3t10 -8.5t9.5 -14.5t4 -21q0 -28 -16 -47t-39 -30t-48 -16t-43 -5q-8 0 -15 0.5t-15 1.5q5 -14 13 -19.5t15.5 -8t13 -4t5.5 -5.5q0 -8 -2.5 -13t-16.5 -5q-8 0 -24.5 1.5t-30.5 1.5q-54 0 -83 -17.5t-42.5 -39t-15.5 -40t-2 -20.5
q4 -28 16 -46.5t27 -29t31.5 -15t31.5 -4.5q34 0 59 5t44.5 14.5t36.5 23.5t36 32q4 4 6 4q5 0 5 -4q0 -2 -2 -4q-23 -27 -43 -44t-35 -27q-18 -11 -33 -16l-6 -2.5t-16.5 -5.5t-25 -5.5t-30.5 -2.5zM389 371q-6 8 -15.5 10t-17.5 2q-21 0 -41 -11t-37 -24q-19 -15 -36 -34
l-2 -4l-2 -4q19 -3 39 -3t41 3t38 10q14 5 26 15t12 24q0 6 -5 16zM322 483q32 2 53.5 6.5t34.5 19.5l2 2v-1l1 1v-3q0 -20 14 -37t37 -39l12 -11q5 -3 3 -8t-9 -10q-10 -5 -18.5 -5.5t-24.5 13.5q-21 22 -24 51q-1 7 -1 14.5t2 12.5q-5 -12 -15 -22q-21 -20 -51 -24
q-22 -1 -28 5t-11 16q-2 8 -0.5 14t7.5 4z" />
    <glyph glyph-name="Edieresis" unicode="&#xcb;" horiz-adv-x="361" 
d="M172 -32q-54 1 -87 15t-51 33.5t-24 42t-6 41.5q0 42 19 70t47 44.5t60.5 23t58.5 6.5q4 0 7.5 -0.5t5.5 -0.5h5q-8 8 -12.5 15.5t-8.5 14.5q-60 15 -85.5 40.5t-25.5 45.5q0 8 3 16q26 -26 52 -36.5t49 -18.5q3 14 13 30q16 23 34.5 37.5t37.5 23t35.5 11.5t28.5 3
q20 0 35 -5.5t25 -12.5l4.5 -3t10 -8.5t9.5 -14.5t4 -21q0 -28 -16 -47t-39 -30t-48 -16t-43 -5q-8 0 -15 0.5t-15 1.5q5 -14 13 -19.5t15.5 -8t13 -4t5.5 -5.5q0 -8 -2.5 -13t-16.5 -5q-8 0 -24.5 1.5t-30.5 1.5q-54 0 -83 -17.5t-42.5 -39t-15.5 -40t-2 -20.5
q4 -28 16 -46.5t27 -29t31.5 -15t31.5 -4.5q34 0 59 5t44.5 14.5t36.5 23.5t36 32q4 4 6 4q5 0 5 -4q0 -2 -2 -4q-23 -27 -43 -44t-35 -27q-18 -11 -33 -16l-6 -2.5t-16.5 -5.5t-25 -5.5t-30.5 -2.5zM389 371q-6 8 -15.5 10t-17.5 2q-21 0 -41 -11t-37 -24q-19 -15 -36 -34
l-2 -4l-2 -4q19 -3 39 -3t41 3t38 10q14 5 26 15t12 24q0 6 -5 16zM465 438q-8 -10 -24 -15t-28 6q-3 4 -5.5 5.5t-9.5 8.5q-3 2 -1 9q1 3 3 6q2 2 9 6t12 8q7 7 14 3q6 -5 14.5 -12t16.5 -15q1 -1 2 -3q0 -4 -3 -7zM375 461q-8 -10 -24 -15t-28 7q-3 3 -5.5 4.5t-9.5 8.5
q-3 3 -1 10q1 3 3 5t9 6.5t12 7.5q7 7 14 4q6 -5 14.5 -12t16.5 -15q1 -1 2 -3q0 -5 -3 -8z" />
    <glyph glyph-name="Igrave" unicode="&#xcc;" horiz-adv-x="282" 
d="M92 -42q-7 1 -20 5t-26 12.5t-23 22.5t-10 35q0 23 15.5 33.5t30.5 10.5q6 0 11.5 -1t5.5 -6q0 -2 -4.5 -6t-9.5 -9.5t-9.5 -13t-4.5 -15.5q0 -5 1.5 -12t5.5 -13.5t11 -11.5t19 -5q26 0 63 61t82 169l22 53q8 19 16.5 45.5t19 50.5t24 42.5t31.5 22.5q-6 -1 -11 -2
q-11 -2 -19 -5q-6 -2 -27.5 -12t-50 -30.5t-59 -50.5t-52.5 -70q0 -1 -3 -6t-7 -12t-7 -16t-3 -18q0 -7 3.5 -13.5t14.5 -6.5q8 0 22 4.5t34 15.5h1q6 0 6 -4l-7 -50q0 -1 -2 -3.5t-7 -3.5q-23 4 -47 9.5t-39 27.5q-11 17 -13.5 31.5t-2.5 18.5q0 36 19 67t47.5 55.5
t62.5 43t63.5 31t50 19t22.5 7.5q3 0 6 0.5t6 0.5q10 0 20.5 -5t19 -12.5t14 -15t5.5 -11.5q-1 -7 -11.5 -10.5t-18.5 -11.5q-9 -9 -24.5 -41t-31 -69t-29 -71t-19.5 -48q0 -1 -6.5 -16.5t-17.5 -38t-26 -49t-33 -49t-38 -37.5t-40 -15q-8 0 -16 2zM469 487q10 -1 9 -6.5
t-9 -12.5q-6 -4 -12 -7t-13.5 -4t-18 0t-26.5 5q-45 12 -66 38q-8 12 -10.5 22.5t-3.5 17.5v1v2q0 2 1 2l2 2h1v-1q0 -2 1 -2q11 -17 41.5 -28t78.5 -24z" />
    <glyph glyph-name="Iacute" unicode="&#xcd;" horiz-adv-x="282" 
d="M92 -42q-7 1 -20 5t-26 12.5t-23 22.5t-10 35q0 23 15.5 33.5t30.5 10.5q6 0 11.5 -1t5.5 -6q0 -2 -4.5 -6t-9.5 -9.5t-9.5 -13t-4.5 -15.5q0 -5 1.5 -12t5.5 -13.5t11 -11.5t19 -5q26 0 63 61t82 169l22 53q8 19 16.5 45.5t19 50.5t24 42.5t31.5 22.5q-6 -1 -11 -2
q-11 -2 -19 -5q-6 -2 -27.5 -12t-50 -30.5t-59 -50.5t-52.5 -70q0 -1 -3 -6t-7 -12t-7 -16t-3 -18q0 -7 3.5 -13.5t14.5 -6.5q8 0 22 4.5t34 15.5h1q6 0 6 -4l-7 -50q0 -1 -2 -3.5t-7 -3.5q-23 4 -47 9.5t-39 27.5q-11 17 -13.5 31.5t-2.5 18.5q0 36 19 67t47.5 55.5
t62.5 43t63.5 31t50 19t22.5 7.5q3 0 6 0.5t6 0.5q10 0 20.5 -5t19 -12.5t14 -15t5.5 -11.5q-1 -7 -11.5 -10.5t-18.5 -11.5q-9 -9 -24.5 -41t-31 -69t-29 -71t-19.5 -48q0 -1 -6.5 -16.5t-17.5 -38t-26 -49t-33 -49t-38 -37.5t-40 -15q-8 0 -16 2zM331 500q48 13 78.5 24
t41.5 28v2q0 1 1 1h1l2 -2l1 -2v-2v-1q-1 -7 -3.5 -17.5t-10.5 -22.5q-21 -26 -66 -38q-16 -4 -26.5 -5t-18 0t-13.5 4t-12 7q-8 7 -9 12.5t9 6.5z" />
    <glyph glyph-name="Icircumflex" unicode="&#xce;" horiz-adv-x="282" 
d="M92 -42q-7 1 -20 5t-26 12.5t-23 22.5t-10 35q0 23 15.5 33.5t30.5 10.5q6 0 11.5 -1t5.5 -6q0 -2 -4.5 -6t-9.5 -9.5t-9.5 -13t-4.5 -15.5q0 -5 1.5 -12t5.5 -13.5t11 -11.5t19 -5q26 0 63 61t82 169l22 53q8 19 16.5 45.5t19 50.5t24 42.5t31.5 22.5q-6 -1 -11 -2
q-11 -2 -19 -5q-6 -2 -27.5 -12t-50 -30.5t-59 -50.5t-52.5 -70q0 -1 -3 -6t-7 -12t-7 -16t-3 -18q0 -7 3.5 -13.5t14.5 -6.5q8 0 22 4.5t34 15.5h1q6 0 6 -4l-7 -50q0 -1 -2 -3.5t-7 -3.5q-23 4 -47 9.5t-39 27.5q-11 17 -13.5 31.5t-2.5 18.5q0 36 19 67t47.5 55.5
t62.5 43t63.5 31t50 19t22.5 7.5q3 0 6 0.5t6 0.5q10 0 20.5 -5t19 -12.5t14 -15t5.5 -11.5q-1 -7 -11.5 -10.5t-18.5 -11.5q-9 -9 -24.5 -41t-31 -69t-29 -71t-19.5 -48q0 -1 -6.5 -16.5t-17.5 -38t-26 -49t-33 -49t-38 -37.5t-40 -15q-8 0 -16 2zM311 519q32 2 53.5 6.5
t34.5 19.5l2 2v-1l1 1v-3q0 -20 14 -37t37 -39l12 -11q5 -3 3 -8t-9 -10q-10 -5 -18.5 -5.5t-24.5 13.5q-21 22 -24 51q-1 7 -1 14.5t2 12.5q-5 -12 -15 -22q-21 -20 -51 -24q-22 -1 -28 5t-11 16q-2 8 -0.5 14t7.5 4z" />
    <glyph glyph-name="Idieresis" unicode="&#xcf;" horiz-adv-x="282" 
d="M92 -42q-7 1 -20 5t-26 12.5t-23 22.5t-10 35q0 23 15.5 33.5t30.5 10.5q6 0 11.5 -1t5.5 -6q0 -2 -4.5 -6t-9.5 -9.5t-9.5 -13t-4.5 -15.5q0 -5 1.5 -12t5.5 -13.5t11 -11.5t19 -5q26 0 63 61t82 169l22 53q8 19 16.5 45.5t19 50.5t24 42.5t31.5 22.5q-6 -1 -11 -2
q-11 -2 -19 -5q-6 -2 -27.5 -12t-50 -30.5t-59 -50.5t-52.5 -70q0 -1 -3 -6t-7 -12t-7 -16t-3 -18q0 -7 3.5 -13.5t14.5 -6.5q8 0 22 4.5t34 15.5h1q6 0 6 -4l-7 -50q0 -1 -2 -3.5t-7 -3.5q-23 4 -47 9.5t-39 27.5q-11 17 -13.5 31.5t-2.5 18.5q0 36 19 67t47.5 55.5
t62.5 43t63.5 31t50 19t22.5 7.5q3 0 6 0.5t6 0.5q10 0 20.5 -5t19 -12.5t14 -15t5.5 -11.5q-1 -7 -11.5 -10.5t-18.5 -11.5q-9 -9 -24.5 -41t-31 -69t-29 -71t-19.5 -48q0 -1 -6.5 -16.5t-17.5 -38t-26 -49t-33 -49t-38 -37.5t-40 -15q-8 0 -16 2zM468 470q-8 -10 -24 -15
t-28 6q-3 4 -5.5 5.5t-9.5 8.5q-3 2 -1 9q1 3 3 6q2 2 9 6t12 8q7 7 14 3q6 -5 14.5 -12t16.5 -15q1 -1 2 -3q0 -4 -3 -7zM378 493q-8 -10 -24 -15t-28 7q-3 3 -5.5 4.5t-9.5 8.5q-3 3 -1 10q1 3 3 5t9 6.5t12 7.5q7 7 14 4q6 -5 14.5 -12t16.5 -15q1 -1 2 -3q0 -5 -3 -8z
" />
    <glyph glyph-name="Eth" unicode="&#xd0;" horiz-adv-x="436" 
d="M233 327q4 -3 6 -7q4 -9 -3 -27q-8 -17 -18 -40t-21 -48l-10 -19q6 -2 11.5 -3.5t11.5 -3.5v-1l6 -4q2 -2 4 -4.5t3 -7.5l6 -44q2 -3 -2 -5q-3 -3 -5 0q-2 1 -6 4q-3 2 -8 4.5t-10 5.5q-6 3 -14.5 6t-19.5 5q-6 -12 -12 -23t-12 -20q-3 -5 -5 -9t-4 -7q-2 -9 0.5 -19
t4.5 -16v-1q0 -2 -1 -3t-4 -1q-7 1 -14.5 6.5t-13 13.5t-7 18t2.5 21l1 1q0 2 1 2q3 8 6.5 17.5t8.5 20.5q-20 -2 -37 -8.5t-27 -18.5q-8 -10 -12.5 -23t-3.5 -26q0 -1 4.5 -12.5t24.5 -20.5q23 -11 66 -9q27 1 63 8t68 26q2 1 11 7.5t21 15.5q12 10 27.5 25.5t30 35.5
t26.5 45.5t18 57.5q7 41 -2.5 67t-25 41t-34 21.5t-29.5 8.5l-7.5 1.5t-3.5 0.5q-33 3 -71.5 -2t-72 -17t-58 -31t-30.5 -43q-2 -10 4 -15q5 -5 20.5 -7t48.5 4q2 0 4 -1q3 -1 1 -5l-22 -45l-3 -3t-7 -1q-8 3 -20 8.5t-23.5 14.5t-20.5 21t-9 29q-1 21 11 46.5t41 47
t77 35.5t120 11h9q5 0 10.5 -1t13.5 -2q1 0 7 -1t15 -3q17 -4 39 -14t42 -30q18 -19 30 -46.5t11 -68.5q-3 -36 -17 -74q-13 -32 -39 -71t-75 -76q-13 -10 -26 -17q-35 -21 -76.5 -33t-80.5 -11h-11q-46 2 -74 14q-18 8 -28 16.5t-20 28.5q-4 7 -6 20q-1 4 -2 18t4 32t19 37
t43 34q7 4 17 7q8 2 20 4t28 1q9 22 17.5 45t16 43.5t14 37t10.5 25.5q1 2 3 3.5t6 -0.5h1l28 -20v0z" />
    <glyph glyph-name="Ntilde" unicode="&#xd1;" horiz-adv-x="538" 
d="M411 -45q-4 11 -4 33q0 57 22.5 130t68.5 170q-32 -32 -77 -85t-99 -127q-5 -7 -12.5 -18.5t-15.5 -22t-15.5 -18.5t-11.5 -8t-5 1q-1 0 -2 1l-32 15q-6 2 -6.5 11t-0.5 7q-1 1 1 4t6 17q10 38 23 77.5t27.5 77.5t29 72.5t26.5 61.5q-20 -6 -50 -6q-85 0 -131.5 -4
t-68 -11t-25.5 -15.5t-4 -17.5q0 -6 1.5 -11t1.5 -7q0 -4 -5 -4.5t-7 -0.5q-22 0 -28 12t-6 21q0 23 14 35.5t33 18.5t36.5 7.5t25.5 1.5q29 0 58 -1t56 -1q43 0 78 7t49 36l11 23l3 3h-1q0 -1 7 -4t15.5 -8t15.5 -11.5t7 -14.5q0 -6 -5 -16q-3 -5 -16.5 -34t-31.5 -70
t-37.5 -89.5t-34.5 -91.5q34 48 103.5 134t184.5 200q0 4 6 4h-1q0 -1 6.5 -4t15 -8.5t15 -11.5t6.5 -13t-4.5 -15t-16 -27.5t-31 -57.5t-49.5 -105q-35 -80 -56 -146t-21 -97q0 -1 0.5 -5.5t3 -10t8.5 -10t17 -4.5q12 0 20.5 5t13.5 12t7 15.5t2 15.5q0 3 -0.5 6t-0.5 5
q0 5 3 5q10 0 18.5 -15t8.5 -28q0 -22 -19.5 -35.5t-38.5 -13.5q-13 0 -24.5 3.5t-19.5 8.5q-10 5 -18 13q-6 5 -12 13.5t-11 20.5zM467 511q11 -6 21.5 -14t20.5 -13q1 -2 11 -6.5t23.5 -7.5t29 -1.5t28.5 11.5q0 2 1 2t1 -1l-2 -4q0 -1 -0.5 -1.5t-0.5 -1.5q-5 -9 -11 -16
q-5 -7 -13 -13t-18 -8q-11 -4 -22 -2q-10 2 -22 8.5t-24 23.5q-8 8 -17 14q-8 5 -16.5 8t-16.5 -1q-14 -6 -17.5 -13.5t-3.5 -9.5q-2 -2 -3 -2h-1v-1q-3 0 -4 1l-2 2q-4 5 -2 11.5t7 11.5q5 6 13 12q11 9 21.5 11t18.5 0z" />
    <glyph glyph-name="Ograve" unicode="&#xd2;" horiz-adv-x="454" 
d="M438 167q-9 -40 -29.5 -78t-49.5 -67.5t-65 -47.5t-76 -18q-49 0 -80.5 31t-38.5 83q-5 0 -10 -0.5t-10 -0.5q-7 0 -10 1q-1 0 -12 1t-24 8t-24 21t-11 40q0 1 1 7t6 13t15 12.5t28 5.5q-1 -2 -1 -5q-1 -3 -1 -12q0 -7 2 -15t7 -14.5t15 -11t27 -4.5q8 70 34 128t61 99
t74.5 64t74.5 23q15 0 31 -4.5t29.5 -15.5t22.5 -29t9 -44q0 -11 -2 -23t-5 -25q1 -1 4.5 -4t7 -10t6 -18t2.5 -28q0 -12 -1.5 -27.5t-6.5 -34.5zM308 141q-21 -15 -48 -28q-23 -11 -56 -23t-74 -17q8 -42 29 -60t47 -18q34 0 61 14t47.5 35.5t35 48t23.5 51.5t13.5 45.5
t4.5 31.5q-14 -21 -35 -41.5t-48 -38.5zM371 352q-4 4 -10 8q-5 3 -13 5.5t-18 2.5q-39 0 -74 -29t-62 -69.5t-44.5 -83t-20.5 -68.5q41 5 86.5 27.5t84.5 54.5q5 4 18.5 16t28 28.5t25.5 36t11 38.5q0 21 -12 33zM483 464q10 -1 9 -6.5t-9 -12.5q-6 -4 -12 -7t-13.5 -4
t-18 0t-26.5 5q-45 12 -66 38q-8 12 -10.5 22.5t-3.5 17.5v1v2q0 2 1 2l2 2h1v-1q0 -2 1 -2q11 -17 41.5 -28t78.5 -24z" />
    <glyph glyph-name="Oacute" unicode="&#xd3;" horiz-adv-x="454" 
d="M438 167q-9 -40 -29.5 -78t-49.5 -67.5t-65 -47.5t-76 -18q-49 0 -80.5 31t-38.5 83q-5 0 -10 -0.5t-10 -0.5q-7 0 -10 1q-1 0 -12 1t-24 8t-24 21t-11 40q0 1 1 7t6 13t15 12.5t28 5.5q-1 -2 -1 -5q-1 -3 -1 -12q0 -7 2 -15t7 -14.5t15 -11t27 -4.5q8 70 34 128t61 99
t74.5 64t74.5 23q15 0 31 -4.5t29.5 -15.5t22.5 -29t9 -44q0 -11 -2 -23t-5 -25q1 -1 4.5 -4t7 -10t6 -18t2.5 -28q0 -12 -1.5 -27.5t-6.5 -34.5zM308 141q-21 -15 -48 -28q-23 -11 -56 -23t-74 -17q8 -42 29 -60t47 -18q34 0 61 14t47.5 35.5t35 48t23.5 51.5t13.5 45.5
t4.5 31.5q-14 -21 -35 -41.5t-48 -38.5zM371 352q-4 4 -10 8q-5 3 -13 5.5t-18 2.5q-39 0 -74 -29t-62 -69.5t-44.5 -83t-20.5 -68.5q41 5 86.5 27.5t84.5 54.5q5 4 18.5 16t28 28.5t25.5 36t11 38.5q0 21 -12 33zM330 477q48 13 78.5 24t41.5 28v2q0 1 1 1h1l2 -2l1 -2v-2
v-1q-1 -7 -3.5 -17.5t-10.5 -22.5q-21 -26 -66 -38q-16 -4 -26.5 -5t-18 0t-13.5 4t-12 7q-8 7 -9 12.5t9 6.5z" />
    <glyph glyph-name="Ocircumflex" unicode="&#xd4;" horiz-adv-x="454" 
d="M438 167q-9 -40 -29.5 -78t-49.5 -67.5t-65 -47.5t-76 -18q-49 0 -80.5 31t-38.5 83q-5 0 -10 -0.5t-10 -0.5q-7 0 -10 1q-1 0 -12 1t-24 8t-24 21t-11 40q0 1 1 7t6 13t15 12.5t28 5.5q-1 -2 -1 -5q-1 -3 -1 -12q0 -7 2 -15t7 -14.5t15 -11t27 -4.5q8 70 34 128t61 99
t74.5 64t74.5 23q15 0 31 -4.5t29.5 -15.5t22.5 -29t9 -44q0 -11 -2 -23t-5 -25q1 -1 4.5 -4t7 -10t6 -18t2.5 -28q0 -12 -1.5 -27.5t-6.5 -34.5zM308 141q-21 -15 -48 -28q-23 -11 -56 -23t-74 -17q8 -42 29 -60t47 -18q34 0 61 14t47.5 35.5t35 48t23.5 51.5t13.5 45.5
t4.5 31.5q-14 -21 -35 -41.5t-48 -38.5zM371 352q-4 4 -10 8q-5 3 -13 5.5t-18 2.5q-39 0 -74 -29t-62 -69.5t-44.5 -83t-20.5 -68.5q41 5 86.5 27.5t84.5 54.5q5 4 18.5 16t28 28.5t25.5 36t11 38.5q0 21 -12 33zM330 489q32 2 53.5 6.5t34.5 19.5l2 2v-1l1 1v-3
q0 -20 14 -37t37 -39l12 -11q5 -3 3 -8t-9 -10q-10 -5 -18.5 -5.5t-24.5 13.5q-21 22 -24 51q-1 7 -1 14.5t2 12.5q-5 -12 -15 -22q-21 -20 -51 -24q-22 -1 -28 5t-11 16q-2 8 -0.5 14t7.5 4z" />
    <glyph glyph-name="Otilde" unicode="&#xd5;" horiz-adv-x="454" 
d="M438 167q-9 -40 -29.5 -78t-49.5 -67.5t-65 -47.5t-76 -18q-49 0 -80.5 31t-38.5 83q-5 0 -10 -0.5t-10 -0.5q-7 0 -10 1q-1 0 -12 1t-24 8t-24 21t-11 40q0 1 1 7t6 13t15 12.5t28 5.5q-1 -2 -1 -5q-1 -3 -1 -12q0 -7 2 -15t7 -14.5t15 -11t27 -4.5q8 70 34 128t61 99
t74.5 64t74.5 23q15 0 31 -4.5t29.5 -15.5t22.5 -29t9 -44q0 -11 -2 -23t-5 -25q1 -1 4.5 -4t7 -10t6 -18t2.5 -28q0 -12 -1.5 -27.5t-6.5 -34.5zM308 141q-21 -15 -48 -28q-23 -11 -56 -23t-74 -17q8 -42 29 -60t47 -18q34 0 61 14t47.5 35.5t35 48t23.5 51.5t13.5 45.5
t4.5 31.5q-14 -21 -35 -41.5t-48 -38.5zM371 352q-4 4 -10 8q-5 3 -13 5.5t-18 2.5q-39 0 -74 -29t-62 -69.5t-44.5 -83t-20.5 -68.5q41 5 86.5 27.5t84.5 54.5q5 4 18.5 16t28 28.5t25.5 36t11 38.5q0 21 -12 33zM385 504q11 -6 21.5 -14t20.5 -13q1 -2 11 -6.5t23.5 -7.5
t29 -1.5t28.5 11.5q0 2 1 2t1 -1l-2 -4q0 -1 -0.5 -1.5t-0.5 -1.5q-5 -9 -11 -16q-5 -7 -13 -13t-18 -8q-11 -4 -22 -2q-10 2 -22 8.5t-24 23.5q-8 8 -17 14q-8 5 -16.5 8t-16.5 -1q-14 -6 -17.5 -13.5t-3.5 -9.5q-2 -2 -3 -2h-1v-1q-3 0 -4 1l-2 2q-4 5 -2 11.5t7 11.5
q5 6 13 12q11 9 21.5 11t18.5 0z" />
    <glyph glyph-name="Odieresis" unicode="&#xd6;" horiz-adv-x="454" 
d="M438 167q-9 -40 -29.5 -78t-49.5 -67.5t-65 -47.5t-76 -18q-49 0 -80.5 31t-38.5 83q-5 0 -10 -0.5t-10 -0.5q-7 0 -10 1q-1 0 -12 1t-24 8t-24 21t-11 40q0 1 1 7t6 13t15 12.5t28 5.5q-1 -2 -1 -5q-1 -3 -1 -12q0 -7 2 -15t7 -14.5t15 -11t27 -4.5q8 70 34 128t61 99
t74.5 64t74.5 23q15 0 31 -4.5t29.5 -15.5t22.5 -29t9 -44q0 -11 -2 -23t-5 -25q1 -1 4.5 -4t7 -10t6 -18t2.5 -28q0 -12 -1.5 -27.5t-6.5 -34.5zM308 141q-21 -15 -48 -28q-23 -11 -56 -23t-74 -17q8 -42 29 -60t47 -18q34 0 61 14t47.5 35.5t35 48t23.5 51.5t13.5 45.5
t4.5 31.5q-14 -21 -35 -41.5t-48 -38.5zM371 352q-4 4 -10 8q-5 3 -13 5.5t-18 2.5q-39 0 -74 -29t-62 -69.5t-44.5 -83t-20.5 -68.5q41 5 86.5 27.5t84.5 54.5q5 4 18.5 16t28 28.5t25.5 36t11 38.5q0 21 -12 33zM486 447q-8 -10 -24 -15t-28 6q-3 4 -5.5 5.5t-9.5 8.5
q-3 2 -1 9q1 3 3 6q2 2 9 6t12 8q7 7 14 3q6 -5 14.5 -12t16.5 -15q1 -1 2 -3q0 -4 -3 -7zM396 470q-8 -10 -24 -15t-28 7q-3 3 -5.5 4.5t-9.5 8.5q-3 3 -1 10q1 3 3 5t9 6.5t12 7.5q7 7 14 4q6 -5 14.5 -12t16.5 -15q1 -1 2 -3q0 -5 -3 -8z" />
    <glyph glyph-name="Oslash" unicode="&#xd8;" horiz-adv-x="454" 
d="M438 167q-9 -40 -31.5 -78t-53 -68t-66.5 -48t-70 -17q-8 1 -15.5 1.5t-14.5 2.5q0 -7 1 -10q2 -3 -2 -5q-2 -3 -3 -3t-1 1l-1 1q0 2 -5 6.5t-10 17.5q-28 13 -45 39t-22 63q-8 0 -15 -1t-15 1q-21 1 -37 9q-14 7 -25 21t-9 40q1 12 7 21q5 8 15 13.5t28 3.5
q-4 -15 -1 -28q2 -11 10.5 -21.5t28.5 -12.5h11l4 33q7 42 23.5 81t38 72.5t46.5 59.5t49 41q26 17 58 24t61 -4l12 20q3 3 2 3h1q4 4 4 0q1 -1 6.5 -12.5t7.5 -19.5q1 -6 0 -13q1 0 1 -0.5t1 -0.5q16 -16 20 -45.5t-6 -65.5l6.5 -6.5t9.5 -19t4 -37t-8 -59.5zM337 359
q0 1 1 2t1.5 2t2.5 3q-11 2 -26.5 0t-35.5 -14q-21 -13 -40.5 -32t-36 -41t-30 -44.5t-23.5 -43.5q-7 -14 -13 -33.5t-8 -39.5q40 6 82 26q9 19 25.5 47.5t34.5 59t36 59.5t30 49zM308 141q-9 -7 -20 -13q-10 -6 -22.5 -12.5t-29.5 -13.5q-16 -31 -27.5 -56.5t-17.5 -42.5
q9 -2 24.5 -1.5t34 6.5t38.5 21t39 43q35 53 48 91.5t16 57.5q-14 -21 -35 -41.5t-48 -38.5zM323 256q-11 -18 -21.5 -36t-20.5 -35l19 15q14 13 27 25q11 11 22 22.5t17 21.5q13 15 16 38t-6 38zM164 11q2 14 6.5 33t12.5 40q-13 -4 -26 -6.5t-27 -4.5q2 -21 10 -37.5
t24 -24.5z" />
    <glyph glyph-name="Ugrave" unicode="&#xd9;" horiz-adv-x="559" 
d="M555 -23q9 -5 16 -16t7 -25q0 -22 -19 -36t-39 -14q-13 0 -24 3.5t-19 8.5q-10 5 -18 13q-11 8 -19.5 23.5t-8.5 44.5q0 41 9 80t29 88q-12 -19 -26 -44.5t-27.5 -48t-25 -38.5t-16.5 -16q-11 1 -33 5.5t-44.5 16t-39 31t-16.5 49.5q0 23 10 55.5t24 67t29 66t25 53.5
q-20 -6 -51 -6q-86 0 -132 -4t-67.5 -11t-25 -16t-3.5 -18q0 -6 1.5 -10.5t1.5 -6.5q0 -4 -5 -4.5t-7 -0.5q-22 0 -28 12t-6 21q0 23 14.5 35.5t33 18.5t36.5 7.5t25 1.5q30 0 60 -1.5t57 -1.5q20 0 40 1.5t37 6t29.5 13.5t17.5 23l11 23q1 1 1.5 2t2.5 1t3 -1q3 0 9.5 -4.5
t13 -10.5t12 -12t5.5 -9q0 -5 -1 -8.5t-5.5 -12.5t-13 -26.5t-23.5 -50.5q-9 -20 -21 -47t-22.5 -54t-18 -51.5t-7.5 -39.5q0 -24 9.5 -37.5t21 -20t21.5 -7.5t12 -1q24 45 52 91.5t55.5 90t52.5 82t44 67t30.5 45l11.5 16.5h-1q0 -1 6.5 -4t15 -8t15 -11.5t6.5 -13.5
q0 -8 -4 -15t-15 -26t-30.5 -56.5t-50.5 -107.5q-37 -82 -57.5 -148t-20.5 -97q0 -2 1 -7t4 -9.5t9 -8t15 -3.5q19 0 28 10t12 22t3 22t3 10q1 0 1.5 -0.5t1.5 -0.5zM590 461q10 -1 9 -6.5t-9 -12.5q-6 -4 -12 -7t-13.5 -4t-18 0t-26.5 5q-45 12 -66 38q-8 12 -10.5 22.5
t-3.5 17.5v1v2q0 2 1 2l2 2h1v-1q0 -2 1 -2q11 -17 41.5 -28t78.5 -24z" />
    <glyph glyph-name="Uacute" unicode="&#xda;" horiz-adv-x="559" 
d="M555 -23q9 -5 16 -16t7 -25q0 -22 -19 -36t-39 -14q-13 0 -24 3.5t-19 8.5q-10 5 -18 13q-11 8 -19.5 23.5t-8.5 44.5q0 41 9 80t29 88q-12 -19 -26 -44.5t-27.5 -48t-25 -38.5t-16.5 -16q-11 1 -33 5.5t-44.5 16t-39 31t-16.5 49.5q0 23 10 55.5t24 67t29 66t25 53.5
q-20 -6 -51 -6q-86 0 -132 -4t-67.5 -11t-25 -16t-3.5 -18q0 -6 1.5 -10.5t1.5 -6.5q0 -4 -5 -4.5t-7 -0.5q-22 0 -28 12t-6 21q0 23 14.5 35.5t33 18.5t36.5 7.5t25 1.5q30 0 60 -1.5t57 -1.5q20 0 40 1.5t37 6t29.5 13.5t17.5 23l11 23q1 1 1.5 2t2.5 1t3 -1q3 0 9.5 -4.5
t13 -10.5t12 -12t5.5 -9q0 -5 -1 -8.5t-5.5 -12.5t-13 -26.5t-23.5 -50.5q-9 -20 -21 -47t-22.5 -54t-18 -51.5t-7.5 -39.5q0 -24 9.5 -37.5t21 -20t21.5 -7.5t12 -1q24 45 52 91.5t55.5 90t52.5 82t44 67t30.5 45l11.5 16.5h-1q0 -1 6.5 -4t15 -8t15 -11.5t6.5 -13.5
q0 -8 -4 -15t-15 -26t-30.5 -56.5t-50.5 -107.5q-37 -82 -57.5 -148t-20.5 -97q0 -2 1 -7t4 -9.5t9 -8t15 -3.5q19 0 28 10t12 22t3 22t3 10q1 0 1.5 -0.5t1.5 -0.5zM472 465q48 13 78.5 24t41.5 28v2q0 1 1 1h1l2 -2l1 -2v-2v-1q-1 -7 -3.5 -17.5t-10.5 -22.5
q-21 -26 -66 -38q-16 -4 -26.5 -5t-18 0t-13.5 4t-12 7q-8 7 -9 12.5t9 6.5z" />
    <glyph glyph-name="Ucircumflex" unicode="&#xdb;" horiz-adv-x="559" 
d="M555 -23q9 -5 16 -16t7 -25q0 -22 -19 -36t-39 -14q-13 0 -24 3.5t-19 8.5q-10 5 -18 13q-11 8 -19.5 23.5t-8.5 44.5q0 41 9 80t29 88q-12 -19 -26 -44.5t-27.5 -48t-25 -38.5t-16.5 -16q-11 1 -33 5.5t-44.5 16t-39 31t-16.5 49.5q0 23 10 55.5t24 67t29 66t25 53.5
q-20 -6 -51 -6q-86 0 -132 -4t-67.5 -11t-25 -16t-3.5 -18q0 -6 1.5 -10.5t1.5 -6.5q0 -4 -5 -4.5t-7 -0.5q-22 0 -28 12t-6 21q0 23 14.5 35.5t33 18.5t36.5 7.5t25 1.5q30 0 60 -1.5t57 -1.5q20 0 40 1.5t37 6t29.5 13.5t17.5 23l11 23q1 1 1.5 2t2.5 1t3 -1q3 0 9.5 -4.5
t13 -10.5t12 -12t5.5 -9q0 -5 -1 -8.5t-5.5 -12.5t-13 -26.5t-23.5 -50.5q-9 -20 -21 -47t-22.5 -54t-18 -51.5t-7.5 -39.5q0 -24 9.5 -37.5t21 -20t21.5 -7.5t12 -1q24 45 52 91.5t55.5 90t52.5 82t44 67t30.5 45l11.5 16.5h-1q0 -1 6.5 -4t15 -8t15 -11.5t6.5 -13.5
q0 -8 -4 -15t-15 -26t-30.5 -56.5t-50.5 -107.5q-37 -82 -57.5 -148t-20.5 -97q0 -2 1 -7t4 -9.5t9 -8t15 -3.5q19 0 28 10t12 22t3 22t3 10q1 0 1.5 -0.5t1.5 -0.5zM444 503q32 2 53.5 6.5t34.5 19.5l2 2v-1l1 1v-3q0 -20 14 -37t37 -39l12 -11q5 -3 3 -8t-9 -10
q-10 -5 -18.5 -5.5t-24.5 13.5q-21 22 -24 51q-1 7 -1 14.5t2 12.5q-5 -12 -15 -22q-21 -20 -51 -24q-22 -1 -28 5t-11 16q-2 8 -0.5 14t7.5 4z" />
    <glyph glyph-name="Udieresis" unicode="&#xdc;" horiz-adv-x="559" 
d="M555 -23q9 -5 16 -16t7 -25q0 -22 -19 -36t-39 -14q-13 0 -24 3.5t-19 8.5q-10 5 -18 13q-11 8 -19.5 23.5t-8.5 44.5q0 41 9 80t29 88q-12 -19 -26 -44.5t-27.5 -48t-25 -38.5t-16.5 -16q-11 1 -33 5.5t-44.5 16t-39 31t-16.5 49.5q0 23 10 55.5t24 67t29 66t25 53.5
q-20 -6 -51 -6q-86 0 -132 -4t-67.5 -11t-25 -16t-3.5 -18q0 -6 1.5 -10.5t1.5 -6.5q0 -4 -5 -4.5t-7 -0.5q-22 0 -28 12t-6 21q0 23 14.5 35.5t33 18.5t36.5 7.5t25 1.5q30 0 60 -1.5t57 -1.5q20 0 40 1.5t37 6t29.5 13.5t17.5 23l11 23q1 1 1.5 2t2.5 1t3 -1q3 0 9.5 -4.5
t13 -10.5t12 -12t5.5 -9q0 -5 -1 -8.5t-5.5 -12.5t-13 -26.5t-23.5 -50.5q-9 -20 -21 -47t-22.5 -54t-18 -51.5t-7.5 -39.5q0 -24 9.5 -37.5t21 -20t21.5 -7.5t12 -1q24 45 52 91.5t55.5 90t52.5 82t44 67t30.5 45l11.5 16.5h-1q0 -1 6.5 -4t15 -8t15 -11.5t6.5 -13.5
q0 -8 -4 -15t-15 -26t-30.5 -56.5t-50.5 -107.5q-37 -82 -57.5 -148t-20.5 -97q0 -2 1 -7t4 -9.5t9 -8t15 -3.5q19 0 28 10t12 22t3 22t3 10q1 0 1.5 -0.5t1.5 -0.5zM603 438q-8 -10 -24 -15t-28 6q-3 4 -5.5 5.5t-9.5 8.5q-3 2 -1 9q1 3 3 6q2 2 9 6t12 8q7 7 14 3
q6 -5 14.5 -12t16.5 -15q1 -1 2 -3q0 -4 -3 -7zM513 461q-8 -10 -24 -15t-28 7q-3 3 -5.5 4.5t-9.5 8.5q-3 3 -1 10q1 3 3 5t9 6.5t12 7.5q7 7 14 4q6 -5 14.5 -12t16.5 -15q1 -1 2 -3q0 -5 -3 -8z" />
    <glyph glyph-name="Yacute" unicode="&#xdd;" horiz-adv-x="495" 
d="M465 -33q8 -6 13 -15.5t5 -17.5q0 -14 -7 -21.5t-16 -11.5t-18 -5t-14 -1q-19 0 -32.5 2.5t-24.5 8.5t-22 14.5t-25 20.5q-3 -1 -5 -2l-6 -3q-51 -23 -90 -32t-68 -9q-63 0 -91.5 24t-28.5 53q0 11 4 21.5t6 10.5q2 -2 2 -3q5 -19 25 -30.5t43 -18t42.5 -9t24.5 -2.5
q22 0 43 2.5t39.5 6t33 8t23.5 8.5q-2 5 -2 11v13q0 25 6 54.5t17 58.5q-23 29 -32 61t-9 60q0 26 4.5 47.5t9.5 33.5q3 8 5 13t4 9t3 7q-20 -6 -50 -6q-86 0 -132.5 -4.5t-68 -11t-25 -15.5t-3.5 -18q0 -6 1.5 -10.5t1.5 -6.5q0 -4 -5 -4.5t-7 -0.5q-22 0 -28 12.5t-6 20.5
q0 23 14.5 35.5t33.5 18.5t37 7.5t24 1.5q31 0 60.5 -1.5t56.5 -1.5q20 0 40 1.5t37 6t29.5 13.5t17.5 23l11 23q3 3 4 3h-1q0 -1 7 -4t15 -8t15 -12t7 -14q0 -3 -11.5 -28.5t-36.5 -79.5v-1q0 -1 -1 -3t-2 -2q-9 -20 -12.5 -37t-3.5 -32q0 -11 1.5 -24t5.5 -24t11 -18.5
t17 -7.5q13 0 31.5 18.5t41.5 45.5q60 82 86.5 157t26.5 121q0 16 -6 29t-6 21q0 1 3 3q5 0 16.5 -3t23 -12t20.5 -26t9 -45q0 -17 -4.5 -35t-10.5 -32q-15 -35 -48 -93.5t-97 -130.5q-19 -19 -35.5 -32t-30.5 -21q-11 -30 -19 -54.5t-12 -44.5q-1 -2 -1 -4t-1 -4q13 3 33 3
q15 0 31.5 -4t32.5 -15zM443 -49q-5 2 -11 5q-5 2 -12.5 3.5t-17.5 1.5q-8 0 -16 -1t-18 -4q1 -10 9 -17t18 -11.5t20 -6.5t15 -2q22 0 24 13q0 13 -11 19zM417 476q48 13 78.5 24t41.5 28v2q0 1 1 1h1l2 -2l1 -2v-2v-1q-1 -7 -3.5 -17.5t-10.5 -22.5q-21 -26 -66 -38
q-16 -4 -26.5 -5t-18 0t-13.5 4t-12 7q-8 7 -9 12.5t9 6.5z" />
    <glyph glyph-name="agrave" unicode="&#xe0;" horiz-adv-x="219" 
d="M-5 122q12 18 25 35t26.5 30t26 20.5t22.5 7.5q6 0 11 -3q9 -6 16.5 -11.5t12.5 -9.5q6 -4 11 -8q1 0 3 5t3.5 11t3.5 11.5t3 6.5q2 0 9 -4t14.5 -10.5t13 -14.5t5.5 -17q0 -1 -5 -11t-12 -25t-16 -33t-16 -35t-12 -30.5t-5 -18.5q0 -3 2 -3q5 0 16.5 10.5t23.5 23
t22.5 23t12.5 10.5q1 0 3.5 -1t2.5 -5q0 -5 -7 -15q-21 -27 -35.5 -41t-25 -20.5t-17 -7.5t-10.5 -1q-17 0 -24 10.5t-7 24.5q0 19 8 41.5t16 39.5q-11 -13 -25.5 -29.5t-29 -32t-26 -28t-14.5 -16.5t-11 -4q-15 0 -30 10t-15 31q0 15 7 36.5t23 47.5zM31 46q9 6 26.5 25.5
t34.5 40.5q20 25 44 53q-10 5 -17 5q-17 0 -42.5 -28t-49.5 -82q-4 -7 -4 -11q0 -5 4 -5q2 0 3 1q1 0 1 1zM227 266q10 -1 9 -6.5t-9 -12.5q-6 -4 -12 -7t-13.5 -4t-18 0t-26.5 5q-45 12 -66 38q-8 12 -10.5 22.5t-3.5 17.5v1v2q0 2 1 2l2 2h1v-1q0 -2 1 -2q11 -17 41.5 -28
t78.5 -24z" />
    <glyph glyph-name="aacute" unicode="&#xe1;" horiz-adv-x="219" 
d="M-5 122q12 18 25 35t26.5 30t26 20.5t22.5 7.5q6 0 11 -3q9 -6 16.5 -11.5t12.5 -9.5q6 -4 11 -8q1 0 3 5t3.5 11t3.5 11.5t3 6.5q2 0 9 -4t14.5 -10.5t13 -14.5t5.5 -17q0 -1 -5 -11t-12 -25t-16 -33t-16 -35t-12 -30.5t-5 -18.5q0 -3 2 -3q5 0 16.5 10.5t23.5 23
t22.5 23t12.5 10.5q1 0 3.5 -1t2.5 -5q0 -5 -7 -15q-21 -27 -35.5 -41t-25 -20.5t-17 -7.5t-10.5 -1q-17 0 -24 10.5t-7 24.5q0 19 8 41.5t16 39.5q-11 -13 -25.5 -29.5t-29 -32t-26 -28t-14.5 -16.5t-11 -4q-15 0 -30 10t-15 31q0 15 7 36.5t23 47.5zM31 46q9 6 26.5 25.5
t34.5 40.5q20 25 44 53q-10 5 -17 5q-17 0 -42.5 -28t-49.5 -82q-4 -7 -4 -11q0 -5 4 -5q2 0 3 1q1 0 1 1zM104 271q48 13 78.5 24t41.5 28v2q0 1 1 1h1l2 -2l1 -2v-2v-1q-1 -7 -3.5 -17.5t-10.5 -22.5q-21 -26 -66 -38q-16 -4 -26.5 -5t-18 0t-13.5 4t-12 7q-8 7 -9 12.5
t9 6.5z" />
    <glyph glyph-name="acircumflex" unicode="&#xe2;" horiz-adv-x="219" 
d="M-5 122q12 18 25 35t26.5 30t26 20.5t22.5 7.5q6 0 11 -3q9 -6 16.5 -11.5t12.5 -9.5q6 -4 11 -8q1 0 3 5t3.5 11t3.5 11.5t3 6.5q2 0 9 -4t14.5 -10.5t13 -14.5t5.5 -17q0 -1 -5 -11t-12 -25t-16 -33t-16 -35t-12 -30.5t-5 -18.5q0 -3 2 -3q5 0 16.5 10.5t23.5 23
t22.5 23t12.5 10.5q1 0 3.5 -1t2.5 -5q0 -5 -7 -15q-21 -27 -35.5 -41t-25 -20.5t-17 -7.5t-10.5 -1q-17 0 -24 10.5t-7 24.5q0 19 8 41.5t16 39.5q-11 -13 -25.5 -29.5t-29 -32t-26 -28t-14.5 -16.5t-11 -4q-15 0 -30 10t-15 31q0 15 7 36.5t23 47.5zM31 46q9 6 26.5 25.5
t34.5 40.5q20 25 44 53q-10 5 -17 5q-17 0 -42.5 -28t-49.5 -82q-4 -7 -4 -11q0 -5 4 -5q2 0 3 1q1 0 1 1zM94 295q32 2 53.5 6.5t34.5 19.5l2 2v-1l1 1v-3q0 -20 14 -37t37 -39l12 -11q5 -3 3 -8t-9 -10q-10 -5 -18.5 -5.5t-24.5 13.5q-21 22 -24 51q-1 7 -1 14.5t2 12.5
q-5 -12 -15 -22q-21 -20 -51 -24q-22 -1 -28 5t-11 16q-2 8 -0.5 14t7.5 4z" />
    <glyph glyph-name="atilde" unicode="&#xe3;" horiz-adv-x="219" 
d="M-5 122q12 18 25 35t26.5 30t26 20.5t22.5 7.5q6 0 11 -3q9 -6 16.5 -11.5t12.5 -9.5q6 -4 11 -8q1 0 3 5t3.5 11t3.5 11.5t3 6.5q2 0 9 -4t14.5 -10.5t13 -14.5t5.5 -17q0 -1 -5 -11t-12 -25t-16 -33t-16 -35t-12 -30.5t-5 -18.5q0 -3 2 -3q5 0 16.5 10.5t23.5 23
t22.5 23t12.5 10.5q1 0 3.5 -1t2.5 -5q0 -5 -7 -15q-21 -27 -35.5 -41t-25 -20.5t-17 -7.5t-10.5 -1q-17 0 -24 10.5t-7 24.5q0 19 8 41.5t16 39.5q-11 -13 -25.5 -29.5t-29 -32t-26 -28t-14.5 -16.5t-11 -4q-15 0 -30 10t-15 31q0 15 7 36.5t23 47.5zM31 46q9 6 26.5 25.5
t34.5 40.5q20 25 44 53q-10 5 -17 5q-17 0 -42.5 -28t-49.5 -82q-4 -7 -4 -11q0 -5 4 -5q2 0 3 1q1 0 1 1zM125 308q11 -6 21.5 -14t20.5 -13q1 -2 11 -6.5t23.5 -7.5t29 -1.5t28.5 11.5q0 2 1 2t1 -1l-2 -4q0 -1 -0.5 -1.5t-0.5 -1.5q-5 -9 -11 -16q-5 -7 -13 -13t-18 -8
q-11 -4 -22 -2q-10 2 -22 8.5t-24 23.5q-8 8 -17 14q-8 5 -16.5 8t-16.5 -1q-14 -6 -17.5 -13.5t-3.5 -9.5q-2 -2 -3 -2h-1v-1q-3 0 -4 1l-2 2q-4 5 -2 11.5t7 11.5q5 6 13 12q11 9 21.5 11t18.5 0z" />
    <glyph glyph-name="adieresis" unicode="&#xe4;" horiz-adv-x="219" 
d="M-5 122q12 18 25 35t26.5 30t26 20.5t22.5 7.5q6 0 11 -3q9 -6 16.5 -11.5t12.5 -9.5q6 -4 11 -8q1 0 3 5t3.5 11t3.5 11.5t3 6.5q2 0 9 -4t14.5 -10.5t13 -14.5t5.5 -17q0 -1 -5 -11t-12 -25t-16 -33t-16 -35t-12 -30.5t-5 -18.5q0 -3 2 -3q5 0 16.5 10.5t23.5 23
t22.5 23t12.5 10.5q1 0 3.5 -1t2.5 -5q0 -5 -7 -15q-21 -27 -35.5 -41t-25 -20.5t-17 -7.5t-10.5 -1q-17 0 -24 10.5t-7 24.5q0 19 8 41.5t16 39.5q-11 -13 -25.5 -29.5t-29 -32t-26 -28t-14.5 -16.5t-11 -4q-15 0 -30 10t-15 31q0 15 7 36.5t23 47.5zM31 46q9 6 26.5 25.5
t34.5 40.5q20 25 44 53q-10 5 -17 5q-17 0 -42.5 -28t-49.5 -82q-4 -7 -4 -11q0 -5 4 -5q2 0 3 1q1 0 1 1zM241 251q-8 -10 -24 -15t-28 6q-3 4 -5.5 5.5t-9.5 8.5q-3 2 -1 9q1 3 3 6q2 2 9 6t12 8q7 7 14 3q6 -5 14.5 -12t16.5 -15q1 -1 2 -3q0 -4 -3 -7zM151 274
q-8 -10 -24 -15t-28 7q-3 3 -5.5 4.5t-9.5 8.5q-3 3 -1 10q1 3 3 5t9 6.5t12 7.5q7 7 14 4q6 -5 14.5 -12t16.5 -15q1 -1 2 -3q0 -5 -3 -8z" />
    <glyph glyph-name="aring" unicode="&#xe5;" horiz-adv-x="219" 
d="M-5 122q12 18 25 35t26.5 30t26 20.5t22.5 7.5q6 0 11 -3q9 -6 16.5 -11.5t12.5 -9.5q6 -4 11 -8q1 0 3 5t3.5 11t3.5 11.5t3 6.5q2 0 9 -4t14.5 -10.5t13 -14.5t5.5 -17q0 -1 -5 -11t-12 -25t-16 -33t-16 -35t-12 -30.5t-5 -18.5q0 -3 2 -3q5 0 16.5 10.5t23.5 23
t22.5 23t12.5 10.5q1 0 3.5 -1t2.5 -5q0 -5 -7 -15q-21 -27 -35.5 -41t-25 -20.5t-17 -7.5t-10.5 -1q-17 0 -24 10.5t-7 24.5q0 19 8 41.5t16 39.5q-11 -13 -25.5 -29.5t-29 -32t-26 -28t-14.5 -16.5t-11 -4q-15 0 -30 10t-15 31q0 15 7 36.5t23 47.5zM31 46q9 6 26.5 25.5
t34.5 40.5q20 25 44 53q-10 5 -17 5q-17 0 -42.5 -28t-49.5 -82q-4 -7 -4 -11q0 -5 4 -5q2 0 3 1q1 0 1 1zM178 295q7 -1 9 -5.5t1 -10.5t-4 -12t-5 -9q-9 -12 -18 -19t-23 -6q-17 1 -17.5 12t2.5 18q2 6 7 13t10 9q5 4 13 8t25 2zM150 266q-4 -5 -5 -11.5t4 -6.5q7 1 14 11
t8 15q0 5 -5.5 3.5t-15.5 -11.5z" />
    <glyph glyph-name="ae" unicode="&#xe6;" horiz-adv-x="283" 
d="M-5 122q13 21 29 40t31 32t28.5 18.5t22.5 -0.5t16.5 -11.5t12.5 -9.5q6 -4 11 -8q2 6 5 11q2 5 3.5 10t1.5 9q0 1 1 2l2 2q3 0 8 -3t11.5 -8t11.5 -11q5 4 10 7t8 5q4 3 7 4q21 12 32 4q8 -6 13.5 -11t10.5 -9l1 -1q1 -2 3 -5t2 -8q0 -22 -11 -41t-28 -34
q-20 -18 -42.5 -25t-34.5 -3q-8 -18 -8 -29t2 -18q3 -8 8 -12q12 -8 27 -2.5t29 16.5t27 23.5t22 20.5q2 2 5 3q7 2 9 -1q2 -1 2 -3q0 -5 -4 -9q-26 -27 -44.5 -46t-26.5 -21q-27 -9 -45 -8t-29 7q-8 6 -11.5 6t-4.5 -3t-0.5 -6.5t-0.5 -3.5q-18 3 -22.5 16t-2.5 30t9.5 36
t13.5 33q-11 -13 -25.5 -29.5t-29 -32t-26 -28t-14.5 -16.5q-6 -7 -23 -2t-26 16q-9 10 -5 39t28 68zM31 46q9 6 26.5 25.5t34.5 40.5q20 25 44 53q-14 9 -27.5 3t-22.5 -17t-27.5 -37t-31.5 -54q-5 -9 -3.5 -12.5t3.5 -3.5t3 1q1 0 1 1zM237 135q13 15 17 23t2.5 11t-5 3
h-4.5q-8 -2 -18 -8q-8 -5 -18.5 -14.5t-21.5 -23.5q-5 -7 -9 -13l-8 -12q7 -1 19.5 2t27.5 15q4 3 7.5 6t7.5 8z" />
    <glyph glyph-name="egrave" unicode="&#xe8;" horiz-adv-x="162" 
d="M-27 34q-1 5 -1.5 9t-0.5 9q0 16 4.5 32t11.5 30t15 25.5t15 19.5q13 14 25 24.5t20 16.5q10 7 18 11q14 7 23 7q8 0 16.5 -4t16 -10t12 -12.5t4.5 -10.5q0 -22 -11 -41t-27.5 -33t-34.5 -22t-33 -8q-7 0 -10 1q-8 -20 -8 -35q0 -12 3.5 -18t7.5 -8.5t8 -2t6 0.5
q14 0 29 10.5t28.5 22.5t24.5 22.5t18 10.5q2 0 4 -1t2 -6q0 -3 -4 -7q-26 -27 -44.5 -46t-26.5 -21q-23 -8 -45 -8q-29 0 -47.5 14.5t-18.5 27.5zM112 135q11 13 15.5 20.5t4.5 11.5q0 5 -7 5q-11 -2 -23 -10q-11 -7 -25 -21t-30 -40h4q11 0 25.5 6.5t35.5 27.5zM205 266
q10 -1 9 -6.5t-9 -12.5q-6 -4 -12 -7t-13.5 -4t-18 0t-26.5 5q-45 12 -66 38q-8 12 -10.5 22.5t-3.5 17.5v1v2q0 2 1 2l2 2h1v-1q0 -2 1 -2q11 -17 41.5 -28t78.5 -24z" />
    <glyph glyph-name="eacute" unicode="&#xe9;" horiz-adv-x="162" 
d="M-27 34q-1 5 -1.5 9t-0.5 9q0 16 4.5 32t11.5 30t15 25.5t15 19.5q13 14 25 24.5t20 16.5q10 7 18 11q14 7 23 7q8 0 16.5 -4t16 -10t12 -12.5t4.5 -10.5q0 -22 -11 -41t-27.5 -33t-34.5 -22t-33 -8q-7 0 -10 1q-8 -20 -8 -35q0 -12 3.5 -18t7.5 -8.5t8 -2t6 0.5
q14 0 29 10.5t28.5 22.5t24.5 22.5t18 10.5q2 0 4 -1t2 -6q0 -3 -4 -7q-26 -27 -44.5 -46t-26.5 -21q-23 -8 -45 -8q-29 0 -47.5 14.5t-18.5 27.5zM112 135q11 13 15.5 20.5t4.5 11.5q0 5 -7 5q-11 -2 -23 -10q-11 -7 -25 -21t-30 -40h4q11 0 25.5 6.5t35.5 27.5zM74 271
q48 13 78.5 24t41.5 28v2q0 1 1 1h1l2 -2l1 -2v-2v-1q-1 -7 -3.5 -17.5t-10.5 -22.5q-21 -26 -66 -38q-16 -4 -26.5 -5t-18 0t-13.5 4t-12 7q-8 7 -9 12.5t9 6.5z" />
    <glyph glyph-name="ecircumflex" unicode="&#xea;" horiz-adv-x="162" 
d="M-27 34q-1 5 -1.5 9t-0.5 9q0 16 4.5 32t11.5 30t15 25.5t15 19.5q13 14 25 24.5t20 16.5q10 7 18 11q14 7 23 7q8 0 16.5 -4t16 -10t12 -12.5t4.5 -10.5q0 -22 -11 -41t-27.5 -33t-34.5 -22t-33 -8q-7 0 -10 1q-8 -20 -8 -35q0 -12 3.5 -18t7.5 -8.5t8 -2t6 0.5
q14 0 29 10.5t28.5 22.5t24.5 22.5t18 10.5q2 0 4 -1t2 -6q0 -3 -4 -7q-26 -27 -44.5 -46t-26.5 -21q-23 -8 -45 -8q-29 0 -47.5 14.5t-18.5 27.5zM112 135q11 13 15.5 20.5t4.5 11.5q0 5 -7 5q-11 -2 -23 -10q-11 -7 -25 -21t-30 -40h4q11 0 25.5 6.5t35.5 27.5zM69 295
q32 2 53.5 6.5t34.5 19.5l2 2v-1l1 1v-3q0 -20 14 -37t37 -39l12 -11q5 -3 3 -8t-9 -10q-10 -5 -18.5 -5.5t-24.5 13.5q-21 22 -24 51q-1 7 -1 14.5t2 12.5q-5 -12 -15 -22q-21 -20 -51 -24q-22 -1 -28 5t-11 16q-2 8 -0.5 14t7.5 4z" />
    <glyph glyph-name="edieresis" unicode="&#xeb;" horiz-adv-x="162" 
d="M-27 34q-1 5 -1.5 9t-0.5 9q0 16 4.5 32t11.5 30t15 25.5t15 19.5q13 14 25 24.5t20 16.5q10 7 18 11q14 7 23 7q8 0 16.5 -4t16 -10t12 -12.5t4.5 -10.5q0 -22 -11 -41t-27.5 -33t-34.5 -22t-33 -8q-7 0 -10 1q-8 -20 -8 -35q0 -12 3.5 -18t7.5 -8.5t8 -2t6 0.5
q14 0 29 10.5t28.5 22.5t24.5 22.5t18 10.5q2 0 4 -1t2 -6q0 -3 -4 -7q-26 -27 -44.5 -46t-26.5 -21q-23 -8 -45 -8q-29 0 -47.5 14.5t-18.5 27.5zM112 135q11 13 15.5 20.5t4.5 11.5q0 5 -7 5q-11 -2 -23 -10q-11 -7 -25 -21t-30 -40h4q11 0 25.5 6.5t35.5 27.5zM219 251
q-8 -10 -24 -15t-28 6q-3 4 -5.5 5.5t-9.5 8.5q-3 2 -1 9q1 3 3 6q2 2 9 6t12 8q7 7 14 3q6 -5 14.5 -12t16.5 -15q1 -1 2 -3q0 -4 -3 -7zM129 274q-8 -10 -24 -15t-28 7q-3 3 -5.5 4.5t-9.5 8.5q-3 3 -1 10q1 3 3 5t9 6.5t12 7.5q7 7 14 4q6 -5 14.5 -12t16.5 -15
q1 -1 2 -3q0 -5 -3 -8z" />
    <glyph glyph-name="igrave" unicode="&#xec;" horiz-adv-x="101" 
d="M-19 12q-5 7 -4.5 20t4 29t9.5 34t13 36q16 41 40 89q1 2 1 2.5t1 2.5q0 1 2 2q3 1 9 0q6 -3 12.5 -9t11.5 -13.5t6.5 -16.5t-2.5 -16q-6 -13 -21 -37.5t-26 -53.5q-5 -8 -6 -14q-7 -17 -10.5 -29t-1.5 -14h4q5 2 13.5 9.5t18 17t18 19.5t14.5 17l2 2q1 1 5 1q3 -1 5 -6
t-7 -16q-15 -20 -31.5 -35.5t-22.5 -20.5q-13 -10 -22 -11.5t-14 -0.5h-1q-4 0 -8 3q-8 3 -12 9zM166 266q10 -1 9 -6.5t-9 -12.5q-6 -4 -12 -7t-13.5 -4t-18 0t-26.5 5q-45 12 -66 38q-8 12 -10.5 22.5t-3.5 17.5v1v2q0 2 1 2l2 2h1v-1q0 -2 1 -2q11 -17 41.5 -28t78.5 -24
z" />
    <glyph glyph-name="iacute" unicode="&#xed;" horiz-adv-x="101" 
d="M-19 12q-5 7 -4.5 20t4 29t9.5 34t13 36q16 41 40 89q1 2 1 2.5t1 2.5q0 1 2 2q3 1 9 0q6 -3 12.5 -9t11.5 -13.5t6.5 -16.5t-2.5 -16q-6 -13 -21 -37.5t-26 -53.5q-5 -8 -6 -14q-7 -17 -10.5 -29t-1.5 -14h4q5 2 13.5 9.5t18 17t18 19.5t14.5 17l2 2q1 1 5 1q3 -1 5 -6
t-7 -16q-15 -20 -31.5 -35.5t-22.5 -20.5q-13 -10 -22 -11.5t-14 -0.5h-1q-4 0 -8 3q-8 3 -12 9zM43 271q48 13 78.5 24t41.5 28v2q0 1 1 1h1l2 -2l1 -2v-2v-1q-1 -7 -3.5 -17.5t-10.5 -22.5q-21 -26 -66 -38q-16 -4 -26.5 -5t-18 0t-13.5 4t-12 7q-8 7 -9 12.5t9 6.5z" />
    <glyph glyph-name="icircumflex" unicode="&#xee;" horiz-adv-x="101" 
d="M-19 12q-5 7 -4.5 20t4 29t9.5 34t13 36q16 41 40 89q1 2 1 2.5t1 2.5q0 1 2 2q3 1 9 0q6 -3 12.5 -9t11.5 -13.5t6.5 -16.5t-2.5 -16q-6 -13 -21 -37.5t-26 -53.5q-5 -8 -6 -14q-7 -17 -10.5 -29t-1.5 -14h4q5 2 13.5 9.5t18 17t18 19.5t14.5 17l2 2q1 1 5 1q3 -1 5 -6
t-7 -16q-15 -20 -31.5 -35.5t-22.5 -20.5q-13 -10 -22 -11.5t-14 -0.5h-1q-4 0 -8 3q-8 3 -12 9zM26 295q32 2 53.5 6.5t34.5 19.5l2 2v-1l1 1v-3q0 -20 14 -37t37 -39l12 -11q5 -3 3 -8t-9 -10q-10 -5 -18.5 -5.5t-24.5 13.5q-21 22 -24 51q-1 7 -1 14.5t2 12.5
q-5 -12 -15 -22q-21 -20 -51 -24q-22 -1 -28 5t-11 16q-2 8 -0.5 14t7.5 4z" />
    <glyph glyph-name="idieresis" unicode="&#xef;" horiz-adv-x="101" 
d="M-19 12q-5 7 -4.5 20t4 29t9.5 34t13 36q16 41 40 89q1 2 1 2.5t1 2.5q0 1 2 2q3 1 9 0q6 -3 12.5 -9t11.5 -13.5t6.5 -16.5t-2.5 -16q-6 -13 -21 -37.5t-26 -53.5q-5 -8 -6 -14q-7 -17 -10.5 -29t-1.5 -14h4q5 2 13.5 9.5t18 17t18 19.5t14.5 17l2 2q1 1 5 1q3 -1 5 -6
t-7 -16q-15 -20 -31.5 -35.5t-22.5 -20.5q-13 -10 -22 -11.5t-14 -0.5h-1q-4 0 -8 3q-8 3 -12 9zM168 251q-8 -10 -24 -15t-28 6q-3 4 -5.5 5.5t-9.5 8.5q-3 2 -1 9q1 3 3 6q2 2 9 6t12 8q7 7 14 3q6 -5 14.5 -12t16.5 -15q1 -1 2 -3q0 -4 -3 -7zM78 274q-8 -10 -24 -15
t-28 7q-3 3 -5.5 4.5t-9.5 8.5q-3 3 -1 10q1 3 3 5t9 6.5t12 7.5q7 7 14 4q6 -5 14.5 -12t16.5 -15q1 -1 2 -3q0 -5 -3 -8z" />
    <glyph glyph-name="ntilde" unicode="&#xf1;" horiz-adv-x="220" 
d="M36 82q25 32 50 59q21 23 44 46.5t41 35.5q15 -7 26 -14q9 -6 14 -14.5t0 -17.5q-8 -13 -24 -40.5t-29 -56.5q-2 -4 -6 -14q-8 -17 -12.5 -29t-2.5 -14q2 0 4 1q5 2 14.5 9t19 16.5t18.5 19.5t14 17q0 1 2 2q3 3 6 1q2 -1 4.5 -5.5t-7.5 -15.5q-17 -21 -33.5 -36.5
t-22.5 -20.5q-14 -10 -23 -11.5t-14 -0.5q-4 1 -10 3q-14 7 -15.5 23t3.5 35q4 20 14.5 48t30.5 65q-23 -25 -46 -54q-20 -25 -42 -56.5t-41 -64.5q-15 1 -26 7q-9 5 -14 17.5t2 35.5q9 29 26 59.5t28 58.5q1 4 4.5 12.5t6.5 17t4.5 14t0.5 4.5v1v1q0 2 3 2q2 1 4 0l4 -2
t3 -2t3 -2q12 -8 24 -22t5 -31q-1 -2 -3 -7t-13 -22q-12 -17 -23 -33.5t-16 -24.5zM123 308q11 -6 21.5 -14t20.5 -13q1 -2 11 -6.5t23.5 -7.5t29 -1.5t28.5 11.5q0 2 1 2t1 -1l-2 -4q0 -1 -0.5 -1.5t-0.5 -1.5q-5 -9 -11 -16q-5 -7 -13 -13t-18 -8q-11 -4 -22 -2
q-10 2 -22 8.5t-24 23.5q-8 8 -17 14q-8 5 -16.5 8t-16.5 -1q-14 -6 -17.5 -13.5t-3.5 -9.5q-2 -2 -3 -2h-1v-1q-3 0 -4 1l-2 2q-4 5 -2 11.5t7 11.5q5 6 13 12q11 9 21.5 11t18.5 0z" />
    <glyph glyph-name="ograve" unicode="&#xf2;" horiz-adv-x="196" 
d="M151 223q18 -1 23.5 -14t5.5 -27q0 -19 -4 -33t-9 -30q6 0 13 4t13.5 9t11.5 9t7 4t5 -3t3 -6q0 -6 -8 -13t-18.5 -13t-21 -10t-15.5 -4q-24 -42 -51.5 -70t-62.5 -28q-17 0 -28.5 6t-18.5 15.5t-9.5 21t-2.5 22.5q0 17 5.5 35.5t13.5 35.5t18 30.5t20 21.5
q16 12 28 12.5t20 1.5q25 23 62 23zM54 19q10 0 20 7t19.5 17.5t18.5 23.5t16 26q0 -2 -7 -2h-9q-20 0 -32.5 8.5t-14.5 31.5q-17 -22 -24.5 -42.5t-7.5 -37.5q0 -14 5 -23t16 -9zM128 111q6 0 9 1q11 25 15 42.5t4 24.5q0 13 -7 13q-5 0 -10.5 -6t-10.5 -15.5t-8.5 -21
t-3.5 -21.5q0 -17 12 -17zM214 266q10 -1 9 -6.5t-9 -12.5q-6 -4 -12 -7t-13.5 -4t-18 0t-26.5 5q-45 12 -66 38q-8 12 -10.5 22.5t-3.5 17.5v1v2q0 2 1 2l2 2h1v-1q0 -2 1 -2q11 -17 41.5 -28t78.5 -24z" />
    <glyph glyph-name="oacute" unicode="&#xf3;" horiz-adv-x="196" 
d="M151 223q18 -1 23.5 -14t5.5 -27q0 -19 -4 -33t-9 -30q6 0 13 4t13.5 9t11.5 9t7 4t5 -3t3 -6q0 -6 -8 -13t-18.5 -13t-21 -10t-15.5 -4q-24 -42 -51.5 -70t-62.5 -28q-17 0 -28.5 6t-18.5 15.5t-9.5 21t-2.5 22.5q0 17 5.5 35.5t13.5 35.5t18 30.5t20 21.5
q16 12 28 12.5t20 1.5q25 23 62 23zM54 19q10 0 20 7t19.5 17.5t18.5 23.5t16 26q0 -2 -7 -2h-9q-20 0 -32.5 8.5t-14.5 31.5q-17 -22 -24.5 -42.5t-7.5 -37.5q0 -14 5 -23t16 -9zM128 111q6 0 9 1q11 25 15 42.5t4 24.5q0 13 -7 13q-5 0 -10.5 -6t-10.5 -15.5t-8.5 -21
t-3.5 -21.5q0 -17 12 -17zM89 271q48 13 78.5 24t41.5 28v2q0 1 1 1h1l2 -2l1 -2v-2v-1q-1 -7 -3.5 -17.5t-10.5 -22.5q-21 -26 -66 -38q-16 -4 -26.5 -5t-18 0t-13.5 4t-12 7q-8 7 -9 12.5t9 6.5z" />
    <glyph glyph-name="ocircumflex" unicode="&#xf4;" horiz-adv-x="196" 
d="M151 223q18 -1 23.5 -14t5.5 -27q0 -19 -4 -33t-9 -30q6 0 13 4t13.5 9t11.5 9t7 4t5 -3t3 -6q0 -6 -8 -13t-18.5 -13t-21 -10t-15.5 -4q-24 -42 -51.5 -70t-62.5 -28q-17 0 -28.5 6t-18.5 15.5t-9.5 21t-2.5 22.5q0 17 5.5 35.5t13.5 35.5t18 30.5t20 21.5
q16 12 28 12.5t20 1.5q25 23 62 23zM54 19q10 0 20 7t19.5 17.5t18.5 23.5t16 26q0 -2 -7 -2h-9q-20 0 -32.5 8.5t-14.5 31.5q-17 -22 -24.5 -42.5t-7.5 -37.5q0 -14 5 -23t16 -9zM128 111q6 0 9 1q11 25 15 42.5t4 24.5q0 13 -7 13q-5 0 -10.5 -6t-10.5 -15.5t-8.5 -21
t-3.5 -21.5q0 -17 12 -17zM85 295q32 2 53.5 6.5t34.5 19.5l2 2v-1l1 1v-3q0 -20 14 -37t37 -39l12 -11q5 -3 3 -8t-9 -10q-10 -5 -18.5 -5.5t-24.5 13.5q-21 22 -24 51q-1 7 -1 14.5t2 12.5q-5 -12 -15 -22q-21 -20 -51 -24q-22 -1 -28 5t-11 16q-2 8 -0.5 14t7.5 4z" />
    <glyph glyph-name="otilde" unicode="&#xf5;" horiz-adv-x="196" 
d="M151 223q18 -1 23.5 -14t5.5 -27q0 -19 -4 -33t-9 -30q6 0 13 4t13.5 9t11.5 9t7 4t5 -3t3 -6q0 -6 -8 -13t-18.5 -13t-21 -10t-15.5 -4q-24 -42 -51.5 -70t-62.5 -28q-17 0 -28.5 6t-18.5 15.5t-9.5 21t-2.5 22.5q0 17 5.5 35.5t13.5 35.5t18 30.5t20 21.5
q16 12 28 12.5t20 1.5q25 23 62 23zM54 19q10 0 20 7t19.5 17.5t18.5 23.5t16 26q0 -2 -7 -2h-9q-20 0 -32.5 8.5t-14.5 31.5q-17 -22 -24.5 -42.5t-7.5 -37.5q0 -14 5 -23t16 -9zM128 111q6 0 9 1q11 25 15 42.5t4 24.5q0 13 -7 13q-5 0 -10.5 -6t-10.5 -15.5t-8.5 -21
t-3.5 -21.5q0 -17 12 -17zM123 308q11 -6 21.5 -14t20.5 -13q1 -2 11 -6.5t23.5 -7.5t29 -1.5t28.5 11.5q0 2 1 2t1 -1l-2 -4q0 -1 -0.5 -1.5t-0.5 -1.5q-5 -9 -11 -16q-5 -7 -13 -13t-18 -8q-11 -4 -22 -2q-10 2 -22 8.5t-24 23.5q-8 8 -17 14q-8 5 -16.5 8t-16.5 -1
q-14 -6 -17.5 -13.5t-3.5 -9.5q-2 -2 -3 -2h-1v-1q-3 0 -4 1l-2 2q-4 5 -2 11.5t7 11.5q5 6 13 12q11 9 21.5 11t18.5 0z" />
    <glyph glyph-name="odieresis" unicode="&#xf6;" horiz-adv-x="196" 
d="M151 223q18 -1 23.5 -14t5.5 -27q0 -19 -4 -33t-9 -30q6 0 13 4t13.5 9t11.5 9t7 4t5 -3t3 -6q0 -6 -8 -13t-18.5 -13t-21 -10t-15.5 -4q-24 -42 -51.5 -70t-62.5 -28q-17 0 -28.5 6t-18.5 15.5t-9.5 21t-2.5 22.5q0 17 5.5 35.5t13.5 35.5t18 30.5t20 21.5
q16 12 28 12.5t20 1.5q25 23 62 23zM54 19q10 0 20 7t19.5 17.5t18.5 23.5t16 26q0 -2 -7 -2h-9q-20 0 -32.5 8.5t-14.5 31.5q-17 -22 -24.5 -42.5t-7.5 -37.5q0 -14 5 -23t16 -9zM128 111q6 0 9 1q11 25 15 42.5t4 24.5q0 13 -7 13q-5 0 -10.5 -6t-10.5 -15.5t-8.5 -21
t-3.5 -21.5q0 -17 12 -17zM225 251q-8 -10 -24 -15t-28 6q-3 4 -5.5 5.5t-9.5 8.5q-3 2 -1 9q1 3 3 6q2 2 9 6t12 8q7 7 14 3q6 -5 14.5 -12t16.5 -15q1 -1 2 -3q0 -4 -3 -7zM135 274q-8 -10 -24 -15t-28 7q-3 3 -5.5 4.5t-9.5 8.5q-3 3 -1 10q1 3 3 5t9 6.5t12 7.5
q7 7 14 4q6 -5 14.5 -12t16.5 -15q1 -1 2 -3q0 -5 -3 -8z" />
    <glyph glyph-name="oslash" unicode="&#xf8;" horiz-adv-x="196" 
d="M200 257q5 -6 1 -13.5t-9 -15.5q-2 -3 -5.5 -8t-10.5 -16q2 -7 3 -14.5t1 -13.5q0 -8 -2 -15t-5.5 -21t-5.5 -21q8 0 18.5 7.5t16.5 14.5q3 3 5 4.5t7 -1.5q3 -3 5.5 -7.5t-6.5 -13.5q-12 -11 -30.5 -21.5t-29.5 -12.5q-20 -34 -40 -57t-46 -31q-5 -12 -7.5 -22t-1.5 -17
q-1 -5 2.5 -11t5.5 -11q2 -2 0 -4q0 -1 -1 -1t-1 -1q-1 0 -2 1l-4.5 1t-10 4.5t-10.5 10t-8 18.5q-4 14 -1 31q-20 4 -29.5 17t-12.5 29.5t-0.5 33t6.5 27.5t10 23t12.5 23t13.5 19.5t13 13.5q16 12 28 12.5t20 1.5q22 20 53 23l30 47q0 1 0.5 1t0.5 1v1q2 1 5 1
q1 -1 9.5 -6.5t12.5 -10.5zM46 56q4 8 10 20.5t14 26.5q-4 5 -7 15q-14 -17 -21 -41t-4 -41l4 10zM106 84q-8 -15 -15 -29t-12 -27q25 19 44 57q-5 -1 -9 -1h-8zM128 111q6 0 9 1q8 19 13 35t6 24q-4 -5 -7 -11t-7 -13q-5 -9 -10 -17.5t-10 -17.5q1 -1 6 -1z" />
    <glyph glyph-name="ugrave" unicode="&#xf9;" horiz-adv-x="223" 
d="M220 85q4 -2 4 -7t-7 -15q-21 -26 -36 -40t-25.5 -20.5t-17 -7.5t-10.5 -1q-17 0 -23.5 10.5t-6.5 23.5q0 19 8 41.5t16 39.5q-41 -47 -70 -78.5t-42 -31.5q-19 0 -26 10.5t-7 24.5q0 13 4 28t9.5 29t11 25.5t8.5 19.5q3 6 8.5 21l11 30t10 26.5l4.5 11.5q2 0 8.5 -4
t14 -10.5t13.5 -14.5t6 -17q0 -3 -5.5 -15t-14 -29t-18 -36.5t-16.5 -37.5q-3 -6 -3 -10q0 -5 4 -5t13.5 9t21.5 23t25 30t24 29t18 22t7 8q9 12 12.5 21.5t5 16t2 10.5t4.5 4q3 0 10 -4t13.5 -10.5t12 -15t5.5 -16.5q0 -1 -5 -10.5t-12 -25t-16 -33.5t-16 -34.5t-12 -30
t-5 -18.5q0 -3 2 -3q5 0 17 10.5t24 23t22.5 23t12.5 10.5h1v0zM222 266q10 -1 9 -6.5t-9 -12.5q-6 -4 -12 -7t-13.5 -4t-18 0t-26.5 5q-45 12 -66 38q-8 12 -10.5 22.5t-3.5 17.5v1v2q0 2 1 2l2 2h1v-1q0 -2 1 -2q11 -17 41.5 -28t78.5 -24z" />
    <glyph glyph-name="uacute" unicode="&#xfa;" horiz-adv-x="223" 
d="M220 85q4 -2 4 -7t-7 -15q-21 -26 -36 -40t-25.5 -20.5t-17 -7.5t-10.5 -1q-17 0 -23.5 10.5t-6.5 23.5q0 19 8 41.5t16 39.5q-41 -47 -70 -78.5t-42 -31.5q-19 0 -26 10.5t-7 24.5q0 13 4 28t9.5 29t11 25.5t8.5 19.5q3 6 8.5 21l11 30t10 26.5l4.5 11.5q2 0 8.5 -4
t14 -10.5t13.5 -14.5t6 -17q0 -3 -5.5 -15t-14 -29t-18 -36.5t-16.5 -37.5q-3 -6 -3 -10q0 -5 4 -5t13.5 9t21.5 23t25 30t24 29t18 22t7 8q9 12 12.5 21.5t5 16t2 10.5t4.5 4q3 0 10 -4t13.5 -10.5t12 -15t5.5 -16.5q0 -1 -5 -10.5t-12 -25t-16 -33.5t-16 -34.5t-12 -30
t-5 -18.5q0 -3 2 -3q5 0 17 10.5t24 23t22.5 23t12.5 10.5h1v0zM98 271q48 13 78.5 24t41.5 28v2q0 1 1 1h1l2 -2l1 -2v-2v-1q-1 -7 -3.5 -17.5t-10.5 -22.5q-21 -26 -66 -38q-16 -4 -26.5 -5t-18 0t-13.5 4t-12 7q-8 7 -9 12.5t9 6.5z" />
    <glyph glyph-name="ucircumflex" unicode="&#xfb;" horiz-adv-x="223" 
d="M220 85q4 -2 4 -7t-7 -15q-21 -26 -36 -40t-25.5 -20.5t-17 -7.5t-10.5 -1q-17 0 -23.5 10.5t-6.5 23.5q0 19 8 41.5t16 39.5q-41 -47 -70 -78.5t-42 -31.5q-19 0 -26 10.5t-7 24.5q0 13 4 28t9.5 29t11 25.5t8.5 19.5q3 6 8.5 21l11 30t10 26.5l4.5 11.5q2 0 8.5 -4
t14 -10.5t13.5 -14.5t6 -17q0 -3 -5.5 -15t-14 -29t-18 -36.5t-16.5 -37.5q-3 -6 -3 -10q0 -5 4 -5t13.5 9t21.5 23t25 30t24 29t18 22t7 8q9 12 12.5 21.5t5 16t2 10.5t4.5 4q3 0 10 -4t13.5 -10.5t12 -15t5.5 -16.5q0 -1 -5 -10.5t-12 -25t-16 -33.5t-16 -34.5t-12 -30
t-5 -18.5q0 -3 2 -3q5 0 17 10.5t24 23t22.5 23t12.5 10.5h1v0zM93 295q32 2 53.5 6.5t34.5 19.5l2 2v-1l1 1v-3q0 -20 14 -37t37 -39l12 -11q5 -3 3 -8t-9 -10q-10 -5 -18.5 -5.5t-24.5 13.5q-21 22 -24 51q-1 7 -1 14.5t2 12.5q-5 -12 -15 -22q-21 -20 -51 -24
q-22 -1 -28 5t-11 16q-2 8 -0.5 14t7.5 4z" />
    <glyph glyph-name="udieresis" unicode="&#xfc;" horiz-adv-x="223" 
d="M220 85q4 -2 4 -7t-7 -15q-21 -26 -36 -40t-25.5 -20.5t-17 -7.5t-10.5 -1q-17 0 -23.5 10.5t-6.5 23.5q0 19 8 41.5t16 39.5q-41 -47 -70 -78.5t-42 -31.5q-19 0 -26 10.5t-7 24.5q0 13 4 28t9.5 29t11 25.5t8.5 19.5q3 6 8.5 21l11 30t10 26.5l4.5 11.5q2 0 8.5 -4
t14 -10.5t13.5 -14.5t6 -17q0 -3 -5.5 -15t-14 -29t-18 -36.5t-16.5 -37.5q-3 -6 -3 -10q0 -5 4 -5t13.5 9t21.5 23t25 30t24 29t18 22t7 8q9 12 12.5 21.5t5 16t2 10.5t4.5 4q3 0 10 -4t13.5 -10.5t12 -15t5.5 -16.5q0 -1 -5 -10.5t-12 -25t-16 -33.5t-16 -34.5t-12 -30
t-5 -18.5q0 -3 2 -3q5 0 17 10.5t24 23t22.5 23t12.5 10.5h1v0zM237 251q-8 -10 -24 -15t-28 6q-3 4 -5.5 5.5t-9.5 8.5q-3 2 -1 9q1 3 3 6q2 2 9 6t12 8q7 7 14 3q6 -5 14.5 -12t16.5 -15q1 -1 2 -3q0 -4 -3 -7zM147 274q-8 -10 -24 -15t-28 7q-3 3 -5.5 4.5t-9.5 8.5
q-3 3 -1 10q1 3 3 5t9 6.5t12 7.5q7 7 14 4q6 -5 14.5 -12t16.5 -15q1 -1 2 -3q0 -5 -3 -8z" />
    <glyph glyph-name="yacute" unicode="&#xfd;" horiz-adv-x="224" 
d="M370 -17q0 -5 2.5 -11.5t2.5 -14.5q0 -6 -2 -15t-8.5 -19.5t-18.5 -20t-31 -15.5h-1q-13 -3 -27 -5.5t-31 -2.5q-34 0 -72 11.5t-98 35.5q-20 -20 -43 -33.5t-61 -13.5q-5 0 -14 1t-18 5t-16 11.5t-7 21.5t9 24t21.5 16t26.5 9t25 3t21 -1.5t18 -3.5q9 -3 16 -5
q10 15 19 37t16.5 44t13.5 41t10 28q-25 -26 -42.5 -46t-30.5 -34.5t-23 -22t-19 -7.5q-17 0 -24 10t-7 24q0 19 8.5 41.5t16.5 39.5h-1q19 45 29.5 77.5t15.5 32.5q4 0 10.5 -4.5t13 -11.5t11.5 -15t5 -15q0 -2 -5.5 -14t-13.5 -29t-17.5 -36.5t-17.5 -37.5h1q-3 -8 -3 -10
q0 -5 4 -5t13 9t21.5 22.5t25.5 29t24 29t18 22l7 8.5q9 12 12.5 21.5t5 16.5t2.5 10.5t5 3.5q3 0 9.5 -4t13 -10.5t12 -14.5t5.5 -16q0 2 -2 -3.5t-9 -22t-19.5 -46t-34.5 -75.5q-1 -2 -1 -5q0 -4 2 -4q4 0 15.5 10.5t23.5 23t22.5 23t13.5 10.5q2 0 4 -1.5t2 -5.5
q0 -5 -7 -15q-21 -26 -35.5 -39.5t-24.5 -20t-16.5 -7.5t-10.5 -1h-3q-8 -16 -15.5 -31.5t-10.5 -17.5q6 -2 18.5 -5.5t29 -7t34 -6t34.5 -2.5h10q4 0 24 2.5t43 9t43 18.5t25 31q0 2 2 2q1 0 2 -1q2 -2 3 -4zM50 -62q-12 5 -22.5 6.5t-19.5 1.5q-20 0 -30.5 -3t-15 -7.5
t-5.5 -9t-1 -7.5q0 -15 24 -15q14 0 33.5 7.5t36.5 26.5zM100 271q48 13 78.5 24t41.5 28v2q0 1 1 1h1l2 -2l1 -2v-2v-1q-1 -7 -3.5 -17.5t-10.5 -22.5q-21 -26 -66 -38q-16 -4 -26.5 -5t-18 0t-13.5 4t-12 7q-8 7 -9 12.5t9 6.5z" />
    <glyph glyph-name="ydieresis" unicode="&#xff;" horiz-adv-x="224" 
d="M370 -17q0 -5 2.5 -11.5t2.5 -14.5q0 -6 -2 -15t-8.5 -19.5t-18.5 -20t-31 -15.5h-1q-13 -3 -27 -5.5t-31 -2.5q-34 0 -72 11.5t-98 35.5q-20 -20 -43 -33.5t-61 -13.5q-5 0 -14 1t-18 5t-16 11.5t-7 21.5t9 24t21.5 16t26.5 9t25 3t21 -1.5t18 -3.5q9 -3 16 -5
q10 15 19 37t16.5 44t13.5 41t10 28q-25 -26 -42.5 -46t-30.5 -34.5t-23 -22t-19 -7.5q-17 0 -24 10t-7 24q0 19 8.5 41.5t16.5 39.5h-1q19 45 29.5 77.5t15.5 32.5q4 0 10.5 -4.5t13 -11.5t11.5 -15t5 -15q0 -2 -5.5 -14t-13.5 -29t-17.5 -36.5t-17.5 -37.5h1q-3 -8 -3 -10
q0 -5 4 -5t13 9t21.5 22.5t25.5 29t24 29t18 22l7 8.5q9 12 12.5 21.5t5 16.5t2.5 10.5t5 3.5q3 0 9.5 -4t13 -10.5t12 -14.5t5.5 -16q0 2 -2 -3.5t-9 -22t-19.5 -46t-34.5 -75.5q-1 -2 -1 -5q0 -4 2 -4q4 0 15.5 10.5t23.5 23t22.5 23t13.5 10.5q2 0 4 -1.5t2 -5.5
q0 -5 -7 -15q-21 -26 -35.5 -39.5t-24.5 -20t-16.5 -7.5t-10.5 -1h-3q-8 -16 -15.5 -31.5t-10.5 -17.5q6 -2 18.5 -5.5t29 -7t34 -6t34.5 -2.5h10q4 0 24 2.5t43 9t43 18.5t25 31q0 2 2 2q1 0 2 -1q2 -2 3 -4zM50 -62q-12 5 -22.5 6.5t-19.5 1.5q-20 0 -30.5 -3t-15 -7.5
t-5.5 -9t-1 -7.5q0 -15 24 -15q14 0 33.5 7.5t36.5 26.5zM239 251q-8 -10 -24 -15t-28 6q-3 4 -5.5 5.5t-9.5 8.5q-3 2 -1 9q1 3 3 6q2 2 9 6t12 8q7 7 14 3q6 -5 14.5 -12t16.5 -15q1 -1 2 -3q0 -4 -3 -7zM149 274q-8 -10 -24 -15t-28 7q-3 3 -5.5 4.5t-9.5 8.5q-3 3 -1 10
q1 3 3 5t9 6.5t12 7.5q7 7 14 4q6 -5 14.5 -12t16.5 -15q1 -1 2 -3q0 -5 -3 -8z" />
    <glyph glyph-name="divide" unicode="&#xf7;" horiz-adv-x="270" 
d="M172 235q11 -5 17.5 -19t-4.5 -29q-3 -4 -4.5 -7t-7.5 -11q-3 -4 -9 -4q-3 0 -6 2q-2 2 -7 7.5t-9 9.5q-8 5 -5 13q5 7 11 17t13 20q1 1 3 2q3 1 8 -1zM137 101q11 -5 17.5 -19t-4.5 -29q-2 -4 -4 -7t-8 -11q-3 -4 -9 -4q-3 0 -6 2q-2 2 -7 7.5t-9 9.5q-8 6 -5 13
q5 7 11 17t13 20q1 1 3 2q3 1 8 -1zM24 139q1 4 11 6.5t25 4t34 2.5t39 1q46 1 104 0q5 0 8 -0.5t4 -6.5q0 -10 -10.5 -21.5t-27.5 -11.5h-15.5h-35.5t-45 0.5t-44.5 1.5t-35 3t-15.5 5q-2 3 0.5 8.5t3.5 7.5z" />
    <glyph glyph-name="A" unicode="A" 
d="M107 3q-40 -2 -64.5 16t-33 45t-1.5 58t30 55q10 14 28 25q15 10 39 18.5t59 11.5q3 0 7 -1q7 -2 11 -8l25 -38q2 -2 0 -5q-1 -2 -5 -2t-8 1t-8.5 1.5t-10.5 0.5q-13 0 -31 -3t-38 -14t-33.5 -25t-18.5 -30q-3 -13 -3.5 -25.5t3.5 -23t13.5 -17t26.5 -6.5q20 0 49 12
t59 32q35 23 75 61t79 82q-17 0 -34.5 -4t-34.5 -10q-11 -5 -16 -11.5t-6.5 -13t-0.5 -13t2 -9.5v-3q0 -1 -1 -1q-2 -2 -8 -2h-5q-16 2 -22.5 9t-8.5 15q-2 10 1 22q5 19 22 29t35.5 14.5t34 5t18.5 0.5h11h37q29 33 55 65t45.5 56.5t31.5 40l12 15.5q4 4 7 2l4.5 -3t9.5 -7
t11 -7.5t9 -6.5q9 -9 5 -20t-12 -23q-3 -5 -19.5 -35t-38.5 -75q32 5 53 18.5t29 44.5q0 1 1 2q2 2 4 -2q1 -2 3.5 -16.5t-4.5 -31t-28 -29.5t-66 -12h-4l-18 -39q-38 -85 -57.5 -143.5t-14.5 -87.5q0 -4 1 -6q59 27 117 30.5t106 -3.5q55 -8 107 -26q4 -2 11 -4
q5 -2 14 -4.5t21 -5.5q28 -8 63.5 -11.5t69.5 2t62 20t40 42.5q2 2 3 2q2 1 3 -2.5t3 -6.5q8 -19 2.5 -37t-17.5 -34q-24 -24 -58.5 -30.5t-72 -2t-74.5 16.5t-67 25q-59 27 -114.5 29.5t-99 -5t-70.5 -18.5t-30 -12t-8 1q-2 0 -8.5 2t-14.5 7t-17 14t-15 25q-7 20 -4.5 54
t14.5 72q8 26 24.5 62.5t33.5 73.5h-1q-6 -1 -12 -1h-12q-19 -23 -40 -47t-42 -46.5t-41.5 -42.5t-38.5 -35q-14 -12 -31 -21.5t-34.5 -16.5t-34 -11t-29.5 -4zM459 299q-9 -10 -19.5 -22.5t-21.5 -26.5h16q7 14 13.5 26t11.5 23z" />
    </font>
</defs>
</svg>
